#TITLE:Standby for Action;
#SUBTITLE:;
#ARTIST:3R2;
#TITLETRANSLIT:;
#SUBTITLETRANSLIT:;
#ARTISTTRANSLIT:;
#GENRE:;
#CREDIT:;
#BANNER:3R2 - Standby for Action BN.png;
#BACKGROUND:3R2 - Standby for Action BG.png;
#LYRICSPATH:;
#CDTITLE:cdtitle_ukiarrow.png;
#MUSIC:Standby for Action.mp3;
#OFFSET:0.420000;
#SAMPLESTART:90.040054;
#SAMPLELENGTH:12.000000;
#SELECTABLE:YES;
#BPMS:0.000000=128.000000
;
#STOPS:
;
#BGCHANGES:193.000=3R2 - Standby for Action BG.png=1.000=0=0=1=StretchNormalRed====,
193.500=3R2 - Standby for Action BG.png=1.000=0=0=1=====,
194.000=3R2 - Standby for Action BG.png=1.000=0=0=1=StretchNormalRed====,
194.500=3R2 - Standby for Action BG.png=1.000=0=0=1=====,
195.000=3R2 - Standby for Action BG.png=1.000=0=0=1=StretchNormalRed====,
195.500=3R2 - Standby for Action BG.png=1.000=0=0=1=====,
196.000=3R2 - Standby for Action BG.png=1.000=0=0=1=StretchNormalRed====,
197.000=3R2 - Standby for Action BG.png=1.000=0=0=1=====,
228.000=3R2 - Standby for Action BG.png=1.000=0=0=1=StretchNormalRed====,
228.500=3R2 - Standby for Action BG.png=1.000=0=0=1=StretchNormalBlue====,
229.000=3R2 - Standby for Action BG.png=1.000=0=0=1=====,
99999=-nosongbg-=1.000=0=0=0 // don't automatically add -songbackground-
;
#KEYSOUNDS:;
#ATTACKS:;

//---------------dance-single - ----------------
#NOTES:
     dance-single:
     :
     Hard:
     14:
     0.623127,0.664899,0.478650,0.362847,0.470930,565.000000,503.000000,62.000000,47.000000,0.000000,0.000000,0.623127,0.664899,0.478650,0.362847,0.470930,565.000000,503.000000,62.000000,47.000000,0.000000,0.000000:
0000
0000
0000
0000
,
0000
2000
3000
0000
,
0000
0002
0003
0000
,
0100
0010
0001
0000
2000
0000
0000
0000
3000
0000
0000
0000
0000
0000
0000
0000
,
0000
0000
2000
0000
3000
0000
0000
0100
,
0010
0001
0100
0000
0002
0000
0000
0000
1003
0000
0000
0000
2000
0000
0000
0000
,
3100
0200
0310
0020
,
0031
1000
0100
0000
2000
0000
0000
0000
3010
0000
0000
0000
0020
0000
0000
0000
,
0130
0001
0020
0000
0130
0000
1000
0000
,
0001
0100
0010
0010
1010
0000
0010
1000
,
1010
0000
0100
0100
0101
0000
0001
0100
,
0010
0100
0001
0000
1000
0000
1000
0000
1100
0000
0000
0000
0010
0000
0001
0000
,
0011
0000
0001
0100
0110
0000
0010
1000
,
0001
1000
0010
0000
0100
0000
0001
0000
1001
0000
0000
0000
1000
0000
0100
0000
,
1100
0000
0010
0100
0110
0000
0010
0001
,
0010
0100
1000
0000
0001
0000
0100
0000
0101
0000
0000
0000
0010
0000
1000
0000
,
1010
0000
0000
0000
0001
1000
0000
1000
0100
0000
0010
0000
0100
1000
0001
0000
,
0100
0010
0000
0010
0100
0000
0001
0000
0101
0000
0000
0000
0010
0000
1000
0000
,
0001
0010
0100
0000
1000
0000
0100
0000
1100
0000
0000
0000
0010
0000
0001
0000
,
1000
0010
0100
0000
0001
0000
1000
0000
1010
0000
0000
0000
0010
0000
0100
0000
,
0001
1000
0100
0000
0010
0000
0100
0000
1100
0000
0000
0000
1000
0001
0010
0000
,
0100
1000
0010
0000
0200
0000
0000
0300
0101
0000
0010
1000
0000
1000
0000
1000
,
0010
0000
0100
0001
0100
0000
0010
0000
1000
0000
0001
0010
0000
0010
0000
0010
,
0001
0000
1000
0100
0010
0000
0100
0000
1000
0000
0001
0100
0000
0100
0000
0100
,
0001
0000
0010
0100
0001
0000
0000
0001
0100
0000
0010
0000
0000
0010
0100
0000
,
1000
0001
1000
0010
0100
0000
0001
0000
2020
0000
3030
0000
0000
0000
1000
0000
,
0011
0000
1100
0000
0001
0000
1000
0100
1000
0001
1000
0010
1000
0001
1000
0000
,
0220
0330
1001
0010
2200
3300
0000
0100
,
1010
0000
0101
0000
1000
0000
0010
0100
0001
0010
1000
0010
0100
0010
0001
0100
,
2000
0000
3100
0001
2020
0000
3030
0001
,
1100
0000
0011
0000
1000
0000
0020
0000
1030
0100
0010
0001
1000
0000
0001
0100
,
0020
0000
1030
0101
2020
0000
3030
0001
,
0110
1001
2200
0300
3020
0200
0030
0001
,
2000
0000
3300
0000
0101
0000
0010
0000
1100
0000
0100
0001
0010
0000
0100
0000
,
1100
0000
1001
0000
0100
0000
0001
0010
0100
0000
1000
0010
0000
0100
1000
0100
,
0002
0000
1003
0110
2002
0000
3003
0110
,
1001
0000
0110
0000
0200
0000
0010
0000
0010
0000
0310
1000
0010
0001
0010
0100
,
0020
0000
0130
0100
2002
0000
3003
0010
,
0110
0000
1001
0000
0001
0000
1000
0100
0001
0000
1000
0010
0000
1000
0010
0000
,
0002
0000
0103
1010
0102
0000
0103
1010
,
0101
0000
1002
0000
0013
0000
0100
0000
1000
0000
0010
0100
0000
0010
0100
0001
,
1000
0000
2200
0300
0001
0000
0001
0000
,
0010
3002
0100
0100
,
1000
2003
0010
0001
,
0100
3002
0010
1000
,
0103
0001
0100
0000
0010
0000
0010
0000
1010
0000
0000
0000
0100
0000
0001
0000
,
0101
0000
0010
0001
0011
0000
0100
1000
,
1100
0000
0001
1000
1001
0000
0010
0100
,
0110
0000
0100
0100
0100
0100
0100
0100
,
1001
0000
0000
0000
0110
0000
1000
0000
0100
0000
0010
0001
0000
0100
0001
0000
,
1000
0100
0001
0000
0100
0000
0100
0000
1000
0000
0001
0100
0000
0001
0100
0000
,
0001
0100
1000
0000
0100
0000
0100
0000
0010
0000
1000
0100
0000
1000
0100
0000
,
1000
0100
0001
0000
0100
0000
0100
0000
0010
0000
0001
0010
0000
0001
0010
0000
,
0001
0010
1000
0010
0002
0000
0000
0000
1003
0000
0010
0100
0000
0010
0100
0000
,
0001
0010
1000
0000
0010
0000
0010
0000
0100
0000
0100
0010
0000
0100
0010
0000
,
0001
0100
1000
0000
0100
0000
0100
0000
0010
0000
0010
0100
0000
0010
0100
0000
,
1000
0100
0001
0000
1000
0100
0010
0000
0001
1000
0100
0010
0000
0001
0010
0000
,
0100
0000
0100
0000
1001
0000
1000
0000
0010
0100
0001
1000
0000
0010
0100
0000
,
0001
1000
0000
0000
0100
0000
0100
0000
0010
0001
1000
0100
0000
0010
0001
0000
,
1000
0100
0000
0100
0010
0000
0010
0000
0001
1000
0010
0100
0000
0001
1000
0000
,
0010
0100
0000
0001
1000
0000
1000
0000
0001
0010
0100
1000
0000
0001
0010
0000
,
0100
1000
0001
0010
0100
0000
0100
0000
0110
0000
0001
1000
0000
0010
0100
0000
,
1000
0001
0000
0100
0010
0000
0110
0000
1001
0000
0001
1000
0000
1000
0001
0000
,
1000
0001
0100
0010
0100
0000
0100
0000
0010
1000
0100
0010
0000
0100
1000
0000
,
0010
0100
0000
0010
0100
0000
0100
0001
0100
0001
0010
1000
0000
0010
1000
0000
,
0010
0000
0001
0100
2000
0000
0000
0000
0000
0000
0000
0000
0000
0000
0000
0000
,
0000
3000
0000
0000
;

//---------------dance-single - ----------------
#NOTES:
     dance-single:
     :
     Medium:
     11:
     0.468724,0.485888,0.216164,0.247045,0.030881,425.000000,397.000000,28.000000,32.000000,0.000000,0.000000,0.468724,0.485888,0.216164,0.247045,0.030881,425.000000,397.000000,28.000000,32.000000,0.000000,0.000000:
0000
0000
0000
0000
,
0000
2000
3000
0000
,
0000
0002
0003
0000
,
0100
0010
0100
0000
2000
0000
0000
0000
3000
0000
0000
0000
0000
0000
0000
0000
,
0000
0000
0002
0000
0003
0000
0000
0100
,
0010
0100
0010
0000
2000
0000
0000
0000
3010
0000
0000
0000
0020
0000
0000
0000
,
0031
0002
0103
0200
,
1300
0001
1000
0000
0002
0000
0000
0000
0013
0000
0000
0000
2000
0000
0000
0000
,
3010
0000
0002
0000
0103
0000
1000
0100
,
0001
0000
1000
0010
0100
0000
0000
0001
,
0011
0000
0001
0010
0100
0000
0000
1000
,
1010
0000
1000
0100
0010
0000
0000
0001
,
0101
0000
0001
0100
0010
0000
0000
1000
,
2100
0000
3002
0100
0103
0000
0000
0010
,
0110
0000
1000
0100
0001
0000
0000
0100
,
0110
0000
0001
0010
0100
0000
0000
0001
,
0101
0000
1000
0010
0100
1000
0010
0100
,
0002
0000
0203
0000
0310
1000
0001
0010
,
0100
1000
0001
0100
0010
1000
0001
0010
,
0100
0010
0001
1000
0100
1000
0001
0100
,
0010
0100
0001
0010
0100
1000
0001
0100
,
0010
1000
0002
0000
1003
0100
0001
0100
,
1000
0010
0100
0010
1000
0100
0010
0001
,
1000
0010
0200
0000
1300
0100
0010
1000
,
0001
0000
0010
0000
0100
0000
0000
1000
0000
0000
0001
0000
0000
0100
0000
0000
,
0020
0000
0030
1000
1001
0000
0000
1000
,
0001
1001
1000
0100
0001
0100
0010
0100
,
2000
0000
0000
3000
0001
0000
1000
0000
1001
0000
0000
0000
0000
0000
1000
0000
,
0001
1001
1000
0010
0001
0010
1000
0100
,
0002
0000
1003
0010
0110
0000
0000
0010
,
0100
0110
0000
0100
0010
0100
0001
0100
,
2000
0000
3010
0100
0101
0000
0000
0100
,
0001
0101
0020
0000
1000
2030
0000
0001
,
0002
3003
1001
0100
1001
0000
0000
0010
,
1001
1001
1000
0100
0001
1000
0010
0001
,
0200
0000
0310
0100
1001
0000
0000
0100
,
0110
1001
0000
0001
0100
1000
0100
0001
,
0020
0000
0130
0100
1001
0000
0000
0010
,
1001
0010
0000
0100
0001
0010
0100
1000
,
0020
0000
0130
0001
1010
0000
1010
0100
,
0001
0000
0101
0010
1000
0001
0010
0001
,
2000
3100
0100
0100
,
0100
0010
0010
0010
,
0010
0001
0001
0001
,
0001
1000
1000
1000
,
1000
0000
1000
0100
0001
0000
0100
1000
,
0010
0000
0001
0010
0100
0000
0001
0100
,
1000
0000
0001
0010
0100
0000
0001
0010
,
0100
0000
1000
0010
0001
0100
0001
0010
,
1000
0000
0201
0000
0310
1000
0001
0010
,
1000
0010
0001
0001
1000
0010
0001
0010
,
1000
0001
1000
0100
0001
0100
1000
0001
,
0100
1000
0100
0100
0001
1000
0100
0001
,
0100
1000
0002
0000
1003
0010
0100
0001
,
1000
0100
1000
0010
0100
0001
1000
0100
,
0010
0001
1000
0100
1000
0001
0010
0100
,
1000
0100
0001
0001
0100
1000
0001
0100
,
2000
0000
3001
0010
0100
1000
0100
0001
,
0100
0010
0100
0001
0010
0100
1000
0100
,
0010
0100
1000
0010
0100
0001
1000
0100
,
0010
0001
1000
0100
0010
0001
1000
0100
,
0010
0001
1000
0100
0001
0100
1000
0010
,
0001
0010
1000
0001
0100
1000
0001
0010
,
1000
0100
0001
1000
0010
0001
0010
1000
,
0001
0000
0100
0000
1000
0000
0010
0000
0100
0000
0001
0100
0000
0001
0100
0000
,
0010
0000
0100
0010
0200
0000
0000
0000
0000
0000
0000
0000
0000
0000
0000
0000
,
0000
0300
0000
0000
;

//---------------dance-single - ----------------
#NOTES:
     dance-single:
     :
     Easy:
     7:
     0.354024,0.383595,0.023160,0.146683,0.000000,321.000000,318.000000,3.000000,19.000000,0.000000,0.000000,0.354024,0.383595,0.023160,0.146683,0.000000,321.000000,318.000000,3.000000,19.000000,0.000000,0.000000:
0000
0000
0000
0000
,
0000
1000
0000
0000
,
0000
0001
0000
0000
,
0100
0100
0100
0000
0000
0000
0000
0000
,
0000
0100
0000
0000
,
0001
0001
1000
0000
0010
0000
1000
0000
,
0010
0100
0001
0100
,
0001
0001
1000
0000
0100
0000
1000
0000
,
0100
0010
0001
0010
,
0001
0000
1000
1000
1000
0000
0000
0010
,
0010
0000
0100
0100
0100
0000
0000
0001
,
0001
0000
0010
0010
0010
0000
0000
0100
,
0100
0000
1000
1000
1000
0000
0000
0000
,
1001
0000
2000
0000
3001
0000
0000
0100
,
0100
0000
0010
0010
0010
0000
0000
0100
,
0100
0000
1000
1000
1000
0000
0000
0100
,
0100
0000
0001
0001
0001
0000
0010
0100
,
0010
0000
0100
0100
0100
0000
1000
0000
,
0010
0000
0100
0100
0100
0000
0001
0000
,
0010
0000
0001
0001
0001
0000
1000
0000
,
0010
0000
1000
1000
1000
0000
0001
0000
,
0010
0000
0010
0010
0010
0000
0100
0000
,
1000
0000
0010
0010
0010
0000
0100
0000
,
0001
0000
0001
0001
1000
0000
0010
0000
,
0100
0000
0000
0000
0002
0000
0000
0003
0000
0000
0020
0000
0000
0030
0000
0000
,
0100
0000
1000
1000
0001
0000
0000
0001
,
0100
0000
0000
0001
0100
0000
0100
0001
,
0200
0000
0300
0010
1000
0000
0000
0010
,
1000
0010
0000
0100
0100
0100
0001
1000
,
0002
0000
0003
0100
0010
0000
0000
0100
,
0010
0100
0000
0001
1000
0010
0100
0010
,
0200
0000
0300
0001
1000
0000
0000
0100
,
0010
0100
2000
0000
0000
0010
0000
0000
,
0002
0000
3003
0100
0010
0000
0000
1000
,
0001
1000
0000
1000
0100
1000
0001
1000
,
2000
0000
3000
0100
1000
0000
0000
0001
,
0010
0001
0000
0010
0010
0100
1000
0001
,
2000
0000
3000
0010
0010
0000
0000
0100
,
0001
1000
0000
0100
0100
1000
0001
1000
,
0020
0000
0030
0100
0100
0000
1001
0000
,
0100
0000
1001
0000
0010
0010
0010
0010
,
0020
0130
0100
0001
,
0001
1000
1000
0010
,
0010
1000
0100
0010
,
0001
1000
0100
0020
,
0030
0000
0001
0001
0100
0000
0010
0000
,
0100
0000
0001
0001
0010
0000
0100
0000
,
0010
0000
0001
0001
1000
0000
0001
0000
,
0100
0000
0010
0010
0010
0010
0010
0010
,
0010
0000
0200
0000
0301
0000
0001
0001
,
1000
0000
0100
0100
0010
0000
0100
0100
,
1000
0000
1000
1000
0001
0000
1000
1000
,
0010
0000
0010
0010
0100
0000
0001
0100
,
0200
0000
0310
1000
1000
0000
0001
0001
,
0010
0000
0100
0100
1000
0000
0010
0100
,
0100
0000
0002
0000
0103
0000
0010
1000
,
1000
0000
0001
0001
0100
0000
0001
0100
,
0001
0001
1000
0000
0100
0000
0010
0010
,
0001
0000
1000
0100
0100
0000
1000
1000
,
0010
0000
0200
0000
0301
0000
1000
1000
,
0100
0000
0010
0010
0100
0000
1000
0001
,
2000
0000
3010
0100
0100
0000
0001
0100
,
0001
0000
0010
0001
0010
0000
0100
0010
,
0100
0000
1000
0100
1000
0000
0001
1000
,
0001
0000
0100
0100
0010
0010
1000
0100
,
1000
0100
0020
0000
0000
0000
0000
0000
,
0000
0030
0000
0000
;

//---------------dance-single - ----------------
#NOTES:
     dance-single:
     :
     Challenge:
     16:
     0.752164,0.741618,0.594452,0.386008,0.856938,682.000000,605.000000,77.000000,50.000000,0.000000,2.000000,0.752164,0.741618,0.594452,0.386008,0.856938,682.000000,605.000000,77.000000,50.000000,0.000000,2.000000:
0000
0000
0000
0000
,
0000
0200
0300
0000
,
0000
0200
0300
0000
,
0100
0010
2000
3000
0200
0000
0000
0000
0300
0000
0000
0000
0000
0000
0000
0000
,
0000
0000
0000
0000
0200
0000
0000
0000
0300
0000
0000
0000
0000
0000
0100
0010
,
1000
0001
0100
0000
0200
0000
0000
0000
0301
0000
0000
0000
0200
0000
0000
0000
,
1300
0200
0310
0200
,
0301
1000
0100
0000
0200
0000
0000
0000
0301
0000
0000
0000
0200
0000
0010
0000
,
0310
0000
0100
0000
0200
0000
0010
0000
0310
0000
0100
0000
0100
1000
0000
1000
,
0000
1000
0100
0010
0100
0010
0100
0000
1001
0000
0000
1000
0100
0010
0100
0000
,
1001
0000
0000
0000
0100
1000
0001
0000
0101
0000
0000
0100
0001
0100
0000
0001
,
0010
0100
1000
0000
0100
1000
0100
0000
1100
0000
0000
0010
0001
0000
0001
0010
,
0100
1000
0100
0000
1000
0100
0000
0010
0100
1000
0001
0000
0010
0100
0000
1000
,
0010
0100
0010
0000
0100
0001
0100
0000
1001
0000
0000
0001
1000
0100
0010
0000
,
0110
0000
0000
0000
0010
0001
0010
0100
1000
0100
0010
0000
0100
1000
0000
0001
,
0010
0100
1000
0000
0001
0100
0010
0000
0101
0000
0000
0100
0010
1000
0010
0000
,
1010
0000
1000
0000
0001
1000
0000
1000
0100
0010
0100
1000
0010
1000
0001
0000
,
0100
0001
0000
0001
2000
0000
0000
3000
0101
0000
0010
1000
0000
0001
0000
0010
,
0001
0010
0100
1000
0100
0000
0100
0000
1100
0000
0010
0001
0000
0010
0000
0001
,
1000
0010
0100
0001
1000
0000
1000
0000
1010
0000
0010
0100
0000
0001
0000
1000
,
0100
0010
1000
0010
0100
0000
0100
0000
1100
0000
1000
0001
0000
0010
0000
0100
,
1000
0010
0100
0001
0200
0000
0000
0300
0101
0000
0010
1000
0000
0010
0000
0100
,
0001
0100
0010
1000
0001
0000
0010
0000
0100
0000
0010
0100
0000
1000
0000
0001
,
1000
0010
1000
0100
0010
0000
0100
0000
1000
0000
0001
0100
0000
0010
0000
0100
,
0001
0010
0100
1000
0001
0100
0000
0001
0100
0000
0010
1000
0000
0010
0100
0000
,
0010
0100
0001
1000
0100
0000
0110
0000
2020
0000
3030
0000
0000
0000
1010
0000
,
0011
0000
1100
0000
0001
0000
1000
0100
1000
0001
1000
0010
1000
0001
1000
0000
,
0220
0330
1001
0011
2200
3300
0000
1100
,
1010
0000
0201
0000
1300
0000
0010
0100
0001
0010
1000
0010
0100
0010
0001
0100
,
2000
0000
3100
0101
2020
0000
3030
1010
,
1100
0000
0011
0000
0001
0000
0020
0000
0031
0100
0010
1000
0001
0000
0001
0100
,
1020
0000
0130
0101
2020
0000
3030
1010
,
0110
1001
2200
0300
3020
0200
0030
0001
,
2000
0000
3300
0000
0101
0000
0010
0000
1100
0000
0100
0001
0010
0000
0100
0000
,
1100
0000
1001
0000
0100
0000
0001
0010
0100
0000
1000
0010
0000
0100
1000
0100
,
1002
0000
0000
0003
1001
0000
0110
0000
2002
0000
0000
0000
3003
0000
0110
0000
,
1001
0000
0110
0000
0200
0000
0010
0000
0010
0000
0310
1000
0010
0001
0010
0100
,
0020
0000
0000
1030
0100
0000
0110
0000
2002
0000
0000
0000
3003
0000
1001
0000
,
0110
0000
1001
0000
0001
0000
1000
0100
0001
0000
1000
0010
0000
0001
0100
0000
,
0020
0000
0131
1010
0102
0000
1013
0101
,
1010
0000
0000
0000
1001
0000
0000
0000
1010
0000
0000
0000
0100
0000
0000
0000
0001
0000
1000
0000
0010
0000
0100
0000
0000
0000
0010
0000
0100
0000
0001
1000
,
0001
0000
0000
0000
2000
0000
0000
0010
0000
0000
0010
0010
0000
0001
0000
0001
,
0001
0000
0001
0000
3002
0000
0000
0100
0000
0000
1000
1000
0000
1000
0000
0010
,
0010
0000
1000
0000
2003
0000
0000
0010
0000
0000
3001
2000
0000
3001
2000
0001
,
0000
0100
3100
1000
0002
0000
0010
0000
1000
1000
0000
1000
0003
0100
0001
0100
,
0010
1000
0100
0000
0010
0000
0010
0000
1010
0000
0000
0000
0100
0000
1000
0000
,
0101
0000
0100
0010
0011
0000
0010
0001
,
1100
0000
0000
0000
0001
1000
0000
0001
1000
0001
0000
1000
0100
0010
0000
0100
,
0010
0000
0100
0000
1000
0000
0001
0000
0100
0010
0000
0000
0100
0010
0000
0000
0100
0010
0000
0000
0100
0010
0000
0000
0100
0010
0000
0000
0100
0010
0000
0000
,
1000
0001
0000
0000
0000
0000
0000
0000
0110
0000
0000
0000
1000
0000
0000
0000
0100
0000
0000
0000
0010
0000
0001
0000
0000
0000
0100
0000
0001
0000
0000
0000
,
1000
0100
0001
0000
0100
0000
0100
0000
1000
0000
0001
0100
0000
0001
0100
0000
,
0001
0100
1000
0100
0010
0000
0100
0000
0010
0000
1000
0100
0000
1000
0100
0000
,
1000
0100
0001
0000
0100
0000
0100
0000
0010
0000
0001
0010
0000
0001
0010
0100
,
1000
0010
0100
0001
2000
0000
0000
0000
3001
0000
0010
0100
0000
0010
0100
0000
,
1000
0010
1000
0000
0010
0100
0010
0000
0100
0000
0100
0010
0000
0100
0010
0100
,
0001
0010
0100
0010
0100
0000
0100
0000
0010
0000
0010
0100
0000
0010
0100
0000
,
1000
0100
0001
0000
0100
1000
0010
0100
0010
1000
0100
0010
0000
0001
0010
0000
,
1100
0000
1001
0000
0001
1000
0010
0000
0010
0100
0001
1000
0000
0010
0100
0000
,
0001
1000
0100
0000
0110
0000
0011
0000
0010
0001
1000
0100
0000
0010
0001
1000
,
0100
0010
0001
0010
0001
0000
0011
0000
0001
1000
0010
0100
0000
0001
1000
0000
,
0010
0100
0001
0000
1010
0000
1001
0000
0001
0010
0100
1000
0000
0001
0010
0100
,
1000
0001
0100
0001
0010
0000
1100
0000
1000
0001
1000
0010
0000
0010
0100
0000
,
0001
0100
0010
0000
1010
0000
0110
0000
1000
0001
1000
0100
0000
1000
0001
0000
,
1000
0001
0100
0010
0100
0000
0101
0000
0010
1000
0100
0010
0000
0100
1000
0000
,
0010
0100
0010
0000
0100
0001
0010
0100
0010
0001
0100
0010
0000
1000
0100
0000
,
0010
0001
1000
0100
2000
0000
0000
0000
0000
0000
0000
0000
0000
0000
0000
0000
,
0000
3000
0000
0000
;

//---------------dance-single - KB----------------
#NOTES:
     dance-single:
     :
     Edit:
     20:
     1.126040,1.074067,1.513151,0.594452,1.281546,1021.000000,799.000000,196.000000,77.000000,0.000000,60.000000,1.126040,1.074067,1.513151,0.594452,1.281546,1021.000000,799.000000,196.000000,77.000000,0.000000,60.000000:
// measure 0
0000
0000
0000
0000
,  // measure 1
0000
0000
0000
0000
0210
0000
1001
0000
0300
0001
0100
0010
0000
0100
0000
0010
,  // measure 2
1000
0100
0010
0001
0200
0010
0000
1000
0300
0001
0100
0010
0000
1000
0001
1000
,  // measure 3
0100
0010
0002
0003
0201
0000
0010
0000
0310
0100
0001
0010
0000
0100
0000
0010
,  // measure 4
2000
3010
0001
1000
0200
1000
0000
1000
0300
0010
0100
0010
0000
1000
0100
0010
,  // measure 5
0001
0000
0010
0000
0100
0000
1000
0000
0000
0001
0000
0000
0200
0000
0000
0000
0000
0000
0001
0000
0000
0000
0000
0000
0301
0000
0000
1000
0000
0000
0001
0000
0000
0200
0000
0000
0000
0000
0000
0010
0000
0000
0000
0000
0000
1000
0000
0000
,  // measure 6
1300
0100
0001
0001
0200
0010
0000
0010
0300
1000
0010
1000
0000
0200
0000
1000
,  // measure 7
1300
0100
0010
0000
0200
0000
1000
0000
0310
0001
0100
0010
0000
0200
0000
0010
,  // measure 8
1300
0001
1000
0100
0020
0100
0000
0001
0000
0130
0100
1000
0100
1000
0000
0001
,  // measure 9
0000
1000
0100
0010
1001
0010
0100
0000
1001
0000
0010
1000
0100
0010
1100
0000
,  // measure 10
1001
0000
0010
0010
0101
1000
0011
0100
0101
0000
0010
0100
0001
0100
1010
0001
,  // measure 11
1010
0100
1000
0000
0101
1000
0100
0000
1100
0000
0100
0010
0001
1000
0101
0010
,  // measure 12
0101
1000
0100
0010
1001
0100
1001
0100
0110
0000
0001
0010
0010
1100
0001
0010
,  // measure 13
1010
0100
0020
0000
0130
0001
0100
0000
0101
0000
0010
0001
1000
0100
0110
0000
,  // measure 14
1010
1000
0100
0010
1001
0010
0201
0300
1001
0100
0010
0100
1000
0001
0010
1000
,  // measure 15
0001
0100
2000
0000
3011
0100
0010
0000
0101
0000
0001
0100
0010
1000
0011
0000
,  // measure 16
1010
0001
1000
0001
1100
0010
1000
1000
0101
0010
0100
1000
0010
1000
0001
0000
,  // measure 17
0101
0100
0000
0001
2010
0000
0000
3000
0101
0000
0010
1000
0001
0010
0001
0100
,  // measure 18
0001
0010
0100
1000
1100
0000
1100
0000
1101
0000
0010
0001
0010
0100
1000
0001
,  // measure 19
1000
0010
0100
0001
1010
0000
1001
0000
1010
0000
0010
0100
0001
1000
0100
0010
,  // measure 20
1000
0010
0100
0001
0101
0000
0110
0000
1100
0000
1000
0001
0010
0010
0100
1000
,  // measure 21
0010
0010
0100
0001
1201
0000
1010
0300
0101
0000
0010
1000
0001
0010
0001
0100
,  // measure 22
0001
0100
0010
1000
0101
0000
0110
0000
1001
0000
0010
0100
1000
0001
0100
0001
,  // measure 23
1000
0010
1000
0100
1011
0000
0101
0000
1010
0000
0001
0100
0010
0100
0001
0010
,  // measure 24
0100
1000
0001
0100
0011
0100
0100
0101
1000
1000
1010
0010
0010
0110
0100
0100
,  // measure 25
0010
0100
0001
1000
1100
0000
0110
0000
2020
0000
3031
0000
0100
0000
2010
0000
,  // measure 26
3021
0000
1230
0000
0301
0000
1000
0010
0001
0100
1000
0010
0001
0100
1010
0001
,  // measure 27
2220
3330
1001
0011
2200
3310
0001
1100
,  // measure 28
1010
0000
0201
0000
1300
0000
0010
0100
0001
0010
1000
0100
0001
1000
0110
0001
,  // measure 29
0202
0000
2313
3202
2323
0100
3031
1020
,  // measure 30
2130
0000
3021
0000
1030
0000
0120
0000
0131
0100
0011
1000
0101
0000
1010
0100
,  // measure 31
1021
0000
0231
0312
2023
0001
3130
1010
,  // measure 32
0110
1001
2202
0310
3023
1201
0031
1000
,  // measure 33
0010
0001
1300
0100
2001
0000
3010
0001
1100
0000
0100
0001
0011
0000
0100
0010
,  // measure 34
1200
0000
2301
0000
3201
0000
1301
0010
1100
0001
1010
0101
0100
1010
0110
0100
,  // measure 35
1002
0100
1013
0110
2002
0100
3113
1100
,  // measure 36
1001
0000
0000
0000
0110
0000
0000
0000
0100
0000
0000
0000
0010
0000
0010
0000
0010
0000
0010
0000
1000
0000
0100
0000
0010
0000
0001
0000
0100
0000
0010
0100
,  // measure 37
0020
0000
0000
0000
0000
0000
1030
0100
0001
0000
0000
0000
0110
0000
0000
0000
2012
0000
0000
0000
0100
0000
0000
0000
3103
0000
0010
0000
1000
0000
0001
0000
,  // measure 38
0110
0000
1001
0000
0011
0000
1000
0100
0001
1000
0010
0001
0101
0100
1010
0010
,  // measure 39
2001
0000
0010
0000
3101
0000
1010
1000
0102
0000
0010
0000
1013
0100
0101
0001
,  // measure 40
1010
0000
0000
0000
1001
0000
0000
0000
0100
0000
0001
0000
0010
0000
0100
0000
1000
0000
0010
0000
0100
0000
0001
0000
1000
0000
0100
0010
0100
0000
0001
1000
,  // measure 41
0002
0000
0000
0000
2123
0030
0000
0001
0000
0000
0010
0001
0000
0100
0000
0001
,  // measure 42
0010
0000
0001
0000
3002
0000
0000
0100
0000
0000
1000
0010
0000
1000
0000
0100
,  // measure 43
1000
0010
0100
0000
2003
0000
0000
0010
0000
0000
3001
2000
0000
3001
2000
0001
,  // measure 44
0000
0000
0100
0000
3010
0000
1000
0000
0002
0000
0000
0000
0010
0000
0000
0000
1000
0000
1000
0000
0000
0000
0100
0000
0003
0000
1000
0000
0001
0000
0100
0010
,  // measure 45
0100
1000
0100
0010
1010
0001
0100
0001
1000
0010
0100
0010
1000
0001
0100
0001
,  // measure 46
0010
0100
1000
0100
0001
0010
0100
1000
0001
0100
0010
0100
0001
1000
0100
1000
,  // measure 47
0010
0100
1000
0100
0010
1000
0100
0001
0010
0100
1000
0010
0001
0100
1000
0001
,  // measure 48
0100
0010
1000
0001
1101
0000
0111
0000
1110
0000
1011
0000
0101
0000
1110
0000
,  // measure 49
0021
1030
0000
0000
1111
0000
1111
0000
0100
0010
0001
0100
0001
0010
0100
1000
,  // measure 50
0001
0100
0001
0000
0101
0000
1110
0000
1000
0001
0100
0010
0100
0001
1000
0100
,  // measure 51
0010
0100
1000
0000
0111
0000
1110
0000
0010
1000
0001
0100
1000
0100
0001
1000
,  // measure 52
0100
0001
0010
0100
0110
0000
0110
0000
0001
1000
0001
0010
1001
0100
0010
0100
,  // measure 53
1001
0010
0100
0001
2010
0000
0001
0000
3101
0000
0010
0100
0001
0010
1000
0100
,  // measure 54
0001
0010
1000
0000
1010
0100
0011
0000
1000
0100
0001
0010
0100
0001
0010
1000
,  // measure 55
0001
0010
0100
0010
0101
1000
1100
0000
0010
0100
0010
1000
0001
0100
1000
0010
,  // measure 56
0001
0100
0001
0000
0100
1000
0011
0100
1010
1000
0110
0101
1000
0000
0010
0000
,  // measure 57
1110
0000
1011
0000
0101
1000
0010
0001
0010
0100
0001
1000
0010
0100
0011
1000
,  // measure 58
0101
0010
0100
0000
0110
1000
0011
0000
0010
0001
1000
0100
0010
0001
1010
0100
,  // measure 59
1100
0001
0010
0001
1001
0100
1001
0000
0001
1000
0010
0100
0001
1000
0110
0001
,  // measure 60
0101
0001
0010
0000
1110
0000
0011
0000
0101
1000
0100
0010
0001
0100
1100
0001
,  // measure 61
1010
0100
0001
0010
1001
0000
1010
0000
0011
0100
0001
0010
0100
0010
1100
0001
,  // measure 62
0101
1000
0010
0100
1010
0000
0111
0000
1100
0001
1000
0101
0000
1000
0001
0100
,  // measure 63
0010
0100
0101
0010
1100
0000
0101
0000
1010
1000
0100
0010
0100
1000
1010
0100
,  // measure 64
1001
0100
0100
0000
2100
0001
0010
0101
3010
0000
0102
0010
1000
1100
0013
0100
,  // measure 65
1000
0001
0100
0010
2202
0000
0000
0000
0000
0000
0000
0000
0000
0000
0000
0000
,  // measure 66
0000
3303
0000
0000
;
