#TITLE:Rock The Beat;
#SUBTITLE:;
#ARTIST:Unexist & Tommyknocker;
#TITLETRANSLIT:;
#SUBTITLETRANSLIT:;
#ARTISTTRANSLIT:;
#GENRE:;
#CREDIT:;
#BANNER:MAROROCKTHEBEAT BN.png;
#BACKGROUND:MAROROCKTHEBEAT BG.png;
#LYRICSPATH:;
#CDTITLE:cdtitle2.png;
#MUSIC:Rock The Beat.mp3;
#OFFSET:-0.036457;
#SAMPLESTART:33.638000;
#SAMPLELENGTH:12.000000;
#SELECTABLE:YES;
#DISPLAYBPM:89.000000:177.000000;
#BPMS:0.000000=88.500000
,60.000000=177.000000
,68.000000=1999999.875000
,96.000000=88.500000
,98.000000=1999999.875000
,109.000000=88.500000
,110.000000=177.000000
,113.000000=999999.937500
,124.000000=132.750000
,127.000000=177.000000
,128.000000=88.500000
,143.000000=177.000000
,145.000000=999999.937500
,168.000000=177.000000
,169.000000=132.750000
,175.000000=999999.937500
,187.000000=132.750000
,190.000000=999999.937500
,202.000000=177.000000
,206.000000=999999.937500
,220.000000=177.000000
,224.000000=88.500000
,256.000000=1999999.875000
,374.000000=177.000000
,379.000000=88.500000
,391.000000=177.000000
,399.000000=999999.937500
,428.000000=177.000000
,430.000000=999999.937500
,458.000000=177.000000
,494.000000=999999.937500
,522.000000=88.500000
,524.000000=999999.937500
,551.000000=88.500000
,561.000000=999999.937500
,568.000000=178.000000
,569.000000=999999.937500
,573.000000=178.000000
,577.000000=88.500000
,625.000000=999999.937500
,651.000000=88.500000
,654.000000=999999.937500
,678.000000=177.000000
,714.000000=88.500000
,716.000000=999999.937500
,746.000000=177.000000
,748.000000=999999.937500
,760.000000=177.000000
,764.000000=999999.937500
,776.000000=177.000000
,808.000000=132.750000
,811.000000=177.000000
;
#STOPS:68.000000=0.042000,
68.125000=0.042000,
68.250000=0.043000,
68.375000=0.042000,
68.500000=0.042000,
68.625000=0.043000,
68.750000=0.042000,
68.875000=0.042000,
69.000000=0.043000,
69.125000=0.042000,
69.250000=0.042000,
69.375000=0.043000,
69.500000=0.042000,
69.625000=0.042000,
69.750000=0.043000,
69.875000=0.042000,
70.000000=0.042000,
70.125000=0.043000,
70.250000=0.042000,
70.375000=0.042000,
70.500000=0.043000,
70.625000=0.042000,
70.750000=0.042000,
70.875000=0.043000,
71.000000=0.042000,
71.125000=0.042000,
71.250000=0.043000,
71.375000=0.042000,
71.500000=0.042000,
71.625000=0.043000,
71.750000=0.042000,
71.875000=0.042000,
72.000000=0.043000,
72.125000=0.042000,
72.250000=0.042000,
72.375000=0.043000,
72.500000=0.042000,
72.625000=0.042000,
72.750000=0.043000,
72.875000=0.042000,
73.000000=0.042000,
73.125000=0.043000,
73.250000=0.042000,
73.375000=0.042000,
73.500000=0.043000,
73.625000=0.042000,
73.750000=0.042000,
73.875000=0.043000,
74.000000=0.042000,
74.125000=0.042000,
74.250000=0.043000,
74.375000=0.042000,
74.500000=0.042000,
74.625000=0.043000,
74.750000=0.042000,
74.875000=0.042000,
75.000000=0.043000,
75.125000=0.042000,
75.250000=0.042000,
75.375000=0.043000,
75.500000=0.042000,
75.625000=0.042000,
75.750000=0.043000,
75.875000=0.042000,
76.000000=0.042000,
76.125000=0.043000,
76.250000=0.042000,
76.375000=0.042000,
76.500000=0.043000,
76.625000=0.042000,
76.750000=0.042000,
76.875000=0.043000,
77.000000=0.042000,
77.125000=0.042000,
77.250000=0.043000,
77.375000=0.042000,
77.500000=0.042000,
77.625000=0.043000,
77.750000=0.042000,
77.875000=0.042000,
78.000000=0.043000,
78.125000=0.042000,
78.250000=0.042000,
78.375000=0.043000,
78.500000=0.042000,
78.625000=0.042000,
78.750000=0.043000,
78.875000=0.042000,
79.000000=0.042000,
79.125000=0.043000,
79.250000=0.042000,
79.375000=0.042000,
79.500000=0.043000,
79.625000=0.042000,
79.750000=0.042000,
79.875000=0.043000,
80.000000=0.042000,
80.125000=0.042000,
80.250000=0.043000,
80.375000=0.042000,
80.500000=0.042000,
80.625000=0.043000,
80.750000=0.042000,
80.875000=0.042000,
81.000000=0.043000,
81.125000=0.042000,
81.250000=0.042000,
81.375000=0.043000,
81.500000=0.042000,
81.625000=0.042000,
81.750000=0.043000,
81.875000=0.042000,
82.000000=0.339000,
83.000000=0.339000,
84.000000=0.042000,
84.125000=0.043000,
84.250000=0.042000,
84.375000=0.042000,
84.500000=0.043000,
84.625000=0.042000,
84.750000=0.042000,
84.875000=0.043000,
85.000000=0.042000,
85.125000=0.042000,
85.250000=0.043000,
85.375000=0.042000,
85.500000=0.042000,
85.625000=0.043000,
85.750000=0.042000,
85.875000=0.042000,
86.000000=0.043000,
86.125000=0.042000,
86.250000=0.042000,
86.375000=0.043000,
86.500000=0.042000,
86.625000=0.042000,
86.750000=0.043000,
86.875000=0.042000,
87.000000=0.042000,
87.125000=0.043000,
87.250000=0.042000,
87.375000=0.042000,
87.500000=0.043000,
87.625000=0.042000,
87.750000=0.042000,
87.875000=0.043000,
88.000000=0.042000,
88.125000=0.042000,
88.250000=0.043000,
88.375000=0.042000,
88.500000=0.042000,
88.625000=0.043000,
88.750000=0.042000,
88.875000=0.042000,
89.000000=0.043000,
89.125000=0.042000,
89.250000=0.042000,
89.375000=0.043000,
89.500000=0.042000,
89.625000=0.042000,
89.750000=0.043000,
89.875000=0.042000,
90.000000=0.042000,
90.125000=0.043000,
90.250000=0.042000,
90.375000=0.042000,
90.500000=0.043000,
90.625000=0.042000,
90.750000=0.042000,
90.875000=0.043000,
91.000000=0.042000,
91.125000=0.042000,
91.250000=0.043000,
91.375000=0.042000,
91.500000=0.042000,
91.625000=0.043000,
91.750000=0.042000,
91.875000=0.042000,
92.000000=0.043000,
92.125000=0.042000,
92.250000=0.042000,
92.375000=0.043000,
92.500000=0.042000,
92.625000=0.042000,
92.750000=0.043000,
92.875000=0.042000,
93.000000=0.042000,
93.125000=0.043000,
93.250000=0.042000,
93.375000=0.042000,
93.500000=0.043000,
93.625000=0.042000,
93.750000=0.042000,
93.875000=0.043000,
94.000000=0.042000,
94.125000=0.042000,
94.250000=0.043000,
94.375000=0.042000,
94.500000=0.042000,
94.625000=0.043000,
94.750000=0.042000,
94.875000=0.042000,
95.000000=0.043000,
95.125000=0.042000,
95.250000=0.042000,
95.375000=0.043000,
95.500000=0.042000,
95.625000=0.042000,
95.750000=0.043000,
95.875000=0.042000,
98.000000=0.042000,
98.125000=0.043000,
98.250000=0.042000,
98.375000=0.042000,
98.500000=0.043000,
98.625000=0.042000,
98.750000=0.042000,
98.875000=0.043000,
99.000000=0.042000,
99.125000=0.042000,
99.250000=0.043000,
99.375000=0.042000,
99.500000=0.042000,
99.625000=0.043000,
99.750000=0.042000,
99.875000=0.042000,
100.000000=0.043000,
100.125000=0.042000,
100.250000=0.042000,
100.375000=0.043000,
100.500000=0.042000,
100.625000=0.042000,
100.750000=0.043000,
100.875000=0.042000,
101.000000=0.042000,
101.125000=0.043000,
101.250000=0.042000,
101.375000=0.042000,
101.500000=0.043000,
101.625000=0.042000,
101.750000=0.042000,
101.875000=0.043000,
102.000000=0.042000,
102.125000=0.042000,
102.250000=0.043000,
102.375000=0.042000,
102.500000=0.042000,
102.625000=0.043000,
102.750000=0.042000,
102.875000=0.042000,
103.000000=0.043000,
103.125000=0.042000,
103.250000=0.042000,
103.375000=0.043000,
103.500000=0.042000,
103.625000=0.042000,
103.750000=0.043000,
103.875000=0.042000,
104.000000=0.042000,
104.125000=0.043000,
104.250000=0.042000,
104.375000=0.042000,
104.500000=0.043000,
104.625000=0.042000,
104.750000=0.042000,
104.875000=0.043000,
105.000000=0.042000,
105.125000=0.042000,
105.250000=0.043000,
105.375000=0.042000,
105.500000=0.042000,
105.625000=0.043000,
105.750000=0.042000,
105.875000=0.042000,
106.000000=0.043000,
106.125000=0.042000,
106.250000=0.042000,
106.375000=0.043000,
106.500000=0.042000,
106.625000=0.042000,
106.750000=0.043000,
106.875000=0.042000,
107.000000=0.042000,
107.125000=0.043000,
107.250000=0.042000,
107.375000=0.042000,
107.500000=0.043000,
107.625000=0.042000,
107.750000=0.042000,
107.875000=0.043000,
108.000000=0.042000,
108.125000=0.042000,
108.250000=0.043000,
108.375000=0.042000,
108.500000=0.042000,
108.625000=0.043000,
108.750000=0.042000,
108.875000=0.042000,
113.000000=0.043000,
113.125000=0.042000,
113.250000=0.042000,
113.375000=0.043000,
113.500000=0.042000,
113.625000=0.042000,
113.750000=0.043000,
113.875000=0.042000,
114.000000=0.042000,
114.125000=0.043000,
114.250000=0.042000,
114.375000=0.042000,
114.500000=0.043000,
114.625000=0.042000,
114.750000=0.042000,
114.875000=0.043000,
115.000000=0.042000,
115.125000=0.042000,
115.250000=0.043000,
115.375000=0.042000,
115.500000=0.042000,
115.625000=0.043000,
115.750000=0.042000,
115.875000=0.042000,
116.000000=0.169000,
116.500000=0.170000,
117.000000=0.043000,
117.125000=0.042000,
117.250000=0.042000,
117.375000=0.043000,
117.500000=0.042000,
117.625000=0.042000,
117.750000=0.043000,
117.875000=0.042000,
118.000000=0.042000,
118.125000=0.043000,
118.250000=0.042000,
118.375000=0.042000,
118.500000=0.043000,
118.625000=0.042000,
118.750000=0.042000,
118.875000=0.043000,
119.000000=0.042000,
119.125000=0.042000,
119.250000=0.043000,
119.375000=0.042000,
119.500000=0.042000,
119.625000=0.043000,
119.750000=0.042000,
119.875000=0.042000,
120.000000=0.084000,
120.250000=0.085000,
120.500000=0.084000,
120.750000=0.085000,
121.000000=0.043000,
121.125000=0.042000,
121.250000=0.042000,
121.375000=0.043000,
121.500000=0.042000,
121.625000=0.042000,
121.750000=0.043000,
121.875000=0.042000,
122.000000=0.042000,
122.125000=0.043000,
122.250000=0.042000,
122.375000=0.042000,
122.500000=0.043000,
122.625000=0.042000,
122.750000=0.042000,
122.875000=0.043000,
123.000000=0.169000,
123.500000=0.170000,
145.000000=0.043000,
145.125000=0.042000,
145.250000=0.042000,
145.375000=0.043000,
145.500000=0.042000,
145.625000=0.042000,
145.750000=0.043000,
145.875000=0.042000,
146.000000=0.042000,
146.125000=0.043000,
146.250000=0.042000,
146.375000=0.042000,
146.500000=0.043000,
146.625000=0.042000,
146.750000=0.042000,
146.875000=0.043000,
147.000000=0.042000,
147.125000=0.042000,
147.250000=0.043000,
147.375000=0.042000,
147.500000=0.042000,
147.625000=0.043000,
147.750000=0.042000,
147.875000=0.042000,
148.000000=0.043000,
148.125000=0.042000,
148.250000=0.042000,
148.375000=0.043000,
148.500000=0.042000,
148.625000=0.042000,
148.750000=0.043000,
148.875000=0.042000,
149.000000=0.042000,
149.125000=0.043000,
149.250000=0.042000,
149.375000=0.042000,
149.500000=0.043000,
149.625000=0.042000,
149.750000=0.042000,
149.875000=0.043000,
150.000000=0.042000,
150.125000=0.042000,
150.250000=0.043000,
150.375000=0.042000,
150.500000=0.042000,
150.625000=0.043000,
150.750000=0.042000,
150.875000=0.042000,
151.000000=0.043000,
151.125000=0.042000,
151.250000=0.042000,
151.375000=0.043000,
151.500000=0.042000,
151.625000=0.042000,
151.750000=0.043000,
151.875000=0.042000,
152.000000=0.042000,
152.125000=0.043000,
152.250000=0.042000,
152.375000=0.042000,
152.500000=0.043000,
152.625000=0.042000,
152.750000=0.042000,
152.875000=0.043000,
153.000000=0.042000,
153.125000=0.042000,
153.250000=0.043000,
153.375000=0.042000,
153.500000=0.042000,
153.625000=0.043000,
153.750000=0.042000,
153.875000=0.042000,
154.000000=0.043000,
154.125000=0.042000,
154.250000=0.042000,
154.375000=0.043000,
154.500000=0.042000,
154.625000=0.042000,
154.750000=0.043000,
154.875000=0.042000,
155.000000=0.042000,
155.125000=0.043000,
155.250000=0.042000,
155.375000=0.042000,
155.500000=0.043000,
155.625000=0.042000,
155.750000=0.042000,
155.875000=0.043000,
156.000000=0.042000,
156.125000=0.042000,
156.250000=0.043000,
156.375000=0.042000,
156.500000=0.042000,
156.625000=0.043000,
156.750000=0.042000,
156.875000=0.042000,
157.000000=0.043000,
157.125000=0.042000,
157.250000=0.042000,
157.375000=0.043000,
157.500000=0.042000,
157.625000=0.042000,
157.750000=0.043000,
157.875000=0.042000,
158.000000=0.042000,
158.125000=0.043000,
158.250000=0.042000,
158.375000=0.042000,
158.500000=0.043000,
158.625000=0.042000,
158.750000=0.042000,
158.875000=0.043000,
159.000000=0.169000,
159.500000=0.170000,
160.000000=0.169000,
160.500000=0.170000,
161.000000=0.042000,
161.125000=0.042000,
161.250000=0.043000,
161.375000=0.042000,
161.500000=0.042000,
161.625000=0.043000,
161.750000=0.042000,
161.875000=0.042000,
162.000000=0.043000,
162.125000=0.042000,
162.250000=0.042000,
162.375000=0.043000,
162.500000=0.042000,
162.625000=0.042000,
162.750000=0.043000,
162.875000=0.042000,
163.000000=0.042000,
163.125000=0.043000,
163.250000=0.042000,
163.375000=0.042000,
163.500000=0.043000,
163.625000=0.042000,
163.750000=0.042000,
163.875000=0.043000,
164.000000=0.169000,
164.500000=0.170000,
165.000000=0.042000,
165.125000=0.042000,
165.250000=0.043000,
165.375000=0.042000,
165.500000=0.042000,
165.625000=0.043000,
165.750000=0.042000,
165.875000=0.042000,
166.000000=0.043000,
166.125000=0.042000,
166.250000=0.042000,
166.375000=0.043000,
166.500000=0.042000,
166.625000=0.042000,
166.750000=0.043000,
166.875000=0.042000,
167.000000=0.042000,
167.125000=0.043000,
167.250000=0.042000,
167.375000=0.042000,
167.500000=0.043000,
167.625000=0.042000,
167.750000=0.042000,
167.875000=0.043000,
175.000000=0.042000,
175.125000=0.042000,
175.250000=0.043000,
175.375000=0.042000,
175.500000=0.042000,
175.625000=0.043000,
175.750000=0.042000,
175.875000=0.042000,
176.000000=0.043000,
176.125000=0.042000,
176.250000=0.042000,
176.375000=0.043000,
176.500000=0.042000,
176.625000=0.042000,
176.750000=0.043000,
176.875000=0.042000,
177.000000=0.042000,
177.125000=0.043000,
177.250000=0.042000,
177.375000=0.042000,
177.500000=0.043000,
177.625000=0.042000,
177.750000=0.042000,
177.875000=0.043000,
178.000000=0.042000,
178.125000=0.042000,
178.250000=0.043000,
178.375000=0.042000,
178.500000=0.042000,
178.625000=0.043000,
178.750000=0.042000,
178.875000=0.042000,
179.000000=0.170000,
179.500000=0.339000,
180.500000=0.339000,
181.500000=0.169000,
182.000000=0.169000,
182.500000=0.163000,
183.000000=0.042000,
183.125000=0.042000,
183.250000=0.043000,
183.375000=0.042000,
183.500000=0.042000,
183.625000=0.043000,
183.750000=0.042000,
183.875000=0.042000,
184.000000=0.043000,
184.125000=0.042000,
184.250000=0.042000,
184.375000=0.043000,
184.500000=0.042000,
184.625000=0.042000,
184.750000=0.043000,
184.875000=0.042000,
185.000000=0.042000,
185.125000=0.043000,
185.250000=0.042000,
185.375000=0.042000,
185.500000=0.043000,
185.625000=0.042000,
185.750000=0.042000,
185.875000=0.043000,
186.000000=0.339000,
190.000000=0.042000,
190.125000=0.042000,
190.250000=0.043000,
190.375000=0.042000,
190.500000=0.042000,
190.625000=0.043000,
190.750000=0.042000,
190.875000=0.042000,
191.000000=0.043000,
191.125000=0.042000,
191.250000=0.042000,
191.375000=0.043000,
191.500000=0.042000,
191.625000=0.042000,
191.750000=0.043000,
191.875000=0.042000,
192.000000=0.042000,
192.125000=0.043000,
192.250000=0.042000,
192.375000=0.042000,
192.500000=0.043000,
192.625000=0.042000,
192.750000=0.042000,
192.875000=0.043000,
193.000000=0.042000,
193.125000=0.042000,
193.250000=0.043000,
193.375000=0.042000,
193.500000=0.042000,
193.625000=0.043000,
193.750000=0.042000,
193.875000=0.042000,
194.000000=0.043000,
194.125000=0.042000,
194.250000=0.042000,
194.375000=0.043000,
194.500000=0.042000,
194.625000=0.042000,
194.750000=0.043000,
194.875000=0.042000,
195.000000=0.042000,
195.125000=0.043000,
195.250000=0.042000,
195.375000=0.042000,
195.500000=0.043000,
195.625000=0.042000,
195.750000=0.042000,
195.875000=0.043000,
196.000000=0.339000,
197.000000=0.339000,
198.000000=0.084000,
198.250000=0.085000,
198.500000=0.084000,
198.750000=0.085000,
199.000000=0.084000,
199.250000=0.085000,
199.500000=0.084000,
199.750000=0.085000,
200.000000=0.169000,
200.500000=0.170000,
201.000000=0.169000,
201.500000=0.170000,
206.000000=0.042000,
206.062500=0.042000,
206.125000=0.043000,
206.187500=0.042000,
206.250000=0.042000,
206.312500=0.043000,
206.375000=0.043000,
206.437500=0.042000,
206.500000=0.043000,
206.562500=0.042000,
206.625000=0.042000,
206.687500=0.043000,
206.750000=0.043000,
206.812500=0.042000,
206.875000=0.043000,
206.937500=0.042000,
207.000000=0.042000,
207.062500=0.043000,
207.125000=0.043000,
207.187500=0.042000,
207.250000=0.043000,
207.312500=0.042000,
207.375000=0.042000,
207.437500=0.043000,
207.500000=0.043000,
207.562500=0.042000,
207.625000=0.043000,
207.687500=0.042000,
207.750000=0.042000,
207.812500=0.043000,
207.875000=0.043000,
207.937500=0.042000,
208.000000=0.043000,
208.062500=0.042000,
208.125000=0.042000,
208.187500=0.043000,
208.250000=0.043000,
208.312500=0.042000,
208.375000=0.043000,
208.437500=0.042000,
208.500000=0.042000,
208.562500=0.043000,
208.625000=0.043000,
208.687500=0.042000,
208.750000=0.043000,
208.812500=0.042000,
208.875000=0.042000,
208.937500=0.043000,
209.000000=0.043000,
209.062500=0.042000,
209.125000=0.043000,
209.187500=0.042000,
209.250000=0.042000,
209.312500=0.043000,
209.375000=0.043000,
209.437500=0.042000,
209.500000=0.043000,
209.562500=0.042000,
209.625000=0.042000,
209.687500=0.043000,
209.750000=0.043000,
209.812500=0.042000,
209.875000=0.043000,
209.937500=0.042000,
210.000000=0.042000,
210.062500=0.043000,
210.125000=0.043000,
210.187500=0.042000,
210.250000=0.043000,
210.312500=0.042000,
210.375000=0.042000,
210.437500=0.043000,
210.500000=0.043000,
210.562500=0.042000,
210.625000=0.043000,
210.687500=0.042000,
210.750000=0.042000,
210.812500=0.043000,
210.875000=0.043000,
210.937500=0.042000,
211.000000=0.043000,
211.062500=0.042000,
211.125000=0.042000,
211.187500=0.043000,
211.250000=0.043000,
211.312500=0.042000,
211.375000=0.043000,
211.437500=0.042000,
211.500000=0.042000,
211.562500=0.043000,
211.625000=0.043000,
211.687500=0.042000,
211.750000=0.043000,
211.812500=0.042000,
211.875000=0.042000,
211.937500=0.043000,
212.000000=0.043000,
212.062500=0.042000,
212.125000=0.043000,
212.187500=0.042000,
212.250000=0.042000,
212.312500=0.043000,
212.375000=0.043000,
212.437500=0.042000,
212.500000=0.043000,
212.562500=0.042000,
212.625000=0.042000,
212.687500=0.043000,
212.750000=0.043000,
212.812500=0.042000,
212.875000=0.043000,
212.937500=0.042000,
213.000000=0.042000,
213.062500=0.043000,
213.125000=0.043000,
213.187500=0.042000,
213.250000=0.043000,
213.312500=0.042000,
213.375000=0.042000,
213.437500=0.043000,
213.500000=0.043000,
213.562500=0.042000,
213.625000=0.043000,
213.687500=0.042000,
213.750000=0.042000,
213.812500=0.043000,
213.875000=0.043000,
213.937500=0.042000,
214.000000=0.043000,
214.062500=0.042000,
214.125000=0.042000,
214.187500=0.043000,
214.250000=0.043000,
214.312500=0.042000,
214.375000=0.043000,
214.437500=0.042000,
214.500000=0.042000,
214.562500=0.043000,
214.625000=0.043000,
214.687500=0.042000,
214.750000=0.043000,
214.812500=0.042000,
214.875000=0.042000,
214.937500=0.043000,
215.000000=0.043000,
215.062500=0.042000,
215.125000=0.043000,
215.187500=0.042000,
215.250000=0.042000,
215.312500=0.043000,
215.375000=0.043000,
215.437500=0.042000,
215.500000=0.043000,
215.562500=0.042000,
215.625000=0.042000,
215.687500=0.043000,
215.750000=0.043000,
215.812500=0.042000,
215.875000=0.043000,
215.937500=0.042000,
216.000000=0.042000,
216.062500=0.043000,
216.125000=0.043000,
216.187500=0.042000,
216.250000=0.043000,
216.312500=0.042000,
216.375000=0.042000,
216.437500=0.043000,
216.500000=0.043000,
216.562500=0.042000,
216.625000=0.043000,
216.687500=0.042000,
216.750000=0.042000,
216.812500=0.043000,
216.875000=0.043000,
216.937500=0.042000,
217.000000=0.043000,
217.062500=0.042000,
217.125000=0.042000,
217.187500=0.043000,
217.250000=0.043000,
217.312500=0.042000,
217.375000=0.043000,
217.437500=0.042000,
217.500000=0.042000,
217.562500=0.043000,
217.625000=0.043000,
217.687500=0.042000,
217.750000=0.043000,
217.812500=0.042000,
217.875000=0.042000,
217.937500=0.043000,
218.000000=0.043000,
218.062500=0.042000,
218.125000=0.043000,
218.187500=0.042000,
218.250000=0.042000,
218.312500=0.043000,
218.375000=0.043000,
218.437500=0.042000,
218.500000=0.043000,
218.562500=0.042000,
218.625000=0.042000,
218.687500=0.043000,
218.750000=0.043000,
218.812500=0.042000,
218.875000=0.043000,
218.937500=0.042000,
219.000000=0.042000,
219.062500=0.043000,
219.125000=0.043000,
219.187500=0.042000,
219.250000=0.043000,
219.312500=0.042000,
219.375000=0.042000,
219.437500=0.043000,
219.500000=0.043000,
219.562500=0.042000,
219.625000=0.043000,
219.687500=0.042000,
219.750000=0.042000,
219.812500=0.043000,
219.875000=0.043000,
219.937500=0.042000,
256.000000=0.254000,
260.000000=0.254000,
264.000000=0.254000,
268.000000=0.254000,
272.000000=0.339000,
273.000000=0.255000,
277.000000=0.254000,
281.000000=0.254000,
285.000000=0.254000,
289.000000=0.339000,
290.000000=0.255000,
294.000000=0.254000,
298.000000=0.254000,
302.000000=0.254000,
306.000000=0.339000,
307.000000=0.255000,
311.000000=0.254000,
315.000000=0.254000,
319.000000=0.254000,
323.000000=0.339000,
324.000000=0.255000,
328.000000=0.254000,
332.000000=0.254000,
336.000000=0.254000,
340.000000=0.339000,
341.000000=0.255000,
345.000000=0.254000,
349.000000=0.254000,
353.000000=0.254000,
357.000000=0.339000,
358.000000=0.255000,
362.000000=0.254000,
366.000000=0.254000,
370.000000=0.254000,
399.000000=0.042000,
399.125000=0.042000,
399.250000=0.169000,
399.750000=0.043000,
399.875000=0.042000,
400.000000=0.170000,
400.500000=0.042000,
400.625000=0.043000,
400.750000=0.169000,
401.250000=0.042000,
401.375000=0.042000,
401.500000=0.170000,
402.000000=0.084000,
402.250000=0.085000,
402.500000=0.084000,
402.750000=0.085000,
403.000000=0.043000,
403.125000=0.042000,
403.250000=0.169000,
403.750000=0.042000,
403.875000=0.043000,
404.000000=0.170000,
404.500000=0.042000,
404.625000=0.043000,
404.750000=0.169000,
405.250000=0.042000,
405.375000=0.043000,
405.500000=0.170000,
406.000000=0.084000,
406.250000=0.085000,
406.500000=0.084000,
406.750000=0.085000,
407.000000=0.042000,
407.125000=0.042000,
407.250000=0.169000,
407.750000=0.043000,
407.875000=0.042000,
408.000000=0.170000,
408.500000=0.042000,
408.625000=0.043000,
408.750000=0.169000,
409.250000=0.042000,
409.375000=0.042000,
409.500000=0.170000,
410.000000=0.084000,
410.250000=0.085000,
410.500000=0.084000,
410.750000=0.085000,
411.000000=0.043000,
411.125000=0.042000,
411.250000=0.169000,
411.750000=0.042000,
411.875000=0.043000,
412.000000=0.170000,
412.500000=0.042000,
412.625000=0.042000,
412.750000=0.169000,
413.250000=0.043000,
413.375000=0.042000,
413.500000=0.170000,
414.000000=0.084000,
414.250000=0.085000,
414.500000=0.084000,
414.750000=0.085000,
415.000000=0.042000,
415.125000=0.043000,
415.250000=0.169000,
415.750000=0.042000,
415.875000=0.042000,
416.000000=0.170000,
416.500000=0.043000,
416.625000=0.042000,
416.750000=0.169000,
417.250000=0.042000,
417.375000=0.043000,
417.500000=0.170000,
418.000000=0.084000,
418.250000=0.085000,
418.500000=0.084000,
418.750000=0.085000,
419.000000=0.042000,
419.125000=0.042000,
419.250000=0.169000,
419.750000=0.043000,
419.875000=0.042000,
420.000000=0.180000,
420.500000=0.042000,
420.625000=0.043000,
420.750000=0.169000,
421.250000=0.042000,
421.375000=0.042000,
421.500000=0.170000,
422.000000=0.084000,
422.250000=0.085000,
422.500000=0.084000,
422.750000=0.085000,
423.000000=0.043000,
423.125000=0.042000,
423.250000=0.169000,
423.750000=0.042000,
423.875000=0.043000,
424.000000=0.170000,
424.500000=0.042000,
424.625000=0.042000,
424.750000=0.169000,
425.250000=0.043000,
425.375000=0.042000,
425.500000=0.170000,
426.000000=0.084000,
426.250000=0.085000,
426.500000=0.084000,
426.750000=0.085000,
427.000000=0.084000,
427.250000=0.085000,
427.500000=0.084000,
427.750000=0.085000,
429.000000=0.169000,
429.500000=0.170000,
430.000000=0.042000,
430.125000=0.043000,
430.250000=0.169000,
430.750000=0.042000,
430.875000=0.042000,
431.000000=0.170000,
431.500000=0.043000,
431.625000=0.042000,
431.750000=0.169000,
432.250000=0.042000,
432.375000=0.043000,
432.500000=0.170000,
433.000000=0.084000,
433.250000=0.085000,
433.500000=0.084000,
433.750000=0.085000,
434.000000=0.042000,
434.125000=0.042000,
434.250000=0.169000,
434.750000=0.043000,
434.875000=0.042000,
435.000000=0.170000,
435.500000=0.042000,
435.625000=0.043000,
435.750000=0.169000,
436.250000=0.042000,
436.375000=0.042000,
436.500000=0.170000,
437.000000=0.084000,
437.250000=0.085000,
437.500000=0.084000,
437.750000=0.085000,
438.000000=0.043000,
438.125000=0.042000,
438.250000=0.169000,
438.750000=0.042000,
438.875000=0.043000,
439.000000=0.170000,
439.500000=0.042000,
439.625000=0.042000,
439.750000=0.169000,
440.250000=0.043000,
440.375000=0.042000,
440.500000=0.170000,
441.000000=0.084000,
441.250000=0.085000,
441.500000=0.084000,
441.750000=0.085000,
442.000000=0.042000,
442.125000=0.043000,
442.250000=0.169000,
442.750000=0.042000,
442.875000=0.042000,
443.000000=0.170000,
443.500000=0.043000,
443.625000=0.042000,
443.750000=0.084000,
444.000000=0.169000,
444.500000=0.085000,
444.750000=0.084000,
445.000000=0.339000,
446.000000=0.085000,
446.250000=0.084000,
446.500000=0.085000,
446.750000=0.084000,
447.000000=0.085000,
447.250000=0.084000,
447.500000=0.085000,
447.750000=0.084000,
448.000000=0.085000,
448.250000=0.084000,
448.500000=0.085000,
448.750000=0.084000,
449.000000=0.170000,
449.500000=0.170000,
450.000000=0.084000,
450.250000=0.085000,
450.500000=0.084000,
450.750000=0.085000,
451.000000=0.084000,
451.250000=0.085000,
451.500000=0.084000,
451.750000=0.085000,
452.000000=0.084000,
452.250000=0.085000,
452.500000=0.084000,
452.750000=0.085000,
453.000000=0.084000,
453.250000=0.085000,
453.500000=0.084000,
453.750000=0.085000,
454.000000=0.084000,
454.250000=0.085000,
454.500000=0.084000,
454.750000=0.085000,
455.000000=0.084000,
455.250000=0.085000,
455.500000=0.084000,
455.750000=0.085000,
456.000000=0.084000,
456.250000=0.085000,
456.500000=0.169000,
457.000000=0.170000,
457.500000=0.169000,
494.000000=0.042000,
494.125000=0.042000,
494.250000=0.043000,
494.375000=0.042000,
494.500000=0.042000,
494.625000=0.043000,
494.750000=0.043000,
494.875000=0.042000,
495.000000=0.043000,
495.125000=0.042000,
495.250000=0.042000,
495.375000=0.043000,
495.500000=0.043000,
495.625000=0.042000,
495.750000=0.043000,
495.875000=0.042000,
496.000000=0.042000,
496.125000=0.043000,
496.250000=0.043000,
496.375000=0.042000,
496.500000=0.043000,
496.625000=0.042000,
496.750000=0.042000,
496.875000=0.043000,
497.000000=0.043000,
497.125000=0.042000,
497.250000=0.043000,
497.375000=0.042000,
497.500000=0.042000,
497.625000=0.043000,
497.750000=0.043000,
497.875000=0.042000,
498.000000=0.043000,
498.125000=0.042000,
498.250000=0.042000,
498.375000=0.043000,
498.500000=0.043000,
498.625000=0.042000,
498.750000=0.043000,
498.875000=0.042000,
499.000000=0.042000,
499.125000=0.043000,
499.250000=0.043000,
499.375000=0.042000,
499.500000=0.043000,
499.625000=0.042000,
499.750000=0.042000,
499.875000=0.043000,
500.000000=0.043000,
500.125000=0.042000,
500.250000=0.043000,
500.375000=0.042000,
500.500000=0.042000,
500.625000=0.043000,
500.750000=0.043000,
500.875000=0.042000,
501.000000=0.043000,
501.125000=0.042000,
501.250000=0.042000,
501.375000=0.043000,
501.500000=0.043000,
501.625000=0.042000,
501.750000=0.043000,
501.875000=0.042000,
502.000000=0.042000,
502.125000=0.043000,
502.250000=0.043000,
502.375000=0.042000,
502.500000=0.043000,
502.625000=0.042000,
502.750000=0.042000,
502.875000=0.043000,
503.000000=0.043000,
503.125000=0.042000,
503.250000=0.043000,
503.375000=0.042000,
503.500000=0.042000,
503.625000=0.043000,
503.750000=0.043000,
503.875000=0.042000,
504.000000=0.043000,
504.125000=0.042000,
504.250000=0.042000,
504.375000=0.043000,
504.500000=0.043000,
504.625000=0.042000,
504.750000=0.043000,
504.875000=0.042000,
505.000000=0.042000,
505.125000=0.043000,
505.250000=0.043000,
505.375000=0.042000,
505.500000=0.043000,
505.625000=0.042000,
505.750000=0.042000,
505.875000=0.043000,
506.000000=0.043000,
506.125000=0.042000,
506.250000=0.043000,
506.375000=0.042000,
506.500000=0.042000,
506.625000=0.043000,
506.750000=0.043000,
506.875000=0.042000,
507.000000=0.043000,
507.125000=0.042000,
507.250000=0.042000,
507.375000=0.043000,
507.500000=0.043000,
507.625000=0.042000,
507.750000=0.043000,
507.875000=0.042000,
508.000000=0.042000,
508.125000=0.043000,
508.250000=0.043000,
508.375000=0.042000,
508.500000=0.043000,
508.625000=0.042000,
508.750000=0.042000,
508.875000=0.043000,
509.000000=0.169000,
509.500000=0.170000,
510.000000=0.042000,
510.125000=0.042000,
510.250000=0.043000,
510.375000=0.042000,
510.500000=0.042000,
510.625000=0.043000,
510.750000=0.043000,
510.875000=0.042000,
511.000000=0.043000,
511.125000=0.042000,
511.250000=0.042000,
511.375000=0.043000,
511.500000=0.043000,
511.625000=0.042000,
511.750000=0.043000,
511.875000=0.042000,
512.000000=0.042000,
512.125000=0.043000,
512.250000=0.043000,
512.375000=0.042000,
512.500000=0.043000,
512.625000=0.042000,
512.750000=0.042000,
512.875000=0.043000,
513.000000=0.043000,
513.125000=0.042000,
513.250000=0.043000,
513.375000=0.042000,
513.500000=0.042000,
513.625000=0.043000,
513.750000=0.043000,
513.875000=0.042000,
514.000000=0.043000,
514.125000=0.042000,
514.250000=0.042000,
514.375000=0.043000,
514.500000=0.043000,
514.625000=0.042000,
514.750000=0.043000,
514.875000=0.042000,
515.000000=0.042000,
515.125000=0.043000,
515.250000=0.043000,
515.375000=0.042000,
515.500000=0.043000,
515.625000=0.042000,
515.750000=0.042000,
515.875000=0.043000,
516.000000=0.043000,
516.125000=0.042000,
516.250000=0.043000,
516.375000=0.042000,
516.500000=0.042000,
516.625000=0.043000,
516.750000=0.043000,
516.875000=0.042000,
517.000000=0.043000,
517.125000=0.042000,
517.250000=0.042000,
517.375000=0.043000,
517.500000=0.043000,
517.625000=0.042000,
517.750000=0.043000,
517.875000=0.042000,
518.000000=0.042000,
518.125000=0.043000,
518.250000=0.043000,
518.375000=0.042000,
518.500000=0.043000,
518.625000=0.042000,
518.750000=0.042000,
518.875000=0.043000,
519.000000=0.043000,
519.125000=0.042000,
519.250000=0.043000,
519.375000=0.042000,
519.500000=0.042000,
519.625000=0.043000,
519.750000=0.043000,
519.875000=0.042000,
520.000000=0.043000,
520.125000=0.042000,
520.250000=0.042000,
520.375000=0.043000,
520.500000=0.043000,
520.625000=0.042000,
520.750000=0.043000,
520.875000=0.042000,
521.000000=0.042000,
521.125000=0.043000,
521.250000=0.043000,
521.375000=0.042000,
521.500000=0.043000,
521.625000=0.042000,
521.750000=0.042000,
521.875000=0.043000,
524.000000=0.084000,
524.250000=0.085000,
524.500000=0.084000,
524.750000=0.085000,
525.000000=0.084000,
525.250000=0.085000,
525.500000=0.084000,
525.750000=0.085000,
526.000000=0.084000,
526.250000=0.085000,
526.500000=0.084000,
526.750000=0.085000,
527.000000=0.169000,
527.500000=0.170000,
528.000000=0.084000,
528.250000=0.085000,
528.500000=0.084000,
528.750000=0.085000,
529.000000=0.084000,
529.250000=0.085000,
529.500000=0.084000,
529.750000=0.085000,
530.000000=0.084000,
530.250000=0.085000,
530.500000=0.084000,
530.750000=0.085000,
531.000000=0.084000,
531.250000=0.254000,
532.000000=0.085000,
532.250000=0.084000,
532.500000=0.085000,
532.750000=0.084000,
533.000000=0.085000,
533.250000=0.084000,
533.500000=0.085000,
533.750000=0.084000,
534.000000=0.085000,
534.250000=0.084000,
534.500000=0.085000,
534.750000=0.084000,
535.000000=0.085000,
535.250000=0.255000,
536.000000=0.084000,
536.250000=0.085000,
536.500000=0.084000,
536.750000=0.085000,
537.000000=0.084000,
537.250000=0.085000,
537.500000=0.084000,
537.750000=0.085000,
538.000000=0.084000,
538.250000=0.085000,
538.500000=0.084000,
538.750000=0.085000,
539.000000=0.339000,
540.000000=0.084000,
540.250000=0.085000,
540.500000=0.084000,
540.750000=0.085000,
541.000000=0.084000,
541.250000=0.085000,
541.500000=0.084000,
541.750000=0.085000,
542.000000=0.084000,
542.250000=0.085000,
542.500000=0.084000,
542.750000=0.085000,
543.000000=0.084000,
543.250000=0.085000,
543.500000=0.084000,
543.750000=0.085000,
544.000000=0.084000,
544.250000=0.085000,
544.500000=0.084000,
544.750000=0.085000,
545.000000=0.084000,
545.250000=0.085000,
545.500000=0.084000,
545.750000=0.085000,
546.000000=0.084000,
546.250000=0.085000,
546.500000=0.084000,
546.750000=0.085000,
547.000000=0.084000,
547.250000=0.085000,
547.500000=0.084000,
547.750000=0.085000,
548.000000=0.169000,
548.500000=0.170000,
549.000000=0.339000,
550.000000=0.339000,
552.500000=0.339000,
561.000000=0.042000,
561.125000=0.042000,
561.250000=0.043000,
561.375000=0.042000,
561.500000=0.042000,
561.625000=0.043000,
561.750000=0.043000,
561.875000=0.042000,
562.000000=0.043000,
562.125000=0.042000,
562.250000=0.042000,
562.375000=0.043000,
562.500000=0.043000,
562.625000=0.042000,
562.750000=0.043000,
562.875000=0.042000,
563.000000=0.042000,
563.125000=0.043000,
563.250000=0.043000,
563.375000=0.042000,
563.500000=0.043000,
563.625000=0.042000,
563.750000=0.042000,
563.875000=0.043000,
564.000000=0.043000,
564.125000=0.042000,
564.250000=0.043000,
564.375000=0.042000,
564.500000=0.042000,
564.625000=0.043000,
564.750000=0.043000,
564.875000=0.042000,
565.000000=0.043000,
565.125000=0.042000,
565.250000=0.042000,
565.375000=0.043000,
565.500000=0.043000,
565.625000=0.042000,
565.750000=0.043000,
565.875000=0.042000,
566.000000=0.042000,
566.125000=0.043000,
566.250000=0.043000,
566.375000=0.042000,
566.500000=0.043000,
566.625000=0.042000,
566.750000=0.042000,
566.875000=0.043000,
567.000000=0.043000,
567.125000=0.042000,
567.250000=0.043000,
567.375000=0.042000,
567.500000=0.042000,
567.625000=0.043000,
567.750000=0.043000,
567.875000=0.042000,
569.000000=0.043000,
569.125000=0.042000,
569.250000=0.042000,
569.375000=0.043000,
569.500000=0.043000,
569.625000=0.042000,
569.750000=0.043000,
569.875000=0.042000,
570.000000=0.042000,
570.125000=0.043000,
570.250000=0.043000,
570.375000=0.042000,
570.500000=0.043000,
570.625000=0.042000,
570.750000=0.042000,
570.875000=0.043000,
571.000000=0.043000,
571.125000=0.042000,
571.250000=0.043000,
571.375000=0.042000,
571.500000=0.042000,
571.625000=0.043000,
571.750000=0.043000,
571.875000=0.042000,
572.000000=0.043000,
572.125000=0.042000,
572.250000=0.042000,
572.375000=0.043000,
572.500000=0.043000,
572.625000=0.042000,
572.750000=0.043000,
572.875000=0.042000,
625.000000=0.042000,
625.125000=0.043000,
625.250000=0.042000,
625.375000=0.042000,
625.500000=0.043000,
625.625000=0.042000,
625.750000=0.042000,
625.875000=0.043000,
626.000000=0.042000,
626.125000=0.042000,
626.250000=0.043000,
626.375000=0.042000,
626.500000=0.042000,
626.625000=0.043000,
626.750000=0.042000,
626.875000=0.042000,
627.000000=0.043000,
627.125000=0.042000,
627.250000=0.042000,
627.375000=0.043000,
627.500000=0.042000,
627.625000=0.042000,
627.750000=0.043000,
627.875000=0.042000,
628.000000=0.042000,
628.125000=0.043000,
628.250000=0.042000,
628.375000=0.042000,
628.500000=0.043000,
628.625000=0.042000,
628.750000=0.042000,
628.875000=0.043000,
629.000000=0.042000,
629.125000=0.042000,
629.250000=0.043000,
629.375000=0.042000,
629.500000=0.042000,
629.625000=0.043000,
629.750000=0.042000,
629.875000=0.042000,
630.000000=0.043000,
630.125000=0.042000,
630.250000=0.042000,
630.375000=0.043000,
630.500000=0.042000,
630.625000=0.042000,
630.750000=0.043000,
630.875000=0.042000,
631.000000=0.042000,
631.125000=0.043000,
631.250000=0.042000,
631.375000=0.042000,
631.500000=0.043000,
631.625000=0.042000,
631.750000=0.042000,
631.875000=0.043000,
632.000000=0.042000,
632.125000=0.042000,
632.250000=0.043000,
632.375000=0.042000,
632.500000=0.042000,
632.625000=0.043000,
632.750000=0.042000,
632.875000=0.042000,
633.000000=0.043000,
633.125000=0.042000,
633.250000=0.042000,
633.375000=0.043000,
633.500000=0.042000,
633.625000=0.042000,
633.750000=0.043000,
633.875000=0.042000,
634.000000=0.042000,
634.125000=0.043000,
634.250000=0.042000,
634.375000=0.042000,
634.500000=0.043000,
634.625000=0.042000,
634.750000=0.042000,
634.875000=0.043000,
635.000000=0.042000,
635.125000=0.042000,
635.250000=0.043000,
635.375000=0.042000,
635.500000=0.042000,
635.625000=0.043000,
635.750000=0.042000,
635.875000=0.042000,
636.000000=0.043000,
636.125000=0.042000,
636.250000=0.042000,
636.375000=0.043000,
636.500000=0.042000,
636.625000=0.042000,
636.750000=0.043000,
636.875000=0.042000,
637.000000=0.042000,
637.125000=0.043000,
637.250000=0.042000,
637.375000=0.042000,
637.500000=0.043000,
637.625000=0.042000,
637.750000=0.042000,
637.875000=0.043000,
638.000000=0.042000,
638.125000=0.042000,
638.250000=0.043000,
638.375000=0.042000,
638.500000=0.042000,
638.625000=0.043000,
638.750000=0.042000,
638.875000=0.042000,
639.000000=0.043000,
639.125000=0.042000,
639.250000=0.042000,
639.375000=0.043000,
639.500000=0.042000,
639.625000=0.042000,
639.750000=0.043000,
639.875000=0.042000,
640.000000=0.042000,
640.125000=0.043000,
640.250000=0.042000,
640.375000=0.042000,
640.500000=0.043000,
640.625000=0.042000,
640.750000=0.042000,
640.875000=0.043000,
641.000000=0.042000,
641.125000=0.042000,
641.250000=0.043000,
641.375000=0.042000,
641.500000=0.042000,
641.625000=0.043000,
641.750000=0.042000,
641.875000=0.042000,
642.000000=0.043000,
642.125000=0.042000,
642.250000=0.042000,
642.375000=0.043000,
642.500000=0.042000,
642.625000=0.042000,
642.750000=0.043000,
642.875000=0.042000,
643.000000=0.042000,
643.125000=0.043000,
643.250000=0.042000,
643.375000=0.042000,
643.500000=0.043000,
643.625000=0.042000,
643.750000=0.042000,
643.875000=0.043000,
644.000000=0.042000,
644.125000=0.042000,
644.250000=0.043000,
644.375000=0.042000,
644.500000=0.042000,
644.625000=0.043000,
644.750000=0.042000,
644.875000=0.042000,
645.000000=0.043000,
645.125000=0.042000,
645.250000=0.042000,
645.375000=0.043000,
645.500000=0.042000,
645.625000=0.042000,
645.750000=0.043000,
645.875000=0.042000,
646.000000=0.042000,
646.125000=0.043000,
646.250000=0.042000,
646.375000=0.042000,
646.500000=0.043000,
646.625000=0.042000,
646.750000=0.042000,
646.875000=0.043000,
647.000000=0.042000,
647.125000=0.042000,
647.250000=0.043000,
647.375000=0.042000,
647.500000=0.042000,
647.625000=0.043000,
647.750000=0.042000,
647.875000=0.042000,
648.000000=0.043000,
648.125000=0.042000,
648.250000=0.042000,
648.375000=0.043000,
648.500000=0.042000,
648.625000=0.042000,
648.750000=0.043000,
648.875000=0.042000,
649.000000=0.042000,
649.125000=0.043000,
649.250000=0.042000,
649.375000=0.042000,
649.500000=0.043000,
649.625000=0.042000,
649.750000=0.042000,
649.875000=0.043000,
650.000000=0.042000,
650.125000=0.042000,
650.250000=0.043000,
650.375000=0.042000,
650.500000=0.042000,
650.625000=0.043000,
650.750000=0.042000,
650.875000=0.042000,
654.000000=0.043000,
654.125000=0.042000,
654.250000=0.042000,
654.375000=0.043000,
654.500000=0.042000,
654.625000=0.042000,
654.750000=0.043000,
654.875000=0.042000,
655.000000=0.042000,
655.125000=0.043000,
655.250000=0.042000,
655.375000=0.042000,
655.500000=0.043000,
655.625000=0.042000,
655.750000=0.042000,
655.875000=0.043000,
656.000000=0.042000,
656.125000=0.042000,
656.250000=0.043000,
656.375000=0.042000,
656.500000=0.042000,
656.625000=0.043000,
656.750000=0.042000,
656.875000=0.042000,
657.000000=0.043000,
657.125000=0.042000,
657.250000=0.042000,
657.375000=0.043000,
657.500000=0.042000,
657.625000=0.042000,
657.750000=0.043000,
657.875000=0.042000,
658.000000=0.042000,
658.125000=0.043000,
658.250000=0.042000,
658.375000=0.042000,
658.500000=0.043000,
658.625000=0.042000,
658.750000=0.042000,
658.875000=0.043000,
659.000000=0.042000,
659.125000=0.042000,
659.250000=0.043000,
659.375000=0.042000,
659.500000=0.042000,
659.625000=0.043000,
659.750000=0.042000,
659.875000=0.042000,
660.000000=0.043000,
660.125000=0.042000,
660.250000=0.042000,
660.375000=0.043000,
660.500000=0.042000,
660.625000=0.042000,
660.750000=0.043000,
660.875000=0.042000,
661.000000=0.042000,
661.125000=0.043000,
661.250000=0.042000,
661.375000=0.042000,
661.500000=0.043000,
661.625000=0.042000,
661.750000=0.042000,
661.875000=0.043000,
662.000000=0.042000,
662.125000=0.042000,
662.250000=0.043000,
662.375000=0.042000,
662.500000=0.042000,
662.625000=0.043000,
662.750000=0.042000,
662.875000=0.042000,
663.000000=0.043000,
663.125000=0.042000,
663.250000=0.042000,
663.375000=0.043000,
663.500000=0.042000,
663.625000=0.042000,
663.750000=0.043000,
663.875000=0.042000,
664.000000=0.042000,
664.125000=0.043000,
664.250000=0.042000,
664.375000=0.042000,
664.500000=0.043000,
664.625000=0.042000,
664.750000=0.042000,
664.875000=0.043000,
665.000000=0.042000,
665.125000=0.042000,
665.250000=0.043000,
665.375000=0.042000,
665.500000=0.042000,
665.625000=0.043000,
665.750000=0.042000,
665.875000=0.042000,
666.000000=0.043000,
666.125000=0.042000,
666.250000=0.042000,
666.375000=0.043000,
666.500000=0.042000,
666.625000=0.042000,
666.750000=0.043000,
666.875000=0.042000,
667.000000=0.042000,
667.125000=0.043000,
667.250000=0.042000,
667.375000=0.042000,
667.500000=0.043000,
667.625000=0.042000,
667.750000=0.042000,
667.875000=0.043000,
668.000000=0.042000,
668.125000=0.042000,
668.250000=0.043000,
668.375000=0.042000,
668.500000=0.042000,
668.625000=0.043000,
668.750000=0.042000,
668.875000=0.042000,
669.000000=0.339000,
670.000000=0.043000,
670.125000=0.042000,
670.250000=0.042000,
670.375000=0.043000,
670.500000=0.042000,
670.625000=0.042000,
670.750000=0.043000,
670.875000=0.042000,
671.000000=0.042000,
671.125000=0.043000,
671.250000=0.042000,
671.375000=0.042000,
671.500000=0.043000,
671.625000=0.042000,
671.750000=0.042000,
671.875000=0.043000,
672.000000=0.042000,
672.125000=0.042000,
672.250000=0.043000,
672.375000=0.042000,
672.500000=0.042000,
672.625000=0.043000,
672.750000=0.042000,
672.875000=0.042000,
673.000000=0.043000,
673.125000=0.042000,
673.250000=0.042000,
673.375000=0.043000,
673.500000=0.042000,
673.625000=0.042000,
673.750000=0.043000,
673.875000=0.042000,
674.000000=0.042000,
674.125000=0.043000,
674.250000=0.042000,
674.375000=0.042000,
674.500000=0.043000,
674.625000=0.042000,
674.750000=0.042000,
674.875000=0.043000,
675.000000=0.042000,
675.125000=0.042000,
675.250000=0.043000,
675.375000=0.042000,
675.500000=0.042000,
675.625000=0.043000,
675.750000=0.042000,
675.875000=0.042000,
676.000000=0.043000,
676.125000=0.042000,
676.250000=0.042000,
676.375000=0.043000,
676.500000=0.042000,
676.625000=0.042000,
676.750000=0.043000,
676.875000=0.042000,
677.000000=0.042000,
677.125000=0.043000,
677.250000=0.042000,
677.375000=0.042000,
677.500000=0.043000,
677.625000=0.042000,
677.750000=0.042000,
677.875000=0.043000,
716.000000=0.042000,
716.125000=0.042000,
716.250000=0.043000,
716.375000=0.042000,
716.500000=0.042000,
716.625000=0.043000,
716.750000=0.042000,
716.875000=0.042000,
717.000000=0.043000,
717.125000=0.042000,
717.250000=0.042000,
717.375000=0.043000,
717.500000=0.042000,
717.625000=0.042000,
717.750000=0.043000,
717.875000=0.042000,
718.000000=0.042000,
718.125000=0.043000,
718.250000=0.042000,
718.375000=0.042000,
718.500000=0.043000,
718.625000=0.042000,
718.750000=0.042000,
718.875000=0.043000,
719.000000=0.042000,
719.125000=0.042000,
719.250000=0.043000,
719.375000=0.042000,
719.500000=0.042000,
719.625000=0.043000,
719.750000=0.042000,
719.875000=0.042000,
720.000000=0.043000,
720.125000=0.042000,
720.250000=0.042000,
720.375000=0.043000,
720.500000=0.042000,
720.625000=0.042000,
720.750000=0.043000,
720.875000=0.042000,
721.000000=0.043000,
721.125000=0.042000,
721.250000=0.043000,
721.375000=0.042000,
721.500000=0.043000,
721.625000=0.042000,
721.750000=0.043000,
721.875000=0.042000,
722.000000=0.043000,
722.125000=0.042000,
722.250000=0.043000,
722.375000=0.042000,
722.500000=0.043000,
722.625000=0.042000,
722.750000=0.043000,
722.875000=0.042000,
723.000000=0.043000,
723.125000=0.042000,
723.250000=0.043000,
723.375000=0.042000,
723.500000=0.043000,
723.625000=0.042000,
723.750000=0.043000,
723.875000=0.042000,
724.000000=0.043000,
724.125000=0.042000,
724.250000=0.043000,
724.375000=0.042000,
724.500000=0.043000,
724.625000=0.042000,
724.750000=0.043000,
724.875000=0.042000,
725.000000=0.043000,
725.125000=0.042000,
725.250000=0.043000,
725.375000=0.042000,
725.500000=0.043000,
725.625000=0.042000,
725.750000=0.043000,
725.875000=0.042000,
726.000000=0.043000,
726.125000=0.042000,
726.250000=0.043000,
726.375000=0.042000,
726.500000=0.042000,
726.625000=0.043000,
726.750000=0.042000,
726.875000=0.042000,
727.000000=0.043000,
727.125000=0.042000,
727.250000=0.042000,
727.375000=0.043000,
727.500000=0.042000,
727.625000=0.042000,
727.750000=0.043000,
727.875000=0.042000,
728.000000=0.042000,
728.125000=0.043000,
728.250000=0.042000,
728.375000=0.042000,
728.500000=0.043000,
728.625000=0.042000,
728.750000=0.042000,
728.875000=0.043000,
729.000000=0.042000,
729.125000=0.042000,
729.250000=0.043000,
729.375000=0.042000,
729.500000=0.042000,
729.625000=0.043000,
729.750000=0.042000,
729.875000=0.042000,
730.000000=0.043000,
730.125000=0.042000,
730.250000=0.042000,
730.375000=0.043000,
730.500000=0.042000,
730.625000=0.042000,
730.750000=0.043000,
730.875000=0.042000,
731.000000=0.042000,
731.125000=0.043000,
731.250000=0.042000,
731.375000=0.042000,
731.500000=0.043000,
731.625000=0.042000,
731.750000=0.042000,
731.875000=0.043000,
732.000000=0.042000,
732.125000=0.042000,
732.250000=0.043000,
732.375000=0.042000,
732.500000=0.042000,
732.625000=0.043000,
732.750000=0.042000,
732.875000=0.042000,
733.000000=0.043000,
733.125000=0.042000,
733.250000=0.042000,
733.375000=0.043000,
733.500000=0.042000,
733.625000=0.042000,
733.750000=0.043000,
733.875000=0.042000,
734.000000=0.042000,
734.125000=0.043000,
734.250000=0.042000,
734.375000=0.042000,
734.500000=0.043000,
734.625000=0.042000,
734.750000=0.042000,
734.875000=0.043000,
735.000000=0.042000,
735.125000=0.042000,
735.250000=0.043000,
735.375000=0.042000,
735.500000=0.042000,
735.625000=0.043000,
735.750000=0.042000,
735.875000=0.042000,
736.000000=0.043000,
736.125000=0.042000,
736.250000=0.042000,
736.375000=0.043000,
736.500000=0.042000,
736.625000=0.042000,
736.750000=0.043000,
736.875000=0.042000,
737.000000=0.042000,
737.125000=0.043000,
737.250000=0.042000,
737.375000=0.042000,
737.500000=0.043000,
737.625000=0.042000,
737.750000=0.042000,
737.875000=0.043000,
738.000000=0.042000,
738.125000=0.042000,
738.250000=0.043000,
738.375000=0.042000,
738.500000=0.042000,
738.625000=0.043000,
738.750000=0.042000,
738.875000=0.042000,
739.000000=0.043000,
739.125000=0.042000,
739.250000=0.042000,
739.375000=0.043000,
739.500000=0.042000,
739.625000=0.042000,
739.750000=0.043000,
739.875000=0.042000,
740.000000=0.042000,
740.125000=0.043000,
740.250000=0.042000,
740.375000=0.042000,
740.500000=0.043000,
740.625000=0.042000,
740.750000=0.042000,
740.875000=0.043000,
741.000000=0.042000,
741.125000=0.042000,
741.250000=0.042000,
741.375000=0.043000,
741.500000=0.042000,
741.625000=0.042000,
741.750000=0.043000,
741.875000=0.042000,
742.000000=0.042000,
742.125000=0.043000,
742.250000=0.042000,
742.375000=0.042000,
742.500000=0.043000,
742.625000=0.042000,
742.750000=0.042000,
742.875000=0.043000,
743.000000=0.042000,
743.125000=0.042000,
743.250000=0.043000,
743.375000=0.042000,
743.500000=0.042000,
743.625000=0.043000,
743.750000=0.042000,
743.875000=0.042000,
744.000000=0.043000,
744.125000=0.042000,
744.250000=0.042000,
744.375000=0.043000,
744.500000=0.042000,
744.625000=0.042000,
744.750000=0.043000,
744.875000=0.042000,
745.000000=0.042000,
745.125000=0.043000,
745.250000=0.042000,
745.375000=0.042000,
745.500000=0.043000,
745.625000=0.042000,
745.750000=0.042000,
745.875000=0.043000,
748.000000=0.042000,
748.125000=0.042000,
748.250000=0.043000,
748.375000=0.042000,
748.500000=0.042000,
748.625000=0.043000,
748.750000=0.042000,
748.875000=0.042000,
749.000000=0.043000,
749.125000=0.042000,
749.250000=0.042000,
749.375000=0.043000,
749.500000=0.042000,
749.625000=0.042000,
749.750000=0.043000,
749.875000=0.042000,
750.000000=0.042000,
750.125000=0.043000,
750.250000=0.042000,
750.375000=0.042000,
750.500000=0.043000,
750.625000=0.042000,
750.750000=0.042000,
750.875000=0.043000,
751.000000=0.042000,
751.125000=0.042000,
751.250000=0.043000,
751.375000=0.042000,
751.500000=0.042000,
751.625000=0.043000,
751.750000=0.042000,
751.875000=0.042000,
752.000000=0.043000,
752.125000=0.042000,
752.250000=0.042000,
752.375000=0.043000,
752.500000=0.042000,
752.625000=0.042000,
752.750000=0.043000,
752.875000=0.042000,
753.000000=0.042000,
753.125000=0.043000,
753.250000=0.042000,
753.375000=0.042000,
753.500000=0.043000,
753.625000=0.042000,
753.750000=0.042000,
753.875000=0.043000,
754.000000=0.042000,
754.125000=0.042000,
754.250000=0.043000,
754.375000=0.042000,
754.500000=0.042000,
754.625000=0.043000,
754.750000=0.042000,
754.875000=0.042000,
755.000000=0.043000,
755.125000=0.042000,
755.250000=0.042000,
755.375000=0.043000,
755.500000=0.042000,
755.625000=0.042000,
755.750000=0.043000,
755.875000=0.042000,
756.000000=0.042000,
756.125000=0.043000,
756.250000=0.042000,
756.375000=0.042000,
756.500000=0.043000,
756.625000=0.042000,
756.750000=0.042000,
756.875000=0.043000,
757.000000=0.042000,
757.125000=0.042000,
757.250000=0.043000,
757.375000=0.042000,
757.500000=0.042000,
757.625000=0.043000,
757.750000=0.042000,
757.875000=0.042000,
758.000000=0.043000,
758.125000=0.042000,
758.250000=0.042000,
758.375000=0.043000,
758.500000=0.042000,
758.625000=0.042000,
758.750000=0.043000,
758.875000=0.042000,
759.000000=0.042000,
759.125000=0.043000,
759.250000=0.042000,
759.375000=0.042000,
759.500000=0.043000,
759.625000=0.042000,
759.750000=0.042000,
759.875000=0.043000,
764.000000=0.042000,
764.125000=0.042000,
764.250000=0.043000,
764.375000=0.042000,
764.500000=0.042000,
764.625000=0.043000,
764.750000=0.042000,
764.875000=0.042000,
765.000000=0.043000,
765.125000=0.042000,
765.250000=0.042000,
765.375000=0.043000,
765.500000=0.042000,
765.625000=0.042000,
765.750000=0.043000,
765.875000=0.042000,
766.000000=0.042000,
766.125000=0.043000,
766.250000=0.042000,
766.375000=0.042000,
766.500000=0.043000,
766.625000=0.042000,
766.750000=0.042000,
766.875000=0.043000,
767.000000=0.042000,
767.125000=0.042000,
767.250000=0.043000,
767.375000=0.042000,
767.500000=0.042000,
767.625000=0.043000,
767.750000=0.042000,
767.875000=0.042000,
768.000000=0.043000,
768.125000=0.042000,
768.250000=0.042000,
768.375000=0.043000,
768.500000=0.042000,
768.625000=0.042000,
768.750000=0.043000,
768.875000=0.042000,
769.000000=0.042000,
769.125000=0.043000,
769.250000=0.042000,
769.375000=0.042000,
769.500000=0.043000,
769.625000=0.042000,
769.750000=0.042000,
769.875000=0.043000,
770.000000=0.042000,
770.125000=0.042000,
770.250000=0.043000,
770.375000=0.042000,
770.500000=0.042000,
770.625000=0.043000,
770.750000=0.042000,
770.875000=0.042000,
771.000000=0.043000,
771.125000=0.042000,
771.250000=0.042000,
771.375000=0.043000,
771.500000=0.042000,
771.625000=0.042000,
771.750000=0.043000,
771.875000=0.042000,
772.000000=0.042000,
772.125000=0.043000,
772.250000=0.042000,
772.375000=0.042000,
772.500000=0.043000,
772.625000=0.042000,
772.750000=0.042000,
772.875000=0.043000,
773.000000=0.042000,
773.125000=0.042000,
773.250000=0.043000,
773.375000=0.042000,
773.500000=0.042000,
773.625000=0.043000,
773.750000=0.042000,
773.875000=0.042000,
774.000000=0.043000,
774.125000=0.042000,
774.250000=0.042000,
774.375000=0.043000,
774.500000=0.042000,
774.625000=0.042000,
774.750000=0.043000,
774.875000=0.042000,
775.000000=0.042000,
775.125000=0.043000,
775.250000=0.042000,
775.375000=0.042000,
775.500000=0.043000,
775.625000=0.042000,
775.750000=0.042000,
775.875000=0.043000
;
#BGCHANGES:;
#KEYSOUNDS:;
#ATTACKS:;

//---------------dance-single - Maro----------------
#NOTES:
     dance-single:
     Maro:
     Hard:
     13:
     0.608956,0.965541,0.435389,0.708978,0.245642,1449.000000,1301.000000,148.000000,241.000000,28.000000,0.000000,0.608956,0.965541,0.435389,0.708978,0.245642,1449.000000,1301.000000,148.000000,241.000000,28.000000,0.000000:
1000
0100
0001
0010
1000
0100
0001
0010
,
1000
0100
0001
0010
1000
0100
2000
0010
,
3001
0100
1000
0010
0001
0100
1000
0010
,
0001
0100
1000
0010
0001
0100
1000
0020
,
0031
0100
0010
0100
0001
0000
1000
0000
1000
0100
0010
0100
1000
0000
0001
0000
,
0100
0010
1000
0010
0100
0000
0001
0000
1000
0100
0010
0100
2000
0000
0010
0000
,
3001
0100
0010
0100
0001
0000
1000
0000
1000
0100
0001
0100
1000
0000
0001
0000
,
0001
0010
1000
0010
0001
0000
1000
0000
0001
1000
0001
0000
1000
0000
0020
0000
,
0230
0000
0010
0000
0301
0000
1000
0000
1000
0100
0010
0000
0001
0000
0010
0000
,
0002
0000
0100
0000
1003
0000
1000
0000
0001
0100
0010
0000
1000
0000
0001
0000
,
2000
0000
0100
0000
3010
0000
0100
0000
0010
0100
0001
0000
1000
0000
0001
0000
,
0002
0000
0010
0000
1003
0000
1000
0000
0001
0100
0020
0000
1030
0000
2000
0000
,
3002
0010
0000
0100
0000
0010
0000
1000
,
0000
0010
0000
0100
0000
0010
2003
0010
,
3001
1000
0001
1000
0001
1000
0001
1000
,
0220
0000
0000
0000
,
0000
0000
0330
0000
2002
0000
0000
3003
,
0010
1000
0100
0010
0001
0100
1000
0100
,
0001
0010
0100
1000
0010
0001
0010
1000
,
0100
0010
0001
0100
0010
1000
0001
0010
,
0100
1000
0010
0100
0002
0000
2003
0000
,
3001
0100
0010
0001
0010
0100
0010
1000
,
0001
0100
0010
0100
1000
0100
0010
1000
,
0100
0010
0001
0010
0100
1000
0001
0100
,
0020
0000
0130
0002
0000
0003
2000
0000
3001
0000
0100
0000
0010
0000
0100
0000
,
0001
0100
0010
1000
0100
0010
0100
1000
,
0010
0100
0001
0010
0100
0010
0001
0100
,
0010
0000
1000
0000
0002
0000
1003
0000
2000
0000
3200
0000
0310
0000
0001
0010
,
0001
0100
0010
1000
0010
0100
0001
0100
,
0020
2030
3001
0010
0100
0010
0001
1000
,
0100
0100
0100
0010
0001
0100
0020
1030
,
1000
0000
0000
0010
0000
0000
0200
0000
0000
0000
0000
0000
0310
0000
0000
0020
0000
0000
2000
0000
0000
0000
0000
0000
3030
0000
0000
0000
0000
0000
0000
0000
,
1000
1010
1001
0002
0013
0011
0101
0200
,
0310
0000
0200
0000
0310
0010
0020
0000
1000
0000
1000
0000
2030
0000
3002
0000
,
1003
0000
0100
0000
1000
0000
0100
0000
1100
0000
1100
0000
0100
0010
0001
0010
,
0100
0000
1100
0000
1001
0000
0101
0000
0010
0100
0010
0100
0000
0000
0010
0000
,
0200
0300
0010
1000
0100
0110
0000
0010
,
0011
0000
0001
1000
0010
1010
0000
0100
,
0101
0000
0001
0010
0100
1001
0000
0100
,
1010
0000
0100
1010
0000
0101
1000
0001
,
0100
0010
1000
0010
0001
0010
1000
0100
,
0110
0010
0001
0100
1000
0100
0001
1000
,
0001
1000
0001
1000
0002
0000
0000
0203
0000
0000
0320
0000
0000
2030
0000
0000
,
3200
0000
0000
0000
0000
0000
0010
0000
0000
0000
0000
0000
0310
0000
0000
0000
0000
0000
0010
0000
0000
0010
0000
0000
0001
0000
0000
0000
0100
0000
0000
0000
,
0010
1000
0010
0200
0310
1000
0001
0002
,
0000
2003
0000
3020
0230
0302
1003
0100
,
0010
0000
0001
0000
0010
0000
0100
0000
2100
0000
0000
0000
3002
0000
0000
0103
,
0000
0010
0000
0000
2000
0000
0000
0000
0000
0000
3001
0000
0000
0000
0000
0000
0001
0000
0000
0000
0100
0000
0000
0000
1000
0000
0000
0000
0001
0000
0000
0000
,
0010
1000
0001
1000
0100
0001
1000
0010
,
0011
0000
0000
0000
0011
0000
0000
0000
0001
0010
0001
0010
0001
0010
0001
0010
,
0001
0010
0100
1000
0002
0000
0000
1003
,
0000
0000
0010
0000
0010
0000
0000
0000
0010
1000
0100
0000
0100
0010
0000
0010
,
0001
0000
0001
0100
0010
1000
0001
0000
0001
0100
0010
0000
0100
0010
0000
0010
,
1000
0000
0010
1000
0100
0010
0001
0001
1000
0100
0010
0100
1000
0010
0100
0001
,
0010
0100
0010
0001
0100
0010
1000
1000
0001
0001
0001
1000
0001
0000
0001
0000
,
1000
0010
0001
0100
1001
0000
1001
0000
,
2020
0000
0000
0000
0000
0000
3030
0000
0100
0000
0001
0100
0000
0100
0001
0000
,
1000
0000
0001
0010
0000
0010
0001
0000
1000
0000
0100
0010
0000
0010
0100
0000
,
1000
0000
0010
1000
0000
1000
0010
0000
0100
0000
0001
1000
0000
0001
1000
0000
,
0020
0000
0230
0000
0320
0000
0230
0000
0320
0000
0130
0100
0000
0000
0000
0000
,
2002
0000
0000
0000
0000
0000
3003
0000
0001
0000
1000
0100
0000
0100
1000
0000
,
0001
0000
1000
0010
0000
0010
1000
0000
0001
0000
0100
0001
0000
0001
0100
0000
,
0001
0000
0010
0001
0000
0001
0010
0000
0010
0000
0100
1000
0000
1000
0001
0000
,
2001
3020
0230
0302
0000
0000
0000
0003
,
2010
000M
0000
0000
,
0000
00M0
0000
0000
,
0000
0M00
0000
0000
,
0000
00M0
0000
0000
,
3000
0102
M000
0000
,
0000
0000
0M00
0000
,
0000
0000
00M0
0000
,
0000
0000
0M00
0000
,
0000
0003
0210
000M
,
0000
0000
0000
00M0
,
0000
0000
0000
M000
,
0000
0000
0000
000M
,
0000
0000
0300
0120
,
M000
0000
0000
0000
,
0M00
0000
0000
0000
,
000M
0000
0000
0000
,
0M00
0000
0000
0030
,
0201
00M0
0000
0000
,
0000
M000
0000
0000
,
0000
000M
0000
0000
,
0000
00M0
0000
0000
,
0300
2010
0M00
0000
,
0000
0000
00M0
0000
,
0000
0000
000M
0000
,
0000
0000
00M0
0000
,
0000
3000
0012
0M00
,
0000
0000
0000
M000
,
0000
0000
0000
00M0
,
0000
0000
0000
0M00
,
0000
0000
0000
0000
0000
0000
1003
0010
,
0000
0000
0010
0000
2000
0000
0000
0000
3002
0000
0000
0000
1003
0100
1000
0000
,
0010
0000
0010
0000
1000
0100
1000
0000
0001
0000
0001
0000
1000
0010
1000
0000
,
0100
0000
0100
0000
1000
0010
1000
0000
0001
0000
0001
0000
0100
0010
0100
0000
,
0010
0000
0100
0000
0001
1000
0001
0000
1000
0000
0001
0000
2002
0000
0000
0000
,
0000
0000
0000
0000
0000
3003
0010
0100
,
0010
0000
0100
0000
0010
0000
0000
0000
0010
0000
0000
0000
0120
0000
0000
2030
,
0000
0000
3002
0000
0000
0023
0000
0000
0230
0000
0000
0300
0021
0000
0000
0230
,
0000
0000
2300
0000
0000
3002
0000
0000
0203
0000
0000
0300
1020
0000
0000
0230
,
0000
0000
0302
0000
0000
2003
0000
0000
3200
0000
0000
0300
0021
0000
0000
0230
,
0000
0000
2300
0000
0000
3002
0000
0000
0203
0000
0000
0300
2010
0000
0000
3200
,
0000
0000
2300
0000
0000
3020
0000
0000
0230
0000
0000
0300
1002
0000
0000
0023
,
0000
0000
2030
0000
0000
3020
0000
0000
0032
0000
0000
0003
1200
0000
0000
0302
,
0000
0000
0203
0000
0000
2300
0000
0000
3020
0000
0000
0030
0101
0000
0100
0000
,
0020
0000
0000
0000
0130
0000
1001
0000
0201
0000
0000
0320
0000
0000
2030
0000
,
0000
3200
0000
0000
0320
0000
0000
0030
0102
0000
0000
0023
0000
0000
2030
0000
,
0000
3020
0000
0000
0032
0000
0000
0003
2100
0000
0000
3020
0000
0000
0032
0000
,
0000
0023
0000
0000
2030
0000
0000
3000
0201
0000
0000
0320
0000
0000
1030
0000
,
0001
0000
0001
1000
0020
0000
0000
0000
0130
0001
0000
0001
1000
0000
1000
0100
,
0000
0100
0010
0000
0002
0000
2003
0000
3010
0100
0000
0100
0001
0000
0001
1000
,
0000
1000
0010
0000
0100
0000
0100
0000
0100
0001
0000
0001
1000
0000
1000
0100
,
0000
0020
0002
0033
0001
0010
0100
2000
,
3100
0000
1100
0000
0022
0033
0100
0220
,
0330
1000
2200
3300
0010
0002
0000
1003
,
0200
0000
1300
0010
2000
3000
0010
0220
,
0330
1000
2002
3003
0001
0020
0000
0130
,
2000
0000
3001
1000
2002
3003
0010
2020
,
3030
0100
0202
0303
0010
2000
0000
3100
,
0020
0000
0030
0000
0001
1000
0010
0010
,
1000
0001
0000
0000
0001
1000
0001
1000
,
0010
0000
0110
0000
0010
1000
0100
0010
,
0001
0100
1010
0100
0001
0010
0100
1000
,
0001
0100
0011
0100
0001
0010
1000
0010
,
0001
1000
0110
1000
0001
0100
0010
1000
,
0001
0100
0020
0230
0301
1000
0100
0010
,
0001
1000
0101
1000
0010
0100
0001
0010
,
0100
1000
0011
0100
1000
0010
0100
0001
,
1000
0010
1100
0001
2000
3010
2000
3001
,
0101
1000
0010
1000
1010
0100
0001
0001
,
1001
0000
1000
0000
0100
0000
0010
0000
0011
0000
0010
0000
0100
1000
0000
0000
,
1100
0000
0100
0000
0010
0000
0001
0000
0101
0000
0100
0000
0010
1000
0000
0000
,
0101
0100
0010
1000
0001
1000
1001
0000
,
0110
0100
0001
1000
0100
0010
0001
0010
,
0110
0100
1000
0010
0100
0001
1000
1000
,
0010
0000
0200
0000
0002
0000
0000
0000
0303
0000
0000
0000
0010
1000
0001
1000
,
0100
0100
0000
0000
0100
0010
0001
0000
0100
0000
0100
0000
0001
0100
0010
0000
,
1000
0000
1000
0000
1000
0100
0010
0000
0001
0000
0001
0000
1000
0001
1000
0000
,
0001
1000
1001
0001
0100
0010
1010
0100
,
0001
0010
0110
0100
1000
0001
1001
0010
,
2002
3003
0101
0100
0010
1000
0101
0010
,
1000
0100
1200
1000
2300
0000
3020
0000
,
0130
0000
0000
0000
2002
0000
0000
0000
0000
0000
3003
0000
0001
0000
1000
0010
,
0000
0010
1000
0000
0001
0000
1000
0100
0000
0100
1000
0000
0001
0000
1000
0001
,
0000
0001
1000
0000
0001
0000
0010
0001
0000
0001
0010
0000
0001
0000
0100
0001
,
0000
0001
0100
0000
0001
0000
1000
0010
0000
0010
1000
0000
0002
0000
0100
0000
,
0000
0000
1003
0000
2020
0000
0000
0000
0000
0000
3030
0000
1000
0000
0100
0010
,
0000
0010
0100
0000
1000
0000
0001
0100
0000
0100
0001
0000
1000
0000
0010
1000
,
0000
1000
0010
0000
1000
0000
0100
0010
0000
0010
0100
0000
1000
0000
0001
1000
,
0000
1000
0001
0000
1000
0000
0010
1000
0000
1000
0010
0000
0100
0000
0010
0100
,
0000
0100
0010
0000
0020
0000
0001
0000
0002
0000
0000
0000
0003
0000
1000
0000
,
2000
0000
3000
0100
0200
0000
0300
1000
,
2000
0000
3000
0001
0002
0000
0003
0000
,
1030
0000
0010
0200
0020
0000
0000
0000
0330
0000
0000
0000
2000
0000
0010
0010
,
0010
3001
0101
0010
1000
0100
1000
0010
,
0100
0001
1100
0010
0001
0100
0010
0001
,
0010
0100
1001
0001
0010
0100
1000
0010
,
0100
0001
0110
0101
0100
0010
0100
1000
,
0001
1000
0101
1000
0010
0100
0001
0010
,
0100
1000
0011
0100
1000
0010
0100
0001
,
0010
0100
1001
1000
0010
0100
0002
0100
,
0203
0000
0000
0000
0310
0010
1000
0001
1000
0000
0100
0000
1010
0000
0100
0000
,
0001
1000
1100
0010
0101
0010
0101
0010
,
1000
0100
1010
0100
1001
0010
1001
0010
,
0100
0010
0011
0100
1100
0010
1100
0010
,
0001
1000
1001
0000
1010
0010
0100
0001
,
0010
0001
0011
1000
1100
1000
0010
0100
,
0001
1000
1001
0010
1002
0000
2003
0000
,
3002
0000
0103
0000
0200
0000
0310
0010
,
2000
3000
0000
0000
1001
0000
1001
0000
,
0001
0100
0020
0030
0000
0000
0000
0000
,
0001
0100
0020
0030
1001
0000
1001
0000
,
0001
0100
0020
0030
1001
0000
1001
0000
,
1000
0100
0020
0030
0001
0100
0020
0030
,
2000
0000
3001
0001
2000
0000
3001
0001
,
0200
0320
0230
0320
,
0230
0000
0000
0000
0320
0000
0000
0000
2030
0000
0001
0001
0001
0000
3001
0000
,
0001
0100
1000
0100
0001
0010
1000
0010
,
0001
0100
0010
0001
0010
1000
0100
0001
,
0100
1000
0010
0100
0001
0100
0010
0001
,
0010
1000
0100
0001
0100
1000
0010
0100
,
0001
1000
0100
0001
0100
1000
0010
0001
,
0010
1000
0100
0010
0100
0001
0100
1000
,
0010
0001
0010
1000
0100
0010
0001
0100
,
0010
1000
0001
0100
0020
1000
2000
3030
,
0100
0100
0001
0001
0010
0010
1000
1000
,
0010
0010
0001
0001
0100
0100
0010
0010
,
1000
1000
0100
0100
0001
0001
0100
0100
,
1000
0010
1000
0001
1001
0000
1001
0000
,
0001
0001
0100
0100
1000
1000
0001
0001
,
0010
0010
1000
1000
0100
0100
0001
0001
,
1000
1000
0010
0010
0001
0001
1000
1000
,
0010
0000
0110
0000
0100
0001
0100
0000
,
0120
0030
2010
3000
1002
0003
1200
0300
,
0120
0030
0012
0003
0201
0300
0120
0030
,
0201
0300
2001
3000
1020
0030
0210
0300
,
0102
0003
0210
0300
2001
3000
1200
0300
,
0012
0003
2001
3000
1020
0030
0210
0300
,
0102
0003
2001
3000
1020
0030
0210
0300
,
0102
0003
2001
3000
0012
0003
0120
0030
,
2100
0000
0000
3200
0000
0000
0320
0000
0000
0032
0000
0000
1003
0000
0000
0000
,
1000
0000
0010
0000
0010
0000
0100
0001
,
0100
0000
0001
0000
0001
0000
0010
0001
,
0010
0000
0100
0000
0100
0000
1000
0100
,
1000
0000
0010
0000
0010
0000
1000
0001
,
1000
0000
0001
0000
0001
0000
0010
0001
,
0010
0000
0100
0000
0100
0000
0010
0001
,
0010
0000
0001
0000
0001
0000
1000
0001
,
1000
0020
0130
2002
,
0000
0000
0000
3003
;

//---------------dance-single - Maro----------------
#NOTES:
     dance-single:
     Maro:
     Medium:
     10:
     0.303848,0.621459,0.191218,0.379494,0.011767,723.000000,658.000000,65.000000,129.000000,28.000000,0.000000,0.303848,0.621459,0.191218,0.379494,0.011767,723.000000,658.000000,65.000000,129.000000,28.000000,0.000000:
0001
1000
0001
1000
0001
1000
0001
1000
,
0001
1000
0001
1000
0001
1000
0020
0000
,
0130
0010
0100
0010
0100
0010
0100
0010
,
0100
0010
0100
0010
0100
0010
0100
0020
,
1030
0100
0010
0000
0100
0010
0001
0000
,
0010
0001
0100
0000
0001
0100
0020
0000
,
0130
0010
1000
0000
0010
1000
0100
0000
,
0100
1000
0010
0000
1000
0010
0200
0300
,
2002
0000
3003
0000
0001
1000
0010
0000
,
0010
0000
0100
0000
0010
0100
0002
0003
,
1000
0000
0001
0000
1000
0001
0100
0000
,
0001
0000
1000
0000
0010
1000
0200
0300
,
0020
1000
0100
0001
,
0001
0100
1000
0030
,
2002
0000
3003
0000
0010
0010
0010
0010
,
0200
0000
0000
0000
,
0000
0000
0300
0000
,
0010
0100
0010
0100
,
0001
1000
0100
0010
,
0001
1000
0001
1000
,
0010
0100
1001
0000
,
0100
0010
1000
0100
,
0010
0001
0010
0100
,
1000
0010
0100
0001
,
2000
0000
0000
3000
0010
0000
0100
0000
,
0010
0100
0001
1000
,
0001
1000
0010
0100
,
0001
0000
0002
0003
2000
0000
3000
0000
,
0100
0100
0010
0100
,
0020
0030
0100
0000
0010
0000
0100
0000
,
0020
0000
0031
0000
1000
0000
0002
0003
,
0000
0000
0000
1000
0000
0000
0001
0000
0000
1000
0000
0000
0000
0000
0000
0000
,
0010
1000
0020
0030
1000
0001
2000
3000
,
0002
0003
2000
3000
0001
0001
2000
3000
,
0010
0010
0010
0010
0100
0010
0100
0010
,
1000
0000
0001
0000
1000
0000
0001
0000
0100
0010
0100
0020
0000
0000
0000
0000
,
0030
1000
0010
0001
,
0010
1000
0100
0001
,
0100
1000
0010
0000
0100
0000
0001
0000
,
0010
1000
0010
0002
,
0003
1000
0010
0100
,
0020
1030
0100
0001
,
0200
0000
0000
0000
1300
0000
0000
1000
0000
0000
1000
0000
0000
1000
0000
0000
,
2000
0000
0000
0000
0000
0000
3000
0000
0000
0001
0000
0000
0100
0000
0000
0000
,
0010
0000
1000
0000
0010
0000
0000
0100
,
0000
0010
0000
0100
0000
0000
0010
0000
,
1000
0000
0000
0000
0001
0000
0000
0000
0100
0000
0000
0000
0020
0000
0000
0100
,
0000
0030
0000
0000
1000
0000
0001
0000
,
0100
0001
1000
0010
,
0220
0000
0330
0000
0010
0100
0010
0100
,
0010
0010
0010
0010
0000
0000
0000
0000
,
0000
0000
0000
0000
1000
0001
1000
0001
,
0100
0001
0100
0110
0010
1000
0010
1000
,
0001
0100
0001
0101
1000
0100
1000
0100
,
0010
0001
0010
0011
0001
1000
0001
1000
,
0020
0000
0200
0330
,
0220
0000
0000
0000
,
0000
0330
0020
1030
,
2000
3100
0200
0310
,
0020
0000
0000
0000
0031
0000
0000
0000
0001
0000
2000
0000
0000
3000
0000
0000
,
0202
0000
0000
0000
,
0000
0303
0020
1030
,
2000
3010
0020
0030
,
0220
0030
0000
0300
,
0002
00M0
0000
0000
,
0000
M000
0000
0000
,
0000
00M0
0000
0000
,
0000
M000
0000
0000
,
0003
2000
0M00
0000
,
0000
0000
000M
0000
,
0000
0000
0M00
0000
,
0000
0000
000M
0000
,
0000
3000
0020
000M
,
0000
0000
0000
M000
,
0000
0000
0000
000M
,
0000
0000
0000
M000
,
0000
0000
0030
0200
,
00M0
0000
0000
0000
,
000M
0000
0000
0000
,
00M0
0000
0000
0000
,
000M
0000
0000
0300
,
0020
M000
0000
0000
,
0000
0M00
0000
0000
,
0000
M000
0000
0000
,
0000
0M00
0000
0000
,
0030
2000
000M
0000
,
0000
0000
0M00
0000
,
0000
0000
000M
0000
,
0000
0000
0M00
0000
,
0000
3000
0002
0M00
,
0000
0000
0000
M000
,
0000
0000
0000
0M00
,
0000
0000
0000
M000
,
0000
0000
0003
0000
,
0000
0000
0000
2002
,
0000
0000
0000
3003
,
0000
0020
0030
0200
,
0300
0020
0000
0200
,
0000
0000
0000
0330
,
0000
0000
0000
1000
,
0000
1000
0000
0000
1000
0000
0001
0000
,
0000
0001
0000
0000
0001
0000
0100
0000
,
0000
0100
0000
0000
0100
0000
0010
0000
,
0000
0010
0000
0000
0020
0000
0130
0000
,
0000
0100
0000
0000
0100
0000
0010
0000
,
0000
0010
0000
0000
0010
0000
1000
0000
,
0000
1000
0000
0000
1000
0000
0002
0000
,
0003
0000
1000
1000
0001
0000
0000
0001
,
0000
0000
0100
0000
0010
0000
0000
0010
,
0000
0000
1000
0000
0100
0000
0000
0100
,
0000
0000
0010
0000
0001
0000
0000
0001
,
0000
0100
0010
0010
,
0020
0030
0100
0100
,
0200
0300
0001
1000
,
0002
0000
0003
0000
0000
0000
0000
0110
,
0000
0000
0000
0000
0010
0000
0000
0010
,
0000
0000
0100
0000
0001
1000
0000
0000
,
1000
0000
0000
1000
0100
0000
0000
0100
,
0000
0000
0100
0000
0010
0001
0000
0000
,
0100
0000
0000
0001
0100
0000
0000
0010
,
0000
0000
0100
0000
0010
1000
0000
0000
,
1000
0000
0002
0000
,
1003
1000
0220
0000
,
0330
0000
1000
0010
,
0100
0101
0001
0010
,
0100
1100
0100
0010
,
0001
1001
1000
0010
,
0200
0300
0010
0100
,
0001
0101
1000
0010
,
0100
0110
0010
1000
,
0001
1001
2000
3000
,
0001
0000
1000
0000
0001
0000
1000
0001
,
1000
0001
1000
0001
,
0000
0100
0010
0100
,
0010
0100
0010
0110
,
1000
0001
1000
1010
,
0001
1000
0001
0012
,
2000
3000
0000
0003
,
0100
0000
0010
0100
0010
0100
0001
1000
,
0001
1000
0010
0100
0010
0100
0001
1000
,
0001
1000
1001
0000
0010
0000
0100
0000
,
1001
1010
0100
0010
,
1010
0101
0001
1000
,
0010
0020
0000
0000
,
0030
2002
0000
0000
,
0000
3003
2000
3010
,
0020
0130
0200
0301
,
0002
1003
2000
0002
,
0000
3003
0220
0000
0000
0000
0000
0000
,
0000
0330
0020
0130
,
0200
0301
0002
1003
,
2000
3010
0020
0130
,
0100
0020
0000
0100
,
0000
0100
0000
0100
,
0000
0100
0000
0100
,
0000
0230
0000
0301
,
1000
0001
0100
1000
,
0010
0001
0100
1000
,
0010
0001
1000
0100
,
0001
0010
1000
0100
,
0001
0010
1000
0001
,
0100
1000
0100
0001
,
1000
0010
0100
0200
,
0300
0000
0010
0010
0010
0000
0100
0000
,
0110
0110
0001
1000
,
1001
1001
1000
0010
,
1010
1010
0001
0100
,
0202
0303
1001
0010
,
0100
0010
1001
0100
,
0010
0100
0001
0001
,
0002
1003
2000
3000
,
0020
0030
0000
0000
1001
0000
2002
0000
,
0000
3003
0000
0000
,
0000
0000
0110
0220
,
0000
0330
1010
2020
,
0000
3030
0101
0000
,
0002
1003
0002
1003
,
0002
2003
3002
2003
,
3002
2003
3000
0000
,
1000
0100
0001
0010
,
1000
0100
0001
0010
,
1000
0001
0100
1000
,
0010
0001
0100
1000
,
0010
0001
1000
0100
,
0001
0100
1000
0010
,
0001
0010
1000
0100
,
0010
0000
0002
0000
2000
0003
3000
0000
,
1000
0010
1010
1010
,
0001
0100
0101
0101
,
1000
0001
1001
1001
,
0010
0010
0100
0100
,
1010
1001
0011
1001
,
1100
1001
0101
1001
,
1010
0101
1010
0101
,
0100
0100
0020
0230
,
0301
0100
0002
0003
,
1000
0100
2000
3000
,
0010
0100
0020
0030
,
0001
1000
0002
0003
,
1000
0010
2000
3000
,
0010
0100
0020
0030
,
0100
0001
0200
0300
,
2002
0000
0000
0000
0000
3003
0020
0000
,
0130
0001
0000
0001
,
1000
0100
0000
2000
,
3010
0100
0000
0010
,
0100
0001
0000
0002
,
1003
0100
0000
0100
,
1000
0010
0000
0200
,
0310
1000
0000
0001
,
1000
0010
0000
0220
,
0000
0330
0000
0000
;

//---------------dance-single - Maro----------------
#NOTES:
     dance-single:
     Maro:
     Challenge:
     17:
     0.856069,1.398282,0.429505,0.529527,0.917847,2037.000000,1891.000000,146.000000,180.000000,34.000000,0.000000,0.856069,1.398282,0.429505,0.529527,0.917847,2037.000000,1891.000000,146.000000,180.000000,34.000000,0.000000:
// measure 0
1002
0100
1003
0010
0001
0010
1000
0100
,  // measure 1
0001
0100
1000
0010
0001
0010
2000
0100
,  // measure 2
3001
0010
1000
0010
0001
0100
1000
0100
,  // measure 3
0001
0010
1000
0010
0001
0100
0010
0200
,  // measure 4
0310
1000
0100
1000
0010
0000
0100
0001
0100
0001
0010
0001
0100
0000
0001
1000
,  // measure 5
0001
1000
0010
1000
0001
0000
0100
0010
0100
0010
1000
0010
0200
0000
0010
0000
,  // measure 6
0301
1000
0010
1000
0001
0000
1000
0100
1000
0100
0010
0100
1000
0000
0100
0010
,  // measure 7
0100
0010
0001
1000
0001
0000
0001
0100
0001
0100
0010
1000
0010
0000
0200
0000
,  // measure 8
0301
0100
0010
0100
0001
1000
0100
0010
0100
1000
0001
1000
0010
1000
0001
0010
,  // measure 9
0100
0010
0001
0100
0010
1000
0010
0100
0001
1000
0100
0010
0002
0000
0100
0000
,  // measure 10
1003
0010
0100
0010
1000
0001
0100
0010
1000
0010
0100
0001
0010
0100
1000
0100
,  // measure 11
0010
0001
0100
0010
1000
0100
0010
0001
1000
0001
0200
0000
0310
1000
0020
0000
,  // measure 12
0230
0302
0023
2030
3200
0302
0023
2030
,  // measure 13
3200
0302
0023
2030
3200
0302
0023
1000
,  // measure 14
0031
1000
0001
1000
0001
1000
0001
1000
0001
1000
0001
1000
0001
1000
0001
1000
,  // measure 15
0020
0100
0100
0100
0100
0100
0100
0100
,  // measure 16
0100
0100
0100
0100
0200
0000
0330
0000
,  // measure 17
0010
0100
0001
0000
0100
0010
1000
0000
0001
1000
0100
0000
1000
0010
0100
0000
,  // measure 18
0001
0100
0010
0000
0100
0010
1000
0000
0001
0010
0100
0000
0010
0001
1000
0000
,  // measure 19
0100
0010
0001
0000
0010
0100
1000
0000
0001
0100
0010
0000
1000
0010
0100
0000
,  // measure 20
0001
1000
0100
0000
0010
0001
1000
0000
1002
0000
0000
0000
2003
0000
0000
0000
,  // measure 21
3010
0100
0010
0000
1000
0010
1000
0000
0001
0100
0001
0000
1000
0100
1000
0000
,  // measure 22
0001
0010
0001
0000
1000
0100
1000
0000
0001
0100
0001
0000
1000
0010
1000
0000
,  // measure 23
0010
0100
0010
0000
0100
0001
0100
0000
0001
1000
0001
0000
1000
0010
1000
0000
,  // measure 24
0020
0000
0130
0002
0000
1000
1000
0003
1000
0100
0010
0000
0100
1000
0001
0000
,  // measure 25
0100
0010
1000
0000
0010
0100
0001
0000
1000
0010
1000
0000
0001
0100
0001
0000
,  // measure 26
1000
0100
1000
0000
0001
0010
0001
0000
1000
0100
0010
0000
0001
0100
0010
0000
,  // measure 27
1000
0001
1000
0000
0020
0000
0130
0000
0100
0000
0001
0000
1000
0000
1000
0001
,  // measure 28
1000
0000
1000
0000
0001
0100
0001
0100
0001
0100
0001
0100
0020
0000
1000
0000
,  // measure 29
2030
0000
3200
0000
1300
0010
1000
0010
1000
0010
1000
0010
0200
0000
0001
0000
,  // measure 30
0310
1000
0001
1000
0010
0000
0100
0010
0100
0000
0010
0100
0020
0000
2030
0000
,  // measure 31
3001
0000
0000
0100
0000
0000
0002
0000
0000
0000
0000
0000
1003
0000
0000
2000
0000
0000
3020
0000
0000
0000
0000
0000
0000
0000
0000
0000
0000
0000
0000
0000
,  // measure 32
1030
0100
0000
1100
0000
0100
2000
0000
3001
0100
0000
0101
0000
0100
0002
0000
,  // measure 33
1003
0000
0010
0000
0200
0000
0000
0000
0310
1000
0010
1000
0020
0000
0000
0000
1030
0000
0000
0000
1100
0000
0000
0000
0200
0000
0000
0000
0320
0000
0000
0000
,  // measure 34
0031
0100
0001
0000
1000
0100
1000
0000
0001
0100
0001
0000
1000
0100
1000
0000
0101
0000
0000
0000
1010
0000
0000
0000
0001
0000
0100
0000
0010
0000
1000
0000
,  // measure 35
0001
0000
0001
0100
0001
0000
0001
1000
0001
0000
0001
0010
0001
0000
0001
0010
0100
1000
0001
1000
0001
1000
0001
0000
0000
0000
0000
0000
1001
0000
0000
0000
,  // measure 36
1001
0000
0000
0000
0001
0100
0010
0000
0100
0001
1000
0000
1000
0010
0100
0000
,  // measure 37
0010
1000
0100
0000
0100
0010
0001
0000
0001
1000
0010
0000
1000
0010
0100
0000
,  // measure 38
0001
0000
0101
0000
0100
0010
1000
0000
0100
0010
0001
0000
0010
0100
1000
0000
,  // measure 39
0001
0010
0100
0000
0010
0001
1000
0000
0010
0100
0001
0000
2000
0000
0010
0000
,  // measure 40
0001
0000
3001
0000
0001
0100
0010
0100
0001
0100
0010
0100
0001
0100
0010
0100
,  // measure 41
0002
0000
2003
0000
3010
0100
1000
0100
0010
0100
1000
0100
0010
0100
1000
0100
,  // measure 42
0020
0000
0000
0000
0000
0000
0000
0000
1030
0000
0000
1000
0000
0000
0001
0000
0000
0001
0000
0000
1000
0000
0000
1000
0000
0000
0001
0000
0000
0001
0000
0000
,  // measure 43
0220
0000
0000
0000
0000
0000
0330
0000
0000
0000
0000
0000
1001
0000
0000
0000
0000
0000
0100
0000
0000
0100
0000
0000
0010
0000
1000
0000
0001
0000
1000
0000
,  // measure 44
0010
1000
0001
1000
0010
1000
0001
0000
1001
0000
0100
0000
0010
0000
0110
0000
,  // measure 45
0000
0000
1001
0000
0000
0000
1001
0000
2000
0000
3002
0000
1003
0010
0100
0010
,  // measure 46
1000
0010
0100
0010
1000
0010
0100
0001
2000
0000
0000
0000
3001
0000
0000
0101
,  // measure 47
0000
0000
0000
0000
0000
0000
0000
0000
2010
0000
0000
0000
0000
0000
0000
0000
0000
0000
0000
0000
3001
0000
0000
0100
0000
0000
0001
0000
0000
0100
0000
0000
0001
0000
0000
0000
1000
0000
0000
0000
0010
0000
0000
0000
0000
0000
0000
0000
1000
0000
0000
0000
0001
0000
0000
0000
0010
0000
0000
0000
0000
0000
0000
0000
,  // measure 48
0001
0010
0001
0000
1000
0100
1000
0000
0001
0010
0100
0000
1000
0010
0100
0000
,  // measure 49
2002
0000
0000
3003
2002
0000
0000
3003
0010
0100
0010
0100
0010
0100
0010
0100
,  // measure 50
0010
0010
0010
0110
M000
0M00
00M0
000M
,  // measure 51
00M0
0000
0000
0000
0M00
0000
0000
0000
1001
0000
0000
0000
0000
0000
0000
0000
0010
0000
0100
0001
0010
0000
0100
1000
0010
0000
0100
0001
0010
0000
0100
1000
,  // measure 52
0010
0000
0100
0001
0010
0000
0100
1000
0001
0000
0100
0000
0101
0000
0010
1000
0100
0000
0100
0000
0100
0000
0100
0010
0100
0000
1000
0000
0010
0000
0110
0000
,  // measure 53
0100
0000
0001
0000
0010
0000
0110
0000
0100
0000
1000
0000
0001
0000
1001
0000
0010
0000
1000
0100
0010
0000
0100
1000
0001
0000
0001
0100
0010
0000
1000
0010
,  // measure 54
0100
0000
0001
0100
0010
0000
1000
0100
0010
0000
0001
0000
1000
0001
0100
0001
1000
0000
1000
0000
0010
0000
0010
0000
0100
0000
0100
0000
0001
0000
0001
0000
,  // measure 55
0200
0000
0000
0320
0000
0000
0230
0000
0000
0320
0000
0000
0230
0000
0000
0300
0000
0000
2002
0000
0000
0000
3003
0000
,  // measure 56
1010
0000
0010
0000
1000
0000
0010
0000
1000
0000
0010
0000
1000
0000
0010
0000
1000
0000
0000
0100
0000
0000
0010
0000
0000
0001
0000
0000
0020
0000
0000
0000
,  // measure 57
0130
0000
0000
0010
0000
0000
0001
0000
0000
1000
0000
0000
0020
0000
0000
0000
0130
0001
0100
0000
0010
0000
0000
1000
0000
0000
0100
0000
0000
1000
0000
0000
,  // measure 58
0001
0100
0001
0100
0001
0100
0001
0100
0001
0000
0100
0000
0001
0000
0100
0000
0002
0000
0000
0000
0010
0000
0000
0000
0100
0000
0000
0000
1000
0000
0000
0000
,  // measure 59
0103
0000
0110
0000
1010
0000
1001
0000
1100
0000
0100
0020
0000
0000
0000
0030
,  // measure 60
0101
0001
0100
0001
0100
0001
0100
0001
0100
0001
0100
0001
0100
0001
0100
0001
,  // measure 61
0100
0100
0010
1000
0100
1000
0010
0000
0100
0100
0001
0010
0100
0010
0001
0000
,  // measure 62
1000
1000
0001
0100
0001
1000
0010
0000
0010
0010
0100
0001
0100
0010
1000
0000
,  // measure 63
2001
0000
3010
0100
0001
0100
0010
0100
0002
0000
0000
0000
0000
0000
0003
0000
,  // measure 64
0202
00M0
0000
0000
,  // measure 65
0000
M000
0000
0000
,  // measure 66
0000
00M0
0000
0000
,  // measure 67
0000
M000
0000
0000
,  // measure 68
0303
2020
0M00
0000
,  // measure 69
0000
0000
000M
0000
,  // measure 70
0000
0000
0M00
0000
,  // measure 71
0000
0000
000M
0000
,  // measure 72
0000
3030
0220
000M
,  // measure 73
0000
0000
0000
M000
,  // measure 74
0000
0000
0000
000M
,  // measure 75
0000
0000
0000
M000
,  // measure 76
0000
0000
0330
2002
,  // measure 77
00M0
0000
0000
0000
,  // measure 78
0M00
0000
0000
0000
,  // measure 79
00M0
0000
0000
0000
,  // measure 80
0M00
0000
0000
3003
,  // measure 81
0022
0M00
0000
0000
,  // measure 82
0000
M000
0000
0000
,  // measure 83
0000
0M00
0000
0000
,  // measure 84
0000
M000
0000
0000
,  // measure 85
0033
2200
00M0
0000
,  // measure 86
0000
0000
000M
0000
,  // measure 87
0000
0000
00M0
0000
,  // measure 88
0000
0000
000M
0000
,  // measure 89
0000
3300
2020
0M00
,  // measure 90
0000
0000
0000
000M
,  // measure 91
0000
0000
0000
0M00
,  // measure 92
0000
0000
0000
000M
,  // measure 93
0000
0000
0000
0000
3030
0000
0010
0200
,  // measure 94
0000
0000
0000
0000
0310
0000
0100
0000
0010
0000
0100
0000
0010
1000
0100
1000
,  // measure 95
0010
0000
0110
0000
0100
0001
0010
0100
0010
0000
0011
0000
0001
1000
0010
1000
,  // measure 96
0001
0000
0101
0000
0100
0010
1000
0100
0010
0000
0110
0000
0010
0001
1000
0001
,  // measure 97
0100
0000
0000
0000
0110
0000
0000
0000
0010
1000
0001
1000
0001
1000
0001
1000
0001
1000
0001
1000
0001
1000
0001
1000
0200
0000
0000
0000
0010
0000
0000
0000
,  // measure 98
0010
0010
0010
0010
0000
0000
0310
0001
,  // measure 99
1000
0000
0010
0000
0220
0000
0330
0000
2002
0000
3003
0000
0001
0100
0000
0010
,  // measure 100
1000
0000
1000
0100
0000
1000
0100
0000
0010
0000
0011
0000
0001
0100
0000
0100
,  // measure 101
0001
0000
0001
1000
0000
1000
0010
0000
0100
0000
0010
0000
1000
0010
0000
0100
,  // measure 102
0001
0000
0001
0010
0000
0100
1000
0000
0001
0000
1001
0000
1000
0010
0000
0010
,  // measure 103
0100
0000
0100
0001
0000
0001
0010
0000
0100
0000
0010
0000
0001
0100
0000
0100
,  // measure 104
0010
0000
0010
1000
0000
1000
0010
0000
0100
0000
0101
0000
0001
1000
0000
0010
,  // measure 105
1000
0000
1000
0100
0000
0100
0010
0000
0001
0000
0010
0000
0001
0100
0000
0010
,  // measure 106
0100
0000
0100
0010
0000
0010
1000
0000
0001
0000
0101
0000
0010
1000
0001
1000
,  // measure 107
0020
0000
0000
0000
0130
0000
1001
0000
1000
0100
0000
0100
0010
0000
0010
0001
,  // measure 108
0000
0001
1000
0000
0010
0000
0011
0000
0010
1000
0000
1000
0100
0000
0100
0001
,  // measure 109
0000
0001
0100
0000
1000
0000
1010
0000
0010
0100
0000
0100
0001
0000
0001
0010
,  // measure 110
0000
0010
0100
0000
1000
0000
1001
0000
0001
1000
0000
1000
0010
0000
0010
0000
,  // measure 111
0100
0000
0100
0010
0200
0000
0000
0000
0310
1000
0000
0010
1000
0000
1000
0001
,  // measure 112
0000
1000
0001
0000
0200
0000
0302
0000
1003
0100
0000
1000
0100
0000
0100
0010
,  // measure 113
0000
0100
0010
0000
0010
0001
0100
0001
0010
0100
0000
0100
1000
0000
1000
0001
,  // measure 114
0000
0001
0100
0000
0020
0000
0230
0000
0301
0000
1000
0000
0001
0000
2001
0000
,  // measure 115
3010
0000
0110
0000
0110
0100
0100
0110
,  // measure 116
0010
0010
1010
1000
1001
1001
0001
0100
,  // measure 117
0101
0001
0001
1000
1001
1000
1000
1010
,  // measure 118
0010
0010
0110
0100
0101
0101
0001
1000
,  // measure 119
1100
0100
0100
0110
0110
0010
0010
0011
,  // measure 120
0001
0001
1001
1000
1010
1010
0010
0100
,  // measure 121
0220
0000
0000
0330
0010
0010
1000
0010
,  // measure 122
0010
0000
0000
0010
0000
0000
0200
0000
0000
0000
0300
0000
0002
0000
0000
2003
0000
0000
3020
0000
0000
2030
0000
0000
,  // measure 123
3002
0000
0000
0000
2000
0000
3003
0000
1000
0010
0000
0010
0100
0000
0010
1000
,  // measure 124
0000
1000
0100
0000
0010
0001
0010
0000
0100
1000
0000
1000
0001
0000
0001
0100
,  // measure 125
0000
0010
0100
0000
0100
0001
0100
0000
0010
1000
0000
1000
0100
0000
0100
0001
,  // measure 126
0000
0001
1000
0000
1000
0010
1000
0000
0010
0001
0000
0001
0100
0000
0100
0010
,  // measure 127
0000
1000
0010
0000
0020
0000
0230
0000
0301
0100
0000
0001
1000
0000
1000
0010
,  // measure 128
0000
1000
0100
0000
0100
0010
0001
0000
0001
0010
0000
0100
1000
0000
1000
0001
,  // measure 129
0000
0001
0100
0000
0010
1000
0100
0000
1000
0010
0000
0010
0100
0000
0001
1000
,  // measure 130
0000
0001
0100
0000
0100
0010
1000
0000
0001
0001
2000
0000
3001
0001
0200
0320
,  // measure 131
1030
0100
1000
0000
0010
1000
0010
0000
0100
0010
0100
0000
0001
0000
0101
0000
,  // measure 132
0100
0010
0100
0000
0010
1000
0010
0000
1000
0100
1000
0000
0001
2000
0000
0000
,  // measure 133
3010
0100
0001
0000
0100
0010
1000
0000
0001
0010
0100
0000
0100
0020
0000
0000
,  // measure 134
0031
0100
0001
0000
1000
0010
1000
0000
0010
0100
0001
0000
2002
0000
0000
3003
,  // measure 135
0010
0100
0001
0000
1000
0010
0100
0000
0001
0010
0100
0000
0010
0001
1000
0000
,  // measure 136
1000
0100
0010
0000
0001
1000
0010
0000
0100
0001
1000
0000
0010
0100
0010
0000
,  // measure 137
0100
0000
0100
0000
0220
0000
0000
0330
0002
0000
0000
0000
1003
1000
0100
0010
,  // measure 138
0100
0200
0000
0000
0310
0011
0011
0000
0101
0000
0110
0000
0010
1010
1010
0000
,  // measure 139
1100
0000
0110
0000
0010
0001
1000
0001
0010
0000
0110
0000
0100
1000
0001
1000
,  // measure 140
0010
0000
0110
0000
0010
1000
0100
0010
0001
0010
0100
1000
0010
0100
0001
0100
,  // measure 141
0010
1000
0100
0010
0001
0100
0010
1000
0100
1000
0010
0100
0001
0010
0001
0100
,  // measure 142
0020
0000
0000
0000
1030
0100
1000
0010
0100
0001
0010
0100
0010
0001
0100
0010
,  // measure 143
1000
0100
0010
0001
2000
0000
3020
0000
0230
0000
0000
0000
0302
0000
0000
0000
,  // measure 144
2000
0000
3003
0000
1010
1000
0010
1000
0010
1000
0010
1000
0010
1000
0010
1000
,  // measure 145
0010
0000
1000
0000
0010
0000
1000
0000
0010
0000
0010
0000
0100
0000
0001
0000
0000
0001
0010
0000
0010
0000
0000
0000
0100
0000
0100
0000
1000
0000
0010
0000
,  // measure 146
0000
0010
1000
0000
1000
0000
0000
0000
0100
0000
0100
0000
0010
0000
0001
0000
0000
0001
1000
0000
1000
0000
0000
0000
0010
0000
0010
0000
0100
0000
0001
0000
,  // measure 147
0000
0001
1000
0000
0010
0000
0000
0000
0010
0000
0010
0000
0100
0000
0001
0000
0000
0001
1000
0000
1000
0000
0000
0000
2010
0000
0000
0000
0100
0000
0000
0000
,  // measure 148
0001
0000
3010
0000
0101
0100
0001
0100
0001
0100
0001
0100
0001
0100
0001
0100
,  // measure 149
0001
0100
0001
0100
0001
0000
0001
0010
0100
1000
0010
0000
1010
0000
1000
0010
,  // measure 150
0100
0001
0010
0000
0110
0000
0010
0001
0100
0010
1000
0000
1100
0000
0100
0010
,  // measure 151
0001
1000
0010
0000
1010
0000
0010
0100
0001
0010
0100
0000
1100
0000
0100
0010
,  // measure 152
0001
1000
0001
0000
2001
0000
0100
0000
0010
0000
3001
0000
1002
0000
0100
0000
,  // measure 153
0010
1003
2010
0100
0010
3001
0012
0100
,  // measure 154
0010
1003
1020
0100
0001
0130
0210
1000
,  // measure 155
0010
0000
0301
0000
0002
0000
1003
0010
1000
0010
1000
0000
0020
0000
0130
0010
,  // measure 156
0200
0000
0320
0000
1030
0100
0010
0000
0100
1000
0001
0000
0100
0010
1000
0000
,  // measure 157
0010
0100
0001
0000
0010
0100
1000
0000
0010
0001
0100
0000
0001
1000
0010
0000
,  // measure 158
0100
0001
0010
0000
0100
1000
0010
0000
0100
0001
1000
0000
1000
0010
0100
0000
,  // measure 159
0001
0010
0100
0000
0100
0010
0001
0000
1000
0010
0100
0000
0001
0100
0010
0000
,  // measure 160
1000
0001
0100
0000
0001
0010
0100
0000
0010
0001
1000
0000
0100
0010
0001
0000
,  // measure 161
1000
0100
0010
0000
0100
1000
0001
0000
1000
0010
0100
0000
0001
0100
0010
0000
,  // measure 162
1000
0010
0100
0000
0001
0010
0100
0000
1000
0100
0010
0000
0002
0000
0203
0000
,  // measure 163
0310
0000
0010
0000
1000
0000
1000
0000
0001
0000
0100
0000
0010
1000
0010
0000
1001
0000
0000
0000
1000
0000
0000
0000
0001
0000
0100
0000
0001
0000
0000
0000
,  // measure 164
1000
0010
1000
0000
0001
0010
0001
0000
1100
0000
0100
0000
0010
0001
0010
0000
,  // measure 165
0001
1000
0001
0000
1000
0010
1000
0000
1010
0000
0010
0000
0100
0001
0100
0000
,  // measure 166
0010
1000
0010
0000
1000
0100
1000
0000
0110
0000
0010
0000
0001
1000
0001
0000
,  // measure 167
1000
0001
1000
0000
0020
0000
0000
0000
0130
0000
0100
0000
0001
1000
0010
0000
,  // measure 168
1000
0001
0010
0000
0001
1000
0010
0000
1001
0000
0010
0000
1000
0010
0100
0000
,  // measure 169
0001
0010
0100
0000
1000
0010
0100
0000
0201
0000
0000
0300
1020
0000
0000
0030
,  // measure 170
0201
0000
0000
0300
1020
0000
0000
0030
2000
0000
0000
0000
0001
0000
0001
0000
,  // measure 171
3020
0130
0000
0000
0220
0330
0220
0330
,  // measure 172
0001
1000
0020
0000
0030
0000
0000
0000
,  // measure 173
0001
1000
0020
0030
2002
3003
2002
3003
,  // measure 174
1000
0100
0020
0030
0022
0033
0022
0033
,  // measure 175
0001
0100
0020
0030
1000
0010
0200
0300
,  // measure 176
1001
0000
0001
0001
1001
0000
1000
1000
,  // measure 177
1001
0001
0100
0100
0010
0010
1000
1000
,  // measure 178
0010
0000
0100
0000
0010
0000
0100
0000
0020
0000
0100
0100
0230
0000
0301
0000
,  // measure 179
0001
0100
0001
0100
0001
0100
0001
0100
0010
0000
1000
0000
0100
0010
0001
0000
,  // measure 180
1000
0000
0001
0010
0100
0000
1000
0001
0100
0000
0010
0000
1000
0001
1000
0000
,  // measure 181
1000
0010
0100
0010
1000
0010
0100
0010
1000
0000
0001
0000
1000
0010
0100
0000
,  // measure 182
0001
0000
0010
0100
1000
0000
1000
0100
0010
0000
0001
0000
0100
0001
0100
0000
,  // measure 183
0001
1000
0100
1000
0001
1000
0100
1000
0001
0000
0100
0000
0001
0010
0100
0000
,  // measure 184
1000
0000
0010
0100
0001
0000
0001
0100
0010
0000
1000
0000
0010
1000
0010
0000
,  // measure 185
1000
0001
1000
0001
1000
0001
1000
0001
0100
0000
0010
0000
1000
0001
0100
0000
,  // measure 186
0010
0000
0010
0100
0001
0000
1000
0000
0002
0000
1000
0000
2000
0000
3003
0000
,  // measure 187
0010
1000
0100
0000
0010
0001
0100
0000
0010
1000
0100
0000
0010
0001
0100
0000
,  // measure 188
0001
1000
0010
0000
1000
0001
0010
0000
0001
1000
0010
0000
1000
0001
0010
0000
,  // measure 189
0100
1000
0001
0000
0100
0001
1000
0000
0100
1000
0001
0000
0100
0001
1000
0000
,  // measure 190
0020
0130
0020
1030
2010
3000
2001
3000
,  // measure 191
0001
0100
0010
0000
0100
0001
1000
0000
0010
0100
0001
0000
1000
0010
0100
0000
,  // measure 192
0100
0010
1000
0000
0100
0010
0001
0000
0010
0100
1000
0000
0001
0100
0010
0000
,  // measure 193
0100
0001
1000
0000
0010
0100
0001
0000
1000
0100
0010
0000
0100
1000
0001
0000
,  // measure 194
1100
0000
0000
0000
1100
0000
0000
0000
1002
0000
0000
0003
1020
0000
0000
0030
,  // measure 195
0100
0001
0100
0001
0010
0001
0010
0001
,  // measure 196
0010
0100
0010
0100
1000
0100
1000
0100
,  // measure 197
1000
0001
1000
0001
0100
0001
0100
0001
,  // measure 198
0010
0001
0010
0001
0010
0100
0010
0100
,  // measure 199
1000
0001
1000
0001
0100
0010
0100
0010
,  // measure 200
1000
0001
1000
0001
0010
0100
0010
0100
,  // measure 201
1000
0100
1000
0100
0010
0001
0010
0001
,  // measure 202
2000
0000
0000
3020
0000
0000
0230
0000
0000
0302
0000
0000
1003
0000
0000
0000
,  // measure 203
1010
0000
0101
0000
1001
0000
1000
0100
,  // measure 204
0010
0000
0011
0000
0011
0000
0001
0100
,  // measure 205
0010
0000
1010
0000
1010
0000
1000
0001
,  // measure 206
0100
0000
0101
0000
0101
0000
0100
0010
,  // measure 207
1000
0000
1100
0000
1100
0000
0100
0010
,  // measure 208
0001
0000
0011
0000
0011
0000
0001
0010
,  // measure 209
0100
0000
1001
0000
1001
0000
0100
0010
,  // measure 210
0100
0110
1001
2002
,  // measure 211
0000
3003
0000
0000
;
