#TITLE:Ra;
#SUBTITLE:;
#ARTIST:Banzai;
#TITLETRANSLIT:;
#SUBTITLETRANSLIT:;
#ARTISTTRANSLIT:;
#GENRE:;
#CREDIT:;
#MENUCOLOR:;
#METERTYPE:DDR;
#BANNER:rafull bn.png;
#BACKGROUND:rafull bg.png;
#LYRICSPATH:;
#CDTITLE:cdtitle2.png;
#MUSIC:Ra.mp3;
#OFFSET:-4.751;
#SAMPLESTART:47.960;
#SAMPLELENGTH:12.000;
#SELECTABLE:YES;
#LISTSORT:;
#BPMS:0.000=125.020;
#STOPS:;
#BGCHANGES:;
#ATTACKS:;

//---------------dance-single - Maro----------------
#NOTES:
     dance-single:
     Maro:
     Hard:
     14:
     0.662,0.625,0.188,0.300,0.578: // measure 1
0110
0000
0010
0100
0000
0100
0001
0000
0020
0000
0000
0230
0000
0000
2300
0000
,  // measure 2
0000
0000
3010
0100
0000
0100
0001
0000
2000
0000
0000
3020
0000
0000
0230
0000
,  // measure 3
0000
0000
0301
0010
0000
0010
0100
0000
0020
0000
0000
0032
0000
0000
2003
0000
,  // measure 4
0000
0000
3010
0100
0000
0100
0010
0000
2000
0000
0000
3002
0000
0000
0013
0000
,  // measure 5
0100
0000
0100
1000
0000
0100
1000
0000
2000
0000
0000
3002
0000
0000
0203
0000
,  // measure 6
0000
0000
0310
1000
0000
0010
1000
0000
0002
0000
0000
0023
0000
0000
0230
0000
,  // measure 7
0000
0000
1300
0001
0000
1000
0001
0000
0020
0000
0000
0032
0000
0000
0203
0000
,  // measure 8
0000
0000
0310
1000
0000
0001
0100
0000
0010
0000
0010
0000
0100
0000
0100
0000
,  // measure 9
0010
0000
0000
1000
0100
0000
0010
0000
0001
0000
0000
0001
0010
0000
0100
0000
,  // measure 10
1000
0000
0000
1000
0010
0000
0001
0000
0010
0000
0000
0010
0100
0000
0101
0000
,  // measure 11
0101
0000
0000
0001
1000
0000
0100
0000
1000
0000
0000
1000
0010
0000
0100
0000
,  // measure 12
0001
0000
0000
0010
0100
0000
0010
0000
0001
1000
0000
0000
1010
0000
0000
0000
,  // measure 13
0101
0000
0000
0010
0100
0000
0001
0000
1000
0000
0000
1000
0100
0000
0001
0000
,  // measure 14
0100
0000
0000
0100
0010
0000
0001
0000
1000
0000
0000
1000
0010
0000
0110
0000
,  // measure 15
0110
0000
0000
0010
0100
0000
0001
0000
1000
0000
0000
0100
0010
0000
0001
0000
,  // measure 16
0100
0000
0000
0010
0100
0000
0001
0000
1000
0000
1000
0000
0001
0000
0001
0000
,  // measure 17
1000
0100
0010
0100
0010
0001
0010
0100
,  // measure 18
1000
0100
0001
0100
1000
0010
0100
0010
,  // measure 19
0001
0010
0100
0010
1000
0100
0010
0001
,  // measure 20
1000
0010
0100
0001
1000
0010
0100
0001
,  // measure 21
1000
0000
0000
1010
0000
0000
0010
0000
0100
0001
0000
0001
0010
0000
0100
0000
,  // measure 22
1000
0000
0000
1100
0000
0000
0100
0000
0010
0001
0000
0001
0100
0000
0010
0000
,  // measure 23
0100
0000
0000
0101
0000
0000
0010
0000
1000
0100
0000
0100
1000
0000
0010
0000
,  // measure 24
0100
0000
0000
0110
0000
0000
0010
0000
1000
0000
1000
0000
0001
0000
0001
0000
,  // measure 25
1000
0000
1000
0100
0000
0000
0010
0000
0001
0000
0000
0101
0000
0000
0100
0000
,  // measure 26
0010
0000
0010
1000
0000
0000
1000
0000
0010
0000
0000
0110
0000
0000
0100
0000
,  // measure 27
0001
0000
0001
0010
0000
0000
0100
0000
1000
0000
0000
1100
0000
0000
0100
0000
,  // measure 28
0010
0000
0001
1000
0000
0000
1000
0000
0010
0100
0010
0000
1000
0000
1001
0000
,  // measure 29
0001
0010
0100
0000
0010
0000
0001
1000
0000
0010
0000
0000
0001
0000
0010
0000
,  // measure 30
1000
0000
0100
0000
0001
0000
0100
2000
0000
0000
0000
0000
3020
0000
0000
0000
,  // measure 31
0130
0001
1000
0000
0010
0000
0001
0010
0000
1000
0000
0000
0100
0000
0001
0000
,  // measure 32
0100
0000
1000
0000
0010
0000
0100
0002
0000
0000
0000
0000
0023
0000
0000
0000
,  // measure 33
0130
1000
0001
0000
1000
0000
0010
0100
0000
0000
0100
0010
1000
0000
0001
0000
,  // measure 34
0100
0000
0001
0000
0010
0000
0100
2000
0000
0000
0000
0000
3002
0000
0000
0000
,  // measure 35
0103
0010
0001
0000
0010
0000
0100
0010
0000
0000
0010
1000
0001
0000
1000
0100
,  // measure 36
0000
0000
0010
0000
0001
0000
0100
0020
0000
0000
0000
0000
0030
1000
0001
1000
,  // measure 37
0001
0010
0100
0000
0010
0000
0001
0000
0100
0000
0010
0000
0001
0000
0010
0000
,  // measure 38
0100
0000
0010
0000
1000
0000
0100
0010
0000
0000
0000
0000
1011
0000
0000
0000
,  // measure 39
0001
0100
0010
0000
1000
0000
0010
0000
0100
0000
0001
0000
0010
0000
0100
0000
,  // measure 40
0010
0000
0001
0000
1000
0000
0010
1000
0000
0000
0000
0000
1110
0000
0000
0000
,  // measure 41
0010
0100
0001
0000
0010
0000
0100
1000
0000
0000
1000
0000
0100
0000
0010
0001
,  // measure 42
0000
0000
0001
0000
0010
0000
0100
1000
0000
0000
0000
0000
1101
0000
0000
0000
,  // measure 43
0001
0100
0010
0000
1000
0000
0010
0100
0000
0000
0001
0100
0001
0000
0100
0000
,  // measure 44
0010
1000
0001
0000
1000
0000
1000
0200
0000
0000
0310
0002
0000
0000
1003
0000
,  // measure 45
0010
0000
0000
0110
0000
0000
0100
0000
0001
1000
0000
0100
0000
0000
0010
0000
,  // measure 46
0001
0000
0000
0101
0000
0000
0100
0000
0010
1000
0000
0010
0000
0000
0100
0000
,  // measure 47
0010
0000
0000
1010
0000
0000
1000
0000
0100
0010
0000
0001
0000
0000
0100
0000
,  // measure 48
0220
0000
0000
0000
0330
0000
1000
0000
0001
0010
0100
0000
0100
0000
1100
0000
,  // measure 49
1000
0000
0000
0100
0000
0000
0010
0000
0000
0001
0000
0000
0100
0000
0000
0001
0100
0001
0100
0000
0000
0010
0000
0000
,  // measure 50
2000
0100
3200
0001
0320
0001
2030
0001
,  // measure 51
3010
0000
0010
0000
0001
0000
0100
0010
0000
0010
0001
0000
0010
1000
0000
1000
,  // measure 52
0100
0000
0010
0000
0001
0000
1000
0100
0000
0100
0001
0000
1000
0010
0000
0010
,  // measure 53
0001
0000
0000
0100
0000
0000
0010
0000
0000
1000
0000
0000
0010
0000
0000
0010
1000
0010
1000
0000
0000
0001
0000
0000
,  // measure 54
0200
1000
0302
0010
0023
1000
0230
0001
,  // measure 55
0310
0000
0011
0000
0101
0000
0100
0010
0000
0010
1000
0000
0100
0010
0000
0010
,  // measure 56
0001
0000
1001
0000
1010
0000
0010
0001
0000
0010
1000
0000
0100
0010
0000
0001
,  // measure 57
1000
0000
0000
0010
0000
0000
0100
0000
0000
0010
0000
0000
1000
0000
0000
0001
0100
0010
1000
0000
0000
0100
0000
0000
,  // measure 58
0010
0000
0000
0001
0000
0000
0010
0000
0000
0100
0000
0000
1000
0000
0000
0001
0010
0100
1000
0000
0000
0001
0000
0000
,  // measure 59
0100
0000
0010
0000
1010
0000
1000
0001
0000
0010
0100
0000
0010
0001
0000
1000
,  // measure 60
0010
0000
0100
0000
0101
0000
0010
1000
0000
0001
0100
0000
0010
1000
0000
0100
,  // measure 61
0010
0000
0000
0001
0000
0000
0010
0000
0000
1000
0000
0000
0010
0000
0000
0001
0100
0010
1000
0000
0000
0010
0000
0000
,  // measure 62
0100
0000
0000
0001
0000
0000
0010
0000
0000
0100
0000
0000
1000
0000
0000
1000
0100
0010
0001
0000
0000
0100
0000
0000
,  // measure 63
0010
0000
0010
0000
0100
0000
0001
0100
0000
0100
1000
0000
0001
0010
0000
0010
,  // measure 64
1000
0000
0000
0001
0000
0000
0001
0000
0000
1000
0010
1000
0010
0000
0000
0010
0100
0010
0100
0000
0000
0001
0000
0000
,  // measure 65
1000
0100
0000
0100
1000
0000
1000
0010
0100
0001
0000
0001
0010
0000
0001
0010
,  // measure 66
0100
1000
0000
1000
0010
0000
0100
0000
0001
0000
1000
0000
1001
0000
0001
0100
,  // measure 67
0010
1000
0000
1000
0100
0000
0010
0001
0100
0010
0000
0010
1000
0000
0001
0100
,  // measure 68
0010
1000
0000
1000
0100
0000
0010
0000
1001
0000
0010
0000
0110
0000
0010
1000
,  // measure 69
0010
1000
0000
0001
0010
0000
0100
1000
0100
1000
0000
0100
0010
0000
0001
0100
,  // measure 70
0001
0100
0000
0010
1000
0000
0001
0000
0100
0000
0010
0000
0110
0000
0001
0010
,  // measure 71
0001
0010
0000
0100
1000
0000
0010
0100
0010
0100
0000
0001
0010
0000
0100
0010
,  // measure 72
0100
0010
0000
0001
1000
0000
0010
0100
0000
0010
1000
0001
0100
0000
0010
0000
,  // measure 73
0000
0000
1000
0000
0010
0000
0010
0100
0000
0010
0100
0000
0001
0000
0010
0000
,  // measure 74
0000
0000
0001
0000
0010
0000
0001
1000
0000
0001
1000
0000
1000
0010
0100
0000
,  // measure 75
0000
0000
0010
0000
1000
0000
0010
0100
0000
0001
0100
0000
0010
0000
1000
0000
,  // measure 76
0000
0000
1000
0000
0100
0000
0010
0001
0000
0001
0010
0000
0100
1000
0001
0000
,  // measure 77
0000
0000
1000
0000
1000
0000
1000
0100
0000
0100
0010
0000
0001
0000
0001
0000
,  // measure 78
0000
0000
0001
0000
0001
0000
0001
0100
0000
0100
0010
0000
0010
1000
0010
0000
,  // measure 79
0000
0000
1000
0000
1000
0000
0010
0100
0000
0100
0010
0000
0001
0000
0001
0000
,  // measure 80
0000
0000
0001
0000
0001
0000
0001
0010
0000
0010
0100
0000
0100
0001
1000
0000
,  // measure 81
1000
0000
0100
0000
1000
0000
0100
0020
0000
0000
0000
0000
0002
0000
0000
0000
,  // measure 82
0033
0001
0100
0010
0100
0001
1000
0010
,  // measure 83
0100
0000
0001
0000
1000
0000
0001
0200
0000
0000
0000
0000
0020
0000
0000
0000
,  // measure 84
0330
0010
1000
0001
1000
0100
0010
0001
,  // measure 85
1000
0000
1000
0000
0100
0000
0100
0020
0000
0000
0000
0000
0002
0000
0000
0000
,  // measure 86
0033
0001
1000
0010
0001
0010
0100
0010
,  // measure 87
1000
0000
0001
0000
1000
0000
0001
0200
0000
0000
0000
0000
1301
0000
0000
0000
,  // measure 88
0010
1000
0000
0010
0100
0000
0010
0001
0000
0010
0100
0000
0010
0000
1000
0000
,  // measure 89
1000
0100
0010
0000
0100
0000
1000
0001
0000
0100
0000
0000
1000
0000
0100
0000
,  // measure 90
0001
0000
0010
0000
1000
0000
0010
0002
0000
0000
0000
0000
0203
0000
0000
0000
,  // measure 91
0310
1000
0001
0000
0100
0000
1000
0100
0000
0001
0000
0000
0010
0000
1000
0000
,  // measure 92
0010
0000
0001
0000
0100
0000
0010
2000
0000
0000
0000
0000
3200
0000
0000
0000
,  // measure 93
0310
0001
1000
0000
0001
0000
0100
0010
0000
0000
0010
0100
0001
0000
1000
0000
,  // measure 94
0010
0000
1000
0000
0100
0000
0010
0002
0000
0000
0000
0000
2003
0000
0000
0000
,  // measure 95
3010
0100
1000
0000
0100
0000
0010
0100
0000
0000
0100
0001
1000
0000
0001
0010
,  // measure 96
0000
0000
0100
0000
1000
0000
0010
0200
0000
0000
0000
0000
0300
0001
1000
0001
,  // measure 97
1000
0100
0010
0000
0100
0000
1000
0000
0010
0000
0100
0000
1000
0000
0100
0000
,  // measure 98
0010
0000
0100
0000
0001
0000
0010
0100
0000
0000
0000
0000
1101
0000
0000
0000
,  // measure 99
1000
0010
0100
0000
0001
0000
0100
0000
0010
0000
1000
0000
0100
0000
0010
0000
,  // measure 100
0100
0000
1000
0000
0001
0000
0100
0001
0000
0000
0000
0000
0111
0000
0000
0000
,  // measure 101
0100
0010
1000
0000
0100
0000
0010
0001
0000
0000
0001
0000
0010
0000
0100
1000
,  // measure 102
0000
0000
1000
0000
0100
0000
0010
0001
0000
0000
0000
0000
1011
0000
0000
0000
,  // measure 103
1000
0010
0100
0000
0001
0000
0100
0010
0000
0000
1000
0010
1000
0000
0010
0000
,  // measure 104
0100
0001
1000
0000
0001
0000
0001
0020
0000
0000
0130
2000
0000
0000
3001
0000
,  // measure 105
0100
0000
0000
0110
0000
0000
0010
0000
1000
0001
0000
0010
0000
0000
0100
0000
,  // measure 106
1000
0000
0000
1010
0000
0000
0010
0000
0100
0001
0000
0100
0000
0000
0010
0000
,  // measure 107
0100
0000
0000
0101
0000
0000
0001
0000
0010
0100
0000
1000
0000
0000
0010
0000
,  // measure 108
0220
0000
0000
0000
0330
0000
0001
0000
1000
0100
0010
0000
0010
0000
0011
0000
,  // measure 109
0001
0000
0000
0010
0000
0000
0100
0000
0000
1000
0000
0000
0010
0000
0000
1000
0010
1000
0010
0000
0000
0100
0000
0000
,  // measure 110
0002
0010
0023
1000
0230
1000
0302
1000
,  // measure 111
0103
0000
0100
0000
1000
0000
0010
0100
0000
0100
1000
0000
0100
0001
0000
0001
,  // measure 112
0010
0000
0100
0000
1000
0000
0001
0010
0000
0010
1000
0000
0001
0100
0000
0100
,  // measure 113
1000
0000
0000
0010
0000
0000
0100
0000
0000
0001
0000
0000
0100
0000
0000
0100
0001
0100
0001
0000
0000
1000
0000
0000
,  // measure 114
0020
0001
2030
0100
3200
0001
0320
1000
,  // measure 115
0130
0000
1100
0000
1010
0000
0010
0100
0000
0100
0001
0000
0010
0100
0000
0100
,  // measure 116
1000
0000
1001
0000
0101
0000
0100
1000
0000
0100
0001
0000
0010
0100
0000
1000
,  // measure 117
0002
0000
0000
0000
0000
0000
0203
0000
0000
0000
0000
0000
0310
0000
0000
0010
1000
0010
1000
0000
0000
1000
0000
0000
,  // measure 118
0200
0000
0000
0000
0000
0000
0320
0000
0000
0000
0000
0000
0031
0000
0000
0001
0100
0001
0100
0000
0000
0100
0000
0000
,  // measure 119
0010
0000
0000
1000
0000
0000
0010
0000
0100
0000
0000
0001
0000
0000
0010
0000
,  // measure 120
0100
0000
0000
1000
0000
0000
0100
0000
0010
0000
0000
0001
0000
0000
1000
0000
,  // measure 121
0020
0000
0000
0000
0000
0000
2030
0000
0000
0000
0000
0000
3001
0000
0000
0001
0100
0001
0100
0000
0000
0000
0000
0000
,  // measure 122
0020
0000
0000
0000
0000
0000
2030
0000
0000
0000
0000
0000
3100
0000
0000
0100
0010
0100
0010
0000
0000
0000
0000
0000
,  // measure 123
0001
0000
0000
0001
0000
0000
0001
0000
1000
0000
0000
1000
0000
0000
1000
0000
,  // measure 124
0010
0000
0000
0000
0000
0000
0000
0000
0000
0010
0000
0000
0000
0000
0000
0000
0000
0000
0010
0000
0000
0000
0000
0000
0100
0000
0000
0000
0000
0000
0010
0000
0100
0000
0010
0000
0100
0000
0000
0000
0000
0000
0000
0000
0000
0000
0000
0000
,  // measure 125
2002
0000
0000
0000
,  // measure 126
3003
0000
0000
0000
;

//---------------dance-single - Maro----------------
#NOTES:
     dance-single:
     Maro:
     Challenge:
     17:
     0.894,0.900,0.584,0.208,1.000:
0110
0000
0010
0100
0000
0100
0010
0000
1000
0010
0000
1000
0001
0000
1000
0100
,
0000
0000
0010
0001
0000
0001
0100
0000
0010
0001
0000
0010
0100
0000
0010
1000
,
0000
0000
1000
0100
0000
0100
0010
0000
0001
0010
0000
0001
0100
0000
0001
1000
,
0000
0000
1000
0010
0000
0010
0100
0000
0010
0001
0000
0010
0100
0000
0010
1000
,
0000
0000
1000
0100
0000
0100
0010
0000
0010
0001
0000
0010
0100
0000
0010
1000
,
0000
0000
0010
0001
0000
0001
0100
0000
1000
0100
0000
0010
0100
0000
0001
0100
,
0000
0000
0001
0010
0000
0010
0100
0000
1000
0100
0000
0010
0100
0000
0001
0100
,
0000
0000
0000
0000
0000
0000
0100
0000
0000
1000
0000
0000
0000
0000
0000
1000
0000
0000
0001
0000
0000
0000
0000
0000
0100
0000
0000
0000
0000
0000
0010
0000
1000
0000
0010
0000
1000
0000
0000
0000
0000
0000
0001
0000
0000
0000
0000
0000
,
1001
0000
0000
1000
0010
0000
0100
0000
0001
0100
0000
0100
0001
0000
0010
0000
,
0100
0000
0000
0100
1000
0000
0010
0000
1000
0010
0000
0010
0100
0000
0101
0000
,
0011
0000
0000
0010
0001
0000
1000
0000
0100
0010
0000
0001
0100
0000
0010
0000
,
1000
0000
0000
1000
0001
0000
0100
0000
0010
1000
0000
1000
0001
0000
0100
0000
,
0110
0000
0000
0010
1000
0000
0010
0000
0100
0001
0000
0001
0100
0000
0010
0000
,
1000
0000
0000
1000
0100
0000
0010
0000
0001
0100
0000
0100
0001
0000
0011
0000
,
1100
0000
0000
1000
0001
0000
0100
0000
0010
0100
0000
0100
0001
0000
1000
0000
,
0100
0000
0000
0010
0001
0000
0100
0000
0010
1000
0000
0000
1010
0000
0101
0000
,
1001
0000
1000
0010
0000
1000
0010
0000
0100
0001
0000
0001
0010
0000
0100
0000
,
1000
0000
0100
0010
0000
0100
0010
0000
0001
0100
0000
0010
1000
0000
0010
0000
,
0110
0000
0000
1010
0000
0100
0001
0000
0001
0010
0000
0100
1000
0010
0100
0000
,
0101
0000
0000
1010
0000
1000
0100
0000
0010
0001
0000
0100
0010
1000
0001
0000
,
1100
0000
1000
0100
0000
0010
0001
0000
0001
0100
0000
0110
0000
0010
1000
0000
,
1010
0000
0010
0100
0000
0100
0001
0000
0001
1000
0000
1010
0000
1000
0100
0010
,
0001
0000
0001
0100
0000
0010
1000
0000
0100
0010
0000
0010
0100
0000
0010
0001
,
1000
0000
0000
1010
0000
0000
0101
0000
0001
1000
0000
1000
0100
0000
0010
0001
,
0100
0000
0010
1000
0000
0010
0001
0000
0010
1000
0000
1000
0100
0000
0010
0001
,
1000
0000
0100
0001
0000
0100
1000
0000
1000
0010
0000
0100
0001
0000
1000
0010
,
0100
0000
0001
1000
0000
1000
0001
0000
0010
0100
0000
0010
0001
0000
1000
0010
,
0100
0000
0010
0000
1000
0000
0010
0000
0100
0001
1000
0000
1001
0000
0110
0000
,
1000
0010
0001
0000
0001
0000
0001
0010
0000
1010
0000
0000
1100
0000
0110
0000
,
0011
0000
0110
0000
1100
0000
1000
0001
0020
0000
0000
0000
0230
0000
0000
0000
,
1300
0100
0001
0000
0001
0000
0001
0100
0000
1100
0000
0000
1100
0000
1010
0000
,
0110
0000
0101
0000
0011
0000
0010
0100
2000
0000
0000
0000
3002
0000
0000
0000
,
0013
0100
1000
0000
0010
0000
0010
0002
0000
0000
0013
1000
0100
0000
0001
0000
,
1001
0000
1000
0000
0010
0000
0001
1000
0020
0000
0000
0000
0032
0000
0000
0000
,
1003
0100
0001
0000
0010
0000
0010
2000
0000
0000
3001
0100
1000
0000
1000
0020
,
0000
0000
0031
1000
0100
0000
0100
0001
2000
0000
0000
0000
3010
0000
0010
0100
,
0101
0000
0110
0000
1010
0000
1000
0100
0000
0120
0000
0000
1030
0000
0010
0000
,
0011
0000
0101
0000
0110
0000
0010
0001
2000
0000
0000
0000
0202
0000
0000
0000
,
3313
1000
0100
0000
0110
0000
0010
1000
0000
1002
0000
0000
0103
0000
1000
0000
,
1010
0000
0010
0000
0011
0000
0010
0100
0002
0000
0000
0000
2020
0000
0000
0000
,
3133
1000
0010
0000
0011
0000
0001
2000
0000
0000
3100
0001
0010
0000
0010
2000
,
0000
0000
3001
0100
0010
0000
0010
0001
0200
0000
0000
0000
2002
0000
0000
0000
,
3313
0001
1000
0000
1100
0000
0100
0002
0000
0000
0013
0100
1000
0000
1001
0000
,
0001
0010
0100
0000
1100
0000
1000
0100
2200
0000
0000
0000
3322
0000
1000
0000
,
1033
0100
0000
0100
0001
0000
1000
0000
0001
0100
0000
0100
1000
0000
0010
0000
,
1000
0010
0000
0010
0001
0000
1000
0000
0001
0010
0000
0010
1000
0000
0001
0000
,
1001
0000
0010
0100
0000
0010
0100
0000
0001
0010
0000
0100
1000
0000
1000
0100
,
0010
0000
0001
1000
0000
0001
1000
0000
0010
0100
0110
0000
1010
0000
0101
0000
,
0001
0100
1000
0001
1000
0100
0001
1000
0001
0010
1000
0001
1000
0010
0001
1000
,
0010
0001
1000
0100
0001
0010
1000
0001
0100
1000
0010
0100
0001
0010
0100
1000
,
0001
0001
0010
0100
0010
0010
0100
1000
0100
0100
1000
0100
1000
1000
0100
0010
,
0100
0100
0010
0001
0010
0010
0001
0010
0100
0100
1000
0010
0110
0000
1001
0000
,
1000
0100
0010
1000
0001
0100
0010
0001
0100
0010
0001
1000
0100
0010
1000
0100
,
0001
1000
0010
0001
0100
1000
0001
0010
1000
0100
0010
1000
0001
0100
0010
0001
,
1000
1000
0010
0100
0010
0010
0001
0010
0100
0100
0010
1000
0100
0100
0010
0001
,
0100
0100
0001
0010
0100
0100
1000
0100
0010
0010
0001
1000
0010
0100
0001
1000
,
0001
0100
0010
0001
1000
0100
0001
0010
0100
1000
0010
0100
0001
0010
0100
1000
,
0100
0010
1000
0010
0001
0100
0010
0001
1000
0100
0001
0010
0100
1000
0010
0100
,
0001
0001
0100
0010
0100
0100
0010
1000
0010
0010
1000
0100
1000
1000
0100
0010
,
0100
0100
0010
0001
0100
0100
0001
0100
0010
0010
1000
0100
1000
1000
0010
0100
,
0001
0010
1000
0010
0001
0010
0100
0010
0001
0010
1000
0010
0001
0100
0010
0100
,
1000
0100
0001
0100
1000
0100
0010
1000
0001
0010
0001
0100
0001
0010
0001
1000
,
0010
1000
0100
0010
0001
0010
0100
1000
0001
0010
0100
0010
0001
1000
0100
0010
,
0001
0000
0000
0100
0000
0000
0010
0000
0000
1000
0000
0000
0010
0000
0000
0100
0000
0000
0001
0000
0000
0010
0000
0000
0100
0000
1000
0000
0001
0000
1000
0000
0100
0000
1000
0000
0001
0000
1000
0000
0100
0000
1000
0000
0000
0010
0000
0000
,
1000
0100
0000
0100
0001
0000
1000
0010
0001
0100
0000
0100
1000
0000
0001
0010
,
1000
0100
0000
0100
0001
0000
0101
0000
1100
0000
1010
0000
0101
0000
0010
1000
,
0001
0010
0000
0010
1000
0000
0001
0100
1000
0010
0000
0010
0001
0000
1000
0100
,
0001
0010
0000
0010
1000
0000
1010
0000
0010
0001
0100
0010
1000
0000
0010
1000
,
0001
0010
0000
0010
1000
0000
0001
0100
1000
0100
0000
0100
0001
0000
1000
0010
,
0001
0010
0000
0010
1000
0000
1010
0000
0011
0000
0101
0000
0110
0000
0100
0001
,
1000
0010
0000
0010
0001
0000
1000
0100
0001
0100
0000
0100
1000
0000
0001
0010
,
1000
0010
0000
0010
0001
0000
0001
0010
0000
0010
1000
0001
0010
0000
0110
0000
,
0010
0000
0001
0100
0010
0000
0010
0001
1000
0000
1000
0100
0000
0100
0010
1000
,
0100
0000
0010
0001
0100
0000
0100
0001
0010
0000
0100
1000
0000
1000
0001
0100
,
0010
0000
0010
0001
1000
0000
1000
0001
0010
0000
0010
1000
0000
0100
0010
0001
,
0100
0000
0010
1000
0100
0000
0100
0010
0001
0000
0001
1000
0000
1000
0010
0100
,
0001
0000
0101
0000
1010
0000
1000
0100
0000
0100
0010
0000
0011
0000
1100
0000
,
0010
0000
0110
0000
1001
0000
0001
0010
0000
0100
1000
0000
0010
0100
0001
0000
,
1000
0000
1010
0000
0101
0000
0001
0010
0000
0100
1000
0000
1010
0000
0101
0000
,
1000
0000
0100
0010
0001
0000
0001
1000
0000
0010
0100
0001
1000
0010
0100
0000
,
1010
0000
0110
0000
0101
0000
0001
0020
0000
0000
0000
0000
2002
0000
0000
0000
,
3133
0010
0100
0001
0100
1000
0100
0010
,
0011
0000
0101
0000
0110
0000
0010
2000
0000
0000
0000
0000
0202
0000
0000
0000
,
3313
1000
0100
0000
0010
0000
0001
0000
0010
0000
0100
0000
0010
0000
0001
0100
,
0010
0001
0010
0000
1000
0000
0100
0010
1000
0010
0100
0000
1100
0000
1000
0010
,
0001
0010
1000
0001
0100
0000
0010
0000
1000
0000
0010
0000
0100
0001
1000
0010
,
0100
0010
1000
0000
0001
0000
0010
1000
0001
1000
0010
0000
0011
0000
0001
0100
,
0010
0001
0000
0010
1000
0000
1001
0000
0010
1000
0001
0000
1001
0000
0110
0000
,
1000
0100
0010
0000
0011
0000
0001
0010
0000
0110
0000
0000
0100
0000
1000
0000
,
1010
0000
0110
0000
0101
0000
0001
0010
0100
1000
0010
0000
0100
0001
1000
0000
,
0010
0100
0001
0000
1001
0000
1000
0010
0000
0110
0000
0000
0010
0000
0001
0000
,
0011
0000
1010
0000
1100
0000
0010
0001
1000
0010
0100
0000
0001
0010
0100
0000
,
1000
0100
0010
0001
0100
0000
0100
0010
0000
0000
0010
0100
0001
0000
1001
0000
,
1100
0000
0110
0000
0011
0000
0001
0100
0020
0000
0000
0000
2030
0000
0000
0000
,
3001
0100
0010
1000
0100
0000
0100
0010
0000
0000
0001
0010
1000
0000
1000
0010
,
0000
0000
0011
0000
0110
0000
0100
1000
0002
0000
0000
0000
0000
0103
0010
1000
,
0001
0000
0011
0000
0110
0000
0100
1000
0000
1020
0000
0000
0130
0000
0100
0001
,
1000
0000
1010
0000
0011
0000
0010
0100
0002
0000
0000
0000
2020
0000
0000
0000
,
3133
1000
0010
0000
0011
0000
0010
0100
0000
0102
0000
0000
1003
0000
1000
0100
,
0010
0000
0011
0000
0110
0000
0100
1000
0020
0000
0000
0000
0202
0000
0000
0000
,
1333
0100
0010
0000
0011
0000
0001
0100
0000
0000
0100
0010
1000
0000
1000
0200
,
0000
0000
0301
0100
1000
0000
1000
0010
0200
0000
0000
0000
2002
0000
0000
0000
,
3313
0001
1000
0000
1010
0000
0010
0200
0000
0000
0301
0010
0100
0000
1100
0000
,
0100
0010
0001
0000
0011
0000
0001
0100
0010
0000
1000
0100
0010
0000
0011
0000
,
1100
0000
0000
1011
0000
0000
0101
0000
0100
0010
0000
0010
1000
0000
0001
0100
,
0010
0000
0000
1110
0000
0000
1100
0000
0100
0010
0000
0001
0100
0000
0001
0010
,
0100
0000
0000
0111
0000
0000
0101
0000
0001
0100
0000
0010
1000
0000
0001
0100
,
0010
0000
0000
0010
0100
0000
0110
0000
0010
1000
0001
0000
1001
0000
1001
0000
,
1000
0010
0001
1000
0001
0010
1000
0001
1000
0100
0001
1000
0001
0100
1000
0001
,
0100
1000
0001
0010
1000
0100
0001
1000
0010
0001
0100
0010
1000
0100
0010
0001
,
1000
1000
0100
0010
0100
0100
0010
0001
0010
0010
0001
0010
0001
0001
0010
0100
,
0010
0010
0100
1000
0100
0100
1000
0100
0010
0010
0001
0100
0110
0000
1001
0000
,
0001
0010
0100
0001
1000
0010
0100
1000
0010
0100
1000
0001
0010
0100
0001
0010
,
1000
0001
0100
1000
0010
0001
1000
0100
0001
0010
0100
0001
1000
0010
0100
1000
,
0001
0001
0100
0010
0100
0100
1000
0100
0010
0010
0100
0001
0010
0010
0100
1000
,
0010
0010
1000
0100
0010
0010
0001
0010
0100
0100
1000
0001
0100
0010
1000
0001
,
1000
0000
0000
0100
0000
0000
0000
0000
0000
0100
0000
0000
0010
0000
0000
0000
0000
0000
0001
0000
0000
0000
0000
0000
0010
0000
0000
0000
0000
0000
0001
0000
0010
0000
0100
0000
1000
0000
0000
0000
0000
0000
1001
0000
0000
0000
0000
0000
,
0001
0000
0000
0100
0000
0000
0000
0000
0000
0100
0000
0000
0010
0000
0000
0000
0000
0000
1000
0000
0000
0000
0000
0000
0010
0000
0000
0000
0000
0000
1000
0000
0010
0000
0100
0000
0001
0000
0000
0000
0000
0000
0110
0000
0000
0000
0000
0000
,
1010
0000
0010
0100
0000
0010
0001
0000
0010
1000
0001
0000
1000
0100
0000
0010
,
0001
0000
0001
0100
0000
0010
1000
0000
1000
0001
0010
0000
0100
1000
0001
0000
,
0100
0000
0000
0000
0000
0000
0000
0000
0000
0100
0000
0000
0010
0000
0000
0000
0000
0000
1000
0000
0000
0000
0000
0000
0100
0000
0000
0000
0000
0000
0100
0000
0010
0000
0100
0000
0010
0000
0000
0000
0000
0000
0001
0000
0000
0000
0000
0000
,
0100
0000
0000
0000
0000
0000
0000
0000
0000
0100
0000
0000
0010
0000
0000
0000
0000
0000
1000
0000
0000
0000
0000
0000
0001
0000
0000
0000
0000
0000
1000
0000
0010
0000
1000
0000
0010
0000
0000
0000
0000
0000
0100
0000
0000
0000
0000
0000
,
0001
0000
0011
0000
0010
0000
0010
0100
0000
0100
1000
0000
1000
0001
0000
0001
,
0100
0000
0000
0000
0000
0000
0110
0000
0000
0000
0000
0000
0010
0000
0000
0000
0000
0000
0001
0000
0000
0010
0000
0000
1000
0000
0000
0001
0000
0000
1000
0000
0100
0000
0010
0000
0001
0000
0000
0000
0000
0000
1001
0000
0000
0000
0000
0000
,
0220
0000
0000
0000
,
0330
0000
0000
0000
;

//---------------dance-single - Maro----------------
#NOTES:
     dance-single:
     Maro:
     Medium:
     6:
     0.401,0.400,0.124,0.328,0.070:
1002
0000
0000
0000
0000
0000
0000
0000
0100
0000
0000
0100
0000
0000
0203
0000
,
0000
0000
0000
0000
0000
0000
0000
0000
0010
0000
0000
0010
0000
0000
0320
0000
,
0000
0000
0000
0000
0000
0000
0000
0000
1000
0000
0000
1000
0000
0000
2030
0000
,
0000
0000
0000
0000
0000
0000
0000
0000
0001
0000
0000
0001
0000
0000
3001
0000
,
0200
0000
0000
0000
0000
0000
0000
0000
0310
0000
0000
1000
0000
0000
0020
0000
,
0000
0000
0000
0000
0000
0000
0000
0000
0130
0000
0000
0001
0000
0000
0200
0000
,
0000
0000
0000
0000
0000
0000
0000
0000
0301
0000
0000
0010
0000
0000
0002
0000
,
0000
0000
0000
0000
1003
0010
1000
0010
,
0200
0301
0002
1003
,
2000
0000
3100
0000
0200
0000
0310
0001
,
0012
0103
0200
0310
,
0020
1030
2000
3001
,
1002
0013
0020
0130
,
0200
0000
1300
0000
2000
0000
3001
0100
,
0120
1030
2000
3100
,
0200
0000
0310
0000
2002
0000
0000
3003
,
0001
0100
0000
0100
0010
1000
0100
0000
,
0100
0010
0000
0010
0001
0100
0010
0000
,
1000
0010
0000
0010
0100
0001
0010
0000
,
0100
1000
0000
0001
0100
0010
1000
0000
,
0001
0000
0000
0001
0000
0000
0001
0000
0000
0000
0100
0000
0010
0000
0000
0000
,
1000
0000
0000
1000
0000
0000
1000
0000
0000
0000
0100
0000
0010
0000
0000
0000
,
0100
0000
0000
0100
0000
0000
0100
0000
0000
0000
1000
0000
0010
0000
0000
0000
,
0010
0000
0000
0010
0000
0000
0010
0000
1000
0000
0000
0000
1001
0000
0000
0000
,
0001
0100
0010
1000
0200
0000
0310
0000
,
0010
0001
1000
0100
2000
0000
3010
0000
,
0010
0100
0001
0010
0200
0000
0310
0000
,
0220
0000
0330
1001
,
0001
0100
0010
1000
0100
0000
0010
0000
,
0010
0001
0100
0000
0010
0000
0010
0000
,
0010
1000
0100
0010
0001
0000
1000
0000
,
0001
1000
0010
0000
0100
0000
0100
0000
,
0010
1000
0001
0100
0010
0000
0010
0100
,
0001
0000
0001
0100
0010
0000
1000
0000
,
0100
0010
0001
0010
0100
0000
0100
0010
,
0001
0000
0001
0100
0010
0000
0100
0000
,
0010
1000
0001
0000
0001
1000
0010
0000
,
0100
0001
1000
0000
0100
0000
0110
0000
,
0010
0001
0100
0000
0010
1000
0100
0000
,
1000
0010
0100
0000
0001
0000
1001
0000
,
1000
0100
0010
0000
0010
0001
0100
0000
,
0100
0010
1000
0000
0010
0000
0110
0000
,
0010
0100
0001
0000
1000
0000
0001
1000
,
0100
0010
0011
1100
,
1000
0000
0000
0100
0000
0000
0000
0000
0010
0000
0000
0001
0000
0000
0000
0000
,
0001
0000
0000
0100
0000
0000
0000
0000
0010
0000
0000
1000
0000
0000
0000
0000
,
1000
0000
0000
0100
0000
0000
0000
0000
1000
0000
0000
0010
0000
0000
0000
0000
,
0220
0000
0330
1001
,
2000
0100
0010
0001
,
0001
0010
0100
3100
,
1000
0100
0010
0000
0010
0001
1000
0000
,
1000
0010
0001
0000
0001
0010
1000
0000
,
0002
0010
0100
1000
,
1000
0100
0010
0013
,
0010
0001
1000
0000
0010
1000
0001
0000
,
0100
0010
1000
0000
0002
0000
2003
0000
,
3020
0100
2030
0010
,
3002
0010
0203
0010
,
0301
0010
0100
1000
0010
0100
0001
0000
,
0001
0100
0010
1000
0100
0010
0001
0000
,
2000
0100
3020
0100
,
2030
0001
3020
1000
,
0130
0001
1000
0100
0010
0000
0001
0000
,
1000
0010
0100
0000
0110
0000
1001
0000
,
0001
0000
0000
0001
0000
0000
0001
0000
0010
0000
0000
0010
0000
0000
0010
0000
,
0100
0000
0000
0100
0000
0000
0100
0000
1000
0000
0000
0000
1010
0000
0000
0000
,
1000
0000
0000
1000
0000
0000
1000
0000
0010
0000
0000
0010
0000
0000
0010
0000
,
0100
0000
0000
0100
0000
0000
0100
0000
0001
0000
1000
0000
0001
0000
0000
0000
,
1000
0000
0000
1000
0000
0000
1000
0000
0100
0000
0000
0100
0000
0000
0100
0000
,
0010
0000
0000
0010
0000
0000
0010
0000
0001
0000
0000
0000
1001
0000
0000
0000
,
0001
0000
0000
0100
0000
0000
0001
0000
1000
0000
0000
0100
0000
0000
1000
0000
,
0010
0000
0000
0100
0000
0000
0010
0000
0020
0000
0000
0000
0130
0000
0000
0000
,
2000
0100
0010
3000
,
0002
0010
0100
0003
,
0200
1000
0010
0300
,
0020
1000
0100
0030
,
1000
0100
0020
0000
0032
0000
0103
0000
,
0001
0100
0020
0000
2030
0000
3100
0000
,
1000
0001
0200
0000
0320
0000
1030
0000
,
0002
0000
2003
0000
3010
0100
0010
0000
,
0000
1000
0000
0010
0000
0100
0202
0000
,
0303
0001
0000
0010
0000
0100
0000
1000
,
0000
0010
0000
0100
0000
0010
2020
0000
,
3030
0100
0000
0010
0000
0001
0000
0100
,
0000
0010
0000
1000
0000
0001
2002
0000
,
3003
1000
0000
0100
0000
0010
0000
0001
,
0000
0100
0000
0010
0000
0100
0110
0000
,
0020
0000
0030
0100
0010
0010
1000
0000
,
1000
0010
0100
0001
0010
0000
0100
0000
,
0100
1000
0010
0000
0100
0000
0100
0000
,
0100
0001
0010
0100
1000
0000
0001
0000
,
1000
0001
0100
0000
0010
0000
0010
0000
,
0100
0001
1000
0010
0100
0000
0100
0010
,
1000
0000
1000
0010
0100
0000
0001
0000
,
0010
0100
1000
0100
0010
0000
0010
0100
,
1000
0000
1000
0010
0100
0000
0010
0000
,
0100
0001
1000
0000
1000
0001
0100
0000
,
0010
1000
0001
0000
0010
0000
0110
0000
,
0100
1000
0010
0000
0100
0001
0010
0000
,
0001
0100
0010
0000
1000
0000
1001
0000
,
0001
0010
0100
0000
0100
1000
0010
0000
,
0010
0100
0001
0000
0100
0000
0110
0000
,
0100
0010
1000
0000
0001
0000
1000
0001
,
0010
0100
1100
0011
,
0001
0000
0000
0010
0000
0000
0000
0000
0100
0000
0000
1000
0000
0000
0000
0000
,
1000
0000
0000
0010
0000
0000
0000
0000
0100
0000
0000
0001
0000
0000
0000
0000
,
0001
0000
0000
0010
0000
0000
0000
0000
0001
0000
0000
0100
0000
0000
0000
0000
,
0220
0000
0330
1001
,
0002
0010
0100
1000
,
1000
0100
0010
0013
,
0001
0010
0100
0000
0100
1000
0001
0000
,
0001
0100
1000
0000
1000
0100
0001
0000
,
2000
0100
0010
0001
,
0001
0010
0100
3100
,
0100
1000
0001
0000
0100
0001
1000
0000
,
0010
0100
0001
0000
2000
0000
3002
0000
,
0203
0310
0020
0130
,
0200
0301
0002
1003
,
2000
3100
0200
0310
,
0020
0031
0002
0103
,
0200
0000
0010
0001
,
0302
0000
0010
1000
,
2003
0000
0100
0100
,
3010
0100
0010
1001
,
0020
0000
0000
0000
,
0030
0000
0000
0000
;

//---------------dance-single - Maro----------------
#NOTES:
     dance-single:
     Maro:
     Easy:
     4:
     0.249,0.275,0.124,0.008,0.000:
0110
0000
1000
0000
,
0000
0000
0001
0000
,
0000
0000
0010
0000
,
0000
0000
0100
0000
,
1000
0000
0001
0000
,
0000
0000
1000
0000
,
0000
0000
0100
0000
,
0000
0000
0010
0010
,
1000
0100
0100
0010
,
0010
1000
1000
0001
,
0101
1000
1000
0001
,
0001
0010
0010
0100
,
0110
0001
0001
1000
,
1000
0010
0010
0100
,
1001
0010
0010
1000
,
1000
0001
0110
0000
,
0100
0000
0001
1000
,
1000
0000
0100
0001
,
0010
0000
1000
0001
,
1000
0000
1000
0010
,
0100
0000
0000
0001
,
0010
0000
0000
0001
,
1000
0000
0000
0001
,
0001
0000
0010
0110
,
0100
0001
1000
0001
,
0001
0010
0010
0001
,
0001
0100
1000
0001
,
1001
0000
0000
0110
,
0100
0001
1000
0001
,
0001
1000
0001
0001
,
0001
1000
0100
0010
,
0100
0001
1000
1000
,
0001
0100
0001
0001
,
0100
0100
0001
0010
,
1000
0100
1000
1000
,
0100
0100
0001
1000
,
0001
0100
0100
0001
,
1000
0010
1000
1001
,
0001
1000
0001
1000
,
0010
1000
0100
0110
,
0010
0001
0001
1000
,
1000
0010
0001
1001
,
0001
0100
0010
0100
,
1000
0001
0101
1010
,
0010
0000
0001
0000
,
0100
0000
0001
0000
,
0010
0000
0010
0000
,
1001
0000
0000
0110
,
0010
1000
0001
0100
,
0100
0001
1000
1000
,
0010
0001
0001
0010
,
0010
0100
0100
0010
,
0100
0001
1000
0010
,
0010
1000
0001
0001
,
0001
0010
0001
0100
,
1000
0010
0100
0010
,
0001
1000
0010
0001
,
0100
0001
1000
0001
,
0100
1000
0001
0100
,
0100
0001
1000
0100
,
0010
1000
0001
1000
,
0010
0100
0001
0010
,
1000
0010
0001
0100
,
0010
1000
1001
0110
,
0100
0000
0001
0000
,
1000
0000
0010
0011
,
0010
0000
0001
0000
,
1000
0000
0100
0100
,
0010
0000
1000
0000
,
0001
0000
0100
0110
,
0100
0000
0010
0000
,
0001
0000
0001
1000
,
0010
1000
0001
0000
,
0100
0001
1000
0000
,
1000
0010
0001
0000
,
0001
0010
1000
0000
,
0010
0001
0100
1000
,
0100
0001
0010
1000
,
0010
1000
0001
0010
,
0100
0010
0001
0001
,
0000
0000
0000
1100
,
0000
0000
0000
0000
,
0000
0000
0000
0011
,
0000
0000
0000
0000
,
0000
0000
0000
0110
,
0000
0000
0000
0000
,
0000
0000
0000
1001
,
0001
0000
0001
0010
,
0010
1000
0001
1000
,
1000
0001
1000
1000
,
1000
0001
0010
0100
,
0010
1000
0001
0001
,
1000
0010
1000
1000
,
0010
0010
1000
0100
,
0001
0010
0001
0001
,
0010
0010
1000
0001
,
1000
0010
0010
1000
,
0001
0100
0001
1001
,
1000
0001
1000
0001
,
0100
0001
0010
0110
,
0100
1000
1000
0001
,
0001
0100
1000
1001
,
1000
0010
0100
0010
,
0001
1000
1010
0101
,
0100
0000
1000
0000
,
0010
0000
1000
0000
,
0100
0000
0100
0000
,
1001
0000
0000
0110
,
0100
0001
1000
0010
,
0010
1000
0001
0001
,
0100
1000
1000
0100
,
0100
0010
0010
0100
,
0010
1000
0001
0100
,
0100
0001
1000
1000
,
1000
0100
1000
0010
,
0001
0100
0010
0100
,
1000
0001
0001
1000
,
1000
0100
0100
0010
,
0010
1000
1000
0001
,
0001
0100
0100
1000
,
1000
0000
0001
0100
,
0100
0000
0001
0010
,
0010
0000
1000
1000
,
0001
1000
0001
1000
,
2002
0000
0000
0000
,
3003
0000
0000
0000
;
