#VERSION:0.83;
#TITLE:Pledge;
#SUBTITLE:;
#ARTIST:Jo Sung Mo;
#TITLETRANSLIT:;
#SUBTITLETRANSLIT:;
#ARTISTTRANSLIT:;
#GENRE:;
#ORIGIN:;
#CREDIT:;
#BANNER:JO 2.png;
#BACKGROUND:JO.png;
#PREVIEWVID:;
#JACKET:;
#CDIMAGE:;
#DISCIMAGE:;
#LYRICSPATH:;
#CDTITLE:CDtitle.png;
#MUSIC:Pledge - Jo Sung Mo .mp3;
#OFFSET:-0.239000;
#SAMPLESTART:59.380001;
#SAMPLELENGTH:12.000000;
#SELECTABLE:YES;
#BPMS:0.000=138.005,
192.000=138.010;
#STOPS:624.000=0.003,
735.000=0.002;
#DELAYS:;
#WARPS:;
#TIMESIGNATURES:0.000=4=4;
#TICKCOUNTS:0.000=4;
#COMBOS:0.000=1;
#SPEEDS:0.000=1.000=0.000=0;
#SCROLLS:0.000=1.000;
#FAKES:;
#LABELS:0.000=Song Start;
#BGCHANGES:;
#KEYSOUNDS:;
#ATTACKS:
;

//---------------dance-single - Blank----------------
#NOTEDATA:;
#CHARTNAME:Blank;
#STEPSTYPE:dance-single;
#DESCRIPTION:Blank;
#CHARTSTYLE:;
#DIFFICULTY:Challenge;
#METER:18;
#RADARVALUES:1.050557,1.167578,0.523483,0.431350,1.423875,1756.000000,1631.000000,125.000000,103.000000,0.000000,0.000000,0.000000,0.000000,0.000000,1.050557,1.167578,0.523483,0.431350,1.423875,1756.000000,1631.000000,125.000000,103.000000,0.000000,0.000000,0.000000,0.000000,0.000000;
#CREDIT:Blank;
#NOTES:
0000
0000
0000
0000
,
0000
0000
0000
0000
,
0000
0000
0000
0000
,
0000
0000
0000
0000
,
1100
0000
0010
0001
0000
1000
0200
0000
0300
0000
1000
1000
0001
0000
0110
0000
,
0101
0000
0100
0010
0000
1000
0002
0000
0003
0000
0100
0100
0010
0000
1100
0000
,
1001
0000
1000
0001
0000
0001
0200
0000
0300
0000
0010
0010
1000
0000
0101
0000
,
1010
0000
1000
0100
0000
0100
2000
0000
3000
0002
0000
0003
1000
0000
0011
0000
,
1000
0100
0010
0000
0001
0010
0100
0000
0010
0001
1000
0000
0001
1000
0100
0000
,
0010
0001
0100
0000
0010
1000
0100
0000
1000
0100
1000
0000
0100
0010
0100
0000
,
0010
0001
0010
0000
0001
0100
0001
0000
0100
0010
0100
0000
0010
1000
0010
0000
,
1000
0001
1000
0000
0001
0100
0001
0000
1000
0010
1000
0000
0001
0010
0001
0000
,
1000
0100
1000
0000
0001
1000
0010
0000
0100
0001
1000
0000
0010
1000
0100
0000
,
0010
0001
0100
0000
0001
1000
0100
0000
0010
0001
1000
0000
0001
0010
0100
0000
,
1000
0100
0010
0000
0001
0100
0001
0000
1000
0010
1000
0000
0001
0010
0001
0000
,
1000
0000
0100
0000
0010
0000
0100
0000
1000
0000
0001
0000
0010
0000
0100
0000
0010
0000
0001
0000
1000
0000
0001
0000
0100
0000
0020
0000
0000
0000
0000
0000
0030
0000
0000
0000
1000
0000
0000
0100
0000
0000
1000
0000
0000
0001
0000
0000
,
0010
0000
0001
0100
0000
0100
0002
0000
0003
0000
1000
1000
0100
0000
0110
0000
,
0011
0000
0001
1000
0000
0010
2000
0000
3000
0000
0001
0001
1000
0000
0110
0000
,
1010
0000
1000
0001
0000
0100
0020
0000
0030
0000
1000
1000
0001
0000
0110
0000
,
1100
0000
0001
0010
0000
0100
2000
0000
3000
0000
0010
0010
0100
0000
1001
0000
,
0101
0000
0010
0100
0000
0100
0002
0000
0003
0000
1000
1000
0001
0000
1100
0000
,
0011
0000
0100
0001
0000
0100
0020
0000
0030
0000
0100
0100
0001
0000
1100
0000
,
0110
0000
0001
1000
0000
1000
0020
0000
0030
0000
0100
0100
0001
0000
1001
0000
,
0100
0010
1000
0001
0010
0001
1000
0010
0100
0001
1000
0100
0010
0100
1000
0001
0010
0100
0010
0001
1000
0010
0100
0001
,
1000
0100
1000
0000
0011
0000
0100
0000
1010
0000
0000
1001
0000
0000
0011
0000
,
1000
0001
0100
0000
0011
0000
1000
0000
0101
0000
0000
1010
0000
0000
1001
0000
,
1000
0100
0010
0000
0011
0000
1100
0000
0010
0001
0100
0000
0010
1000
0100
0000
,
0010
0001
1000
0000
0001
1000
0100
0000
0001
0100
0001
1000
0100
1000
0001
0010
,
0100
0010
0001
1000
0100
0010
0100
1000
0001
0010
0100
1000
0100
0010
0001
1000
,
0001
1000
0010
0100
0001
1000
0100
1000
0001
0010
0001
1000
0010
1000
0001
0100
,
0001
1000
0010
1000
0001
0010
0001
1000
0001
0100
0001
1000
0100
1000
0010
1000
,
0001
0010
0100
0000
1000
0100
0010
0000
1001
0000
0220
0000
0000
0330
0000
0000
,
1000
0000
0001
0000
1000
0100
0010
0000
0001
0000
0100
0000
0001
0010
0100
0000
,
1000
0000
0001
0000
0100
0010
1000
0000
0001
0010
0100
0010
0001
1000
0100
0010
,
0100
0000
1000
0000
0001
0010
0001
0000
1000
0000
0001
0000
0100
0001
1000
0000
,
0010
0000
0100
0000
0001
1000
0100
0000
1000
0001
1000
0000
0010
1000
0001
0000
,
1100
0000
0001
0000
1000
0100
1000
0000
0010
0000
0100
0000
0001
0100
0001
0000
,
1000
0000
0001
0000
0100
0010
1000
0000
0001
0100
0010
0100
0001
1000
0100
1000
,
0001
0000
1000
0000
0010
0100
0001
0000
1000
0000
0100
0000
0010
0001
0100
0000
,
0002
0023
0230
2300
3200
0320
0230
2300
3002
0023
0230
0320
0032
2003
3020
2030
,
3002
0013
0001
1000
0010
1000
0001
0010
0100
1000
0001
1000
0100
0010
0100
1000
,
0100
0010
0001
1000
0100
0010
0100
1000
0100
0010
0001
1000
0100
0010
0100
1000
,
0001
0010
0100
1000
0100
0010
0100
1000
0001
0010
0100
1000
0010
0100
0010
1000
,
0010
0100
0001
1000
0010
0100
0010
1000
0010
1000
0001
1000
0100
0010
0001
0010
,
0100
1000
0001
1000
0100
0010
0001
1000
0100
1000
0001
1000
0100
0010
0001
1000
,
0100
1000
0010
0100
0001
0100
0010
1000
0100
1000
0010
0100
0001
0100
0010
1000
,
0100
1000
0010
0100
0010
1000
0100
0010
0001
1000
0010
0100
0010
1000
0001
0100
,
0010
1000
0100
0010
0100
1000
0001
0100
0010
0100
0001
1000
0100
1000
0100
0010
,
0001
0000
1000
0000
0010
1000
0001
0000
1000
0000
0001
0000
1000
0001
0010
0001
,
2000
3001
0100
0010
1000
0100
0010
0100
1000
0001
0100
0010
0100
0001
1000
0100
,
1000
0100
0010
0001
0010
0100
1000
0001
1000
0001
1000
0100
0010
0100
1000
0100
,
0010
0001
1000
0100
0010
0100
1000
0100
0010
0001
1000
0100
0010
0100
1000
0001
,
0010
0100
1000
0100
0010
0001
0010
0100
0010
0001
1000
0001
1000
0100
0010
0001
,
0010
0100
1000
0001
1000
0100
0010
0001
1000
0100
1000
0001
1000
0100
0010
0001
,
1000
0100
1000
0001
1000
0100
0010
0100
1000
0100
0010
0001
1000
0100
0010
0100
,
1000
0100
0010
0001
1000
0100
0010
0100
1000
0001
0010
0100
1000
0100
0010
0001
,
0100
0001
1000
0001
0010
0100
0010
0001
1000
0100
0010
0100
1000
0100
0010
0001
0010
0001
1000
0100
1000
0100
0010
0100
,
1000
0100
1000
0000
1100
0000
0010
0000
0101
0000
0000
1001
0000
0000
1100
0000
,
0001
1000
0010
0000
1100
0000
0001
0000
1010
0000
0000
0101
0000
0000
1001
0000
,
0001
0010
0100
0000
1100
0000
0011
0000
0100
1000
0010
0000
0100
0001
0010
0000
,
0100
1000
0001
0000
1000
0001
0010
0000
1000
0010
1000
0001
0010
0001
1000
0100
,
0010
0100
1000
0001
0010
0100
0010
0001
1000
0100
0010
0001
0010
0100
1000
0001
,
1000
0001
0100
0010
1000
0001
0010
0001
1000
0100
1000
0001
0100
0001
1000
0010
,
1000
0001
0100
0001
1000
0100
1000
0001
1000
0010
1000
0001
0010
0001
0100
0001
,
1000
0100
0010
0000
0001
0010
0100
0000
2002
0000
0000
0000
0000
0000
3003
0000
,
0220
0000
0000
0000
0000
0000
0000
0000
0000
0000
0330
0000
1000
0001
0010
0001
,
1000
0000
0001
0010
0200
0000
0300
0000
0010
0001
0100
0001
1000
0000
2020
0000
,
3030
0000
1000
0100
0020
0000
0030
0000
0001
0100
0001
1000
0010
0000
1001
0000
,
1100
0000
0100
0020
0000
0000
0030
0000
0100
0010
0001
1000
0100
0000
0011
0000
,
0100
0001
0000
2200
3300
0000
0110
0000
0001
0010
0000
2200
3300
0000
0001
1000
,
0100
0000
0010
0001
1000
0000
0001
0010
0001
1000
0100
1000
0001
0000
1100
0000
,
0110
0000
0001
0200
0300
0000
1010
0000
0101
0000
1000
0200
0300
0000
0001
0100
,
0001
0000
1000
0100
0010
0100
1000
0001
0010
0100
0010
0001
1000
0000
0001
0000
,
1000
0001
1000
0100
0010
0100
1000
0100
0010
0001
1000
0100
0010
0100
1000
0100
0010
0001
1000
0100
0010
0100
1000
0001
,
0100
0000
0001
0100
0000
0000
2020
0000
3030
0000
0100
0100
0010
0000
1100
0000
,
1001
0000
0010
0001
0000
0000
0202
0000
0303
0000
1000
1000
0001
0000
1100
0000
,
0110
0000
0010
0001
0000
0000
0220
0000
0330
0000
0001
0001
0100
0000
1010
0000
,
0001
1000
0100
0010
0100
1000
0100
0010
0001
1000
0100
0010
0100
1000
0100
0010
,
0100
0000
1000
0010
0000
0010
2000
0000
3000
0000
0001
0001
0010
0000
0110
0000
,
1100
0000
1000
0001
0000
0100
0002
0000
0003
0000
1000
1000
0001
0000
0110
0000
,
0101
0000
0001
1000
0000
0010
0200
0000
0300
0000
0001
0001
1000
0000
0110
0000
,
0011
0000
1000
0100
0000
0010
0002
0000
0003
0000
0100
0100
0010
0000
1001
0000
,
1010
0000
0100
0010
0000
0010
2000
0000
3000
0000
0001
0001
1000
0000
0011
0000
,
1100
0000
0010
1000
0000
0010
0200
0000
0300
0000
0010
0010
1000
0000
0011
0000
,
0110
0000
1000
0001
0000
0001
0200
0000
0300
0000
0010
0010
1000
0000
1001
0000
,
2200
0000
3300
0000
0220
0000
0330
0000
0022
0000
0033
2200
0000
3300
0220
0330
,
0001
1000
0101
0010
1000
0001
0110
1000
,
0100
0010
0110
0001
0010
0100
1010
0001
,
0100
0001
1010
1000
0100
1000
0110
0001
,
0010
0000
0001
0000
0101
0000
1000
0000
0010
0000
1000
0000
0001
0010
0100
1000
,
0001
0000
1000
0000
0001
0010
0001
0000
0100
0000
0010
0000
1000
0010
1000
0000
,
0001
0000
1000
0000
0010
0100
0001
0000
1000
0010
0100
0010
1000
0001
0010
0001
,
1000
0000
0001
0000
0100
0010
1000
0000
0001
0000
0010
0000
0100
1000
0010
0000
,
2000
3200
0320
0032
0023
0230
0320
0032
2003
3200
0320
0230
2300
3002
0203
0302
,
2003
3100
1000
0001
0100
0001
1000
0100
0010
0001
1000
0001
0010
0100
0010
0001
,
0010
0100
1000
0001
0010
0100
0010
0001
0010
0100
1000
0001
0010
0100
0010
0001
,
1000
0100
0010
0001
0010
0100
0010
0001
1000
0100
0010
0001
0100
0010
0100
0001
,
0100
0010
1000
0001
0100
0010
0100
0001
0100
0001
1000
0001
0010
0100
1000
0100
,
0010
0001
1000
0001
0010
0100
1000
0001
0010
0001
1000
0001
0010
0100
1000
0001
,
0010
0001
0100
0010
1000
0010
0100
0001
0010
0001
0100
0010
1000
0010
0100
0001
,
0010
0001
0100
0010
0100
0001
0010
0100
1000
0001
0100
0010
0100
0001
1000
0010
,
0100
0001
0010
0100
0010
0001
1000
0010
0100
0010
1000
0001
0010
0001
0010
0100
,
1000
0000
0001
0000
0100
0001
1000
0000
0001
0000
1000
0000
0001
1000
0100
1000
,
0002
1003
0010
0100
0001
0010
0100
0010
0001
1000
0010
0100
0010
1000
0001
0010
,
0001
0010
0100
1000
0100
0010
0001
1000
0001
1000
0001
0010
0100
0010
0001
0010
,
0100
1000
0001
0010
0100
0010
0001
0010
0100
1000
0001
0010
0100
0010
0001
1000
,
0100
0010
0001
0010
0100
1000
0100
0010
0100
1000
0001
1000
0001
0010
0100
1000
,
0100
0010
0001
1000
0001
0010
0100
1000
0001
0010
0001
1000
0001
0010
0100
1000
,
0001
0010
0001
1000
0001
0010
0100
0010
0001
0010
0100
1000
0001
0010
0100
0010
,
0001
0010
0100
1000
0001
0010
0100
0010
0001
1000
0100
0010
0001
0010
0100
1000
,
0001
0010
0100
0010
0001
1000
0001
0100
0010
1000
0001
0100
0001
1000
0010
1000
0001
0010
0001
1000
0100
1000
0010
0100
,
0001
1000
0110
1000
0001
0100
0101
0001
,
1000
0010
1010
1000
0100
1000
0011
0001
,
0010
0001
1100
0010
0100
0001
0110
0010
,
1001
0000
0100
0000
1010
0000
0001
0000
0110
0000
1000
0000
0001
0010
0100
1000
,
0001
0100
0010
1000
0001
0010
0001
1000
0100
1000
0100
0010
0001
0100
0001
0010
,
0001
1000
0100
1000
0010
1000
0001
1000
0010
0100
0001
0010
0100
0010
0100
1000
,
0001
0100
0010
1000
0001
0100
0001
1000
0100
1000
0010
1000
0001
0100
0010
1000
,
0010
0100
0001
1000
0100
1000
0001
0100
0010
1000
0001
0010
0100
0010
0001
1000
0100
0010
0100
1000
0001
0100
0010
1000
,
0001
0010
0001
0000
1100
0000
0010
0000
0101
0000
0000
1001
0000
0000
1100
0000
,
0001
1000
0010
0000
1100
0000
0001
0000
1010
0000
0000
0101
0000
0000
1001
0000
,
0001
0010
0100
0000
1100
0000
0011
0000
0100
1000
0010
0000
0100
0001
0010
0000
,
0100
1000
0001
0000
1000
0001
0010
0000
0001
0100
0001
1000
0100
1000
0001
0010
,
0100
0010
0001
1000
0100
0010
0100
1000
0001
0010
0100
1000
0100
0010
0001
1000
,
0001
1000
0010
0100
0001
1000
0100
1000
0001
0010
0001
1000
0010
1000
0001
0100
,
0001
1000
0010
1000
0001
0010
0001
1000
0001
0100
0001
1000
0100
1000
0010
1000
,
0001
0010
0100
0000
1000
0100
0010
0000
0001
0100
0010
1000
0001
0100
0010
1000
,
0010
0000
1000
0100
0000
0100
2000
0000
3000
0000
1000
1000
0100
0000
0110
0000
,
0011
0000
0001
1000
0000
0010
2000
0000
3000
0000
0001
0001
1000
0000
0110
0000
,
1010
0000
1000
0001
0000
0100
0020
0000
0030
0000
1000
1000
0001
0000
0110
0000
,
1100
0000
0001
0010
0000
0100
2000
0000
3000
0000
0010
0010
0100
0000
1001
0000
,
0101
0000
0010
0100
0000
0100
0002
0000
0003
0000
1000
1000
0001
0000
1100
0000
,
0011
0000
0100
0001
0000
0100
0020
0000
0030
0000
0100
0100
0001
0000
1100
0000
,
0110
0000
0001
1000
0000
1000
0020
0000
0030
0000
0100
0100
0001
0000
1100
0000
,
0220
0000
0330
0000
0202
0000
0303
0000
2020
0000
3030
0000
1000
0100
0010
0001
,
2000
0000
0000
0000
,
3000
0000
0000
0000
;

//---------------dance-single - Blank----------------
#NOTEDATA:;
#CHARTNAME:Blank;
#STEPSTYPE:dance-single;
#DESCRIPTION:Blank;
#CHARTSTYLE:;
#DIFFICULTY:Edit;
#METER:19;
#RADARVALUES:1.201918,1.175090,0.129824,0.410411,2.008083,2009.000000,1978.000000,31.000000,98.000000,0.000000,0.000000,0.000000,0.000000,0.000000,1.201918,1.175090,0.129824,0.410411,2.008083,2009.000000,1978.000000,31.000000,98.000000,0.000000,0.000000,0.000000,0.000000,0.000000;
#CREDIT:Blank;
#NOTES:
0000
0000
0000
0000
,
0000
0000
0000
0000
,
0000
0000
0000
0000
,
0000
0000
0000
0000
,
1100
0000
0010
0001
0000
1000
0200
0000
0300
0000
1000
1000
0001
0000
0110
0000
,
0101
0000
0100
0010
0000
1000
0002
0000
0003
0000
0100
0100
0010
0000
1100
0000
,
1001
0000
1000
0001
0000
0001
0200
0000
0300
0000
0010
0010
1000
0000
0011
0000
,
1100
0000
1000
0100
0000
0100
2000
0000
3000
0002
0000
0003
2000
3000
0011
0000
,
1000
0100
0010
0000
0001
0010
0100
0000
0010
0001
1000
0000
0010
1000
0001
0000
,
0100
0010
1000
0000
0100
0010
0001
0000
1000
0010
0100
0000
0001
0100
0010
0000
,
1000
0001
1000
0000
0100
0010
0100
0000
0010
0001
0010
0000
0001
0100
0001
0000
,
1000
0010
1000
0000
0001
0010
0100
0000
1000
0100
0010
0000
0100
1000
0001
0000
,
0100
0001
1000
0000
0010
0100
0001
0000
0010
0100
1000
0000
0001
0100
0010
0000
,
1000
0010
0100
0000
0001
1000
0001
0000
0010
0100
0010
0000
0100
1000
0100
0000
,
1000
0010
1000
0000
0001
0100
0001
0000
1000
0100
1000
0000
0001
0010
0001
0000
,
1000
0000
0100
0000
0010
0000
0100
0000
1000
0000
0001
0000
0010
0000
0100
0000
0010
0000
0001
0000
1000
0000
0001
0000
0100
0000
0020
0000
0000
0000
0000
0000
0030
0000
0000
0000
1000
0000
0000
0100
0000
0000
0010
0000
0000
0100
0000
0000
,
2000
3001
0100
0010
0100
0001
1000
0001
0100
0010
1000
0100
0010
0001
1000
0001
,
1000
0100
0010
0001
0100
0010
1000
0001
0100
0010
1000
0001
1000
0100
0010
0100
,
1000
0100
0010
0001
0100
0010
1000
0001
0010
0001
1000
0010
1000
0100
1000
0010
,
0100
0001
0010
0001
0100
0010
1000
0001
1000
0100
0010
0100
1000
0001
0100
0010
,
0100
0001
1000
0010
0100
0010
1000
0001
0010
0001
0100
0001
1000
0010
1000
0100
,
0010
0100
1000
0001
0100
0010
0100
0001
1000
0100
0010
0001
0100
0010
0100
0010
,
1000
0001
0100
0010
1000
0001
0100
0010
1000
0100
0010
0100
1000
0001
0100
0010
,
0100
0001
1000
0001
0100
0010
1000
0100
0010
0001
1000
0001
1000
0100
0010
0001
0100
0010
1000
0001
0100
0010
1000
0001
,
2000
3010
0100
0001
0010
0001
1000
0100
1000
0001
0100
0001
1000
0100
0010
0100
,
1000
0001
0100
0010
0100
0001
1000
0001
0100
0010
1000
0100
0010
0001
1000
0001
,
1000
0100
0010
0001
0100
0010
1000
0001
0100
0010
1000
0001
1000
0100
0010
0100
,
1000
0100
0010
0001
0100
0010
1000
0001
0010
0001
1000
0010
1000
0100
1000
0010
,
0100
0001
0010
0001
0100
0010
1000
0001
1000
0100
0010
0100
1000
0001
0100
0010
,
0100
0001
1000
0010
0100
0010
1000
0001
0010
0001
0100
0001
1000
0010
1000
0100
,
0010
0100
1000
0001
0100
0010
0100
0001
1000
0100
0010
0001
0100
0010
0100
0010
,
1000
0001
0100
0010
1000
0001
0100
0010
1000
0001
0200
0000
0000
0000
0300
0000
,
0002
0103
0010
1000
0100
1000
0001
0010
0001
1000
0010
1000
0001
0010
0100
0010
,
0001
1000
0010
0100
0010
1000
0001
1000
0010
0100
0001
0010
0100
1000
0001
1000
,
0001
0010
0100
1000
0010
0100
0001
1000
0010
0100
0001
1000
0001
0010
0100
0010
,
0001
0010
0100
1000
0010
0100
0001
1000
0100
1000
0001
0100
0001
0010
0001
0100
,
0010
1000
0100
1000
0010
0100
0001
1000
0001
0010
0100
0010
0001
1000
0010
0100
,
0010
1000
0001
0100
0010
0100
0001
1000
0100
1000
0010
1000
0001
0100
0001
0010
,
0100
0010
0001
1000
0010
0100
0010
1000
0001
0010
0100
1000
0010
0100
0010
0100
,
0002
2003
3020
0230
0302
2003
3020
0230
0302
2003
3020
0230
0302
0023
0230
2300
,
3002
0103
0010
1000
0001
0010
0001
1000
0010
0100
0001
0010
0001
1000
0100
1000
,
0001
0100
0001
1000
0100
0010
0100
1000
0001
0100
0010
0100
0001
1000
0001
0100
,
0010
1000
0100
0010
0001
1000
0001
1000
0100
0010
0001
0100
0010
1000
0001
0100
,
0010
1000
0001
1000
0100
0010
0100
1000
0100
0010
0001
0100
0010
1000
0001
0010
,
0001
1000
0010
1000
0100
1000
0010
0100
0001
0010
0001
0100
0010
1000
0001
1000
,
0100
0010
0100
1000
0001
0100
0010
0100
0001
1000
0010
0100
0010
1000
0001
0010
,
0001
0100
0001
1000
0010
1000
0100
0010
0100
1000
0001
0100
0010
0100
0001
1000
,
0100
0010
0001
0100
0010
0100
0010
1000
0001
0100
0010
1000
0001
0100
0010
1000
,
0001
0000
1000
0000
0010
1000
0001
0000
1000
0000
0001
0000
1000
0001
0010
0001
,
2000
3001
0100
0010
0100
0001
1000
0001
0100
0010
1000
0100
0010
0001
1000
0001
,
1000
0100
0010
0001
0100
0010
1000
0001
0100
0010
1000
0001
1000
0100
0010
0100
,
1000
0100
0010
0001
0100
0010
1000
0001
0010
0001
1000
0010
1000
0100
1000
0010
,
0100
0001
0010
0001
0100
0010
1000
0001
1000
0100
0010
0100
1000
0001
0100
0010
,
0100
0001
1000
0010
0100
0010
1000
0001
0010
0001
0100
0001
1000
0010
1000
0100
,
0010
0100
1000
0001
0100
0010
0100
0001
1000
0100
0010
0001
0100
0010
0100
0010
,
1000
0001
0100
0010
1000
0001
0100
0010
1000
0100
0010
0100
1000
0001
0100
0010
,
0100
0001
1000
0001
0100
0010
1000
0100
0010
0001
1000
0001
1000
0100
0010
0001
0100
0010
1000
0001
0100
0010
1000
0001
,
2000
3010
0100
0001
0010
0001
1000
0100
1000
0001
0100
0001
1000
0100
0010
0100
,
1000
0001
0100
0010
0100
0001
1000
0001
0100
0010
1000
0100
0010
0001
1000
0001
,
1000
0100
0010
0001
0100
0010
1000
0001
0100
0010
1000
0001
1000
0100
0010
0100
,
1000
0100
0010
0001
0100
0010
1000
0001
0010
0001
1000
0010
1000
0100
1000
0010
,
0100
0001
0010
0001
0100
0010
1000
0001
1000
0100
0010
0100
1000
0001
0100
0010
,
0100
0001
1000
0010
0100
0010
1000
0001
0010
0001
0100
0001
1000
0010
1000
0100
,
0010
0100
1000
0001
0100
0010
0100
0001
1000
0100
0010
0001
0100
0010
0100
0010
,
1000
0001
0100
0010
1000
0001
0100
0010
1000
0001
0100
0010
2000
0000
3000
0000
,
0220
0000
0000
0000
0000
0000
0000
0000
0000
0000
0330
0000
1000
0001
0010
0001
,
2000
3010
0100
0001
0100
0010
1000
0100
1000
0001
0010
0001
1000
0010
1000
0001
,
0010
0100
0010
0001
1000
0010
0100
0010
1000
0001
1000
0010
0100
0001
0010
0100
,
1000
0001
1000
0001
0010
0100
1000
0010
0100
0001
1000
0010
0100
0001
1000
0001
,
0010
0100
0010
0001
0010
0100
1000
0010
0100
0001
1000
0100
1000
0001
0100
0001
,
0010
0001
0100
0010
1000
0100
1000
0010
0100
0001
1000
0001
0010
0100
0010
0001
,
1000
0010
0100
0010
1000
0001
0100
0010
0100
0001
1000
0100
1000
0010
1000
0001
,
0100
0001
0010
0100
0010
0001
1000
0010
0100
0010
1000
0001
0010
0100
1000
0010
,
0100
0001
1000
0001
0100
0010
1000
0100
0010
0001
1000
0001
1000
0100
0010
0001
0100
0010
1000
0001
0100
0010
1000
0001
,
2000
3001
0010
0001
1000
0010
0100
0001
0100
0010
1000
0100
1000
0001
0010
0001
,
1000
0010
1000
0001
0010
0100
0010
0001
1000
0010
0100
0010
1000
0001
1000
0010
,
0100
0001
0010
0100
1000
0001
1000
0001
0010
0100
1000
0010
0100
0001
1000
0010
,
0100
0001
1000
0001
0010
0100
0010
0001
0020
0230
2300
3020
0230
0302
2003
3200
,
2300
3001
0100
0001
0010
0001
0100
0010
1000
0100
1000
0010
0100
0001
1000
0001
,
0010
0100
0010
0001
1000
0010
0100
0010
1000
0001
0100
0010
0100
0001
1000
0100
,
1000
0010
1000
0001
0100
0001
0010
0100
0010
0001
1000
0010
0100
0010
1000
0001
,
0010
0100
1000
0010
0100
0001
1000
0100
1000
0001
0100
0010
1000
0010
0100
0001
,
0010
0001
1000
0100
1000
0001
0100
0001
1000
0100
0010
0100
1000
0001
0100
0010
,
0100
0001
1000
0001
0100
0010
1000
0100
0010
0001
1000
0001
1000
0100
0010
0001
,
0100
0010
1000
0001
0100
0010
1000
0001
1000
0100
0010
0100
1000
0100
0010
0001
,
0100
0010
1000
0001
0010
0001
1000
0010
2000
3000
0000
2200
3300
0000
0220
0330
,
0001
1000
0101
0010
1000
0001
0110
1000
,
0100
0010
0110
0001
0010
0100
1001
0001
,
0100
0001
1010
1000
0100
1000
0110
0001
,
0010
0000
0001
0000
0101
0000
1000
0000
0010
0000
1000
0000
0001
0010
0100
1000
,
0010
1000
0100
1000
0010
0100
0001
1000
0001
0010
0100
0010
0001
1000
0010
0100
,
0010
1000
0001
0100
0010
0100
0001
1000
0100
1000
0010
1000
0001
0100
0001
0010
,
0100
0010
0001
1000
0010
0100
0010
1000
0001
0010
0100
1000
0010
0100
0010
0100
,
0002
2003
3020
0230
0302
2003
3020
0230
0302
2003
3020
0230
0302
0023
0230
2300
,
3002
0103
0010
1000
0001
0010
0001
1000
0010
0100
0001
0010
0001
1000
0100
1000
,
0001
0100
0001
1000
0100
0010
0100
1000
0001
0100
0010
0100
0001
1000
0001
0100
,
0010
1000
0100
0010
0001
1000
0001
1000
0100
0010
0001
0100
0010
1000
0001
0100
,
0010
1000
0001
1000
0100
0010
0100
1000
0100
0010
0001
0100
0010
1000
0001
0010
,
0001
1000
0010
1000
0100
1000
0010
0100
0001
0010
0001
0100
0010
1000
0001
1000
,
0100
0010
0100
1000
0001
0100
0010
0100
0001
1000
0010
0100
0010
1000
0001
0010
,
0001
0100
0001
1000
0010
1000
0100
0010
0100
1000
0001
0100
0010
0100
0001
1000
,
0100
0010
0001
0100
0010
0100
0010
1000
0001
0100
0010
1000
0001
0100
0010
1000
,
0001
0000
1000
0000
0010
1000
0001
0000
1000
0000
0001
0000
1000
0001
0010
0001
,
2000
3001
0100
0010
0100
0001
1000
0001
0100
0010
1000
0100
0010
0001
1000
0001
,
1000
0100
0010
0001
0100
0010
1000
0001
0100
0010
1000
0001
1000
0100
0010
0100
,
1000
0100
0010
0001
0100
0010
1000
0001
0010
0001
1000
0010
1000
0100
1000
0010
,
0100
0001
0010
0001
0100
0010
1000
0001
1000
0100
0010
0100
1000
0001
0100
0010
,
0100
0001
1000
0010
0100
0010
1000
0001
0010
0001
0100
0001
1000
0010
1000
0100
,
0010
0100
1000
0001
0100
0010
0100
0001
1000
0100
0010
0001
0100
0010
0100
0010
,
1000
0001
0100
0010
1000
0001
0100
0010
1000
0100
0010
0100
1000
0001
0100
0010
,
0100
0001
1000
0001
0100
0010
1000
0100
0010
0001
1000
0001
1000
0100
0010
0001
0100
0010
1000
0001
0100
0010
1000
0001
,
1000
0220
0330
0202
0303
2002
3003
0101
,
1000
0220
0330
2200
3300
0022
0033
1100
,
0010
0202
0303
2002
3003
2200
3300
1000
,
0110
0000
1000
0000
0101
0000
0001
0000
1000
0100
0010
0100
1000
0001
0100
0010
,
0200
0301
1000
0010
0100
0010
1000
0001
0010
0001
0100
0001
1000
0010
1000
0100
,
0010
0100
1000
0001
0100
0010
0100
0001
1000
0100
0010
0001
0100
0010
0100
0010
,
1000
0001
0100
0010
1000
0001
0100
0010
1000
0100
0010
0100
1000
0001
0100
0010
,
0100
0001
1000
0001
0100
0010
1000
0100
0010
0001
1000
0001
1000
0100
0010
0001
0100
0010
1000
0001
0100
0010
1000
0001
,
2000
3010
0100
0001
0010
0001
1000
0100
1000
0001
0100
0001
1000
0100
0010
0100
,
1000
0001
0100
0010
0100
0001
1000
0001
0100
0010
1000
0100
0010
0001
1000
0001
,
1000
0100
0010
0001
0100
0010
1000
0001
0100
0010
1000
0001
1000
0100
0010
0100
,
1000
0100
0010
0001
0100
0010
1000
0001
0010
0001
1000
0010
1000
0100
1000
0010
,
0100
0001
0010
0001
0100
0010
1000
0001
1000
0100
0010
0100
1000
0001
0100
0010
,
0100
0001
1000
0010
0100
0010
1000
0001
0010
0001
0100
0001
1000
0010
1000
0100
,
0010
0100
1000
0001
0100
0010
0100
0001
1000
0100
0010
0001
0100
0010
0100
0010
,
1000
0001
0100
0010
1000
0001
0100
0010
2000
3002
0203
0320
2030
3200
0320
0230
,
2300
3001
0100
0010
0100
0001
1000
0010
0100
0010
1000
0001
0010
0001
0100
0001
,
1000
0010
1000
0100
0010
0100
1000
0001
0100
0010
0100
0001
1000
0100
0010
0001
,
0100
0010
0100
0010
1000
0001
0100
0010
1000
0001
0100
0010
1000
0100
0010
0100
,
1000
0001
0100
0010
0100
0001
0010
0100
0010
0001
1000
0010
0100
0010
1000
0001
,
0100
0010
0100
0001
1000
0100
1000
0010
1000
0001
0100
0001
0010
0100
0010
0001
,
1000
0010
0100
0010
1000
0001
0010
0100
1000
0010
0100
0010
0100
0001
1000
0010
,
0100
0001
1000
0010
0100
0001
0010
0100
0010
0001
1000
0010
0100
0010
1000
0100
,
0010
0100
1000
0001
0100
0010
0100
0001
2000
0000
3000
0000
0010
0100
0001
1000
,
0020
0000
0000
0000
,
0000
0000
0000
0000
0000
0000
0000
0030
;

//---------------dance-single - Blank----------------
#NOTEDATA:;
#CHARTNAME:Blank;
#STEPSTYPE:dance-single;
#DESCRIPTION:Blank;
#CHARTSTYLE:;
#DIFFICULTY:Hard;
#METER:14;
#RADARVALUES:0.645530,0.745179,0.552799,1.130724,0.167515,1079.000000,947.000000,132.000000,270.000000,0.000000,1.000000,0.000000,0.000000,0.000000,0.645530,0.745179,0.552799,1.130724,0.167515,1079.000000,947.000000,132.000000,270.000000,0.000000,1.000000,0.000000,0.000000,0.000000;
#CREDIT:Blank;
#NOTES:
// measure 0
0000
0000
0000
0000
,  // measure 1
0000
0000
0000
0000
,  // measure 2
0000
0000
0000
0000
,  // measure 3
0000
0000
0000
0000
,  // measure 4
1000
0000
0000
0001
0000
0000
0200
0000
0300
0000
0010
0000
1000
0000
0100
0000
,  // measure 5
0010
0000
0000
0100
0000
0000
0020
0000
0030
0000
0001
0000
0100
0000
0010
0000
,  // measure 6
1000
0000
0000
0001
0000
0000
0200
0000
0300
0000
0010
0000
1000
0000
0001
0000
,  // measure 7
1000
0000
0000
0010
0000
0000
0200
0000
0300
0000
0010
0000
0100
0000
0010
0000
,  // measure 8
0100
2002
3003
0220
0330
0022
0033
1100
,  // measure 9
0010
0202
0303
0220
0330
0022
0033
1100
,  // measure 10
0001
0022
0033
2002
3003
0220
0330
1010
,  // measure 11
0001
0202
0303
0220
0330
0022
0033
1100
,  // measure 12
0010
2002
3003
0220
0330
0022
0033
1010
,  // measure 13
0100
2002
3003
0220
0330
2200
3300
0011
,  // measure 14
0100
2002
3003
2020
3030
0202
0303
0110
,  // measure 15
1000
0100
0010
0001
2200
3300
0100
1000
,  // measure 16
0001
0000
1000
0100
0000
0000
0022
0000
0033
0000
1001
0000
0010
0000
1001
0000
,  // measure 17
0100
0000
0010
0100
0000
0000
2020
0000
3030
0000
0110
0000
1000
0000
0110
0000
,  // measure 18
0001
0000
1000
0100
0000
0000
0220
0000
0330
0000
0001
0000
1000
0000
0100
0000
,  // measure 19
0010
0000
0001
0100
0000
0000
2020
0000
3030
0000
1001
0000
0010
0000
1001
0000
,  // measure 20
0100
0000
0010
1000
0000
0000
0220
0000
0330
0000
0011
0000
1000
0000
1001
0000
,  // measure 21
0001
0000
1000
0010
0000
0000
2200
0000
3300
0000
0011
0000
1000
0000
0101
0000
,  // measure 22
0010
0000
0100
0001
0000
0000
2200
0000
3300
0000
1001
0000
1000
0000
0011
0000
,  // measure 23
1000
0100
0001
0100
1000
0001
0010
0001
,  // measure 24
1000
0100
1000
0000
0011
0000
0100
0000
2002
0000
3003
0220
0000
0330
1001
0000
,  // measure 25
0001
0100
0001
0000
1100
0000
0010
0000
2002
0000
3003
0220
0000
0330
1010
0000
,  // measure 26
0100
0001
1000
0000
0110
0000
0001
0000
2200
0000
3300
0000
0220
0000
0330
0000
,  // measure 27
0022
0033
0220
0330
0001
1000
0010
0100
,  // measure 28
0001
0010
0100
0010
0001
1000
0100
0010
,  // measure 29
0100
1000
0001
1000
0010
0100
0001
1000
,  // measure 30
0010
1000
0001
0100
0001
0010
0100
1000
,  // measure 31
0220
0330
2002
3003
0110
2200
0000
3300
,  // measure 32
1000
0001
0100
0010
1000
0100
0010
0002
,  // measure 33
0000
1003
0010
1000
0001
0010
0001
1000
,  // measure 34
0010
0100
0001
0220
0330
1000
0010
0200
,  // measure 35
0020
0332
2003
3020
,  // measure 36
1030
0001
0010
0001
1000
0100
1000
0002
,  // measure 37
0000
1003
0010
0100
0001
0010
0001
1000
,  // measure 38
0100
1000
0010
0100
0010
1000
0100
0010
,  // measure 39
0002
0023
0230
2300
3020
0032
0023
2030
,  // measure 40
3100
0010
0001
0010
0100
1000
0100
2000
,  // measure 41
0000
3001
0100
0001
1000
0100
1000
0010
,  // measure 42
0200
0000
0000
0310
1000
0001
0100
0020
,  // measure 43
0000
0130
0001
0100
0010
1000
0100
1000
,  // measure 44
0002
0000
2003
3200
0000
0310
0001
1000
,  // measure 45
0002
0000
0203
0320
0000
1030
0100
2000
,  // measure 46
0000
0000
3002
0000
0203
0000
0320
2030
,  // measure 47
0000
3002
1003
0100
0010
0001
1000
0010
,  // measure 48
0100
0000
0000
0001
1000
0000
0001
0000
1000
0001
1000
0001
1000
0001
1000
0001
,  // measure 49
1000
0100
0010
0100
1000
0001
0010
0100
,  // measure 50
0010
0001
1000
0100
0001
0100
1000
0010
,  // measure 51
0001
0010
1000
0010
1000
0001
0100
0010
,  // measure 52
1000
0100
1000
0001
0010
0001
1000
0100
,  // measure 53
1000
0010
0100
0001
0010
0001
1000
0100
,  // measure 54
1000
0010
0100
0010
0100
0001
1000
0100
,  // measure 55
0010
0001
0100
0001
1000
0100
0010
0100
,  // measure 56
2000
3200
0320
0032
0023
0230
2300
3010
,  // measure 57
0001
0010
0001
0000
1100
0000
0010
0000
2002
0000
3003
0220
0000
0330
1001
0000
,  // measure 58
1000
0010
1000
0000
0011
0000
0100
0000
2002
0000
3003
0220
0000
0330
0101
0000
,  // measure 59
0010
1000
0001
0000
0110
0000
1000
0000
0022
0000
0033
0000
0220
0000
0330
0000
,  // measure 60
2200
3300
0220
0330
1000
0001
0100
0010
,  // measure 61
1000
0100
0010
0100
1000
0001
0010
0100
,  // measure 62
0010
0001
1000
0001
0100
0010
1000
0001
,  // measure 63
0100
0001
1000
0010
1000
0100
0010
0001
,  // measure 64
0220
0330
2002
3003
0220
0330
2002
3003
,  // measure 65
2200
0000
0000
0000
0000
0000
0000
0000
0000
0000
3300
0000
0010
0100
0001
1000
,  // measure 66
0010
0000
0100
0000
0002
0000
0000
0003
1000
0100
1000
0100
1000
0000
0002
0000
,  // measure 67
0003
0000
1000
0000
0002
0000
0003
0000
0100
0001
0100
0001
0100
0000
0020
0000
,  // measure 68
1030
0000
0100
0000
1000
0000
0001
0000
0100
0010
0100
0010
0100
0000
0010
0000
,  // measure 69
1000
0100
0000
0022
0033
0000
0100
0000
1000
0001
0000
0220
0330
0000
1000
0100
,  // measure 70
1000
0000
0001
0010
0001
0000
1000
0001
1000
0000
0010
0000
0100
0000
0001
0000
,  // measure 71
1000
0000
0001
0200
0000
0300
0011
0000
1000
0000
0010
0200
0000
0300
0001
1000
,  // measure 72
0002
0000
0003
0000
1000
0010
1000
0010
1000
0010
1000
0010
1000
0000
0001
0000
,  // measure 73
0010
0001
1000
0100
1000
0010
0100
0001
,  // measure 74
1000
0000
0000
0001
0000
0000
0200
0000
0300
0000
0010
0000
1000
0000
0100
0000
,  // measure 75
0010
0000
0000
0100
0000
0000
0020
0000
0030
0000
0001
0000
0100
0000
0010
0000
,  // measure 76
1000
0000
0000
0001
0000
0000
0200
0000
0300
0000
0010
0000
1000
0000
0001
0000
,  // measure 77
1000
0000
0000
0010
0000
0000
0200
0000
0300
0000
0010
0000
0100
0000
0010
0000
,  // measure 78
1000
0000
0001
0010
0000
0000
2200
0000
3300
0000
1001
0000
0100
0000
1001
0000
,  // measure 79
0010
0000
0100
0010
0000
0000
0202
0000
0303
0000
0110
0000
0001
0000
0110
0000
,  // measure 80
1000
0000
0001
0010
0000
0000
0220
0000
0330
0000
1000
0000
0001
0000
0010
0000
,  // measure 81
0100
0000
1000
0010
0000
0000
0202
0000
0303
0000
1001
0000
0100
0000
1001
0000
,  // measure 82
0010
0000
0100
0001
0000
0000
0220
0000
0330
0000
1100
0000
0001
0000
1001
0000
,  // measure 83
1000
0000
0001
0100
0000
0000
0022
0000
0033
0000
1100
0000
0001
0000
1010
0000
,  // measure 84
0100
0000
0010
1000
0000
0000
0022
0000
0033
0000
1001
0000
0001
0000
1100
0000
,  // measure 85
0022
0000
0033
0000
2200
0000
3300
0000
0202
0000
0303
0220
0000
0330
2002
3003
,  // measure 86
0010
1000
0010
0100
0001
0010
0100
2000
,  // measure 87
0000
3001
0100
0001
1000
0100
1000
0001
,  // measure 88
0100
0010
1000
0220
0330
0001
0100
0020
,  // measure 89
0000
2030
3002
0203
,  // measure 90
0301
1000
0100
1000
0001
0010
0001
2000
,  // measure 91
0000
3001
0100
0010
1000
0100
1000
0001
,  // measure 92
0010
0001
0100
0010
0100
0001
0010
0100
,  // measure 93
2000
3200
0320
0032
0203
2300
3200
0302
,  // measure 94
0013
0100
1000
0100
0010
0001
0010
0002
,  // measure 95
0000
1003
0010
1000
0001
0010
0001
0100
,  // measure 96
0020
0000
0000
0130
0001
1000
0010
0200
,  // measure 97
0000
0310
1000
0010
0100
0001
0010
0001
,  // measure 98
2000
0000
3002
0023
0000
0130
1000
0001
,  // measure 99
2000
0000
3020
0230
0000
0301
0010
0002
,  // measure 100
0000
0000
2003
0000
3020
0000
0230
0302
,  // measure 101
0000
2003
3001
0010
0100
1000
0001
0100
,  // measure 102
0010
0000
0000
1000
0001
0000
1000
0000
0001
1000
0001
1000
0001
1000
0001
1000
,  // measure 103
0001
0010
0100
0010
0001
1000
0100
0010
,  // measure 104
0100
1000
0001
0010
1000
0010
0001
0100
,  // measure 105
1000
0100
0001
0100
0001
1000
0010
0100
,  // measure 106
0001
0010
0001
1000
0100
1000
0001
0010
,  // measure 107
0001
0100
0010
1000
0100
1000
0001
0010
,  // measure 108
0001
0100
0010
0100
0010
1000
0001
0010
,  // measure 109
0100
1000
0010
1000
0001
0010
0100
0010
,  // measure 110
0002
0023
0230
2300
3200
0320
0032
0203
,  // measure 111
0310
2000
0000
3002
0000
0203
0000
0310
,  // measure 112
1000
0002
0000
2003
0000
3020
0000
1030
,  // measure 113
0100
2000
0000
3020
0000
0230
0000
0301
,  // measure 114
1100
0000
0010
0000
0101
0000
0001
0000
1000
0001
1000
0001
1000
0001
1000
0001
,  // measure 115
1000
0010
0100
0001
0010
0001
1000
0100
,  // measure 116
1000
0010
0100
0010
0100
0001
1000
0100
,  // measure 117
0010
0001
0100
0001
1000
0100
0010
0100
,  // measure 118
2000
3200
0320
0032
0023
0230
2300
3010
,  // measure 119
0001
0010
0001
0000
1100
0000
0010
0000
2002
0000
3003
0220
0000
0330
1001
0000
,  // measure 120
1000
0010
1000
0000
0011
0000
0100
0000
2002
0000
3003
0220
0000
0330
0101
0000
,  // measure 121
0010
1000
0001
0000
0110
0000
1000
0000
0022
0000
0033
0000
0220
0000
0330
0000
,  // measure 122
2200
3300
0220
0330
1000
0001
0100
0010
,  // measure 123
1000
0100
0010
0100
1000
0001
0010
0100
,  // measure 124
0010
0001
1000
0001
0100
0010
1000
0001
,  // measure 125
0100
0001
1000
0010
1000
0100
0010
0001
,  // measure 126
0220
0000
0330
0000
0022
0000
0033
0000
1000
0001
1000
0001
1000
0001
1000
0001
,  // measure 127
0100
0010
1000
0001
0010
0001
1000
0100
,  // measure 128
1000
0010
0100
0001
1000
0010
1000
0001
,  // measure 129
0100
0001
0010
0100
1000
0100
0010
0001
,  // measure 130
0010
0100
1000
0001
0010
0001
1000
0100
,  // measure 131
1000
0001
0100
0001
1000
0010
1000
0100
,  // measure 132
0010
0100
1000
0001
0010
0100
0010
0001
,  // measure 133
1000
0100
0001
0100
1000
0010
0001
0010
,  // measure 134
2200
0000
3300
0000
0022
0000
0033
0000
0220
0000
0330
0000
1000
0001
1000
0001
,  // measure 135
2000
0000
0000
0000
,  // measure 136
0000
0000
0000
0000
0000
0000
0000
3000
;
