#TITLE:Perfect Imperfection;
#SUBTITLE:;
#ARTIST:ProjectoR;
#TITLETRANSLIT:;
#SUBTITLETRANSLIT:;
#ARTISTTRANSLIT:;
#GENRE:;
#CREDIT:;
#BANNER:Banner perfect imperfection.jpg;
#BACKGROUND:Back perfect imperfection.jpg;
#LYRICSPATH:;
#CDTITLE:Magna Trick title!.png;
#MUSIC:Perfect Imperfection.mp3;
#OFFSET:0.105080;
#SAMPLESTART:45.718262;
#SAMPLELENGTH:12.000000;
#SELECTABLE:YES;
#DISPLAYBPM:50.000000:800.000000;
#BPMS:0.000000=135.999985
,33.000000=135.000000
,91.000000=131.999939
,97.000000=130.699997
,113.000000=129.000076
,129.000000=130.700073
,153.000000=130.000061
,178.500000=131.700012
,186.500000=135.000000
,225.000000=130.699997
,233.000000=129.999939
,248.000000=128.999954
,257.000000=130.500000
,287.000000=130.699997
,298.500000=128.999954
,306.500000=138.000031
,308.000000=131.699997
,318.000000=128.999969
,320.500000=164.999893
,368.500000=164.000046
,384.500000=140.999969
,403.000000=138.999908
,411.000000=139.999985
,414.000000=143.500000
,417.000000=139.999924
,429.000000=142.500000
,434.000000=139.000000
,445.500000=143.000000
,448.000000=129.999985
,490.500000=131.000000
,497.000000=130.000000
,505.000000=129.500000
,506.000000=130.699890
,513.500000=800.000000
,536.000000=100.000000
,540.500000=50.000000
;
#STOPS:180.000000=0.200000,
308.000000=0.160000,
314.250000=0.200000,
480.500000=0.040000
;
#BGCHANGES:0.000=Back perfect imperfection.jpg=1.000=0=0=0=StretchNoLoop====,
5.000=perfectimperfection.mp4=1.000=0=0=1=====,
99999=-nosongbg-=1.000=0=0=0 // don't automatically add -songbackground-
;
#KEYSOUNDS:;
#ATTACKS:;

//---------------dance-single - ----------------
#NOTES:
     dance-single:
     :
     Challenge:
     16:
     0.743451,0.995993,0.063004,0.315021,0.911462,1239.000000,1224.000000,15.000000,75.000000,0.000000,0.000000,0.743451,0.995993,0.063004,0.315021,0.911462,1239.000000,1224.000000,15.000000,75.000000,0.000000,0.000000:
// measure 0
0000
0000
0000
0000
0001
0000
0000
1000
0000
0000
0100
0000
1000
0000
0000
0010
,  // measure 1
0000
0000
0100
0000
0001
0000
0000
0010
0000
0000
0100
0000
0010
0000
0000
0001
,  // measure 2
0000
0000
0100
0000
0010
0000
0000
0100
0000
0000
0001
0000
1000
0000
0000
0100
,  // measure 3
0000
0000
1000
0000
0001
0000
0000
1000
0000
0000
0010
0000
0100
0000
0000
0001
,  // measure 4
0000
0000
0100
0000
0010
0000
0000
1000
0000
0000
0100
0000
1000
0000
0000
0100
,  // measure 5
0000
0000
0010
0000
0001
0000
0000
0010
0000
0000
0001
0000
1000
0000
0000
0001
,  // measure 6
0000
0000
0100
0000
0010
0000
0000
1000
0000
0000
0010
0000
1000
0000
0000
0100
,  // measure 7
0000
0000
1000
0000
0100
0000
0000
0010
0000
0000
0001
0000
0010
0000
0000
0001
,  // measure 8
0000
0100
0002
0000
0000
0000
0020
0030
,  // measure 9
1003
1000
1100
0000
0000
0000
0011
0000
,  // measure 10
0011
0000
0000
0000
2001
0000
0000
0000
0000
0000
0000
0000
0020
0000
0030
3000
,  // measure 11
0001
0000
0000
0000
0000
0000
0001
0000
0000
0000
0000
0000
0201
0000
0000
0000
0000
0000
0000
0000
0000
0000
0000
0000
0000
0000
0000
0000
0000
0000
0000
0000
0000
0300
0000
0000
0010
0000
1000
0000
0010
0000
1000
0000
0010
0000
1000
0000
,  // measure 12
0010
0100
0001
0100
0001
0100
0002
0000
0000
0000
0000
0000
0000
0000
0000
0000
0000
0000
0000
0000
0000
0003
0000
0000
,  // measure 13
0001
0000
0000
0001
0000
0000
0011
0000
0000
0000
0000
0000
0000
0000
0000
0010
0001
0010
1100
0000
0000
0000
0000
0000
,  // measure 14
1100
0000
0000
0000
1002
0000
0000
0000
0000
0000
0000
0000
0020
0000
0030
0003
,  // measure 15
1000
0000
0000
0000
0000
0000
1000
0000
0000
0000
0000
0000
1020
0000
0000
0000
0000
0000
0000
0000
0000
0000
0000
0000
0000
0000
0000
0000
0000
0000
0000
0000
0000
0030
0000
0000
0100
0000
0001
0000
0100
0000
0001
0000
0100
0000
0001
0000
,  // measure 16
0100
0000
0010
0000
1000
0000
0010
0000
1000
0000
0010
0000
1000
0000
0000
0000
0000
0000
0000
0000
0000
0001
0000
0000
0000
0000
0000
0000
0000
0000
1000
0000
0000
0000
0000
0000
0100
0000
0000
0000
0000
0000
0000
0000
0000
0010
0000
0000
,  // measure 17
0000
0000
0100
0000
1000
0000
0000
0010
0000
0000
0100
0000
0010
0000
0000
0100
,  // measure 18
0000
0000
0001
0000
0010
0000
0000
0001
0000
0000
0100
0000
0001
0000
0000
0100
,  // measure 19
0000
0000
0010
0000
1000
0000
0000
0010
0000
0000
1000
0000
0100
0000
0000
0010
,  // measure 20
0000
0000
0001
0000
0010
0000
0000
0100
0000
0000
1000
0000
0001
0000
0000
0100
,  // measure 21
0000
0000
0001
0000
1000
0000
0000
0100
0000
0000
1000
0000
0001
0000
0000
0010
,  // measure 22
0000
0000
0001
0000
1000
0000
0000
0010
0000
0000
1000
0000
0001
0000
0000
0100
,  // measure 23
0000
0000
0010
0000
1000
0000
0000
0100
0000
0000
0010
0000
0001
1000
0001
1000
,  // measure 24
0001
1000
0001
1000
1001
0000
0000
0001
0000
0000
0001
0000
0100
0000
0000
0100
,  // measure 25
0000
0000
0100
0000
0010
0000
0000
0010
0000
0000
0010
0000
1000
0000
0100
0000
,  // measure 26
1000
0000
0010
0000
0100
0000
0000
0100
0000
0000
0100
0000
0001
0000
0000
0001
,  // measure 27
0000
0000
0001
0000
0010
0000
0000
0010
0000
0000
0010
0000
0100
0000
1000
0000
,  // measure 28
0001
0000
0100
0000
0010
0000
0000
0010
0000
0000
0010
0000
1000
0000
0000
1000
,  // measure 29
0000
0000
1000
0000
0001
0000
0000
0001
0000
0000
0001
0000
0010
0000
0100
0000
,  // measure 30
0010
0000
0001
0000
0100
0000
0000
0100
0000
0000
0100
0000
0010
0000
0000
0010
,  // measure 31
0000
0000
0000
0000
0000
0000
0010
0000
0000
0000
0000
0000
1000
0000
0000
0000
0000
0000
0000
0000
0000
1000
0000
0000
0000
0000
0000
0000
0000
0000
1000
0000
0000
0000
0000
0000
0001
0000
1000
0000
0001
0000
1000
0000
0001
0000
1000
0000
,  // measure 32
0001
0000
1000
0000
0001
0000
1000
0000
0001
0000
1000
0000
0002
0000
0000
0000
0000
0000
1003
0000
0000
0000
0000
0000
0100
0000
0000
0000
0000
0000
1000
0000
0000
0100
0000
0000
0000
0000
0000
0100
0000
0000
1000
0000
0000
0000
0000
0000
,  // measure 33
0100
0010
0100
0010
0001
0100
0001
1000
,  // measure 34
0001
0000
0010
0100
0000
0100
1000
0000
0001
0000
1000
0100
0000
0100
0010
0000
,  // measure 35
0001
0000
1000
0010
0000
0010
0100
0000
0001
0000
1000
0000
0100
0000
1000
0000
,  // measure 36
0100
0000
0010
0001
0000
0001
0100
0000
0010
0000
1000
0100
0000
0100
0010
0000
,  // measure 37
0001
0000
0010
0100
0000
0100
1000
0000
0100
0000
0010
0000
0011
0000
0101
0000
,  // measure 38
1001
0000
0001
1000
0000
0000
0001
0000
1000
0000
0100
1000
0000
1000
0100
0000
,  // measure 39
1000
0000
0010
0100
0000
0100
0010
0000
1000
0000
0001
0000
1000
0100
0010
0001
,  // measure 40
1000
0100
0010
0001
1000
0100
1000
0100
1000
0100
1000
0000
0010
0000
0100
0010
,  // measure 41
0000
0100
0010
0000
1000
0001
1000
0001
1000
0001
1000
0000
0001
0010
0100
0000
,  // measure 42
1000
0100
0010
0001
1000
0100
0010
0100
0010
0100
0010
0000
0001
0000
0010
0100
,  // measure 43
0000
0010
0100
0000
2000
0000
0000
3020
0000
0000
0230
0000
0302
0000
0000
2000
,  // measure 44
0003
0000
3200
0000
0310
0001
0010
0001
0010
0001
0010
0000
0100
0000
0000
2000
,  // measure 45
3000
0000
0100
1000
0100
0001
0100
0001
0100
0000
0100
0010
0001
0000
0000
0001
,  // measure 46
0100
0001
0010
0100
1000
0001
0100
0010
1000
0001
0000
1000
0000
0000
0100
0000
,  // measure 47
0000
0000
0000
0010
0000
0000
0000
0000
0000
0001
0000
0000
0000
0000
0000
0000
0000
0000
0100
0000
0000
0000
0000
0000
0000
0000
0000
0010
0000
0000
0000
0000
0000
0000
1000
0000
0000
0000
0000
0000
0000
0000
1000
0000
0000
0000
0000
0000
,  // measure 48
0001
0000
0100
0000
0001
0000
1000
0001
0000
1000
0100
0000
0010
0000
0001
1000
,  // measure 49
0000
0001
1000
0000
0010
0000
0100
0010
0000
0100
0010
0000
1000
0000
0100
0010
,  // measure 50
0000
0100
0010
0000
0001
0000
0010
0100
0000
0010
0100
0000
1000
0000
0010
0100
,  // measure 51
0000
0010
0100
0000
0001
0000
0010
0100
0000
0010
0100
0000
1000
0000
0001
1000
,  // measure 52
0000
0001
1000
0000
0100
0000
0010
0001
0000
0010
0001
0000
0100
0000
0010
1000
,  // measure 53
0000
0010
1000
0000
0010
0000
0100
0001
0000
0100
0001
0000
0010
0000
0100
1000
,  // measure 54
0000
0100
1000
0000
0001
0000
1000
0001
0000
1000
0001
0000
0010
0000
0100
1000
,  // measure 55
0000
0100
1000
0000
0010
0000
0100
0001
0000
0100
0001
0000
0010
0100
1000
0100
,  // measure 56
0010
0001
0010
0000
0100
0000
0000
0100
0000
0000
0100
0000
1000
0000
0000
1000
,  // measure 57
0000
0000
1000
0000
0010
0000
0000
0010
0000
0000
0010
0000
0100
0000
0001
0000
,  // measure 58
0010
0000
0100
0000
0010
0000
0000
0010
0000
0000
0010
0000
0001
0000
0000
0001
,  // measure 59
0000
0000
0001
0000
0100
0000
0000
0100
0000
0000
0100
0000
0010
0000
1000
0000
,  // measure 60
0100
0000
1000
0000
0010
0000
0000
0010
0000
0000
0010
0000
1000
0000
0000
1000
,  // measure 61
0000
0000
1000
0000
0001
0000
0000
0001
0000
0000
0001
0000
0010
0000
0100
0000
,  // measure 62
0010
0000
0001
0000
0100
0000
0000
0100
0000
0000
0100
0000
0010
0000
0000
0010
,  // measure 63
0000
0000
0000
0000
0000
0000
0010
0000
0000
0000
0000
0000
1000
0000
0000
0000
0000
0000
0000
0000
0000
1000
0000
0000
0000
0000
0000
0000
0000
0000
1000
0000
0000
0000
0000
0000
0001
0000
1000
0000
0001
0000
1000
0000
0001
0000
1000
0000
,  // measure 64
0001
1000
0001
1000
0001
1000
0001
0000
0000
0001
0000
0000
0001
0000
0000
0001
0000
0000
0100
0000
0000
0100
0000
0000
,  // measure 65
0100
0100
0010
0010
0010
0010
1000
0100
,  // measure 66
1000
0010
0100
0001
0001
0001
1000
1000
,  // measure 67
1000
1000
0100
0100
0100
0100
0010
0001
,  // measure 68
0010
0100
1000
0010
0010
0010
0100
0100
,  // measure 69
0100
0100
0001
0001
0001
0001
1000
0100
,  // measure 70
1000
0001
0100
0010
0010
0010
1000
1000
,  // measure 71
1000
0000
1000
0000
0100
0000
0100
0000
0100
0000
0010
0000
0001
0010
0100
1000
,  // measure 72
0001
0010
0100
1000
0001
0010
0001
0010
0001
0010
0001
0000
0100
0000
0010
0100
,  // measure 73
0000
0010
0100
0000
0001
1000
0001
1000
0001
1000
0001
0000
1000
0100
0010
0000
,  // measure 74
0001
0010
0100
1000
0001
0010
0100
0010
0100
0010
0100
0000
1000
0000
0100
0010
,  // measure 75
0000
0100
0010
0000
0002
0000
0000
0203
0000
0000
0320
0000
2030
0000
0000
0002
,  // measure 76
3000
0000
0023
0000
0130
1000
0100
1000
0100
1000
0100
0000
0010
0000
0000
0001
,  // measure 77
0000
0000
0000
1000
0010
1000
0010
1000
0010
1000
0000
0001
0010
0001
0000
1000
,  // measure 78
0010
1000
0100
0010
0001
1000
0010
0100
0001
1000
0010
0000
0000
0100
0000
0000
,  // measure 79
0100
0000
0001
0000
0000
0010
0000
0000
0100
0000
1000
0000
0000
1000
0000
0000
,  // measure 80
0100
0020
0031
0010
0001
0010
0100
2000
,  // measure 81
3001
2000
3001
0100
0020
0130
0002
1003
,  // measure 82
0100
0020
0130
1000
0002
1003
0002
0103
,  // measure 83
0001
0200
0310
1000
0010
0001
0010
2000
,  // measure 84
3200
0320
0031
1000
0010
1000
0020
2030
,  // measure 85
3200
0320
0031
0100
0020
0130
0020
1030
,  // measure 86
0100
0020
0031
0010
0200
1300
0100
0010
,  // measure 87
0200
0000
2300
0000
3002
0000
0023
0000
0032
0000
0103
0000
0001
0000
0010
0100
,  // measure 88
0010
0100
2000
0000
3001
0000
0010
0000
0001
0000
0010
0000
0002
0000
2003
0000
,  // measure 89
3020
0230
0301
2000
3001
2000
3001
2000
,  // measure 90
3200
0310
0001
0020
0130
2000
3010
0200
,  // measure 91
0302
0000
0103
0000
1000
0000
0100
0000
0001
0000
0010
0000
0100
0000
0010
0001
,  // measure 92
0010
0001
2000
0000
3010
0000
1000
0000
0010
0000
1000
0000
0010
0000
2000
0000
,  // measure 93
3002
0203
0301
0100
0002
1003
0020
1030
,  // measure 94
0200
1300
0020
0230
0301
0010
0100
0010
,  // measure 95
0001
0000
1000
0010
1000
0010
0100
0001
0100
0001
0010
0100
0010
0100
1000
0001
,  // measure 96
1000
0100
0010
0001
0010
0001
0010
0001
0010
0001
0010
0001
0010
0001
0010
1000
,  // measure 97
0010
0100
1000
0001
1000
0001
1000
0001
1000
0001
1000
0001
1000
0001
0100
0001
,  // measure 98
0010
0100
1000
0001
1000
0010
1000
0010
1000
0010
1000
0010
1000
0010
1000
0010
,  // measure 99
1000
0100
0010
0001
0100
0001
0010
0100
1000
0001
1000
0010
0100
0010
1000
0001
,  // measure 100
1000
0100
0010
0001
0100
0001
0010
0001
0010
0001
0010
0001
0010
0001
0100
0001
,  // measure 101
0010
0100
1000
0010
1000
0010
1000
0010
1000
0010
1000
0010
1000
0010
1000
0001
,  // measure 102
0100
0001
1000
0001
0100
0001
0100
0001
0100
0001
0100
0001
0100
0001
0100
0001
,  // measure 103
1000
0001
1000
0010
1000
0010
1000
0100
1000
0100
1000
0001
0010
0001
1000
0001
,  // measure 104
0100
0010
1000
0100
0010
0001
0010
0001
0010
0001
0010
0001
1000
0001
1000
0001
,  // measure 105
0100
0001
1000
0001
0100
0001
0100
0001
0100
0001
0100
0001
0100
1000
0100
0001
,  // measure 106
0100
1000
0100
0001
0100
0010
0100
0010
0100
0010
0100
0010
0100
0010
0100
0001
,  // measure 107
1000
0010
0100
0001
1000
0010
1000
0100
1000
0001
1000
0100
1000
0010
1000
0100
,  // measure 108
0010
0100
0010
0001
0100
0001
1000
0001
0100
0001
0100
0001
0100
0001
0100
0001
,  // measure 109
1000
0001
0010
0001
1000
0010
1000
0010
1000
0010
1000
0001
1000
0100
1000
0010
,  // measure 110
1000
0001
1000
0010
0100
0001
0100
0001
0100
0001
0100
0001
0100
0001
0100
0001
,  // measure 111
0100
0001
1000
0001
0100
0001
0010
0100
1000
0100
1000
0010
0100
0010
0100
0001
,  // measure 112
0010
0000
0000
0001
0000
0000
1000
0000
0001
0000
1000
0000
0001
0000
1000
0000
0001
0000
1000
0000
0000
0000
0000
0000
0000
0000
0000
0000
0000
0000
0010
0000
0000
0000
0000
0000
0000
0000
0000
0000
0000
0000
1000
0000
0000
0000
0000
0000
,  // measure 113
0000
0000
0000
0010
0100
0010
0100
0010
0100
0010
0000
0000
0000
0000
0000
1000
0000
0000
0000
0000
0000
0001
0000
0000
,  // measure 114
0000
0000
0000
0001
1000
0001
1000
0001
1000
0001
0000
0000
0000
0000
0000
0010
0000
0000
0000
0000
0000
0100
0000
0000
,  // measure 115
0000
0000
0000
1000
0001
1000
0001
1000
0001
1000
0000
0000
0000
0000
0000
0010
0100
0010
0100
0010
0100
0010
0000
0000
,  // measure 116
0000
0000
0000
1000
0001
1000
0001
1000
0001
1000
0000
0000
0000
0000
0000
0010
0000
0000
0000
0000
0000
0100
0000
0000
,  // measure 117
0000
0000
0000
0001
1000
0001
1000
0001
1000
0001
0000
0000
0000
0000
0000
1000
0000
0000
0000
0000
0000
0100
0000
0000
,  // measure 118
0000
0000
0000
0010
0001
0010
0001
0010
0001
0010
0000
0000
0000
0000
0000
0100
0000
0000
0000
0000
0000
1000
0000
0000
,  // measure 119
0000
0000
0000
0001
1000
0001
1000
0001
1000
0001
0000
0000
0000
0000
0000
0010
0001
0010
0001
0010
0001
0100
0010
1000
,  // measure 120
0010
0000
1000
0000
0010
0000
1000
0000
0000
0000
0000
0000
0001
0000
0000
0000
0000
0000
1000
0000
0000
0000
0000
0000
0100
0000
0000
1000
0000
0000
0000
0000
0000
1000
0000
0000
0100
0000
0000
0000
0000
0000
1000
0000
0000
0000
0000
0000
,  // measure 121
0010
0100
0000
0100
0010
0000
1000
0000
0001
0000
1000
0000
0001
0000
0010
0000
,  // measure 122
0001
0010
0000
0010
0001
0000
1000
0000
0001
0100
0000
0100
0001
0000
1000
0000
,  // measure 123
0001
1000
0000
1000
0001
0000
0010
0000
0100
0000
0010
0000
0001
0000
0010
0000
,  // measure 124
0100
1000
0000
0000
1000
0000
0100
0000
1000
0100
0000
0100
1000
0000
1000
0000
,  // measure 125
0001
0100
0000
0100
0001
0000
1000
0000
0001
0000
2000
0000
0000
0000
3002
0000
,  // measure 126
0000
0000
2003
0000
0001
0000
3001
0000
0001
0010
0000
0010
0100
0000
1000
0000
,  // measure 127
0001
0100
0000
0100
0010
0000
1000
0000
0100
0000
0010
0001
1000
0100
0010
0001
,  // measure 128
1000
0100
2002
0000
0000
0000
0000
0000
0000
0000
0000
0000
0000
0000
0000
0000
,  // measure 129
0000
0000
0000
0000
,  // measure 130
0000
0000
0000
0000
,  // measure 131
0000
0000
0000
0000
,  // measure 132
0000
0000
0000
0000
,  // measure 133
0000
0000
0000
0000
,  // measure 134
0000
0000
0000
0000
,  // measure 135
0000
0000
3003
0000
;

//---------------dance-single - ----------------
#NOTES:
     dance-single:
     :
     Hard:
     14:
     0.611442,0.768337,0.042003,0.298220,0.489333,1019.000000,1009.000000,10.000000,71.000000,0.000000,0.000000,0.611442,0.768337,0.042003,0.298220,0.489333,1019.000000,1009.000000,10.000000,71.000000,0.000000,0.000000:
0000
0000
0000
0000
1000
0000
0000
1000
0000
0000
1000
0000
0001
0000
0000
0001
,
0000
0000
0001
0000
0100
0000
0000
0100
0000
0000
0100
0000
0010
0000
0000
0010
,
0000
0000
0010
0000
1000
0000
0000
1000
0000
0000
1000
0000
0001
0000
0000
0001
,
0000
0000
0001
0000
1000
0000
0000
1000
0000
0000
1000
0000
0100
0000
0000
0100
,
0000
0000
0100
0000
0010
0000
0000
0010
0000
0000
0010
0000
0001
0000
0000
0001
,
0000
0000
0001
0000
1000
0000
0000
1000
0000
0000
1000
0000
0010
0000
0000
0010
,
0000
0000
0010
0000
0100
0000
0000
0100
0000
0000
0100
0000
0001
0000
0000
0001
,
0000
0000
0001
0000
0010
0000
0000
0010
0000
0000
0010
0000
0100
0000
0000
0100
,
0000
0100
2000
0000
0000
0000
0010
0000
,
3001
0001
0001
0000
0000
0000
0110
0000
,
0110
0000
0000
0000
1002
0000
0000
0000
0000
0000
0000
0000
0010
0000
0000
0003
,
1000
1000
1002
0000
0000
0000
0103
0001
,
0100
0010
2000
0000
0000
0000
0000
3000
,
1000
1000
1001
0000
0000
0000
0110
0000
,
0110
0000
0000
0000
2001
0000
0000
0000
0000
0000
0000
0000
0010
0000
0000
3000
,
0001
0000
0001
0000
1002
0000
0000
0000
0000
0000
0000
0000
1003
0010
1000
0010
,
1000
0001
0100
0001
0100
0000
0000
0100
0000
0000
0100
0000
0010
0000
0000
0010
,
0000
0000
0010
0000
1000
0000
0000
1000
0000
0000
1000
0000
0100
0000
0000
0100
,
0000
0000
0100
0000
0010
0000
0000
0010
0000
0000
0010
0000
0001
0000
0000
0001
,
0000
0000
0001
0000
0100
0000
0000
0100
0000
0000
0100
0000
0010
0000
0000
0010
,
0000
0000
0010
0000
1000
0000
0000
1000
0000
0000
1000
0000
0100
0000
0000
0100
,
0000
0000
0100
0000
0010
0000
0000
0010
0000
0000
0010
0000
0001
0000
0000
0001
,
0000
0000
0001
0000
0100
0000
0000
0100
0000
0000
0100
0000
0010
0000
0000
1000
,
0000
0000
0100
0000
0010
0000
0000
0001
0000
0000
0010
0000
0100
1000
0001
1000
,
0001
1000
0001
1000
0001
0000
0000
1000
0000
0000
1000
0000
0010
0000
0000
0010
,
0000
0000
0010
0000
0100
0000
0000
0100
0000
0000
0100
0000
0001
0000
1000
0000
,
0001
0000
0100
0000
0010
0000
0000
0010
0000
0000
0010
0000
1000
0000
0000
1000
,
0000
0000
1000
0000
0100
0000
0000
0100
0000
0000
0100
0000
0010
0000
0001
0000
,
0010
0000
0001
0000
0100
0000
0000
0100
0000
0000
0100
0000
0001
0000
0000
0001
,
0000
0000
0001
0000
1000
0000
0000
1000
0000
0000
1000
0000
0100
0000
0010
0000
,
0100
0000
1000
0000
0010
0000
0000
0010
0000
0000
0010
0000
0100
0000
0000
0100
,
0000
0000
0100
0000
0001
0000
0000
0001
0000
0000
0001
0000
1000
0001
1000
0001
,
1000
0001
1000
0001
2000
0000
3001
0000
0010
0000
0001
0000
0010
0000
0001
0000
,
0010
0100
0010
0100
1000
0010
1000
0001
,
1000
0100
0010
0001
1000
0001
0010
0100
,
1000
0001
0100
0010
1000
0001
0010
0001
,
0010
0100
1000
0010
0100
0001
0010
0100
,
1000
0100
0010
0001
0010
0100
1000
1000
,
1000
0000
0100
0010
0000
0000
0001
0000
0001
0000
0010
0001
0000
0001
0010
0000
,
0001
0000
0100
0010
0000
0010
0100
0000
0001
0000
1000
0000
0001
0010
0001
0010
,
0001
0010
0001
0010
0100
1000
0100
1000
0100
1000
0100
0000
0010
0000
0001
0000
,
0001
0000
0001
0000
0100
0010
0100
0010
0100
0010
0100
0000
0100
0010
0100
0000
,
0001
0010
0100
1000
0001
0010
0100
0010
0100
0010
0100
0000
1000
0000
0100
0000
,
0100
0000
0010
0000
0002
0000
0000
0203
0000
0000
0320
0000
2030
0000
0000
0002
,
3000
0000
0023
0000
0130
1000
0100
1000
0100
1000
0100
0000
0010
0000
0000
0001
,
0000
0000
0000
1000
0010
1000
0010
1000
0010
1000
0000
0001
0010
0001
0000
1000
,
0010
1000
0100
0010
0001
1000
0001
1000
0001
1000
0000
0001
0000
0000
1000
0000
,
0000
1000
0000
0100
0000
0000
0000
0010
0000
0000
0010
0000
0001
0000
0000
1000
,
0000
0000
0010
0000
1000
0000
0000
1000
0000
0000
1000
0000
0100
0000
0000
0010
,
0000
0000
0001
0000
0100
0000
0000
0010
0000
0000
1000
0000
0100
0000
0000
0010
,
0000
0000
0001
0000
1000
0000
0000
0100
0000
0000
1000
0000
0001
0000
0000
0100
,
0000
0000
0010
0000
1000
0000
0000
0100
0000
0000
0010
0000
0001
0000
0000
0001
,
0000
0000
0001
0000
0010
0000
0000
0100
0000
0000
1000
0000
0010
0000
0000
0100
,
0000
0000
0001
0000
0100
0000
0000
1000
0000
0000
0100
0000
0010
0000
0000
0001
,
0000
0000
0001
0000
1000
0000
0000
0001
0000
0000
1000
0000
0100
0000
0000
0010
,
0000
0000
0001
0000
0100
0000
0000
1000
0000
0000
1000
0000
0100
0010
0001
0010
,
0001
0010
0001
0010
0001
0000
0000
0010
0000
0000
0010
0000
0001
0000
0000
0001
,
0000
0000
0001
0000
0100
0000
0000
0100
0000
0000
0100
0000
0010
0000
1000
0000
,
0100
0000
0010
0000
0100
0000
0000
0100
0000
0000
0100
0000
1000
0000
0000
1000
,
0000
0000
1000
0000
0010
0000
0000
0010
0000
0000
0010
0000
0100
0000
0001
0000
,
0010
0000
0001
0000
0100
0000
0000
0100
0000
0000
0100
0000
0001
0000
0000
0001
,
0000
0000
0001
0000
1000
0000
0000
1000
0000
0000
1000
0000
0100
0000
0010
0000
,
0100
0000
1000
0000
0010
0000
0000
0010
0000
0000
0010
0000
0100
0000
0000
0100
,
0000
0000
0100
0000
0001
0000
0000
0001
0000
0000
0001
0000
1000
0001
1000
0001
,
1000
0001
1000
0001
1000
0000
1000
0000
1000
0000
1000
0000
0010
0000
0010
0000
,
0010
0010
0100
0100
0100
0100
0001
0010
,
0001
0100
0010
1000
1000
1000
0001
0001
,
0001
0001
0010
0010
0010
0010
0100
1000
,
0100
0010
0001
0100
0100
0100
0010
0010
,
0010
0010
1000
1000
1000
1000
0001
0010
,
0001
1000
0010
0100
0100
0100
0001
0001
,
0001
0000
0001
0000
0010
0000
0010
0000
0010
0000
0100
0000
1000
0100
1000
0100
,
1000
0100
1000
0100
0010
0001
0010
0001
0010
0001
0010
0000
0100
0000
0000
0100
,
0000
0000
0100
0000
1000
0001
1000
0001
1000
0001
1000
0000
0000
0000
0000
0000
,
1000
0100
0010
0001
1000
0100
0010
0100
0010
0100
0010
0000
0001
0000
0000
0100
,
0000
0000
0010
0000
2000
0000
0000
3020
0000
0000
0230
0000
0302
0000
0000
2000
,
0003
0000
3200
0000
0310
0001
0010
0001
0010
0001
0010
0000
0100
0000
0000
1000
,
0000
0000
0000
0001
0100
0001
0100
0001
0100
0001
0000
1000
0100
1000
0000
0001
,
0100
0001
0010
0100
1000
0001
0100
0010
1000
0001
0100
0000
0000
0010
0000
0000
,
0010
0000
1000
0000
0000
0100
0000
0000
0010
0000
0001
0000
0000
0001
0000
0000
,
0010
0200
1300
0100
1000
0100
0010
0002
,
1003
0002
1003
0010
0200
0310
2000
3001
,
0010
0200
0310
0001
2000
3001
2000
3010
,
1000
0020
0130
0001
0100
1000
0100
0002
,
0023
0230
1300
0001
0100
0001
0200
0302
,
0023
0230
1300
0010
0200
0310
0200
0301
,
0010
0200
1300
0100
0020
0031
0010
0100
,
0020
0000
0032
0000
2003
0000
3200
0000
2300
0000
3010
0000
1000
0000
0100
0010
,
0100
0010
0002
0000
1003
0000
0100
0000
1000
0000
0100
0000
2000
0000
3002
0000
,
0203
0320
1030
0002
1003
0002
1003
0002
,
0023
0130
1000
0200
0310
0002
0103
0020
,
2030
0000
3010
0000
0001
0000
0010
0000
1000
0000
0100
0000
0010
0000
0100
1000
,
0100
1000
0002
0000
0103
0000
0001
0000
0100
0000
0001
0000
0100
0000
0002
0000
,
2003
3020
1030
0010
2000
3001
0200
0301
,
0020
0031
0200
0320
1030
0100
0010
0100
,
1000
0000
0001
0100
0001
0100
0010
1000
0010
1000
0100
0010
0100
0010
0001
1000
,
0001
0010
0100
0000
0100
0000
0100
0000
0100
0000
0100
0000
0100
0000
0100
0000
,
0100
1000
1000
1000
1000
1000
1000
1000
,
0100
0010
0010
0010
0010
0010
0010
0010
,
0010
0001
0001
0001
0100
0100
0010
0010
,
1000
0100
0100
0100
0100
0100
0100
0100
,
0100
0010
0010
0010
0010
0010
0010
0010
,
0010
0100
0100
0100
0100
0100
0100
0100
,
0100
0010
0001
0001
1000
1000
0100
0100
,
0010
0001
0100
0100
0100
0100
0100
0100
,
0001
0001
0010
0010
0010
0010
0010
0100
,
1000
0001
1000
0001
0001
0001
0001
0001
,
0100
0001
1000
1000
0100
1000
0001
1000
,
0100
0100
0010
0001
0010
0010
0010
0010
,
0001
0010
0001
0001
0001
0001
0001
0001
,
0100
0001
1000
1000
1000
1000
1000
1000
,
0100
0100
0010
0001
0100
0001
0010
0010
,
0100
0000
0100
1000
0100
1000
0100
0000
0000
0000
0010
0000
0000
0000
0001
0000
,
0000
0000
0100
0001
0100
0001
0100
0000
0000
0000
0010
0000
0000
0000
1000
0000
,
0000
0000
0001
1000
0001
1000
0001
0000
0000
0000
0010
0000
0000
0000
0100
0000
,
0000
0000
0010
0100
0010
0100
0010
0000
0000
0000
0001
1000
0001
1000
0001
0000
,
0000
0000
0100
0010
0100
0010
0100
0000
0000
0000
0010
0000
0000
0000
1000
0000
,
0000
0000
1000
0001
1000
0001
1000
0000
0000
0000
0001
0000
0000
0000
0100
0000
,
0000
0000
0010
0100
0010
0100
0010
0000
0000
0000
1000
0000
0000
0000
0001
0000
,
0000
0000
0000
0000
0000
0000
1000
0000
0000
0001
0000
0000
1000
0000
0000
0001
0000
0000
1000
0000
0000
0000
0000
0000
0000
0000
0000
0000
0000
0000
0001
0000
1000
0000
0001
0000
1000
0000
0001
0000
1000
0000
0001
0000
0010
0000
0100
0000
,
0010
0000
0100
0000
0010
0000
0100
0000
0000
0000
0000
0000
1000
0000
0000
0000
0000
0000
0001
0000
0000
0000
0000
0000
0010
0000
0000
0001
0000
0000
0000
0000
0000
0001
0000
0000
0010
0000
0000
0000
0000
0000
0001
0000
0000
0000
0000
0000
,
0100
0010
0000
0010
0100
0000
0001
0000
1000
0000
0001
0000
1000
0000
0100
0000
,
1000
0100
0000
0100
1000
0000
0001
0000
1000
0010
0000
0010
1000
0000
0001
0000
,
1000
0001
0000
0001
1000
0000
0100
0000
0010
0000
0100
0000
1000
0000
0100
0000
,
0010
0001
0000
0000
0001
0000
0010
0000
0001
0010
0000
0010
0001
0000
0001
0000
,
1000
0010
0000
0010
1000
0000
0001
0000
1000
0000
0002
0000
0000
0000
2003
0000
,
0000
0000
3002
0000
1000
0000
1003
0000
1000
0100
0000
0100
0010
0000
0001
0000
,
1000
0010
0000
0010
0100
0000
0001
0000
0001
0000
1000
0001
1000
0001
1000
0001
,
0010
0100
2002
0000
0000
0000
0000
0000
0000
0000
0000
0000
0000
0000
0000
0000
,
0000
0000
0000
0000
,
0000
0000
0000
0000
,
0000
0000
0000
0000
,
0000
0000
0000
0000
,
0000
0000
0000
0000
,
0000
0000
0000
0000
,
0000
0000
3003
0000
;

//---------------dance-single - ----------------
#NOTES:
     dance-single:
     :
     Medium:
     9:
     0.403828,0.711424,0.079805,0.336023,0.285619,673.000000,654.000000,19.000000,80.000000,0.000000,0.000000,0.403828,0.711424,0.079805,0.336023,0.285619,673.000000,654.000000,19.000000,80.000000,0.000000,0.000000:
0000
0000
0000
0000
1000
0000
0000
1000
0000
0000
0000
0000
0001
0000
0000
0001
,
0000
0000
0000
0000
0100
0000
0000
0100
0000
0000
0000
0000
0010
0000
0000
0010
,
0000
0000
0000
0000
1000
0000
0000
1000
0000
0000
0000
0000
0001
0000
0000
0001
,
0000
0000
0000
0000
1000
0000
0000
1000
0000
0000
0000
0000
0100
0000
0000
0100
,
0000
0000
0000
0000
0010
0000
0000
0010
0000
0000
0000
0000
0001
0000
0000
0001
,
0000
0000
0000
0000
1000
0000
0000
1000
0000
0000
0000
0000
0010
0000
0000
0010
,
0000
0000
0000
0000
0100
0000
0000
0100
0000
0000
0000
0000
0001
0000
0000
0001
,
0000
0000
0000
0000
0010
0000
0000
0010
0000
0000
0000
0000
0100
0000
0000
0100
,
0000
2000
0000
0000
,
3001
0001
0001
0000
0000
0000
1000
0000
,
1000
0000
0000
0000
0002
0000
0000
0000
0000
0000
0000
0000
0000
0000
0000
0003
,
1000
1000
0002
0000
0000
0000
0103
0001
,
0100
0010
2000
0000
0000
0000
0000
3000
,
1000
1000
1001
0000
0000
0000
0001
0000
,
1000
0000
0000
0000
2001
0000
0000
0000
0000
0000
0000
0000
0000
0000
0000
3000
,
0001
0000
0000
0001
0000
0000
2000
0000
0000
0000
0000
0000
0000
0000
0000
0000
3000
0000
1000
0000
0000
1000
0000
0000
,
1000
0000
0100
0000
0100
0000
0000
0100
0000
0000
0000
0000
0010
0000
0000
0010
,
0000
0000
0000
0000
1000
0000
0000
1000
0000
0000
0000
0000
0100
0000
0000
0100
,
0000
0000
0000
0000
0010
0000
0000
0010
0000
0000
0000
0000
0001
0000
0000
0001
,
0000
0000
0000
0000
0100
0000
0000
0100
0000
0000
0000
0000
0010
0000
0000
0010
,
0000
0000
0000
0000
1000
0000
0000
1000
0000
0000
0000
0000
0100
0000
0000
0100
,
0000
0000
0000
0000
0010
0000
0000
0010
0000
0000
0000
0000
0001
0000
0000
0001
,
0000
0000
0000
0000
0100
0000
0000
0100
0000
0000
0000
0000
0010
0000
0000
0010
,
0000
0000
0000
0000
0100
0000
0000
0100
0000
0000
0000
0000
0100
1000
0001
1000
,
0001
1000
0001
1000
0001
0000
0000
1000
0000
0000
0000
0000
0010
0000
0000
0010
,
0000
0000
0000
0000
0100
0000
0000
0100
0000
0000
0100
0000
0001
0000
1000
0000
,
0001
0000
0100
0000
0010
0000
0000
0010
0000
0000
0000
0000
1000
0000
0000
1000
,
0000
0000
0000
0000
0100
0000
0000
0100
0000
0000
0100
0000
0010
0000
0001
0000
,
0010
0000
0001
0000
0100
0000
0000
0100
0000
0000
0000
0000
0001
0000
0000
0001
,
0000
0000
0000
0000
1000
0000
0000
1000
0000
0000
1000
0000
0100
0000
0010
0000
,
0100
0000
1000
0000
0010
0000
0000
0010
0000
0000
0000
0000
0100
0000
0000
0100
,
0000
0000
0000
0000
1000
0000
0000
1000
0000
0000
1000
0000
1000
0001
1000
0001
,
1000
0001
1000
0001
2000
0000
3001
0000
0000
0000
0001
0000
0000
0000
0001
0000
,
0000
0100
0000
0100
0000
0010
0000
1000
,
0000
0100
0000
0010
0000
0001
0000
0100
,
0000
0001
0000
0010
0000
0001
0000
0001
,
0000
0100
0000
0010
0000
1000
0000
0100
,
0000
0100
0000
0010
0000
0001
0000
0100
,
0000
0010
0000
1000
0000
0100
0000
0100
,
0000
1000
0000
1000
0000
0001
0100
0001
,
0001
0000
0001
0000
1000
0000
1000
0000
1000
0000
0100
0000
0010
0000
0000
0010
,
0000
0001
0100
0100
0100
0100
0000
0100
,
0001
0100
0001
0100
0100
0100
0010
0100
,
0100
0000
0010
0000
2000
0000
0000
3200
0000
0000
0320
0000
0032
0000
0000
2003
,
0000
3000
0002
0000
0103
0000
0100
0000
0100
0000
0100
0000
0000
0010
0000
0000
,
0100
0000
0000
0010
0000
0010
0000
0010
0000
0000
0000
1000
0000
0000
0000
0001
,
0000
1000
0000
0001
0000
0100
0000
0010
0000
0000
1000
0000
0010
0000
0000
0010
,
0000
0000
0000
0000
0100
0000
0000
0100
0000
0000
0000
0000
1000
0000
0000
1000
,
0000
0000
0000
0000
0001
0000
0000
0001
0000
0000
0000
0000
0100
0000
0000
0010
,
0000
0000
0000
0000
0100
0000
0000
0010
0000
0000
0000
0000
0100
0000
0000
0010
,
0000
0000
0000
0000
1000
0000
0000
0100
0000
0000
0000
0000
0001
0000
0000
0100
,
0000
0000
0000
0000
1000
0000
0000
0100
0000
0000
0000
0000
0001
0000
0000
0001
,
0000
0000
0000
0000
0010
0000
0000
0100
0000
0000
0000
0000
0010
0000
0000
0100
,
0000
0000
0000
0000
0100
0000
0000
1000
0000
0000
0000
0000
0010
0000
0000
0001
,
0000
0000
0000
0000
1000
0000
0000
0001
0000
0000
0000
0000
0100
0000
0000
0010
,
0000
0000
0000
0000
0100
0000
0000
1000
0000
0000
1000
0000
0100
0000
0010
0000
,
0010
0000
0010
0000
0010
0000
0000
0010
0000
0000
0000
0000
0001
0000
0000
0001
,
0000
0000
0000
0000
0100
0000
0000
0100
0000
0000
0100
0000
0010
0000
1000
0000
,
0100
0000
0010
0000
0100
0000
0000
0100
0000
0000
0000
0000
1000
0000
0000
1000
,
0000
0000
0000
0000
0010
0000
0000
0010
0000
0000
0010
0000
0100
0000
0001
0000
,
0010
0000
0001
0000
0100
0000
0000
0100
0000
0000
0000
0000
0001
0000
0000
0001
,
0000
0000
0000
0000
1000
0000
0000
1000
0000
0000
1000
0000
0100
0000
0010
0000
,
0100
0000
1000
0000
0010
0000
0000
0010
0000
0000
0000
0000
0100
0000
0000
0100
,
0000
0000
0000
0000
0001
0000
0000
0001
0000
0000
0001
0000
1000
0000
1000
0000
,
1000
1000
0100
1000
1000
1000
0010
0010
,
0010
0010
0100
0100
0100
0100
0001
0010
,
0001
0100
0010
1000
1000
1000
0001
0001
,
0001
0001
0010
0010
0010
0010
0100
1000
,
0100
0010
0001
0100
0100
0100
0010
0010
,
0010
0010
1000
1000
1000
1000
0001
0010
,
0001
1000
0010
0100
0100
0100
0001
0001
,
0001
0001
0010
0010
0010
0100
1000
1000
,
1000
0000
1000
0000
0010
0000
0010
0000
0010
0000
0010
0000
0100
0000
0000
0100
,
0000
0100
0001
0001
0001
1000
0000
1000
,
1000
0000
0010
0000
1000
0000
0100
0000
0100
0000
0010
0000
0001
0000
0000
0100
,
0000
0000
0010
0000
2000
0000
0000
3020
0000
0000
0230
0000
0302
0000
0000
2000
,
0003
0000
3200
0000
0310
0000
0010
0000
0010
0000
0010
0000
0100
0000
0000
1000
,
0000
0000
0000
0001
0100
0001
0100
0001
0100
0001
0000
0001
0100
0001
0000
0001
,
0100
0001
0100
0001
0100
0001
0100
0001
0100
0001
0100
0000
0000
0010
0000
0000
,
0010
0000
1000
0000
0000
0100
0000
0000
0010
0000
0001
0000
0000
0001
0000
0000
,
0010
0200
0300
0000
0000
0000
0000
0002
,
0003
0002
0003
0000
0200
0300
2000
3000
,
0000
0200
0300
0000
2000
3000
2000
3000
,
0000
0020
0030
0000
0000
0000
0000
0002
,
0023
0230
0300
0000
0000
0000
0200
0302
,
0023
0230
0300
0000
0200
0300
0200
0300
,
0000
0200
0300
0000
0020
0030
0000
0000
,
0020
0000
0032
0000
2003
0000
3200
0000
2300
0000
3000
0000
0000
0000
0100
0010
,
0100
0010
0002
0000
0003
0000
0000
0000
0000
0000
0000
0000
2000
0000
3002
0000
,
0203
0320
0030
0000
2000
3000
2000
3000
,
0002
0203
0300
0000
0002
0003
0020
0030
,
2000
0000
3200
0000
0300
0000
0000
0000
0000
0000
0000
0000
0000
0000
0100
1000
,
0100
1000
0002
0000
0003
0000
0000
0000
0000
0000
0000
0000
0000
0000
0002
0000
,
2003
3020
0030
0000
2000
3000
0200
0300
,
0020
0032
0003
0000
2000
0000
0000
0000
,
3000
0001
0001
0010
0010
0100
0100
1000
,
1000
0000
0000
0002
0000
2003
0000
3002
,
0000
2003
0000
0000
0000
0000
3000
0001
,
0010
1100
0000
0000
0000
0000
0000
0000
,
0000
0011
0000
0000
1100
0000
1100
0000
,
0001
1001
0000
0000
0000
0000
0000
0010
,
1000
0200
0000
0000
0300
0000
0000
0010
,
0001
0200
0000
0000
0000
0000
0000
0300
,
0000
1001
0000
0000
0000
0000
0000
1100
0000
0000
0000
1100
0000
0000
0000
0001
,
0000
1001
0000
0000
0000
0000
0000
0000
0000
0000
0000
0000
0000
0000
0010
0000
,
1000
0200
0000
0000
0000
0300
0000
1000
,
0010
0101
0000
0000
0000
0000
0000
0000
,
0000
1001
0000
0000
0101
0000
0101
0000
,
1000
1001
0000
0000
0000
0000
0000
0010
,
1000
0200
0000
0000
0300
0000
0000
0010
,
0001
0200
0000
0000
0000
0000
0000
0000
,
0300
0110
0000
0000
1100
0000
0101
0000
,
1000
0001
1000
1000
0000
0100
0000
1000
,
0000
0100
0100
0100
0000
0010
0000
0001
,
0000
1000
1000
1000
0000
0100
0000
0010
,
0000
0001
0001
0001
0000
0100
0100
0100
,
0000
0010
0010
0010
0000
0100
0000
0010
,
0000
1000
1000
1000
0000
0001
0000
0010
,
0000
0100
0100
0100
0000
0010
0000
0001
,
0000
1000
1000
1000
0000
0002
0000
0000
,
0000
0003
1000
0001
0010
0001
0010
0001
,
0100
0010
0100
0001
1000
0001
1000
0100
,
1000
0010
1000
0001
1000
0100
1000
0001
,
1000
0100
0001
0100
0010
0100
1000
0100
,
0010
0001
0000
0000
0001
0000
0010
0000
0001
0010
0000
0010
0001
0000
0001
0000
,
1000
0010
0000
0010
1000
0000
0001
0000
1000
0000
0002
0000
0000
0000
2003
0000
,
0000
0000
3002
0000
1000
0000
1003
0000
1000
0100
0000
1000
0100
0000
0010
0000
,
0001
0100
0000
0001
0100
0000
0010
0000
1000
0000
0001
1000
0001
1000
0001
1000
,
0001
1000
0002
0000
0000
0000
0000
0000
0000
0000
0000
0000
0000
0000
0000
0000
,
0000
0000
0000
0000
,
0000
0000
0000
0000
,
0000
0000
0000
0000
,
0000
0000
0000
0000
,
0000
0000
0000
0000
,
0000
0000
0000
0000
,
0000
0000
0003
0000
;
