#TITLE:Pal Gato;
#SUBTITLE:;
#ARTIST:Tronic;
#TITLETRANSLIT:;
#SUBTITLETRANSLIT:;
#ARTISTTRANSLIT:;
#GENRE:;
#CREDIT:;
#BANNER:pal gato bn.png;
#BACKGROUND:pal gato bg.png;
#LYRICSPATH:;
#CDTITLE:cdtitleitachi.png;
#MUSIC:TRONIC Pal Gato.ogg;
#OFFSET:0.015734;
#SAMPLESTART:39.448895;
#SAMPLELENGTH:32.432430;
#SELECTABLE:YES;
#BPMS:0.000000=148.000000
;
#STOPS:
;
#BGCHANGES:;
#KEYSOUNDS:;
#ATTACKS:;

//---------------dance-single - ----------------
#NOTES:
     dance-single:
     :
     Hard:
     14:
     0.734389,0.778410,0.623118,0.032454,0.201215,792.000000,696.000000,96.000000,5.000000,0.000000,0.000000,0.734389,0.778410,0.623118,0.032454,0.201215,792.000000,696.000000,96.000000,5.000000,0.000000,0.000000:
0000
0000
1000
0001
1000
0010
0100
0010
,
1000
0100
0010
0001
1000
0100
0010
0001
,
0001
0100
0010
0100
0001
1000
0100
0010
,
0001
1000
0010
1000
0001
0100
0010
0100
,
1000
0100
0010
1000
0100
0010
0100
1000
,
0010
0100
1000
0100
0010
1000
0100
0010
,
1000
0010
0100
1000
0010
0100
1000
0100
,
0010
0000
1000
0000
0100
0000
0010
0000
0001
0000
1000
0000
0010
0100
0010
0000
,
0001
1000
0001
1000
0001
0000
1000
0000
0000
0000
0001
0000
1000
0000
0000
0000
,
1010
0000
0100
0001
0100
0001
0100
0000
,
1001
0000
0010
1000
0010
1000
0010
0100
,
0010
0100
0001
0010
0001
0010
0100
0000
,
1001
0000
0000
0001
1000
1000
0010
0000
,
1000
0000
0000
0010
0100
0001
1000
0000
,
1100
0000
0000
0001
0100
0010
0100
0010
,
0010
0001
1000
0100
0100
0001
1010
0000
,
0101
0000
1000
0010
0100
0010
1000
0010
,
0100
0010
1000
0010
0100
0010
0001
0010
,
0100
0010
1000
0100
1000
0100
0010
0100
,
0010
0001
0010
0100
1000
0010
0100
1000
,
0100
0010
1000
0100
0010
0001
1000
0010
,
0000
0000
0100
0001
1000
0100
0010
0001
,
1000
0000
0100
0000
1000
0000
0001
0000
1000
0010
0100
0000
0001
0000
0010
0000
,
0100
1000
0100
0000
1000
0000
0001
0000
1001
0000
1001
0000
1000
0010
0100
0001
,
1000
0010
0100
0001
0010
0000
0001
0000
0001
0000
0100
0000
0010
0000
1000
0000
,
0100
1000
0011
0100
0011
1000
0011
0100
,
0011
1000
0001
0100
0010
0100
0001
0010
,
0100
1000
0110
0001
0110
1000
0110
0001
,
0110
1000
0110
0001
1000
0010
0100
0001
,
1000
0100
1100
0100
0110
0100
0101
0100
,
0110
0100
1001
0010
1100
0010
1010
0100
,
0110
0000
0001
0000
1000
0000
0010
0000
0100
0000
0001
0000
1000
0100
0000
0010
,
0001
0100
0010
0000
1010
0000
0010
0000
0100
0000
0001
0000
1001
0000
0101
0000
,
0010
0100
1100
0100
0110
0100
0011
1000
,
0101
0100
0011
0100
1001
0010
0110
0010
,
1000
0100
1100
0100
0110
0100
1100
0010
,
1100
0010
1100
0100
0010
0100
0011
0001
,
0100
0010
1010
0010
0110
0010
0011
0010
,
0110
0010
1100
0100
0010
0001
1000
0010
,
1100
0000
0100
0000
1010
0000
0100
0000
0100
0000
1000
0000
0001
0010
0001
0100
,
0010
1000
0100
1000
0010
0000
1000
0000
0010
1000
0000
1000
0001
0000
0100
0000
,
0010
0100
0000
0100
0001
0000
1000
0000
0100
1000
0000
1000
0100
0000
0010
0000
,
0001
0010
0000
0010
0001
0000
1000
0000
0010
1000
0000
1000
0010
0000
0100
0000
,
0001
0100
0000
0100
0001
0000
1000
0000
0100
1000
0000
0001
0010
0100
1000
0000
,
0001
1000
0001
1000
0100
0000
1000
0000
0010
1000
0000
1000
0010
0000
0100
0000
,
0001
1000
0000
1000
0100
0000
1000
0000
0100
1000
0000
1000
0100
0000
1000
0000
,
0010
1000
0000
1000
0001
0000
0100
0000
0010
0100
0000
0100
0001
0000
1000
0000
,
0100
1000
0000
1000
0100
0000
1000
0000
0001
0010
0100
0000
1000
0100
0010
0001
,
0010
0100
1000
0000
0001
0000
0010
0000
0100
0000
1000
0000
1000
0000
0000
0000
,
1000
0000
0000
0010
1000
0010
1000
0000
,
0010
0000
0000
1000
0010
1000
0010
1000
,
0001
1000
0010
1000
0100
1000
0010
0000
,
0101
0000
0100
1000
0010
1000
0001
0000
,
1001
0000
0000
0100
1000
0001
1000
0000
,
1100
0000
0000
0001
1000
0100
1000
0010
,
0010
0100
0001
1000
0100
0010
0001
1000
,
0010
0000
0100
0010
0010
1000
1000
0100
,
0100
0010
0001
0001
1000
1000
0010
0010
,
0100
0001
1000
0100
0100
0001
1000
1000
,
0010
0010
0001
1000
0010
0010
0001
0100
,
1000
0100
1100
0100
1000
0010
0100
0001
,
1000
0100
1100
0100
1000
0010
0100
0001
,
1000
0000
0100
0000
1100
0000
0100
0000
0100
0001
0100
0000
1000
0010
0100
0000
,
0100
0001
1000
0000
0001
0000
1000
0000
0101
0000
0100
0000
1000
0010
0100
0001
,
1000
0100
0010
0001
1000
0000
0010
0000
0100
0000
0001
0000
1000
0000
0100
0000
,
0010
0001
1001
0001
0110
0010
1001
0001
,
0110
0001
0110
0001
1000
0010
1000
0001
,
1000
0100
0110
0001
1010
0001
1010
0001
,
1010
0001
1000
0010
0100
0001
1001
0001
,
0010
0100
1100
0010
1100
0010
1100
0100
,
1010
0100
1000
0010
0100
1000
1000
0010
,
0010
0000
0100
0000
0010
0000
1000
0000
0001
0000
1000
0000
0010
0100
0000
0010
,
1000
0100
0010
0001
0100
0000
1000
0000
0100
0000
0010
0000
1000
0000
0100
0000
,
0010
1000
0001
1000
0110
1000
1010
0010
,
0110
0010
1100
0100
0010
0001
1001
0001
,
0100
0010
1010
0010
0011
0010
1010
0010
,
0011
0010
1010
0100
1000
0100
0110
0100
,
1000
0001
0101
0001
1001
0001
0110
0010
,
0011
0010
1000
0100
0010
0001
1000
0010
,
0110
0000
0010
0000
1000
0000
0001
0000
1000
0000
0100
0000
1001
0000
0001
0010
,
0100
0010
0001
0000
2000
0000
0000
0000
0010
0000
0000
0000
0001
0000
0000
0000
,
0000
0010
0000
3002
,
0100
0000
1000
0000
1000
0000
2000
0003
,
0000
0000
3010
0100
0001
0000
1000
0100
,
1000
0010
1001
0110
,
0001
0000
1000
0100
0110
0000
0001
1000
,
1001
0000
0010
0100
0110
0001
1000
0100
,
0110
0100
1000
0001
0101
0001
1100
0100
,
0110
0001
2002
0000
0000
0000
0000
0000
,
0000
0000
0000
0000
,
0000
0000
0000
0000
,
0000
0000
0000
0003
0000
0000
0000
0000
,
0000
3000
0000
0000
;

//---------------dance-single - ----------------
#NOTES:
     dance-single:
     :
     Medium:
     10:
     0.398721,0.507581,0.207706,0.395939,0.000000,430.000000,398.000000,32.000000,61.000000,0.000000,0.000000,0.398721,0.507581,0.207706,0.395939,0.000000,430.000000,398.000000,32.000000,61.000000,0.000000,0.000000:
0000
0000
2000
0000
0000
3000
0010
0000
,
0100
0002
0000
1003
,
1000
1000
0001
0001
,
1000
0000
0001
0000
1000
0000
0001
1000
,
0001
0000
2000
0000
0000
3000
0010
0000
,
0100
0000
0002
0000
0000
0003
1000
0000
,
0100
0000
2000
3000
0020
0030
0200
0300
,
0002
0003
2000
3000
0200
0300
0010
0001
,
0010
0001
0000
1000
0000
0010
1000
0000
,
0000
0000
0000
0001
0100
0001
0100
0000
,
0001
0000
0000
1000
0100
1000
0100
1000
,
0100
1000
0010
0100
,
0001
0000
0000
1000
0100
1000
0100
0000
,
1001
0000
0000
0001
1000
0001
1000
0000
,
0001
0000
0000
1000
0100
1000
0100
1000
,
0010
1000
0010
1000
0100
1000
0010
0000
,
1000
0001
0001
1000
,
1000
1001
0010
0100
,
0100
1001
0010
1010
,
0001
2001
0000
0020
,
3030
0000
0001
0000
1000
0000
0010
0010
,
0000
0000
0000
0001
1000
0001
1000
0100
,
1000
0010
1000
0100
0010
0001
0100
0010
,
1000
0010
0100
0001
1000
0001
1000
0000
,
1001
0000
2000
0000
3000
0010
0100
0000
,
0000
0001
1000
0100
0010
0001
1000
0010
,
0100
0001
2000
0000
0000
3000
0001
0000
,
0000
1000
0100
1000
0010
1000
0100
1000
,
0001
0010
0002
0000
0000
0003
0010
0000
,
0001
1000
0100
1000
0010
0010
1000
1000
,
0001
0001
1000
0000
2000
0000
3000
0000
,
1001
2002
0000
3003
,
0000
0000
1000
0000
0000
0001
1000
0000
,
0000
0001
1000
0010
1000
0001
0100
0010
,
1000
0001
2000
0000
0000
3000
0001
0000
,
0000
1000
0100
1000
0100
1000
0001
1000
,
0001
0100
0002
0000
0000
0003
0001
0000
,
1000
0100
1000
0001
1000
0001
0100
0001
,
0010
0001
0020
0000
0000
0030
0000
0000
,
0011
2200
0000
0000
,
3300
0020
0000
0130
,
0001
0000
2000
0000
0000
3000
0010
0000
,
0100
0001
1001
0110
,
1001
0110
1001
1100
,
0110
0000
2002
0000
0000
3003
1000
0000
,
0100
2000
0000
0000
,
0000
3000
0010
0000
0100
0000
0001
0000
,
1000
0000
0001
1000
0010
1000
0001
0010
,
0100
1000
0000
1000
0000
0001
1000
0000
,
0001
0000
0000
1000
0100
1000
0100
0000
,
1000
0000
0000
1001
0000
0010
0100
0010
,
0000
0100
0010
1000
0001
1000
0001
0000
,
1001
0000
0000
1000
0100
1000
0100
0000
,
0010
0000
0000
0001
1000
0100
1000
0000
,
1001
0000
0000
1000
0100
1000
0010
1000
,
0000
0000
0010
0100
0010
0100
0001
1000
,
0100
1000
1001
0010
,
0110
0000
2001
0000
0000
3000
0000
0000
,
0000
0000
0220
0000
0030
0300
0001
0000
,
1000
2200
3300
0220
,
0300
0030
0001
1000
0001
1000
0020
0000
,
0030
0000
0000
1000
0001
1000
0100
0010
,
0001
1000
0100
1000
0001
0001
1000
0010
,
0100
0001
1000
0100
0010
0001
1000
0010
,
1000
0000
0001
1000
0000
0010
1000
0000
,
0000
0001
0100
0010
0100
0001
1000
0100
,
0010
0001
2000
0000
0000
3000
0002
0000
,
0003
1000
0100
1000
0010
0100
0001
1000
,
0100
0010
0002
0000
0000
0003
1000
0000
,
0100
1000
0010
1000
0001
0100
0010
1000
,
0001
0010
0200
0000
0000
0000
0300
0000
,
1100
0000
0220
0000
0000
0000
0000
0330
,
0000
0000
0001
1000
0000
0010
0200
0000
,
0300
0001
1000
0100
0010
0001
1000
0010
,
0100
0001
2000
0000
3000
0000
0020
0000
,
0030
0100
0001
0100
0010
0100
0001
0100
,
0001
0010
0002
0000
0000
0003
0010
0000
,
0001
1000
0100
1000
0010
0100
0001
1000
,
0100
0010
0002
0000
0000
0000
0003
0000
,
1000
2002
0000
0000
,
3003
1000
0001
2001
,
0000
3000
0020
0000
0000
0030
0200
0000
,
0000
0300
0001
0000
1000
0000
0002
0000
,
0000
0003
2000
0000
3000
0000
0020
0000
,
0000
0030
0100
0000
0100
0000
0200
0000
,
0000
0300
0002
0000
0000
0003
2000
0000
,
0000
3000
0100
0000
1000
0000
2200
0000
,
3300
1000
0001
1000
,
0010
2000
0000
0000
,
0000
0000
0000
0000
,
0000
0000
0000
0000
,
0000
0000
0000
0000
,
3000
0000
0000
0000
;

//---------------dance-single - ----------------
#NOTES:
     dance-single:
     :
     Easy:
     4:
     0.221615,0.387623,0.116835,0.344013,0.000000,239.000000,221.000000,18.000000,53.000000,0.000000,0.000000,0.221615,0.387623,0.116835,0.344013,0.000000,239.000000,221.000000,18.000000,53.000000,0.000000,0.000000:
0000
0000
2000
0000
0000
0000
0000
3000
,
0000
0000
0020
0000
0000
0000
0000
0030
,
0000
0200
0000
0000
,
0000
0000
0300
0000
,
0000
0020
0000
0000
,
0030
0000
0200
0000
0000
0000
0000
0300
,
0000
0010
0010
0010
,
0000
1000
1000
2002
,
3003
1000
0000
1000
,
0000
0000
0010
0010
,
0010
0000
0100
0010
,
0100
0001
1000
0001
,
1000
0000
0100
0100
,
0100
0000
1000
1000
,
1000
0000
0010
0100
,
0001
0000
0100
0001
0100
0000
0001
0000
,
0001
2000
3000
0010
,
0010
0000
0020
0000
0000
0030
0000
0000
,
0000
0100
0000
0010
,
0100
0002
0003
0002
,
0003
1000
0001
2000
,
0000
3000
0000
0000
0010
0000
0010
0000
,
0010
0020
0000
0030
,
0000
0100
0010
1000
,
0000
0002
0003
1000
,
0000
0001
1000
0001
,
0001
0001
0000
0001
,
0000
1000
0100
0010
,
0001
0001
0000
0001
,
0000
1000
0100
1000
,
0010
2000
3000
0000
,
1001
0000
0220
0000
0000
0300
0030
0000
,
0000
1000
0000
0002
,
0003
0100
0010
0100
,
0001
0010
0000
0001
,
0000
1000
0100
1000
,
0010
2000
3000
1000
,
0000
0010
0010
0100
,
0100
2002
3003
0000
,
0110
2002
0000
3003
,
0000
0000
2000
0000
0000
3000
1000
0000
,
1000
0000
0002
0000
0000
0003
0100
0000
,
0100
0010
0010
1000
,
1000
0001
0001
0001
,
0001
2000
3000
0010
,
0100
0020
0000
0000
,
0030
0100
0001
1000
,
0100
1000
0010
1000
,
0001
1000
0010
0020
,
0000
0030
0000
0000
0100
0000
0100
0000
,
0100
0000
0010
0000
,
0000
0010
1000
0001
,
1000
0000
0010
0010
,
0010
0000
0100
0100
,
0100
0000
0001
1000
,
0000
0001
1000
0100
,
1000
1001
0001
0100
,
0010
0220
0330
0000
,
0000
1000
0000
0001
,
1000
0001
0000
2000
,
3000
0000
0010
0020
,
0030
0000
1000
0001
,
0100
0000
0002
0000
0000
0000
0000
0003
,
0000
1000
0001
2000
,
3000
0001
0000
2000
,
3000
0010
0100
0001
,
1000
0100
0000
1100
,
0000
1000
0010
0100
,
0001
2002
3003
1001
,
0000
1000
0010
0100
,
0001
2000
0000
3000
,
0001
0000
0020
0000
0000
0000
0000
0030
,
0000
2000
3000
0020
,
0000
0030
0100
0000
0100
0000
0001
0000
,
0001
2000
3000
2000
,
3000
1001
0110
1001
,
1001
2002
3003
1001
,
0000
1000
0010
0100
,
0001
2000
0000
0000
,
0001
0000
0002
0000
0000
0000
0000
0003
,
3000
1000
0010
0200
,
0000
0000
0000
0300
,
0000
0001
0001
0002
,
0000
0000
0000
0003
,
0000
1000
0100
0020
,
0000
0000
0000
0000
0000
0000
0000
0030
,
0000
0001
0010
0200
,
0000
0000
0000
0000
0000
0000
0000
0300
,
0000
2002
0000
0000
,
0000
0000
0000
0000
,
0000
0000
0000
0000
,
0000
0000
0000
0000
0000
0000
0003
3000
;

//---------------dance-single - ----------------
#NOTES:
     dance-single:
     :
     Beginner:
     2:
     0.125180,0.237564,0.000000,0.233669,0.000000,135.000000,135.000000,0.000000,36.000000,0.000000,0.000000,0.125180,0.237564,0.000000,0.233669,0.000000,135.000000,135.000000,0.000000,36.000000,0.000000,0.000000:
0000
0000
0000
0000
,
0000
0000
0000
0000
,
0000
0000
0000
0000
,
0000
0000
0000
0000
,
0000
1000
0000
0000
,
0000
1000
0000
0000
,
0000
2000
0000
0000
,
0000
0000
3000
0000
,
0000
0000
0010
0000
,
0000
0000
0010
0000
,
0000
0000
0010
0000
,
0000
0010
0000
0010
,
0000
0000
0000
0100
,
0000
0000
0000
0100
,
0000
0000
0100
0100
,
0100
0100
0100
0100
,
0100
0200
0000
0300
,
0000
0020
0000
0030
,
0000
2000
0000
3000
,
0000
0002
0000
0003
,
0000
2000
0000
3000
,
0000
0000
0000
0010
,
0000
0020
0000
0030
,
0000
1000
0000
1000
,
0000
2000
0000
3000
,
0000
0020
0000
0000
,
0030
0100
0000
0100
,
0000
0020
0000
0030
,
0000
0200
0000
0300
,
0000
0010
0000
0010
,
0000
0020
0030
0000
,
0010
0020
0000
0030
,
0000
1000
0000
2000
,
3000
1000
0000
1000
,
0000
2000
0000
3000
,
0000
0010
0000
0010
,
0000
0020
0000
0030
,
0000
0100
0000
0100
,
0000
0200
0300
0000
,
0100
0200
0000
0300
,
0000
0020
0000
0000
,
0030
0200
0000
0300
,
0000
0001
0000
0001
,
0000
0001
0000
0001
,
0000
0002
0000
0003
,
0000
1000
0000
0000
,
0000
1000
0000
1000
,
0000
1000
0000
2000
,
3000
0000
0010
0000
,
0000
0000
1000
0000
,
0000
0000
0100
0000
,
0000
0010
0000
0100
,
0000
0000
0000
0010
,
0000
0000
0000
0100
,
0000
0000
0000
0010
,
0000
0010
0010
0010
,
0010
0010
0000
0000
,
0000
1000
0000
0000
,
0000
0001
0000
0001
,
0001
0001
0000
0001
,
0000
1000
0000
2000
,
3000
0000
0010
0000
,
0010
0020
0000
0030
,
0000
0010
0000
0010
,
0000
1000
0000
1000
,
0000
1000
1000
1000
,
1000
1000
0000
1000
,
0000
0010
0010
0010
,
0010
0010
0000
0010
,
0000
0100
0100
0100
,
0100
0200
0300
0000
,
0100
0200
0000
0300
,
0000
0010
0000
0010
,
0000
0010
0010
0010
,
0010
0020
0030
0020
,
0030
0100
0100
0100
,
0100
0200
0300
0100
,
0000
0010
0100
0010
,
0100
0020
0000
0030
,
0010
0020
0000
0030
,
0000
2000
0000
0000
,
0000
0000
0000
3000
,
0000
0002
0000
0000
,
0000
0000
0000
0003
,
0000
2000
0000
0000
,
0000
0000
3000
0000
,
0000
0002
0000
0000
,
0000
0000
0000
0003
,
0000
2000
0000
0000
,
0000
0000
0000
0000
,
0000
0000
0000
0000
,
0000
0000
3000
0000
;

//---------------dance-single - ----------------
#NOTES:
     dance-single:
     :
     Challenge:
     17:
     0.905004,0.986643,0.616627,0.045436,0.782143,976.000000,881.000000,95.000000,7.000000,0.000000,0.000000,0.905004,0.986643,0.616627,0.045436,0.782143,976.000000,881.000000,95.000000,7.000000,0.000000,0.000000:
// measure 0
0000
0000
0000
0000
0001
1000
0001
1000
0001
1000
0001
1000
0010
0100
0010
0100
,  // measure 1
0001
0010
0001
0010
0100
1000
0010
0100
0010
0100
0010
0100
0001
0100
0001
0100
,  // measure 2
0001
0010
0001
0010
0001
1000
0001
1000
0100
1000
0100
1000
0010
1000
0010
1000
,  // measure 3
0001
1000
0001
1000
0010
0100
0010
0100
0001
0100
0001
0010
0100
0010
0001
0010
,  // measure 4
0001
1000
0001
1000
0100
1000
0100
1000
0100
1000
0100
1000
0100
0010
0100
0010
,  // measure 5
0001
0010
0001
0010
0100
0010
0100
0010
0100
0010
0100
0010
0001
0010
0001
0010
,  // measure 6
0100
0010
0100
0010
0001
0010
0100
0010
0001
0010
0100
0010
0001
0010
0100
0010
,  // measure 7
0001
0010
0100
1000
0001
0010
0100
1000
0001
0000
1000
0000
0100
0010
0001
1000
,  // measure 8
0001
1000
0001
0000
0001
0000
1000
0000
1000
0000
0001
0000
1000
0000
0000
0000
,  // measure 9
1000
0000
0000
0001
0100
0010
0101
0000
,  // measure 10
1100
0000
0100
1000
0010
0100
0001
1000
,  // measure 11
0100
0010
0001
1001
0001
0101
0001
0000
,  // measure 12
1100
0000
0100
1000
0010
0100
0110
0000
,  // measure 13
0110
0000
0000
0001
1000
0100
1100
0000
,  // measure 14
1100
0000
0000
0010
1000
0001
0101
0001
,  // measure 15
1000
0100
0110
0100
1001
0001
0101
0001
,  // measure 16
1000
0100
1000
0000
0100
0000
1000
0000
,  // measure 17
0101
1001
1001
0011
,  // measure 18
1001
0100
1000
1100
,  // measure 19
0110
0000
1001
0000
0100
0000
1000
0100
,  // measure 20
1000
0000
0000
0000
0010
0000
1000
0000
1000
0000
0010
0000
0010
0000
0000
1000
,  // measure 21
0000
0000
0000
0010
1000
0001
1000
0100
,  // measure 22
1000
0000
0001
0000
1000
0000
0010
0000
0100
0010
0100
0000
0001
0000
1000
0000
,  // measure 23
0100
1000
0100
0000
1000
0100
1000
0001
1000
0100
1000
0001
0010
0100
1000
0100
,  // measure 24
0010
0001
0010
0100
1000
0000
0001
0000
1001
0000
1000
0000
0101
0000
1000
0000
,  // measure 25
0101
0000
0100
0000
1000
0000
1000
0000
0100
0000
0100
0000
0010
0000
0010
0001
,  // measure 26
1000
0100
1000
0001
1000
0000
1000
0001
0010
0100
1000
0000
1000
0000
0100
0000
,  // measure 27
1000
0001
1000
0000
0100
0001
0100
0000
0001
0010
0001
0000
1000
0100
0010
0001
,  // measure 28
0100
0010
1000
0001
0100
0000
0100
0000
0010
0100
0010
0000
1000
0000
0001
0000
,  // measure 29
1000
0001
1000
0000
0100
0000
0010
0000
0001
1000
0001
0000
1000
0010
0100
0000
,  // measure 30
0100
0010
0100
0000
0001
1000
0001
0000
1000
0100
1000
0000
0001
1000
0100
0000
,  // measure 31
0010
0001
0100
0000
1000
0100
0010
0000
0001
0010
0001
0000
0001
1000
0100
1000
,  // measure 32
0001
0010
0100
1000
0001
0000
1000
0000
0010
1000
0010
0000
0100
0000
0001
0000
,  // measure 33
1000
0000
0100
0010
0100
0000
1000
0001
1000
0000
0010
0100
0010
0000
1000
0001
,  // measure 34
1000
0000
0100
0010
0100
0000
1000
0000
0001
0000
0100
0010
0100
0000
0001
0000
,  // measure 35
1000
0000
0100
0010
0100
0000
1000
0001
1000
0000
0010
0100
0010
0000
1000
0001
,  // measure 36
1000
0000
0100
0010
0001
0000
1000
0000
1000
0010
0100
0000
0001
0000
1000
0000
,  // measure 37
1001
0000
0100
0010
0001
1000
0100
1000
0001
1000
0010
0100
0001
1000
0100
0010
,  // measure 38
0001
1000
0100
1000
0001
1000
0100
1000
0001
1000
0010
1000
0001
1000
0100
1000
,  // measure 39
0001
0010
0100
0010
0001
0010
0100
0010
0001
0010
0100
1000
0001
1000
0100
1000
,  // measure 40
0001
1000
0100
1000
0010
1000
0010
1000
0010
1000
0010
1000
0001
1000
0001
1000
,  // measure 41
0100
1000
0100
1000
0010
1000
0010
1000
0010
1000
0010
1000
0001
1000
0001
1000
,  // measure 42
0100
1000
0100
1000
0100
0010
0100
0010
0001
0010
0001
0010
0100
0010
0100
1000
,  // measure 43
0100
1000
0100
1000
0010
1000
0010
1000
0001
1000
0001
1000
0100
1000
0100
1000
,  // measure 44
0001
0100
0001
0100
0001
0100
0001
0100
0001
0100
0001
1000
0010
0100
0010
0100
,  // measure 45
0010
1000
0010
0100
0010
1000
0010
1000
0010
1000
0010
1000
0010
1000
0010
1000
,  // measure 46
0010
1000
0010
1000
0001
1000
0001
1000
0001
0010
0001
0010
0100
0010
0100
0010
,  // measure 47
0001
0010
0001
1000
0001
1000
0001
1000
0010
1000
0010
1000
0001
0010
0000
0100
,  // measure 48
1000
0010
0100
0001
1000
0000
0010
0000
0100
0000
0001
0000
1001
0000
0000
0000
,  // measure 49
0110
0000
0010
1000
0100
1000
1100
0000
,  // measure 50
1100
0000
0010
1000
0001
1000
1001
0010
,  // measure 51
0100
0010
0110
0010
1010
0010
0110
0000
,  // measure 52
1001
0000
0100
1000
0100
0010
0110
0000
,  // measure 53
0110
0000
0001
1000
0010
1000
1010
0000
,  // measure 54
0110
0000
1001
1000
0001
1000
0010
0010
,  // measure 55
0000
0000
0101
0100
1000
0100
1100
0100
,  // measure 56
1000
0100
1000
1000
1100
0100
0010
0100
,  // measure 57
1100
0100
0100
0001
0101
0001
1000
0100
,  // measure 58
1100
0100
0010
0001
1001
0001
0100
0010
,  // measure 59
0110
0010
1000
0100
1100
0100
1000
0010
,  // measure 60
0110
0010
1000
0100
1001
0100
1001
0100
,  // measure 61
1001
0010
0110
0010
1010
0010
1100
0010
,  // measure 62
1000
0000
0010
0000
0010
0000
1001
0000
1000
0100
1000
0000
0100
0001
1000
0000
,  // measure 63
0010
0100
0010
0000
0100
0010
0100
0010
0100
0010
0100
0010
0100
0001
0100
0001
,  // measure 64
0100
0010
0100
0001
0100
0000
0001
0000
1000
0000
1010
0000
0010
0000
1000
0000
,  // measure 65
0001
1000
1010
0010
0110
0010
1010
0010
,  // measure 66
0110
0000
0010
0000
1000
0000
0100
0000
0011
0000
0100
1000
0001
0000
1000
0000
,  // measure 67
0010
0100
0001
0000
1001
0000
0001
0000
0110
0000
0100
0000
1001
0000
0100
0000
,  // measure 68
1001
0000
0100
0000
1000
0000
0001
0000
1000
0010
1000
0000
0001
0000
0100
0000
,  // measure 69
0010
0100
0010
0000
1010
0000
0010
0000
0110
0000
0010
0000
1010
0000
0100
0000
,  // measure 70
1100
0000
0100
0000
1000
0000
0100
0000
1000
0100
1000
0000
0001
1000
0001
0000
,  // measure 71
1000
0100
1000
0000
0001
1000
0001
0000
1000
0100
1000
0000
0001
1000
0100
1000
,  // measure 72
0001
1000
0100
1000
0001
0000
1000
0000
1100
0000
0001
0000
1000
0000
0100
0000
,  // measure 73
1001
0001
0101
0001
1001
0001
0011
0001
,  // measure 74
1001
0001
1000
0100
1000
0010
0110
0010
,  // measure 75
1000
0001
0011
0001
1001
0001
0011
0001
,  // measure 76
1001
0000
0001
0000
1000
0000
0100
0000
0100
0010
0100
0000
0001
0000
1000
0000
,  // measure 77
0100
1000
0100
0000
1100
0000
0100
0000
0110
0000
0100
0000
1001
0000
0001
0000
,  // measure 78
1100
0000
0001
0000
1000
0000
0100
0000
1000
0100
1000
0000
0001
1000
0001
0000
,  // measure 79
0100
0010
0100
0000
0001
0010
0001
0100
0010
1000
0100
1000
0001
0010
0100
1000
,  // measure 80
0001
0010
0100
1000
0002
0000
0000
0000
1000
0000
0000
0000
1000
0000
0000
0000
,  // measure 81
2000
0003
0000
0000
0010
0000
0000
0000
0001
0000
0000
0000
3010
0000
0000
0000
,  // measure 82
0100
1001
1100
0012
,  // measure 83
0000
0003
1000
0100
0010
0000
0001
1000
,  // measure 84
0010
0100
0101
0000
1001
0000
2002
0000
,  // measure 85
0003
3000
0000
0000
0010
0000
0100
0000
0101
0000
0000
0000
0001
0000
1000
0000
,  // measure 86
1001
0000
0001
1000
0010
0100
0001
0001
,  // measure 87
1000
0000
0100
0000
0110
0000
0100
0000
1100
0000
0100
1000
0100
0000
1000
0000
,  // measure 88
0010
1000
0010
1000
0002
0000
0000
0000
0000
0000
0000
0000
0000
0000
0000
0000
,  // measure 89
0000
0000
0000
0000
,  // measure 90
2000
0000
0000
0000
,  // measure 91
0000
0000
0000
0000
,  // measure 92
0003
3000
0000
0000
0000
0000
0000
0000
;
