#VERSION:0.83;
#TITLE:Overprotected;
#SUBTITLE:;
#ARTIST:Britney Spears;
#TITLETRANSLIT:;
#SUBTITLETRANSLIT:;
#ARTISTTRANSLIT:;
#GENRE:;
#ORIGIN:;
#CREDIT:Magna Trick;
#BANNER:Overprotected-BN.png;
#BACKGROUND:Overprotected-BG.png;
#PREVIEWVID:;
#JACKET:;
#CDIMAGE:;
#DISCIMAGE:;
#LYRICSPATH:;
#CDTITLE:Magna Trick title!.png;
#MUSIC:Britney Spears - Overprotected.mp3;
#OFFSET:-0.070135;
#SAMPLESTART:26.356012;
#SAMPLELENGTH:27.980000;
#SELECTABLE:YES;
#BPMS:0.000=96.010;
#STOPS:;
#DELAYS:;
#WARPS:;
#TIMESIGNATURES:0.000=4=4;
#TICKCOUNTS:0.000=4;
#COMBOS:0.000=1;
#SPEEDS:0.000=1.000=0.000=0;
#SCROLLS:0.000=1.000;
#FAKES:;
#LABELS:0.000=Song Start;
#BGCHANGES:0.063=overprotected.mp4=1.000=0=0=1=====,
99999=-nosongbg-=1.000=0=0=0 // don't automatically add -songbackground-
;
#KEYSOUNDS:;
#ATTACKS:
;

//---------------dance-single - ----------------
#NOTEDATA:;
#CHARTNAME:;
#STEPSTYPE:dance-single;
#DESCRIPTION:;
#CHARTSTYLE:;
#DIFFICULTY:Edit;
#METER:18;
#RADARVALUES:0.857543,0.911122,1.166516,0.135176,1.076399,1199.000000,966.000000,233.000000,27.000000,0.000000,6.000000,0.000000,0.000000,0.000000,0.857543,0.911122,1.166516,0.135176,1.076399,1199.000000,966.000000,233.000000,27.000000,0.000000,6.000000,0.000000,0.000000,0.000000;
#CREDIT:;
#NOTES:
0000
0000
0000
0000
,
0000
0000
0000
0000
,
0000
0000
0000
0000
,
0000
0000
0000
0000
,
0000
0000
0000
0000
,
0000
0000
0000
0000
1000
0000
0100
0000
0011
0000
0101
0000
1010
0000
1100
0010
,
1001
0000
0100
0000
1001
0000
0001
0100
0010
0000
1000
0000
1100
0000
0100
0010
,
0002
0000
0000
0000
0000
0000
0000
0000
0000
0000
0000
0000
0000
0000
0000
0000
0000
0000
0000
0000
0000
0000
0000
0000
2003
0000
0000
0000
0000
0000
0000
0000
0000
0000
0000
0000
0000
0000
0000
0000
0000
0000
0000
0000
0000
0000
0000
0000
3012
0000
0000
0000
0100
0000
0000
0000
1000
0000
0000
0000
0103
0000
0000
0000
0010
0000
0000
0000
0001
0000
0000
0000
0200
0000
0000
0000
0010
0000
0300
0000
1000
0000
0000
0000
0100
0000
0000
0000
0010
0000
0000
0000
0001
0000
0000
0000
0200
0000
0000
0000
0000
0000
0000
0000
0000
0000
0000
0000
0000
0000
0000
0000
0000
0000
0000
0000
0000
0000
0000
0000
1300
0000
0000
0000
0000
0000
0000
0000
0000
0000
0000
0000
0001
0000
0000
0000
0000
0000
0000
0000
0000
0000
0000
0000
1100
0000
0000
0000
0000
0000
0000
0000
0000
0000
0000
0000
0010
0000
0000
0000
0000
0000
0000
0000
0000
0000
0000
0000
0001
0000
0000
0000
1000
0000
0000
0000
0001
0000
0000
0000
1000
0000
0000
0000
0001
0000
0000
0000
1000
0000
0000
0000
,
0110
0000
0110
0000
1001
0001
1000
0001
0100
0000
0010
1001
0000
0110
0000
0001
,
1000
0000
0000
0001
0000
0000
0100
0000
0000
0010
0000
0000
0100
0000
0000
0010
0000
0000
0001
0000
0000
1000
0000
0000
0001
1000
0001
1000
0000
0000
0010
0000
0000
0001
0000
0000
0100
0000
0000
1000
0000
0000
0001
0000
0000
0010
0000
0000
,
0110
0000
0110
0000
1001
0000
0100
0010
0001
0000
0010
0000
0110
0000
0100
1000
,
0020
0000
0000
0000
0000
0000
0000
0000
0000
0000
0000
0000
0000
0000
0000
0000
0000
0000
0000
0000
0000
0000
0000
0000
0230
0000
0000
0000
0000
0000
0000
0000
0000
0000
0000
0000
0000
0000
0000
0000
0000
0000
0000
0000
0000
0000
0000
0000
2301
0000
0000
0000
0010
0000
0000
0000
0001
0000
0000
0000
3010
0000
0000
0000
0100
0000
0000
0000
1000
0000
0000
0000
0020
0000
0000
0000
0100
0000
0030
0000
0001
0000
0000
0000
0010
0000
0000
0000
0100
0000
0000
0000
1000
0000
0000
0000
0020
0000
0000
0000
0000
0000
0000
0000
0000
0000
0000
0000
0000
0000
0000
0000
0000
0000
0000
0000
0000
0000
0000
0000
0031
0000
0000
0000
0000
0000
0000
0000
0000
0000
0000
0000
0000
0000
0000
0000
0000
0000
0000
0000
0000
0000
0000
0000
0101
0000
0000
0000
0000
0000
0000
0000
0000
0000
0000
0000
0001
0000
0000
0000
0000
0000
0000
0000
0000
0000
0000
0000
0100
0000
0000
0000
0010
0000
0000
0000
0100
0000
0000
0000
0010
0000
0000
0000
0100
0000
0000
0000
0010
0000
0000
0000
,
0110
0000
0110
0000
1001
0000
0001
0010
1000
0000
0001
0110
0000
1001
0000
1000
,
0001
0000
0000
1000
0000
0000
0010
0000
0000
0100
0000
0000
0010
0000
0000
0100
0000
0000
1000
0000
0000
0001
0000
0000
1010
0100
0001
0010
0000
0000
0010
0000
0000
0010
0000
0000
0011
0000
0000
0001
0000
0000
0001
0000
0000
0001
0000
0000
,
1001
0000
0100
1000
0110
0001
0000
0100
0010
0000
1000
0000
1100
0000
0001
0010
,
1000
0000
0010
0100
0011
1000
0000
0001
0000
0100
0000
0010
0101
1000
0000
0100
,
1000
0000
0000
0000
0000
0000
0001
0000
0000
0010
0000
0000
1100
0000
0000
0001
0000
0000
0000
0000
0000
0010
0000
0000
0100
0000
0000
0000
0000
0000
1000
0000
0000
0000
0000
0000
1001
0000
0000
0000
0000
0000
0100
0010
0001
1000
0100
0010
,
1001
0000
0110
0001
1000
0000
0001
1000
0002
0000
1003
0001
0110
1000
0110
0000
,
1001
0000
0100
0000
1000
0001
0100
0010
1000
0000
0100
0010
0101
1000
0000
0010
,
0110
0000
0000
0000
0110
0000
0000
0000
1001
0000
0000
0000
0001
0000
0100
0000
0010
0000
0000
0000
1000
0000
0100
0000
0011
0000
1000
0000
0000
0000
0001
1000
,
0110
0000
0110
0000
1001
0000
0100
1000
0010
0000
0100
1000
0011
1000
0000
0010
,
0110
0000
0000
0000
0000
0000
0110
0000
0000
0000
0000
0000
1001
0000
0000
0000
0000
0000
0001
0000
0000
0010
0000
0000
1000
0000
0000
0000
0000
0000
0010
0000
0000
0100
0000
0000
0011
0000
0000
0100
0000
0000
1000
0001
1000
0001
1000
0001
,
1000
0010
0101
0000
1010
0000
0001
0000
1000
0000
0010
0100
0011
1000
0000
0001
,
0110
0000
0110
0000
1001
0000
0010
1000
0100
0000
0010
0001
1100
0010
0000
0100
,
1001
0010
0100
1000
0101
0000
1000
0000
0001
0100
0010
1001
0000
0110
0000
1000
,
0001
0000
0000
0000
0000
0000
0000
0000
0000
0000
0000
0000
1000
0000
0000
0000
0000
0000
0000
0000
0000
0000
0000
0000
0001
0000
0000
0000
0000
0000
0000
0000
0000
0000
0000
0000
0100
0000
0000
0000
0000
0000
0000
0000
0000
0000
0000
0000
0000
0000
0000
0000
0000
0000
0000
0000
0000
0000
0000
0000
0010
0000
0000
0000
0000
0000
0000
0000
0000
0000
0000
0000
0000
0000
0000
0000
0000
0000
0000
0000
0000
0000
0000
0000
1000
0000
0000
0000
0000
0000
0000
0000
0000
0000
0000
0000
0100
0000
0000
0000
0010
0000
0000
0000
0100
0000
0000
0000
0010
0000
0000
0000
0100
0000
0000
0000
0010
0000
0000
0000
0100
0000
0000
0000
0000
0000
0000
0000
0000
0000
0000
0000
0010
0000
0000
0000
0000
0000
0000
0000
0000
0000
0000
0000
0001
0000
0000
0000
0000
0000
0000
0000
0000
0000
0000
0000
1000
0000
0000
0000
0000
0000
0000
0000
0000
0000
0000
0000
0010
0000
0000
0000
0000
0000
0000
0000
0000
0000
0000
0000
0100
0000
0000
0000
0000
0000
1000
0000
0000
0000
0000
0000
,
0011
0000
1100
0000
1001
0010
0100
0001
2000
0000
3110
0000
1001
0010
0100
1000
,
0001
0000
0000
0000
0000
0000
0100
0000
0000
0000
0000
0000
0010
0100
0010
0100
0010
0100
0010
0000
0000
0100
0000
0000
0010
0000
0000
1000
0000
0000
0100
0000
0000
0010
0000
0000
0100
0000
0000
1000
0000
0000
0001
1000
0001
1000
0001
1000
,
0110
0000
0110
0000
1001
0100
0010
0001
1000
0000
0010
0100
0011
1000
0000
0100
,
0010
0000
0000
0001
0000
0000
1000
0000
0000
0010
0000
0000
1000
0000
0000
0100
0000
0000
1000
0000
0000
0100
0000
0000
0010
0001
0010
0001
0000
0000
1000
0000
0000
0001
0000
0000
1000
0000
0000
0010
0000
0000
0001
0000
0000
1000
0000
0000
,
0010
0000
0000
0000
0000
0000
0100
0000
0000
0000
0000
0000
0010
0000
0000
0000
0000
0000
1000
0000
0001
0000
1000
0000
0002
0000
0000
0000
0000
0000
0003
0000
0000
0000
0010
0100
0010
0100
0010
0100
0010
0000
1000
0000
0000
0100
0000
0000
,
2000
0000
3002
0100
2003
0100
3020
0000
0032
0100
2003
0001
3110
0000
0110
0000
,
1001
0000
0100
1000
0011
0000
0100
0001
1000
0000
0100
0000
1001
0000
0001
1000
,
0000
0011
0000
1000
1001
0010
0100
0010
1001
0000
0010
0000
0110
0000
0001
0000
,
1001
0000
0100
1000
0001
0100
0000
0010
1000
0000
0001
0000
1100
0000
0100
0010
,
0001
0000
0010
0100
0011
1000
0000
0001
0000
0100
0000
0010
0101
1000
0000
0100
,
1000
0000
0000
0000
0000
0000
1000
0000
0000
0001
0000
0000
0110
0000
0000
0001
0000
0000
0000
0000
0000
0010
0000
0000
0100
0000
0000
0000
0000
0000
1000
0000
0000
0000
0000
0000
1001
0000
0000
0000
0000
0000
0100
0010
0001
1000
0100
0010
,
1001
0000
0110
0001
1000
0000
0001
1000
0002
0000
1003
0001
0110
1000
0110
0000
,
1001
0000
0100
0000
1000
0001
0100
0010
1000
0000
0100
0010
0101
1000
0000
0010
,
0110
0000
0000
0000
0110
0000
0000
0000
1001
0000
0000
0000
0001
0000
0100
0000
0010
0000
0000
0000
1000
0000
0100
0000
0011
0000
1000
0000
0000
0000
0001
1000
,
0110
0000
0110
0000
1001
0010
0100
1000
0010
0000
0100
1000
0011
1000
0000
0010
,
0110
0000
0000
0000
0000
0000
0110
0000
0000
0000
0000
0000
1001
0000
0000
0000
0000
0000
0001
0000
0000
0010
0000
0000
1000
0000
0000
0000
0000
0000
0010
0000
0000
0100
0000
0000
0011
0000
0000
1000
0000
0000
0100
0010
0100
0010
0100
0010
,
0100
0001
1100
0000
0011
0000
0100
0000
1000
0000
0010
0100
0011
1000
0000
0001
,
0110
0000
0110
0000
1001
0000
0010
1000
0100
0000
0010
0001
1100
0010
0000
0100
,
1001
0010
0100
1000
0101
0000
1000
0000
0001
0100
0010
1001
0000
0110
0000
1000
,
0001
0000
1000
0000
0100
0000
0010
0001
1000
0100
1000
0010
0100
0001
0010
0100
,
1001
0000
0000
0010
0000
0000
1000
0000
0000
0001
0000
0000
1010
0000
0000
0100
0000
0000
1000
0000
0000
0001
0000
0000
1000
0000
0000
0000
0000
0000
0000
0000
0000
1000
0000
0000
0010
1000
0010
1000
0010
1000
0010
0000
0000
0000
0000
0000
,
1000
0010
1000
0001
1010
0100
1000
0001
1000
0000
0000
1000
2010
0000
3000
0000
,
1000
0010
1000
0001
1010
0100
1000
0001
1000
0000
0000
2000
0120
0000
3030
0000
,
1000
0010
1000
0001
1010
0100
1000
0001
1000
0010
0100
0001
1010
0000
0101
0000
,
1001
0000
0000
0000
0000
0000
0100
0000
0000
1000
0000
0000
0011
0000
0000
0100
0000
0000
0010
0000
0000
1000
0000
0000
0100
0000
0000
1000
0000
0000
0010
0000
0000
0100
0000
0000
0011
0100
0010
1000
0001
0100
0010
0000
0000
1000
0000
0000
,
0100
0000
0000
0000
1000
0000
0000
0000
0101
0000
0010
0000
0010
0000
0100
0000
1000
0000
0000
0000
0001
0000
0000
0000
1001
0000
0001
0000
1000
0000
1000
0001
,
0100
0000
0020
0000
1031
0000
0100
0000
0010
0000
0001
1000
0101
0010
0000
0100
,
1000
0000
0010
0000
1000
0000
0001
0000
1100
0000
0010
0000
0100
0000
0001
0000
1001
0000
0000
0000
1000
0000
0000
0000
1010
0000
0000
0000
1000
0100
0010
0001
,
1001
0000
0110
0000
1001
0100
1000
0001
0100
0010
1000
0100
0101
0010
0001
0010
,
1100
0000
0011
0000
1001
0010
0100
0001
0100
0010
1000
0100
0101
0010
0001
1000
,
1010
0000
0101
0000
1001
0000
0010
0100
0101
0000
0001
0000
0101
0000
0100
0000
,
0002
0000
0000
0000
1003
0000
0100
0000
0011
0000
0101
0000
1010
0000
1100
0010
,
1001
0000
0100
0000
1001
0000
0001
0100
0010
0000
1000
0100
0011
1000
0000
0001
,
0110
0000
0000
0000
0110
0000
0000
0000
1001
0000
0000
0000
0010
0000
0100
0000
1000
0000
0000
0000
0001
0000
0010
0000
0101
0000
1000
0000
0000
0000
0001
1000
,
0110
0000
0110
0000
1001
0010
0100
1000
0001
0000
0010
1000
0011
0100
0000
1000
,
0110
0000
0000
0000
0000
0000
0110
0000
0000
0000
0000
0000
1001
0000
0000
0000
0000
0000
0010
0000
0000
0100
0000
0000
0001
0000
0000
0000
0000
0000
1000
0000
0000
0100
0000
0000
0011
0000
0000
0100
0000
0000
1000
0001
1000
0001
1000
0001
,
0110
0000
0110
0000
1001
0000
0010
0000
0100
0000
1000
0001
0110
1000
0000
0100
,
0010
0000
0001
0000
1100
0000
0001
0100
0010
0000
0001
1000
0101
0010
0000
0010
,
1100
0001
0010
0100
1001
0000
0010
0000
1001
0000
0010
0100
1000
0001
0000
0010
,
1001
0000
0100
1000
0011
0100
0010
1000
0100
1000
0010
0100
1100
0001
0010
0100
,
1001
0000
1001
0000
0110
0100
0001
1000
0100
0000
0100
0010
1001
0001
0010
0100
,
1010
0000
0101
0000
1001
0000
0010
1000
0100
0000
0100
1000
0011
1000
0000
0001
,
0100
0100
0010
1000
1001
0100
0001
0100
1010
0001
1000
0010
0101
1000
0100
0010
,
1001
0000
1001
0000
0110
1000
0001
0100
0011
1000
0100
0100
1010
0001
0010
0100
,
1001
0000
1001
0000
0110
0100
1000
0001
0001
0100
0100
0010
1001
0100
0100
1000
,
0011
0000
1100
0000
1001
0000
0010
0100
1010
0000
1000
0000
1001
0010
1000
0010
,
1001
0000
0010
0000
0110
0001
1000
0100
0010
0000
0001
0010
1100
0001
0000
1000
,
0110
0000
0000
0000
0110
0000
0000
0000
1001
0000
0000
0000
0010
0000
1000
0000
0100
0000
0000
0000
0100
0000
1000
0000
0011
0000
1000
0000
0000
0000
0001
1000
,
0110
0000
0110
0000
1001
0010
0100
0001
1000
0000
0100
0010
1100
0001
0000
0010
,
0110
0000
0000
0000
0000
0000
0110
0000
0000
0000
0000
0000
1001
0000
0000
0000
0000
0000
0001
0000
0000
0100
0000
0000
0010
0000
0000
0000
0000
0000
0010
0000
0000
1000
0000
0000
0101
0000
0000
1000
0000
0000
0001
1000
0001
1000
0001
1000
,
0110
0000
0110
0000
1001
0000
1000
0000
0010
0000
0100
1000
0110
0001
0000
0010
,
1000
0000
0011
0000
1100
0000
1001
0010
0101
0000
0001
0010
1100
0010
0001
0100
,
1001
0000
0010
0100
1001
0000
0001
0000
0110
0000
0001
0000
1000
0001
0001
0110
,
0000
2002
3003
0000
0000
0000
0000
0000
0000
0000
0000
0000
0000
0000
0000
0000
;

//---------------dance-single - ----------------
#NOTEDATA:;
#CHARTNAME:;
#STEPSTYPE:dance-single;
#DESCRIPTION:;
#CHARTSTYLE:;
#DIFFICULTY:Medium;
#METER:6;
#RADARVALUES:0.316840,0.336453,0.115150,0.000000,0.010013,443.000000,420.000000,23.000000,0.000000,0.000000,0.000000,0.000000,0.000000,0.000000,0.316840,0.336453,0.115150,0.000000,0.010013,443.000000,420.000000,23.000000,0.000000,0.000000,0.000000,0.000000,0.000000,0.000000;
#CREDIT:;
#NOTES:
0000
0000
0000
0000
,
0000
0000
0000
0000
,
0000
0000
0000
0000
,
0000
0000
0000
0000
,
0000
0000
0000
0000
,
0000
0000
0000
0000
0001
1000
0001
1000
,
0001
0010
0100
1000
,
0100
0000
0010
0010
0010
0000
0001
0000
,
0100
0010
0100
0001
,
1000
1000
1000
1000
1000
0001
0010
0100
,
1000
0100
0010
0100
,
0001
0000
0010
0010
0010
0000
0100
0000
,
1000
0010
0100
0010
,
0100
0100
0100
0100
0100
0000
0010
0000
,
1000
0001
1000
0001
1000
0000
0001
0000
,
0010
0100
0010
0100
0010
0100
0010
0001
,
0100
0010
0100
0010
1000
0000
0001
0000
,
1001
0000
1100
0000
0011
0000
1001
0001
,
1000
0000
0010
1000
0100
0000
0010
0001
,
0100
0000
0010
0000
1000
0000
0001
0001
,
1000
0000
0001
0010
0100
0000
0100
0010
,
0001
0000
0100
0100
0010
0000
0010
0010
,
0100
0000
0001
1000
0001
0000
1000
0001
,
1000
0000
0001
0000
1000
0010
1000
0010
,
1000
0001
0010
0100
,
0010
0001
0100
0001
0010
0000
0001
0000
,
1001
0010
1000
0001
0100
0010
1001
0000
,
0100
0000
1000
0000
0001
0001
0001
1000
,
0010
0100
0010
1000
,
0100
1000
0100
0010
0001
0000
0001
1000
,
0001
0100
0100
0010
1000
0000
0000
0000
,
0001
0000
0000
0100
0000
0000
0010
0000
0000
1000
0000
0000
0001
0000
0000
0000
,
0001
0010
0100
1000
,
0001
0100
0010
0010
,
1000
0001
1000
0001
1000
0000
0001
0000
,
0010
0100
0010
0100
0010
0100
0010
0001
,
0100
0010
0100
0010
1000
0000
0001
0000
,
1010
0000
0101
0000
0011
0000
1100
1100
,
0001
0000
1000
0010
0100
0000
0010
0100
,
0010
0000
0010
1000
0100
0000
0100
1000
,
0001
0000
0001
0100
0001
0000
1000
0010
,
1000
0000
0001
0100
0010
0000
0010
0100
,
0001
0000
0001
1000
0001
1000
0001
1000
,
0001
0000
1000
0000
0010
1000
0010
1000
,
0001
0100
0001
0100
0010
1000
0100
0000
,
0100
1000
0001
1000
,
0001
0001
1000
1000
0001
0000
1001
0000
,
0010
0010
0100
0100
0010
0000
0110
0000
,
1000
1000
0010
0010
1000
0000
1010
0000
,
0001
0001
0010
0010
0001
0000
0011
0000
,
0001
0000
1000
0000
0001
0000
1000
0001
,
1000
0000
0010
0000
0100
0000
0010
0100
,
0010
0000
1000
0000
0001
0010
0001
0010
,
0100
1000
0100
0000
1000
0000
1000
0000
,
0001
0001
0000
0000
1000
0000
0010
0000
,
0100
0100
0000
0000
0001
0000
0010
0000
,
0100
1000
0001
0000
0100
0000
0010
0000
,
1001
0000
0001
0001
1000
1000
0001
0001
,
1000
0000
1001
0000
0001
0010
1000
0010
,
0100
0000
0010
0000
0100
1000
0010
1000
,
0100
0000
0010
0000
0001
0100
0001
0010
,
0001
0000
1000
0000
0010
0100
0001
1000
,
0010
0100
0001
0001
1000
1000
0010
0100
,
1001
0000
0100
0000
1000
0100
1000
0100
,
0010
0010
0001
1000
,
0001
0000
0100
0010
0100
0010
0100
0010
,
1000
1000
0000
0000
0001
0010
0100
0010
,
0001
0000
1000
0000
0010
0100
0010
1000
,
0001
1000
0001
0000
0010
0000
0010
0000
,
0100
0100
0000
0000
1000
0000
0010
0000
,
0100
0100
0000
0000
0001
0000
0010
0000
,
0100
1000
0001
0000
0110
0000
1001
0000
,
0110
0000
0001
0010
0100
1000
0001
0010
,
0100
0000
1000
0000
0010
1000
0001
0100
,
0010
1000
0001
1000
0001
1000
0001
0010
,
0100
0000
0100
0000
0010
0001
0100
1000
,
0100
0010
1000
0100
0010
0000
0010
0100
,
1000
0000
0001
0000
1000
0001
1000
0001
,
1001
0000
0000
0000
0110
0000
0000
0000
0001
0000
0000
0000
1000
0000
0100
1000
,
0000
0001
0000
0000
0000
0000
0000
0000
0000
0000
0000
0000
0000
0000
0000
0000
;

//---------------dance-single - ----------------
#NOTEDATA:;
#CHARTNAME:;
#STEPSTYPE:dance-single;
#DESCRIPTION:;
#CHARTSTYLE:;
#DIFFICULTY:Hard;
#METER:13;
#RADARVALUES:0.547140,0.613532,0.255332,0.010013,0.668369,765.000000,714.000000,51.000000,2.000000,0.000000,0.000000,0.000000,0.000000,0.000000,0.547140,0.613532,0.255332,0.010013,0.668369,765.000000,714.000000,51.000000,2.000000,0.000000,0.000000,0.000000,0.000000,0.000000;
#CREDIT:;
#NOTES:
0000
0000
0000
0000
,
0000
0000
0000
0000
,
0000
0000
0000
0000
,
0000
0000
0000
0000
,
0000
0000
0000
0000
,
0000
0000
0000
0000
0000
0000
0000
0000
1001
0000
1001
0000
1001
0000
0001
0010
,
1000
0000
0000
0000
0110
0000
1000
0010
0001
0000
0000
0000
1001
0000
0100
0010
,
0100
0000
0000
0000
0001
1000
0001
1000
0001
0000
1000
0000
0100
0010
0100
0010
,
0100
0000
1000
0000
0001
0000
1000
0001
1000
0000
0001
1000
0000
0001
0000
0000
,
0100
0010
0100
0010
0100
0010
1000
0010
1000
0010
1000
0001
1000
0001
0100
0001
,
0100
0000
0010
0000
1000
0000
0100
0010
0001
0000
0010
0000
1000
0000
0010
0100
,
0010
0000
0100
0000
1000
0001
1000
0001
1000
0000
0001
0000
0100
0010
0100
0010
,
0100
0000
0010
0000
1000
0000
0001
1000
0001
0000
1000
0001
0000
1000
0000
0000
,
0001
0010
0100
0010
0001
0100
0010
0100
0001
1000
0100
1000
0001
0100
0001
1000
,
0100
0000
1000
0001
0000
0001
0000
1000
0001
0000
1000
0000
1001
0000
0001
0010
,
1000
0000
0010
0100
0000
0010
0000
0001
0000
0100
0000
1000
0000
0100
0000
0001
,
0010
0000
0001
0010
0000
0100
0000
2000
0000
0000
0000
3000
0000
0000
0010
1000
,
0010
0000
0001
0100
0001
0000
1000
0100
1000
0000
0001
0010
1001
0000
1001
0000
,
0110
0000
0000
0000
0001
1000
0100
1000
0001
0000
0010
0001
0000
1000
0000
0010
,
1000
0000
0001
0000
0100
0000
1000
0100
0001
0000
0001
0010
0000
0010
0000
0100
,
1000
0000
1000
0000
0001
0100
0010
0100
0001
0000
0001
0010
0000
0010
0000
0100
,
1000
0000
1000
0000
0001
0000
1000
0001
1000
0000
0001
0100
0000
0100
0000
0010
,
0000
0010
0000
0000
1000
0000
0001
0000
1000
0000
0001
0010
0000
0010
0000
0100
,
0010
0000
0010
0000
0010
0000
0100
1000
0010
0000
0010
0100
0000
0100
0000
0001
,
1000
0000
1000
0001
1000
0000
0001
0000
0010
0000
0100
0010
0000
0010
0000
0000
,
1001
0001
0001
0001
0000
1000
0000
0001
0000
0000
0000
0000
0010
0100
0001
1000
,
0100
0000
1000
0000
1000
0000
0001
1000
0010
0000
0100
0000
0100
0000
0001
1000
,
0010
0000
0010
0000
1000
0000
0100
0000
1000
0100
1000
0000
0100
0000
0010
0000
,
0001
0000
0001
0000
0100
0000
0010
0100
0010
0000
0100
0010
0000
0010
0000
0000
,
1000
0010
1000
0010
0000
1000
0000
0001
0000
0000
0000
0001
0000
0100
0010
1000
,
0100
0000
0100
0000
0100
0000
0010
0100
0010
0000
0000
0000
0000
0000
0000
0000
,
1001
0000
0000
0110
0000
0000
1001
0000
0000
1100
0000
0000
0011
0000
1100
0000
,
0001
0000
0000
0000
0100
0000
0000
0000
1010
0000
0000
0000
0001
0000
0100
1000
,
0000
0100
0000
0000
0001
0000
0000
0000
0011
0000
0000
0000
1100
0000
0000
0000
,
1001
0010
1000
0100
0010
0001
1000
0001
,
0100
0000
0010
1000
0000
0001
0000
0100
0000
0010
0000
1000
0000
0100
0000
0010
,
0001
0000
0001
0010
0000
0010
0000
0100
0000
1000
0001
0000
1000
0000
0001
1000
,
0001
0000
0001
1000
0001
0000
0001
1000
0001
0000
0001
1000
1001
0001
1001
1000
,
1001
0000
0000
0000
0001
1000
0010
0100
0001
0000
0001
0100
0000
0100
0000
0001
,
0100
0000
0010
0000
1000
0000
0010
1000
0100
0000
0100
1000
0000
1000
0000
0010
,
0100
0000
0100
0000
0010
0100
1000
0100
0010
0000
0010
0100
0000
0100
0000
0001
,
0010
0000
0010
0000
0001
0000
0010
0100
0010
0000
0001
0100
0000
0100
0000
0010
,
1000
0000
1000
0000
0010
0000
1000
0000
0001
0000
1000
0001
0000
0001
0000
1000
,
0001
0000
0001
0000
1000
0000
0100
0010
0001
0000
0001
0010
0100
0010
0000
0001
,
0010
0000
0001
0010
0001
0000
1000
0000
0001
0000
1000
0010
0000
0010
0000
0000
,
1001
0001
1000
0001
1000
0001
1000
0001
,
0100
0100
0100
0100
0100
0000
1001
0000
,
0010
0010
0010
0010
0010
0000
1001
0000
,
0001
0001
0001
0001
0001
0000
1001
0000
,
1000
1000
1000
1000
0010
0000
1001
0000
,
0010
0000
1000
0100
0010
0001
0100
0010
0100
0001
1000
0100
0010
0001
0010
0100
,
0010
0000
0001
0000
0001
0000
1000
0010
1000
0000
0001
0000
0100
0010
0100
0010
,
0100
0000
0010
0000
0010
0000
1000
0000
0100
0000
1000
0001
0000
0001
0000
0010
,
0000
0000
0100
0010
0000
0000
0000
0000
0101
0000
0000
0000
1010
0000
0000
0000
,
1001
0000
1001
0000
0001
0010
1000
0010
0001
0100
1000
0100
0001
0010
1000
0010
,
0100
0000
0100
0000
1000
0010
1000
0100
1000
0010
0100
0001
0100
1000
0100
0010
,
1000
0000
1000
0000
0001
0000
0100
0010
0100
0000
0000
0000
1001
0000
0000
0000
,
1001
0000
0010
0010
1001
1001
1001
1001
,
1001
0000
0000
0000
0001
1000
0100
1000
0001
0000
0001
0100
0000
0100
0000
0001
,
1000
0000
1000
0000
0001
0000
0010
1000
0010
0000
0010
0100
0000
0100
0000
1000
,
0000
0001
0000
0000
0100
0010
0100
0001
1000
0000
1000
0100
0000
0100
0000
0010
,
1000
0000
1000
0000
0010
0000
0100
1000
0010
0000
0010
0100
0000
0100
0000
0001
,
0000
1000
0000
0000
0001
0000
1000
0000
0001
0000
0010
0100
0000
0100
0000
0010
,
0001
0000
0001
0000
0001
0000
0100
0010
0100
0000
0010
1000
0000
1000
0000
0000
,
1001
0000
0001
1000
0001
0000
1000
0000
1001
0000
1000
0001
1000
0001
1000
0000
,
1001
0000
0001
0010
1000
0010
0001
0010
1000
0010
0001
0010
1000
0010
0001
0010
,
0110
0000
0110
0000
0000
0000
0001
1000
0001
0000
0001
0000
1000
0001
1000
0001
,
1000
0000
0010
0000
0100
0000
0001
0000
0100
0000
0010
1000
0000
1000
0000
0001
,
0000
0000
0010
0200
0000
0000
0300
0000
1001
0000
0000
0000
0110
0000
0000
0000
,
1001
0000
1001
0000
0100
1000
0100
0001
0100
1000
0100
0001
0100
1000
0100
0001
,
0100
0000
0100
0000
1000
0100
0001
0100
1000
0100
0001
0100
1000
0100
0001
0100
,
1000
0000
1000
0000
0010
0000
0100
0001
1000
0000
0010
0100
0001
0000
1000
0010
,
0100
0000
0001
0000
1000
0100
1000
0100
1000
0000
0001
0010
0000
0001
0000
0010
,
0001
0000
1000
0000
0100
0000
1000
0010
1000
0000
0010
1000
0000
0010
0000
1000
,
0001
0000
1000
0000
0001
0100
0001
0100
0001
0000
0100
0001
0000
0100
0000
0001
,
0100
0000
0001
0000
1000
0000
0001
1000
0100
0000
1000
0001
0000
0100
0000
0001
,
1000
0000
0100
0000
0010
0001
0010
0001
0010
0000
0001
1000
0000
0010
0000
1000
,
0001
0000
0001
0000
0001
0000
1000
0100
1000
0000
0001
0010
0001
0100
0000
0000
,
0101
0000
0010
1000
0001
0000
1000
0000
1001
0000
0100
1000
0000
0001
1000
0001
,
0000
1001
0000
0000
0000
0000
0000
0000
0000
0000
0000
0000
0000
0000
0000
0000
;

//---------------dance-single - ----------------
#NOTEDATA:;
#CHARTNAME:;
#STEPSTYPE:dance-single;
#DESCRIPTION:;
#CHARTSTYLE:;
#DIFFICULTY:Easy;
#METER:5;
#RADARVALUES:0.265345,0.316662,0.050065,0.000000,0.010013,371.000000,361.000000,10.000000,0.000000,0.000000,0.000000,0.000000,0.000000,0.000000,0.265345,0.316662,0.050065,0.000000,0.010013,371.000000,361.000000,10.000000,0.000000,0.000000,0.000000,0.000000,0.000000,0.000000;
#CREDIT:;
#NOTES:
// measure 0
0000
0000
0000
0000
,  // measure 1
0000
0000
0000
0000
,  // measure 2
0000
0000
0000
0000
,  // measure 3
0000
0000
0000
0000
,  // measure 4
0000
0000
0000
0000
,  // measure 5
0000
0000
1000
1000
0010
0100
0010
0100
,  // measure 6
0010
1000
0100
0010
,  // measure 7
0001
0000
0100
0100
0010
0000
1000
0000
,  // measure 8
0001
0000
1000
0000
0001
0001
0010
0000
,  // measure 9
0100
1000
0100
1000
0100
0000
0010
0000
,  // measure 10
0001
0100
0010
0100
,  // measure 11
0001
0000
1000
1000
0001
0000
1000
0000
,  // measure 12
0001
0010
0001
0100
,  // measure 13
0010
0010
1000
1000
0001
0000
0100
0000
,  // measure 14
0010
0000
1000
0000
0100
0100
1000
0000
,  // measure 15
0001
0100
0010
0100
,  // measure 16
0001
1000
0001
0010
,  // measure 17
1001
1001
1001
0110
,  // measure 18
0001
1000
0001
1000
,  // measure 19
0001
0100
0010
0100
,  // measure 20
0010
1000
1000
0001
,  // measure 21
0001
0010
0100
1000
,  // measure 22
0100
0010
0010
0001
,  // measure 23
0001
0100
0010
1000
,  // measure 24
0001
0001
1000
0001
,  // measure 25
0100
0000
0000
0000
,  // measure 26
0010
0010
1000
1000
,  // measure 27
0001
0000
0001
0000
0100
0100
0100
0000
,  // measure 28
0010
1000
0100
0100
,  // measure 29
1000
0100
1000
0100
1000
0000
0001
0000
,  // measure 30
0100
0100
0100
0100
0010
0000
0000
0000
,  // measure 31
0010
0000
0000
1000
0000
0000
0001
0000
0000
0010
0000
0000
0100
0000
0000
0000
,  // measure 32
1000
0100
1000
0001
,  // measure 33
0100
0001
0000
0000
,  // measure 34
0010
0000
0010
0000
1000
0001
1000
0000
,  // measure 35
0001
0000
0010
0000
0001
1000
0001
0000
,  // measure 36
0100
0000
0100
0000
0010
0100
0010
0000
,  // measure 37
1000
0000
0001
0000
1000
0000
0001
1000
,  // measure 38
1001
0010
1000
0100
,  // measure 39
0010
0001
0100
0001
,  // measure 40
0010
0001
1000
0001
,  // measure 41
1000
0010
0100
0010
,  // measure 42
1000
0100
0100
0010
,  // measure 43
0010
0010
0010
0000
0001
0000
0100
0000
,  // measure 44
0010
0010
1000
0001
,  // measure 45
1000
0000
0001
0000
1000
1000
0001
0001
,  // measure 46
1000
0001
1000
0001
1000
0000
0010
0000
,  // measure 47
0100
0010
0100
0010
0100
0000
0010
0000
,  // measure 48
1000
0001
1000
0001
1000
0000
0001
0000
,  // measure 49
1000
1000
0010
0010
0100
0000
0010
0000
,  // measure 50
1000
0000
0001
0001
1000
1000
0001
0001
,  // measure 51
1000
1000
0010
0000
0100
0000
0010
0000
,  // measure 52
0100
0100
0010
0010
0100
0000
0010
0000
,  // measure 53
1000
1000
0010
0010
0100
0000
0001
0000
,  // measure 54
0001
0001
0010
0010
0100
0000
1000
0000
,  // measure 55
0001
0001
1000
1000
0001
0000
1000
0000
,  // measure 56
0001
1000
0001
0000
1000
0000
0001
0000
,  // measure 57
1000
0000
0001
1000
1001
0001
1000
0001
,  // measure 58
1001
0000
0001
0100
0001
0000
0010
1000
,  // measure 59
0010
0000
1000
0001
1000
0000
0001
1000
,  // measure 60
0001
0000
0100
0010
0100
0000
1000
0001
,  // measure 61
1000
0000
0010
0100
0010
0000
0100
0010
,  // measure 62
0100
0000
0010
1000
0010
0000
0100
0001
,  // measure 63
0100
0010
1000
0100
,  // measure 64
0010
0010
0001
1000
,  // measure 65
1001
0000
0010
1000
0010
1000
0010
1000
,  // measure 66
0010
0010
0000
0000
0100
0000
0001
0000
,  // measure 67
0100
0001
0100
0100
,  // measure 68
0010
0010
1000
1000
,  // measure 69
0001
0001
0000
0000
1000
0000
0001
0000
,  // measure 70
1000
1000
0000
0000
0001
0000
0010
0000
,  // measure 71
0100
0100
0000
0000
1000
0000
0001
0000
,  // measure 72
1000
0000
0010
0100
0010
0000
1000
0100
,  // measure 73
1000
0001
0001
1000
,  // measure 74
1000
0000
0010
1000
0010
1000
0010
0000
,  // measure 75
1000
0001
1000
0000
0001
1000
0001
0000
,  // measure 76
0010
0100
0010
0000
0100
0000
0100
0000
,  // measure 77
1000
1000
1000
0000
0001
0000
1000
0000
,  // measure 78
1001
0000
0000
0000
1001
0000
0000
0000
0010
0000
0000
0000
0100
0000
0010
0100
,  // measure 79
0000
0010
0000
0000
0000
0000
0000
0000
0000
0000
0000
0000
0000
0000
0000
0000
;
