#TITLE:Otaku SpeedVibe;
#SUBTITLE:-Full Version-;
#ARTIST:Dj Sharpnel;
#TITLETRANSLIT:;
#SUBTITLETRANSLIT:;
#ARTISTTRANSLIT:;
#GENRE:;
#CREDIT:Magna Trick;
#BANNER:OSVFV-BN.png;
#BACKGROUND:OSVFV-BG.png;
#LYRICSPATH:;
#CDTITLE:Magna Trick title!.png;
#MUSIC:DJ Sharpnel - YONDERDOME - 39 - OTAKUSPEEDVIBE.mp3;
#OFFSET:-0.040000;
#SAMPLESTART:36.136002;
#SAMPLELENGTH:11.980000;
#SELECTABLE:YES;
#BPMS:0.000000=238.279999
,649.000000=119.139999
;
#STOPS:656.000000=2.300000,
668.000000=0.600000,
670.000000=0.080000
;
#BGCHANGES:;
#KEYSOUNDS:;
#ATTACKS:;

//---------------dance-single - ----------------
#NOTES:
     dance-single:
     :
     Challenge:
     20:
     1.058489,1.443028,0.773994,0.096226,0.903690,1771.000000,1586.000000,185.000000,23.000000,0.000000,1.000000,1.058489,1.443028,0.773994,0.096226,0.903690,1771.000000,1586.000000,185.000000,23.000000,0.000000,1.000000:
1002
1003
0010
0100
,
0001
0010
0001
0010
0001
0000
0000
0000
0010
0000
0000
0000
0001
0000
0000
0100
,
0010
0000
0000
0010
1000
0000
0000
0000
0010
0000
0000
0000
1000
0000
0000
0000
,
0010
1000
0010
1000
0010
0000
0000
0000
0100
0000
0000
0000
0001
0000
0000
0001
,
1000
0000
0000
1000
0100
0000
0010
0000
0001
0000
0010
0000
1000
0000
0010
0000
,
0001
1000
0001
1000
0010
0000
0100
0000
0001
0000
1000
0000
0100
0000
1000
0001
,
1000
0000
0010
0100
0010
0000
1000
0000
0100
0000
1000
0000
0001
0000
0100
0000
,
0001
0000
0010
0000
0001
0000
1000
0000
0100
0000
0000
0000
0010
0000
0000
0000
0001
0010
0100
1000
0000
0000
0000
0000
0001
0010
0100
1000
0000
0000
0000
0000
,
0001
0010
0100
1000
0000
0000
0000
0000
0001
0000
0000
0000
1000
0000
0000
0000
0100
0000
0000
0000
1000
0000
0000
0000
0001
0000
0000
0000
0100
0000
0000
0000
,
0001
0010
0001
1000
0010
0000
0100
0000
0001
0000
1000
0000
0100
0000
1000
0000
,
0010
0100
0010
1000
0001
0010
0100
1000
,
0001
0100
0001
1000
0100
0000
0010
0000
0001
0000
1000
0000
0010
0000
0100
0001
,
0100
0000
0001
0100
0001
0000
0100
0000
0001
0000
0010
0000
0100
0000
1000
0000
,
0001
0010
0100
1000
0010
0000
1000
0000
0100
0000
1000
0000
0001
0000
0100
0010
,
0100
0000
0010
0100
0010
0000
0100
0000
0001
0000
1000
0000
0100
0000
0010
0000
,
0001
0100
0010
1000
0100
0000
0100
0000
0000
0000
1001
0000
0000
0000
0110
0000
,
0000
0000
1001
0010
0100
0000
0001
0000
0100
0000
0010
0000
1000
0000
0100
0000
,
0010
0001
0010
0001
0010
0000
1000
0000
0010
0000
0100
0000
1000
0000
0001
1000
,
0001
0000
1000
0001
1000
0000
0001
0000
1000
0000
0010
0000
0100
0000
0001
0010
,
0100
1000
0001
1000
0100
0000
0010
0000
0001
0000
1000
0000
0010
0000
1000
0001
,
1000
0000
0001
1000
0001
0000
1000
0000
0010
0000
0100
0000
0001
0000
1000
0000
,
0100
0010
0001
0100
0010
0000
1000
0000
0100
0000
1000
0000
0001
0000
0010
0100
,
0010
1001
1001
0010
0100
0001
1000
0100
,
0010
0001
1000
0100
0010
0000
0010
0000
0000
0000
1001
0000
0000
0000
0110
0000
,
0000
1001
0110
0000
1000
0000
0100
0000
,
1000
0001
0001
0000
1000
0000
0010
0000
,
0100
0001
0010
0100
,
1000
1000
0100
0000
1000
0000
0010
0000
,
0100
0001
0010
0100
,
1000
0010
0001
0010
1000
0000
0000
0000
0100
0000
0000
0000
0012
0000
0000
0000
,
0103
0010
1000
0100
,
0010
0100
1000
0100
0010
0000
0000
0000
0001
0000
0000
0000
1000
0000
0000
0000
,
0010
0000
1001
0010
0100
0001
1000
0100
,
0010
0001
0010
0100
1000
0000
0001
0000
1000
0000
0010
0000
0100
0000
0001
1000
,
0001
0000
1000
0001
1000
0000
0010
0000
0100
0000
0001
0000
0010
0000
0100
0000
,
1000
0010
1000
0100
0010
0000
0001
0000
0010
0000
0100
0000
1000
0000
0010
1000
,
0010
0000
0100
0001
0100
0000
0010
0000
0100
0000
0001
0000
1000
0000
0100
0000
,
0010
0100
1000
0001
0100
0000
0010
0000
0100
0000
0001
0000
1000
0000
0100
0000
,
0010
0001
0100
0010
1000
0100
0010
0001
,
0100
0000
0010
0000
1000
0000
0001
0000
0110
0000
0000
0000
0000
0000
0000
0000
1000
0100
0010
0001
0000
0000
0000
0000
1000
0100
0010
0001
0000
0000
0000
0000
,
1000
0100
0010
0001
0000
0000
0000
0000
1001
0000
0000
0000
0010
0000
0100
0000
0001
0000
0000
0000
1000
0000
0000
0000
0100
0000
0000
0000
0010
0000
0001
0000
,
0010
0000
0100
0000
1000
0000
0010
1000
0010
0000
1000
0000
0001
0000
0100
0001
,
0100
0000
0001
0000
1000
0000
0100
0010
0100
0000
0010
0000
0001
0000
0100
0001
,
0100
0001
1010
0101
0000
0110
0000
1001
,
0000
0000
0110
0000
1001
0000
0100
1000
0100
0000
1000
0001
1000
0000
0001
0100
,
0001
0000
0010
0001
0010
0000
0100
1000
0100
0000
0010
0100
0010
0000
1000
0001
,
1000
0000
0100
0010
0100
0000
0010
0001
0010
0000
0100
1000
0100
0000
1000
0001
,
1000
0000
0001
0100
2002
0000
0000
0000
3003
0000
0000
0000
1001
0000
0010
0000
,
0000
0000
1001
0000
0110
0000
0001
1000
0001
0000
1000
0000
0100
0000
1000
0010
,
1000
0000
0100
0000
0001
0000
0100
0010
0100
0000
1000
0000
0001
0000
0010
0100
,
0010
0000
0001
0000
1000
0000
0010
1000
0010
0000
0100
0000
0001
0000
1000
0001
,
1000
0000
0100
0010
0100
0000
0010
0001
0010
0000
0100
1000
0100
0000
1000
0001
,
1000
0000
0001
0010
0001
0000
1000
0100
1000
0000
0100
0010
0100
0000
0010
0001
,
0010
0000
0001
1000
0001
0000
1000
0010
1000
0000
0001
0100
0001
0000
1000
0100
,
1000
0000
0001
0010
0001
0000
1000
0001
1000
0000
0100
0000
0010
0000
0001
0000
,
0100
0000
0010
0100
0010
0000
0100
0010
0100
0000
0010
0000
0100
0000
0010
0000
,
1000
0000
0001
1000
0001
0000
1000
0001
1000
0000
0100
0000
0010
0000
0001
0000
,
0010
0000
0001
1000
0001
0000
1000
0001
1000
0000
0010
0000
0100
0000
0001
0000
,
0010
0000
0100
1000
0100
0000
1000
0100
1000
0000
0001
0000
0010
0000
0100
0000
,
1000
0000
0010
0100
0010
0000
1000
0001
1000
0000
0010
0000
1000
0000
0001
0000
,
0010
0000
0001
1000
0001
0000
0010
0100
0010
0000
0100
0000
0010
0000
0100
0000
,
1000
0000
0001
1000
0001
0000
0010
0100
0010
0000
0001
0000
0010
0000
0001
0000
,
1000
0000
0100
0010
0100
0000
1000
0001
1000
0000
0001
0000
0100
0000
1000
0000
,
0100
0000
0000
0000
0001
0000
0010
0000
1001
0000
0000
0000
0000
0000
0000
0000
0000
0000
0000
0000
0000
0000
0000
0000
0001
0010
0100
1000
0001
0010
0100
1000
,
0001
0010
0100
1000
0001
0010
0100
1000
0001
0000
1000
0000
0010
0000
0100
0000
0010
0000
1000
0000
0100
0000
0010
0000
0001
0000
0010
0000
0100
0000
1000
0000
,
0001
1000
0001
0100
0010
0100
0010
1000
0100
1000
0001
0100
0010
0100
0001
1000
,
0100
0010
0100
1000
0010
0100
0010
1000
0001
0100
0010
1000
0010
0100
0001
1000
,
0100
0010
0100
0010
0001
1000
0001
1000
0010
0100
0010
1000
0001
0100
0010
1000
,
0100
0010
0001
0010
0100
1000
0010
0100
0010
1000
0001
0100
0010
1000
0100
1000
,
0001
0010
0001
1000
0100
1000
0001
0100
0001
1000
0010
1000
0001
0010
0001
1000
,
0100
0010
0001
0100
0001
1000
0100
0010
0001
0100
0001
1000
0010
0100
0001
0100
,
0010
1000
0010
0100
0001
1000
0100
0010
0001
1000
0100
0010
0001
0010
0100
1000
,
0100
0001
0100
1000
0010
0001
0010
1000
0010
0100
0001
1000
0100
0010
0001
1000
,
0010
0100
0001
1000
0100
0010
0001
1000
0100
0010
0001
0100
0010
1000
0001
0010
,
0100
1000
0100
0010
0001
0100
0010
1000
0001
0010
0100
1000
0100
0010
0001
0100
,
0010
1000
0100
0010
0001
0010
0100
1000
0010
0100
0010
1000
0001
0100
0010
1000
,
0010
0100
0001
1000
0100
0010
0001
0010
0100
0010
0001
0100
0010
1000
0010
0100
,
0010
1000
0001
0010
0100
1000
0100
0010
0100
1000
0010
0100
0001
0100
0010
0100
,
0001
1000
0100
0010
0001
0010
0100
1000
0010
0100
0010
0100
0001
1000
0001
1000
,
0100
0001
0100
0001
1000
0010
1000
0010
0001
0100
0001
0100
0010
1000
0010
1000
,
0001
0100
2002
0000
3003
0000
0000
0000
0000
0000
0000
0000
0000
0000
0100
0000
,
0000
0000
0000
1000
0001
0000
0000
0000
0000
0000
0000
0000
0000
0000
0000
0000
,
0002
0000
0000
0000
1003
0010
0100
0010
1000
0001
0010
0100
1000
0100
0010
0001
,
0100
0010
1000
0010
0100
0001
1000
0010
0100
0001
0100
0010
1000
0100
0010
0100
,
1000
0001
0100
0010
0100
0001
1000
0100
0010
0000
0001
0000
1000
0000
0010
0000
,
1001
1001
1001
0100
0010
0001
0010
1000
,
0010
0001
1000
0010
0001
0010
1000
0001
,
1100
1100
1100
0001
1000
0001
0010
1000
,
0010
0000
0001
0000
1000
0010
0100
0010
1000
0100
0010
0001
0010
0100
1000
0010
,
0100
0010
1000
0001
0100
0010
1000
0010
0100
0001
1000
0010
1000
0001
0100
0001
,
1000
0010
0100
0010
1000
0100
0010
0001
1000
0010
0100
0010
1000
0100
1000
0100
,
0010
0001
1000
0100
0010
0100
0010
0001
0100
0010
1000
0100
0010
0001
0100
0010
,
1000
0100
1000
0100
0010
0001
0010
0001
1000
0100
0010
0001
0010
0100
1000
0100
,
0010
0001
0010
0001
0100
0010
1000
0001
1000
0000
0010
0000
0100
0000
0010
0000
,
1000
0001
0010
0100
1000
0010
0100
0010
,
1001
1001
1001
0010
0100
1000
0001
0100
,
0010
0100
0001
1000
0100
0010
0100
1000
,
0110
0000
0110
0000
0110
0001
1000
0010
1000
0001
1000
0100
0010
0000
0000
0000
,
0001
0010
0100
1000
0001
0010
0100
1000
0001
0000
0100
0000
0001
0000
0000
0000
1000
0000
0100
0000
1000
0000
0000
0000
0011
0000
0000
0000
0110
0000
0000
0000
,
1100
0000
1001
0000
0010
0100
0010
0000
1000
0001
1000
0000
0110
0000
0011
0000
,
1001
0000
1010
0000
0100
0001
0100
0000
0010
1000
0010
0000
1000
0100
1000
0000
,
0001
0010
0001
0000
1100
0000
0000
0000
0110
0000
0000
0000
0001
0010
0100
1000
,
0001
0010
0100
0000
1001
0000
1000
0000
1001
0000
0001
0000
1000
0001
1000
0000
,
0001
1000
0001
0000
1001
0000
0100
0000
1001
0000
0010
0000
0100
0010
0100
0000
,
0010
0100
0010
0000
0110
0000
0100
0000
0110
0000
0010
0000
0110
0000
0001
0000
,
1000
0000
0010
0000
0100
0010
1000
0001
0100
0010
1000
0100
1000
0001
0100
0010
,
1000
0000
0001
0000
0010
0000
0100
0000
1000
0000
0001
0000
1000
0000
0000
0001
0000
0000
1000
0000
0000
0000
0000
0000
0100
0000
0000
0010
0000
0000
0100
0000
0000
0000
0000
0000
0011
0000
0000
0000
0000
0000
1001
0000
0000
0000
0000
0000
,
1010
0000
0110
0000
0001
1000
0001
0000
1000
0100
1000
0000
0101
0000
0110
0000
,
1100
0000
1001
0000
0001
1000
0001
0000
0100
0010
0100
0000
0010
0100
0010
0000
,
1000
0001
1000
0000
0001
0010
0100
1000
0100
0010
0001
0010
0100
1000
0100
0010
,
0001
1000
0010
0100
1001
0000
1001
0000
1001
0000
0000
0000
1000
0010
1000
0000
,
0001
0100
0001
0000
1001
0000
1001
0000
0110
0000
0110
0000
0001
0010
0001
0000
,
1000
0000
0000
0100
0000
0000
1000
0000
0000
0000
0000
0000
1001
0000
0000
0000
0000
0000
0010
0000
0001
0000
1000
0000
0100
0000
0000
0000
0000
0000
0010
0000
0000
0000
0000
0000
0001
0000
0000
0000
0000
0000
0010
0000
0100
0000
1000
0000
,
0001
0000
0000
0000
1000
0000
0000
0000
0110
0000
0000
0000
1000
0000
0000
0000
0101
0000
0000
0000
0010
0000
0000
0000
0100
1000
0001
0010
0100
1000
0001
0010
,
0100
1000
0001
0010
0100
1000
0001
0100
1001
0000
0000
0000
0000
0000
0000
0000
1000
0000
0000
0000
0000
0000
0000
0000
0010
0000
0000
0000
0000
0000
0000
0000
,
0110
0110
1001
0000
0001
0000
0010
0000
,
0100
1001
0010
0100
,
1010
1010
0101
0000
1000
0000
0001
0000
,
0010
0110
1000
0001
,
0110
1001
1001
0000
0100
0000
0001
0000
,
1000
0101
0010
0001
,
0110
1001
1001
0000
1000
0000
0010
0000
,
0100
0000
1001
0010
0100
0001
0010
0100
,
0011
0011
1100
0010
0100
0001
1000
0100
,
0010
1000
0101
0010
0001
0100
1000
0001
,
1010
0101
0101
1000
0010
0001
1000
0010
,
0100
1000
0011
1000
0100
0001
1000
0001
,
0110
0110
1001
0010
0001
0100
0010
0100
,
1000
0001
0110
1000
0010
0100
0001
0010
,
1001
0110
0110
0001
0001
0001
0001
0001
,
1000
0100
0010
0001
1000
0100
0011
0000
0000
0000
0000
0000
0001
0000
0000
0000
0000
0000
1000
0000
0000
0000
0000
0000
,
1010
1010
0101
0000
0001
0000
1000
0000
,
0100
0010
0001
1000
,
0011
0011
1100
0000
0001
0000
1000
0000
,
0100
0010
0001
0010
,
1010
0101
0101
0000
0100
0000
1000
0000
,
0010
0100
0001
1000
,
0011
1100
1100
0000
0001
0000
1000
0000
,
0100
0000
1001
0100
0001
1000
0010
0100
,
1001
0110
0110
1000
0001
0010
1000
0001
,
0100
1000
0010
0100
0001
0010
1000
0001
,
0110
0110
1001
0100
0001
1000
0010
0001
,
0100
0010
1000
0100
0010
0001
1000
0001
,
1100
0011
0011
1000
0100
0010
1000
0100
,
0001
0010
0100
1000
0010
0001
1000
0100
,
1001
0000
0110
0000
0110
0000
0001
1000
0010
1000
0001
0100
0001
1000
0010
0100
,
0001
1000
0010
1000
0101
0000
0000
0000
0101
0000
0000
0000
0101
0000
0000
0000
,
0101
0101
0101
0000
0101
0000
0101
0000
,
0101
0101
0101
0101
,
0101
0101
0101
0000
0101
0000
0101
0000
,
0101
0101
0101
1000
0101
1000
0101
1000
,
0101
1000
0101
1000
0101
1000
0002
1003
,
0101
1000
0101
1000
0101
1000
0101
1000
,
0101
0101
0101
1000
0101
1000
0002
1003
,
0101
2000
3101
1000
0101
1000
0101
1000
,
0101
0101
0101
1000
0101
1000
0002
1003
,
0101
1000
0101
1000
0101
1000
0101
1000
,
0101
0101
0101
1000
0101
1000
0002
1003
,
0100
0010
0000
0100
0000
1000
0000
1000
,
0000
0100
0000
0010
0000
0001
0000
2000
,
0000
3010
0000
0100
0000
0001
0000
1000
,
0000
0000
0000
0000
0000
0000
0100
0000
0000
0010
0000
0000
0100
0000
0000
0010
0000
0000
0100
0000
0000
0010
0000
0000
0100
0000
0000
0010
0000
0000
0100
0000
0000
0010
0000
0000
0100
0000
0000
0010
0000
0000
0100
0000
0010
0000
0100
0000
,
0010
0100
0010
0100
0010
0100
1002
0000
0000
0000
0000
0000
0010
0000
0000
0010
0000
0000
0000
0000
0000
0000
0000
0000
,
0000
0000
0000
0000
2003
0000
0000
0000
0100
0000
0000
0010
0000
0000
3002
0000
,
0003
0000
0000
1000
0010
1000
0010
0000
0000
0000
0000
0000
0000
0000
0000
0001
0000
0000
0000
0000
0000
1000
0000
0000
,
0000
0000
0000
0000
0000
0000
0010
0100
0000
0000
0001
0000
1000
0200
0000
0000
0000
0000
0000
0000
0000
0300
0000
0000
,
0000
0001
0020
0000
0000
0000
2030
0000
,
3000
0000
0000
0000
0000
0001
0000
1000
0000
0001
0000
0000
2002
0000
0000
3003
0000
0000
0000
0000
0000
1010
0000
0000
,
1001
0022
0033
0000
0000
0000
0000
0000
;

//---------------dance-single - ----------------
#NOTES:
     dance-single:
     :
     Hard:
     17:
     0.756063,1.161461,0.234290,0.104594,0.192453,1265.000000,1209.000000,56.000000,25.000000,0.000000,0.000000,0.756063,1.161461,0.234290,0.104594,0.192453,1265.000000,1209.000000,56.000000,25.000000,0.000000,0.000000:
0120
0130
1000
0001
,
0010
0010
0010
0000
0001
0000
0100
0000
,
0001
0010
0001
1000
,
0100
0100
0100
0000
0010
0000
0001
0000
,
0100
0000
0001
1000
0010
1000
0100
1000
,
0010
0100
1000
0001
0010
0100
0001
0100
,
0001
1000
0010
0100
0001
0100
0010
0001
,
0010
0000
1000
0000
0001
0000
1000
0000
0010
1000
0100
0000
0010
0001
0100
0000
,
0010
1000
0100
0000
0010
0000
0100
0000
0001
0000
0100
0000
0010
0000
0001
0000
,
0010
0001
1000
0001
0010
0100
1001
0100
,
1000
0001
1000
0100
0010
1000
0001
0100
,
0010
0001
0010
1000
0010
0100
1000
0001
,
0010
0100
1000
0001
0010
1000
0001
0100
,
0010
0001
1000
0100
0001
0100
0010
0001
,
0010
0100
1000
0001
0010
0100
0001
1000
,
0010
0100
1000
1010
0000
0101
0000
1100
,
0000
0011
0001
0010
0001
1000
0100
0001
,
1000
0100
0010
0100
1000
0001
0010
0100
,
1000
0100
1000
0010
0100
1000
0001
0010
,
0100
0010
0001
1000
0100
0100
0001
0010
,
0001
0010
0001
0100
1000
0001
0010
0100
,
0001
0100
1000
0001
0010
1000
0001
0010
,
1000
0010
0001
1000
0001
0010
0100
1000
,
0001
0100
1001
0110
0000
1100
0000
0011
,
0000
0110
1001
0000
0100
0000
0001
0000
,
0100
0010
0010
0000
0100
0000
1000
0000
,
0001
0010
1000
0001
,
0100
0100
0001
0000
0100
0000
1000
0000
,
0001
0010
1000
0001
,
0100
0001
0100
0001
0100
0000
0000
0000
0001
0000
0000
0000
1020
0000
0000
0000
,
1030
0100
0010
0001
,
1000
0001
1000
0001
1000
0000
0000
0000
0010
0000
0000
0000
0100
0000
0000
0000
,
0001
0000
0110
1000
0001
0010
0100
0001
,
1000
1000
1000
0010
0100
1000
0001
0010
,
0100
1000
0100
1000
0001
0010
1000
0100
,
0010
0010
0010
0001
0010
1000
0001
0100
,
1000
0100
0010
1000
0001
0100
0010
0001
,
1000
1000
1000
0100
0001
0100
0010
0001
,
0010
1000
0010
0100
1000
0001
0010
1000
,
0001
0000
0001
0000
1001
0000
0000
0000
0100
1000
0010
0000
0100
0001
0010
0000
,
0100
1000
0010
0000
1001
0000
0010
0000
0100
0000
0001
0000
1000
0000
0001
0000
,
0010
0001
0100
1000
0100
0001
0010
0001
,
1000
0010
0100
0001
0010
1000
0010
0001
,
0100
0010
1001
0110
0000
0101
0000
1010
,
0000
1001
0110
0001
0001
0100
0100
0010
,
0010
1000
1000
0001
0001
1000
1000
0100
,
0100
0001
0001
1000
1000
0001
0001
0100
,
0100
0010
0220
0000
0330
0000
0010
0100
,
0000
0110
1001
0010
0010
0100
0001
0100
,
0100
0001
1000
0001
0001
0100
0010
1000
,
1000
0010
0100
1000
1000
0001
0010
0100
,
0100
0001
0001
1000
1000
0001
0001
0100
,
0100
1000
1000
0001
0001
0100
0100
0010
,
0010
0001
0001
1000
1000
0100
0100
0010
,
0010
1000
1000
0100
0100
0001
1000
0001
,
0100
0010
0010
0001
0001
1000
0001
1000
,
0010
0100
0100
0001
0001
0100
0001
0100
,
0010
1000
1000
0010
0010
0100
1000
0010
,
1000
0100
0100
0010
0010
0100
0010
1000
,
0001
1000
1000
0001
0001
1000
0010
0001
,
1000
0010
0010
1000
1000
0001
1000
0001
,
0100
0010
0010
1000
1000
0010
1000
0010
,
0100
0001
0001
0100
0100
0010
1000
0100
,
1000
0000
0001
0010
0100
0000
0000
0000
0000
0000
0000
0000
0001
0010
0100
1000
,
0001
0010
0100
1000
0001
1000
0000
0000
1000
0010
0000
0000
0010
0100
0000
0000
,
0100
0001
0000
0000
0001
0010
0000
0000
0010
0100
0000
0000
0100
1000
0000
0000
,
1000
0010
0000
0000
0010
0100
0000
0000
0100
0001
0000
0000
0001
1000
0000
0000
,
1000
0100
0000
0000
0100
0010
0000
0000
0010
0001
0000
0000
0001
1000
0000
0000
,
1000
0010
0000
0000
0010
0100
0000
0000
0100
0001
0000
0000
0001
1000
0000
0000
,
1000
0100
0000
0000
0100
0010
0000
0000
0010
0001
0000
0000
0001
1000
0000
0000
,
1000
0010
0000
0000
0010
0100
0000
0000
0100
0001
0000
0000
0001
1000
0000
0000
,
1000
0100
0000
0000
0100
0010
0000
0000
0010
0001
0000
0000
0001
1000
0000
0000
,
1000
0100
0010
0001
0010
0100
1000
0010
,
0100
0001
1000
0100
1000
0001
0100
0001
,
0010
0100
0010
0001
1000
0010
0100
0001
,
1000
0100
1000
0001
0100
0001
0010
0100
,
0010
0001
1000
0010
0100
0001
1000
0100
,
0010
0001
0010
0100
1000
0010
0100
0001
,
1000
0000
0100
0000
0010
0001
1000
0010
0100
0001
1000
0100
0010
0001
0010
0100
,
1000
0100
0010
0001
1000
0100
0010
0001
0010
0100
1000
0010
0100
0001
1000
0100
,
1000
0001
0220
0000
0000
0000
0330
0000
0000
0000
0000
0000
0000
0000
0002
0000
,
0000
0000
0003
0100
0020
0000
0000
0000
0030
0000
0000
0000
0000
0000
0000
0000
,
0020
0000
0031
1000
0010
1000
0001
0010
,
0100
0010
0001
1000
0010
0100
0001
1000
,
0010
0100
0001
1000
0100
0010
0001
1000
,
0100
0010
0001
0010
0100
1000
0010
0100
,
0001
1000
0010
0100
0001
1000
0100
1000
,
0001
0100
0001
0010
0100
0010
0001
1000
,
0010
0100
0010
1000
0001
1000
0100
1000
,
0001
0100
0001
0010
0100
0010
0001
1000
,
0010
0100
0001
1000
0010
0100
0001
1000
,
0100
1000
0001
0010
0100
1000
0001
0010
,
0100
1000
0001
0010
0100
1000
0010
0100
,
0001
1000
0010
0100
0001
1000
0010
0100
,
0001
1000
0100
0010
0001
0010
0100
1000
,
0001
0010
0100
1000
0010
0100
0001
1000
,
0010
0100
0001
1000
0100
1000
0010
0100
,
0001
0010
0100
0010
0001
1000
0010
0000
,
0010
1000
0001
0100
0010
0000
1000
0000
0100
0000
0100
0000
1000
0000
1000
0000
,
1000
1000
0100
0010
0001
1000
0100
0100
,
0100
0100
0010
0001
0100
1000
0100
0100
,
0010
0000
0010
0000
1001
0000
0000
0000
1001
0000
0000
0000
0010
1000
0001
0100
,
0010
1000
0001
0000
1001
0000
0000
0000
1001
0000
0000
0000
1100
0000
0000
0000
,
1100
0011
0011
0110
,
0110
0101
0101
1010
,
1010
0000
1001
1000
0100
1000
0001
0100
,
0001
0010
0100
1000
0001
0100
0010
0010
,
0010
0010
0100
0001
0100
0100
0010
0010
,
0010
0010
0100
0001
1000
1000
0100
0100
,
0010
0010
0001
0001
0100
0001
1000
0100
,
0010
0001
0100
0010
1001
0000
1001
0001
,
1001
1000
0001
0010
0100
1000
0100
1000
,
0010
0000
0000
1000
0000
0000
0001
0000
0000
1000
0010
0100
0001
0000
0000
1000
0000
0000
0010
0000
0000
1000
0001
0100
,
0010
0100
1000
0100
0001
1000
0010
1000
,
0001
0100
0010
1000
0002
0000
0000
0000
0103
0000
0000
0000
0010
0000
0000
0000
,
1000
1000
0100
0000
0010
0000
0001
0000
,
1000
0110
1000
0001
,
1000
1000
0001
0000
0100
0000
0010
0000
,
1000
1001
0100
0010
,
1000
0100
0100
0000
0010
0000
0001
0000
,
0100
1001
0001
0100
,
0010
0100
0100
0000
0001
0000
1000
0000
,
0001
0000
0110
1000
0001
0010
1000
0001
,
1000
1000
0100
1000
0001
0010
0100
1000
,
0100
0010
0001
1000
0100
0001
0100
0010
,
1000
0010
0001
0100
1000
0100
0001
1000
,
0001
0100
0010
0100
0001
0010
0100
0010
,
1000
1000
0010
1000
0010
0001
1000
0001
,
0010
1000
0100
0100
1000
0001
0010
1000
,
0010
0001
0001
0010
0010
0010
0010
0010
,
0100
1000
0100
1000
0100
0000
0000
0000
0010
0000
0000
0000
0100
0000
0000
0000
,
1000
1000
0001
0000
0010
0000
0100
0000
,
1000
0100
0010
0100
,
1000
1000
0100
0000
0010
0000
0001
0000
,
0100
0010
1000
0001
,
1000
0001
0001
0000
0001
0000
0100
0000
,
1000
0001
0010
0100
,
1000
0001
0001
0000
0010
0000
0100
0000
,
0001
0000
0110
1000
0001
0010
1000
0001
,
0100
1000
1000
0100
0010
1000
0100
0010
,
0001
0100
1000
0001
0010
1000
0100
0010
,
0001
0001
0010
0001
0010
0100
1000
0010
,
0001
1000
0100
0001
1000
0010
0100
0010
,
0100
1000
1000
0100
0001
0010
0100
1000
,
0010
1000
0001
0100
0010
1000
0100
0010
,
1001
1001
1001
0010
1000
0010
0001
0010
,
1000
0010
0001
0000
0001
0000
0001
0000
,
0001
0001
0001
0000
0001
0000
0001
0000
,
0001
0001
0001
0001
,
0001
0001
0001
0000
0001
0000
0001
0000
,
0001
0001
0001
1000
0001
0100
0001
1000
,
0001
0100
0001
1000
0001
0100
0020
0130
,
0001
1000
0001
0100
0001
1000
0001
0100
,
0001
0001
0001
1000
0001
0100
0020
0130
,
0001
1000
0001
0100
0001
1000
0001
0100
,
0001
0001
0001
1000
0001
0100
0020
0130
,
0001
1000
0001
0100
0001
1000
0001
0100
,
0001
0001
0001
1000
0001
0100
0020
0130
,
0001
1000
0000
0001
0000
0010
0000
0100
,
0000
1000
0000
0100
0000
0010
0000
0002
,
0000
1003
0000
0001
0000
0010
0000
0100
,
0000
0000
1000
0001
1000
0001
1000
0001
1000
0001
1000
0001
1000
0001
1000
0001
,
1000
0001
1000
0001
0020
0000
0000
0000
0001
0000
0001
0000
0000
0000
0000
0000
,
0000
0000
0000
0000
0230
0000
0000
0000
0001
0000
0000
1000
0000
0000
0320
0000
,
0030
0000
0000
0100
1000
0100
1000
0000
0000
0000
0000
0000
0000
0000
0000
0010
0000
0000
0000
0000
0000
0100
0000
0000
,
0000
0000
0000
0000
0000
0000
1000
0001
0000
0000
0010
0000
0100
0002
0000
0000
0000
0000
0000
0000
0000
0003
0000
0000
,
0000
0010
2000
0000
0000
0000
3200
0000
,
0300
0000
0000
0000
0000
0010
0000
0100
0000
0010
0000
0000
0220
0000
0000
0330
0000
0000
0000
0000
0000
1100
0000
0000
,
0110
2020
3030
0000
0000
0000
0000
0000
;

//---------------dance-single - ----------------
#NOTES:
     dance-single:
     :
     Edit:
     25:
     1.139773,1.443028,1.326249,0.092043,0.909966,1907.000000,1590.000000,317.000000,22.000000,0.000000,3.000000,1.139773,1.443028,1.326249,0.092043,0.909966,1907.000000,1590.000000,317.000000,22.000000,0.000000,3.000000:
// measure 0
1000
0001
1000
0001
1001
0000
0000
0000
0010
0000
0000
0000
0100
0000
0000
0000
,  // measure 1
0001
0010
0001
1000
0001
0000
0000
0000
0010
0000
0000
0000
1000
0000
0000
0100
,  // measure 2
0011
0000
0000
0010
1001
0000
0000
0000
0010
0000
0000
0000
1000
0000
0000
0000
,  // measure 3
0010
0001
0010
0100
0010
0000
0000
0000
0100
0000
0000
0000
1000
0000
0000
0101
,  // measure 4
1000
0000
0000
1010
0100
0000
0010
0000
0001
0000
0010
0000
1000
0000
0010
0000
,  // measure 5
0001
1000
0001
1000
0010
0000
0100
0000
0001
0000
1000
0000
0100
0000
1001
0110
,  // measure 6
1000
0000
0011
1100
0010
0000
1000
0000
0100
0000
1000
0000
0001
0000
0100
0000
,  // measure 7
0001
0000
0010
0000
0001
0000
1000
0000
0100
0000
0000
0000
0010
0000
0000
0000
0001
0010
0100
1000
0000
0000
0000
0000
0001
0010
0100
1000
0000
0000
0000
0000
,  // measure 8
0001
0010
0100
1000
0000
0000
0000
0000
0001
0000
0000
0000
1000
0000
0000
0000
0100
0000
0000
0000
1000
0000
0000
0000
0001
0000
0000
0000
0100
0000
0000
0000
,  // measure 9
0001
0010
0001
1000
0010
0000
0100
0000
0001
0000
1000
0000
0210
0000
1000
0001
,  // measure 10
0310
0000
0100
1000
0010
0000
1000
0000
0001
0000
0010
0000
0100
0000
1000
0000
,  // measure 11
0001
0100
0001
1000
0100
0000
0010
0000
0001
0000
1000
0000
0010
0000
0100
0001
,  // measure 12
0100
0000
1000
0100
1001
0000
0100
0000
0001
0000
0010
0000
0100
0000
1000
0000
,  // measure 13
0001
0010
0100
0001
0110
0000
1000
0000
0100
0000
1000
0000
0001
0000
0100
0010
,  // measure 14
0100
0000
0010
0001
0110
0000
0100
0000
0001
0000
1000
0000
0100
0000
0010
0000
,  // measure 15
1000
0100
0010
1000
0110
0000
0011
0000
0000
0000
1001
0000
0000
0000
0110
0000
,  // measure 16
0000
0000
1001
0010
0100
0000
0001
0000
0100
0000
0010
0000
1000
0000
0100
0000
,  // measure 17
0010
0001
1000
0010
1001
0000
1000
0000
0010
0000
0100
0000
0001
0000
1000
0100
,  // measure 18
0010
0000
1000
0100
0011
0000
0001
0000
1000
0000
0010
0000
0100
0000
0001
0000
,  // measure 19
1000
0100
0001
1000
0110
0000
0010
0000
0001
0000
1000
0000
0010
0000
0001
0010
,  // measure 20
0100
0000
0001
0010
1100
0000
1000
0000
0010
0000
0100
0000
0001
0000
1000
0000
,  // measure 21
0100
0010
1000
0100
0011
0000
0001
0000
1000
0000
0010
0000
0100
0000
0010
0100
,  // measure 22
0010
1001
1001
0010
0100
0001
1000
0100
,  // measure 23
0010
0001
1000
0100
0011
0000
1001
0000
0000
0000
1010
0000
0000
0000
0110
0000
,  // measure 24
0000
1001
0110
0000
1000
0000
0100
0000
,  // measure 25
1000
0001
0001
0000
1000
0000
0010
0000
,  // measure 26
0100
0001
0010
0100
,  // measure 27
1000
1000
0100
0000
1000
0000
0010
0000
,  // measure 28
0100
1001
0010
0100
,  // measure 29
1000
0010
0001
0010
1000
0000
0000
0000
0100
0000
0000
0000
0012
0000
0000
0000
,  // measure 30
0103
0010
1000
0100
,  // measure 31
0010
0100
1000
0100
0010
0000
0000
0000
0001
0000
0000
0000
1000
0000
0000
0000
,  // measure 32
0010
0000
1001
0010
0100
0001
1000
0100
,  // measure 33
0010
0001
0010
0100
1000
0000
0001
0000
1000
0000
0010
0000
0100
0000
0001
1000
,  // measure 34
0001
0000
1000
0001
1100
0000
0010
0000
0001
0000
1000
0000
0010
0000
0100
0000
,  // measure 35
0001
0010
0001
0100
1000
0000
0100
0000
0001
0000
0010
0000
0100
0000
1000
0010
,  // measure 36
1000
0000
0001
0100
1001
0000
0010
0000
0100
0000
0001
0000
1000
0000
0100
0000
,  // measure 37
0010
0100
1000
0001
0110
0000
1000
0000
0100
0000
1000
0000
0001
0000
0100
0000
,  // measure 38
0001
0010
0101
1000
0010
0100
1001
0010
,  // measure 39
0100
0000
0010
0000
0001
0000
1000
0000
0110
0000
0000
0000
0000
0000
0000
0000
1000
0100
0010
0001
0000
0000
0000
0000
1000
0100
0010
0001
0000
0000
0000
0000
,  // measure 40
1000
0100
0010
0001
0000
0000
0000
0000
1001
0000
0000
0000
0010
0000
0100
0000
0011
0000
0000
0000
1000
0000
0000
0000
0101
0000
0000
0000
0010
0000
0001
0000
,  // measure 41
1010
0000
0100
0000
1001
0000
0010
1000
0110
0000
1000
0000
0011
0000
0100
0001
,  // measure 42
1100
0000
0001
0000
1010
0000
0100
0010
0101
0000
0010
0000
1001
0000
0100
0001
,  // measure 43
1100
0001
1010
0101
0000
0110
0000
1001
,  // measure 44
0000
0000
0110
0000
1001
0000
0100
1000
0110
0000
1000
0001
1010
0000
0001
0100
,  // measure 45
1001
0000
0010
0001
1010
0000
0100
1000
0101
0000
0010
0100
0011
0000
1000
0001
,  // measure 46
1010
0000
0100
0010
0101
0000
0010
0001
1010
0000
0100
1000
0110
0000
1000
0001
,  // measure 47
1100
0000
0001
0100
2002
0000
0000
0000
3003
0000
0000
0000
1001
0000
0010
0000
,  // measure 48
0000
0000
1001
0000
0110
0000
0001
1000
0101
0000
1000
0000
0110
0000
1000
0010
,  // measure 49
1001
0000
0100
0000
1001
0000
0100
0010
0101
0000
1000
0000
0110
0000
0001
0100
,  // measure 50
1010
0000
0001
0000
1100
0000
0010
1000
0011
0000
0100
0000
0011
0000
1000
0001
,  // measure 51
1010
0000
0100
0010
0101
0000
0010
0001
1010
0000
0100
1000
0110
0000
0001
1000
,  // measure 52
0101
0000
0010
0001
1010
0000
0100
1000
0110
0000
1000
0001
1010
0000
0001
0100
,  // measure 53
0011
0000
0100
0010
1100
0000
0010
1000
0011
0000
1000
0001
1010
0000
0001
0100
,  // measure 54
1001
0000
0010
0001
0110
0000
1000
0010
1001
0000
0100
0000
0011
0000
1000
0000
,  // measure 55
0110
0000
1000
0001
1010
0000
0100
0010
0101
0000
0010
0000
1100
0000
0010
0000
,  // measure 56
0101
0000
1000
0001
1010
0000
0100
0010
0101
0000
1000
0000
0110
0000
1000
0000
,  // measure 57
0101
0000
0010
1000
0110
0000
0001
1000
0101
0000
1000
0000
1010
0000
0001
0000
,  // measure 58
0110
0000
1000
0100
1010
0000
0001
0100
0011
0000
1000
0000
0101
0000
0010
0000
,  // measure 59
1100
0000
0010
0100
0011
0000
0100
1000
0101
0000
0010
0000
1100
0000
0001
0000
,  // measure 60
1010
0000
0001
1000
0101
0000
0010
0100
1010
0000
0100
0000
0011
0000
0100
0000
,  // measure 61
1010
0000
0001
1000
0101
0000
0010
0100
1010
0000
0001
0000
1100
0000
0001
0000
,  // measure 62
1010
0000
0100
0001
0110
0000
1000
0001
1010
0000
0001
0000
1100
0000
0010
0000
,  // measure 63
0101
0000
0000
0000
0010
0000
0100
0000
1001
0000
0000
0000
0000
0000
0000
0000
0000
0000
0000
0000
0000
0000
0000
0000
0001
0010
0100
1000
0001
0010
0100
1000
,  // measure 64
0001
0010
0100
1000
0001
0010
0100
1000
0001
0000
1000
0000
0010
0000
0100
0000
0010
0000
1000
0000
0100
0000
0010
0000
0001
0000
0010
0000
0100
0000
1000
0000
,  // measure 65
0001
1000
0001
0100
0010
0100
0010
1000
0100
1000
0001
0100
0010
0100
0001
1000
,  // measure 66
0100
0001
0100
1000
0010
0001
0010
1000
0001
0100
0010
1000
0010
0100
0001
1000
,  // measure 67
0100
0010
0100
0010
0001
1000
0001
1000
0010
0001
0010
1000
0001
0100
0010
1000
,  // measure 68
0100
0010
0001
0010
0100
1000
0010
0100
0010
1000
0001
0100
0010
1000
0100
1000
,  // measure 69
0001
0010
0001
1000
0100
1000
0001
0100
0001
1000
0010
1000
0001
0010
0001
1000
,  // measure 70
0100
0010
0001
0100
0001
1000
0100
0010
0001
0100
0001
1000
0010
0100
0001
0100
,  // measure 71
0010
1000
0010
0100
0001
1000
0100
0010
0001
1000
0100
0010
0001
0010
0100
1000
,  // measure 72
0100
0001
0100
1000
0010
0001
0010
1000
0010
0100
0001
1000
0100
0010
0001
1000
,  // measure 73
0010
0100
0001
1000
0100
0010
0001
1000
0100
0010
0001
0100
0010
1000
0001
0010
,  // measure 74
0100
1000
0100
0010
0001
0100
0010
1000
0001
0010
0100
1000
0100
0010
0001
0100
,  // measure 75
0010
1000
0100
0010
0001
0010
0100
1000
0010
0100
0010
1000
0001
0100
0010
1000
,  // measure 76
0010
0100
0001
1000
0100
0010
0001
0010
0100
0010
0001
0100
0010
1000
0010
0100
,  // measure 77
0010
1000
0001
0010
0100
1000
0100
0010
0100
1000
0010
0100
0001
0100
0010
0100
,  // measure 78
0001
1000
0100
0010
0001
0010
0100
1000
0010
0100
0010
0100
0001
1000
0001
1000
,  // measure 79
0100
0001
0100
0001
1000
0010
1000
0010
0001
0100
0001
0100
0010
1000
0010
1000
,  // measure 80
0001
0100
2002
0000
3003
0000
0000
0000
0000
0000
0000
0000
0000
0000
0100
0000
,  // measure 81
0000
0000
0000
1000
0001
0000
0000
0000
0000
0000
0000
0000
0000
0000
0000
0000
,  // measure 82
0002
0000
0000
0000
1003
0010
0100
0010
1000
0001
0010
0100
1000
0100
0010
0001
,  // measure 83
0100
0010
1000
0010
0100
0001
1000
0010
0100
0001
0100
0010
1000
0100
0010
0100
,  // measure 84
1000
0001
0100
0010
0100
0001
1000
0100
0010
0000
0001
0000
1000
0000
0010
0000
,  // measure 85
1001
1001
1001
0100
0010
0001
0010
1000
,  // measure 86
0010
0001
1000
0010
0001
0010
1000
0001
,  // measure 87
1100
1100
1100
0001
1000
0001
0010
1000
,  // measure 88
0010
0000
0001
0000
1000
0010
0100
0010
1000
0100
0010
0001
0010
0100
1000
0010
,  // measure 89
0100
0010
1000
0001
0100
0010
1000
0010
0100
0001
1000
0010
0001
1000
0100
0001
,  // measure 90
1000
0010
0001
0010
1000
0100
0010
0001
1000
0010
0100
0010
0001
1000
0100
0001
,  // measure 91
0010
1000
0001
0100
0010
0100
0001
1000
0100
0010
0001
0010
0100
1000
0100
1000
,  // measure 92
0001
0100
0001
0100
0010
1000
0010
1000
0001
0100
0010
1000
0010
0100
0001
1000
,  // measure 93
0010
0001
0010
0001
0100
0010
1000
0001
1000
0000
0010
0000
0100
0000
0010
0000
,  // measure 94
1000
0001
0010
0100
1000
0010
0100
0010
,  // measure 95
1001
1001
1001
0010
0100
1000
0001
0100
,  // measure 96
0010
0100
0001
1000
0100
0010
0100
1000
,  // measure 97
0110
0000
0110
0000
0110
0001
1000
0010
1000
0001
1000
0100
0010
0000
0000
0000
,  // measure 98
0001
0010
0100
1000
0001
0010
0100
1000
0001
0000
0100
0000
0001
0000
0000
0000
1000
0000
0100
0000
1000
0000
0000
0000
0011
0000
0000
0000
0110
0000
0000
0000
,  // measure 99
1100
0000
1001
0000
0010
0100
0010
0000
1000
0001
1000
0000
0110
0000
0011
0000
,  // measure 100
1001
0000
1010
0000
0100
0001
0100
0000
0010
1000
0010
0000
1000
0100
1000
0000
,  // measure 101
0001
0010
0001
0000
1100
0000
0000
0000
0110
0000
0000
0000
0001
0010
0100
1000
,  // measure 102
0001
0010
0100
0000
1001
0000
0010
0000
1001
0000
0100
0000
1010
0100
0001
0000
,  // measure 103
0101
0010
1000
0000
0011
0000
1000
0000
0101
0000
0010
0000
1001
0010
0100
0000
,  // measure 104
1001
0100
0010
0000
0101
0000
1000
0000
0110
0000
0001
0000
1010
0000
0100
0000
,  // measure 105
1001
0000
0010
0000
0101
0010
1000
0001
0100
0010
1000
0100
1000
0001
0100
0010
,  // measure 106
1000
0000
0001
0000
0010
0000
0100
0000
1000
0000
0001
0000
1000
0000
0000
0001
0000
0000
1000
0000
0000
0000
0000
0000
0100
0000
0000
0010
0000
0000
0100
0000
0000
0000
0000
0000
0011
0000
0000
0000
0000
0000
1001
0000
0000
0000
0000
0000
,  // measure 107
1010
0000
0110
0000
0001
1000
0001
0000
1000
0100
1000
0000
0101
0000
0110
0000
,  // measure 108
1100
0000
1001
0000
0001
1000
0001
0000
0100
0010
0100
0000
0010
0100
0010
0000
,  // measure 109
1000
0001
1000
0000
0011
0100
1000
0001
0100
0010
1000
0010
0100
0001
1000
0100
,  // measure 110
0010
0001
1000
0010
0101
0000
1010
0000
0101
0000
0000
0000
1001
0010
1000
0000
,  // measure 111
0101
0010
0100
0000
1001
0000
1001
0000
0110
0000
0110
0000
1000
0001
0010
0000
,  // measure 112
0001
0000
0000
1000
0000
0000
0010
0000
0000
0000
0000
0000
1100
0000
0000
0000
0000
0000
0010
0000
0001
0000
1000
0000
0100
0000
0000
0000
0000
0000
0010
0000
0000
0000
0000
0000
0001
0000
0000
0000
0000
0000
0010
0000
0100
0000
1000
0000
,  // measure 113
0001
0000
0000
0000
1000
0000
0000
0000
0110
0000
0000
0000
1000
0000
0000
0000
0101
0000
0000
0000
0010
0000
0000
0000
0100
1000
0001
0010
0100
1000
0001
0010
,  // measure 114
0100
1000
0001
0010
0100
1000
0001
0100
1001
0000
0000
0000
0000
0000
0000
0000
1000
0000
0000
0000
0000
0000
0000
0000
0010
0000
0000
0000
0000
0000
0000
0000
,  // measure 115
0110
0110
1001
0000
0001
0000
0010
0000
,  // measure 116
0100
1001
0010
0100
,  // measure 117
1010
1010
0101
0000
1000
0000
0001
0000
,  // measure 118
0010
0110
1000
0001
,  // measure 119
0110
1001
1001
0000
0100
0000
0001
0000
,  // measure 120
1000
0101
0010
0001
,  // measure 121
0110
1001
1001
0000
1000
0000
0010
0000
,  // measure 122
0100
0000
1001
0010
0100
0001
0010
0100
,  // measure 123
0011
0011
1100
0010
0100
0001
1000
0100
,  // measure 124
0010
1000
0101
0010
0001
0100
1000
0001
,  // measure 125
1010
0101
0101
1000
0010
0001
1000
0010
,  // measure 126
0100
1000
0011
1000
0100
0001
1000
0001
,  // measure 127
0110
0110
1001
0010
0001
0100
0010
0100
,  // measure 128
1000
0001
0110
1000
0010
0100
0001
0010
,  // measure 129
1001
0110
0110
0001
0001
0001
0001
0001
,  // measure 130
1000
0100
0010
0001
1000
0100
0011
0000
0000
0000
0000
0000
0001
0000
0000
0000
0000
0000
1000
0000
0000
0000
0000
0000
,  // measure 131
1010
1010
0101
0000
0001
0000
1000
0000
,  // measure 132
0100
0010
0001
1000
,  // measure 133
0011
0011
1100
0000
0001
0000
1000
0000
,  // measure 134
0100
0010
0001
0010
,  // measure 135
1010
0101
0101
0000
0100
0000
1000
0000
,  // measure 136
0010
0100
0001
1000
,  // measure 137
0011
1100
1100
0000
0001
0000
1000
0000
,  // measure 138
0100
0000
1001
0100
0001
1000
0010
0100
,  // measure 139
1001
0110
0110
1000
0001
0010
1000
0001
,  // measure 140
0100
1000
0010
0100
0001
0010
1000
0001
,  // measure 141
0110
0110
1001
0100
0001
1000
0010
0001
,  // measure 142
0100
0010
1000
0100
0010
0001
1000
0001
,  // measure 143
1100
0011
0011
1000
0100
0010
1000
0100
,  // measure 144
0001
0010
0100
1000
0010
0001
1000
0100
,  // measure 145
1001
0000
0110
0000
0110
0000
0001
1000
0010
1000
0001
0100
0001
1000
0010
0100
,  // measure 146
0001
1000
0010
1000
0101
0000
0000
0000
0101
0000
0000
0000
0101
0000
0000
0000
,  // measure 147
0101
0101
0101
0000
0101
0000
0101
0000
,  // measure 148
0101
0101
0101
0101
,  // measure 149
0101
0101
0101
0000
0101
0000
0101
0000
,  // measure 150
0101
0101
0101
0010
0101
1000
0101
0010
,  // measure 151
0101
1000
0101
0010
0101
1000
0002
1003
,  // measure 152
0101
0010
0101
1000
0101
0010
0101
1000
,  // measure 153
0101
0101
0101
0010
0101
1000
0002
1003
,  // measure 154
0101
0010
0101
1000
0101
0010
0101
1000
,  // measure 155
0101
0101
0101
0010
0101
1000
0002
1003
,  // measure 156
0101
0010
0101
1000
0101
0010
0101
1000
,  // measure 157
0101
0101
0101
0010
0101
1000
0002
1003
,  // measure 158
0101
1010
0000
0110
0000
0101
0000
1001
,  // measure 159
0000
0101
0000
1010
0000
0101
0000
2001
,  // measure 160
0000
3011
0000
1100
0000
0011
0000
1001
,  // measure 161
0000
0000
0000
0000
0000
0000
0100
0000
0000
0010
0000
0000
0100
0000
0000
0010
0000
0000
0100
0000
0000
0010
0000
0000
0100
0000
0000
0010
0000
0000
0100
0000
0000
0010
0000
0000
0100
0000
0000
0010
0000
0000
0100
0000
0010
0000
0100
0000
,  // measure 162
0010
0100
0010
0100
0010
0100
1002
0000
0000
0000
0000
0000
1010
0000
0000
0110
0000
0000
0000
0000
0000
0000
0000
0000
,  // measure 163
0000
0000
0000
0000
2003
0000
0000
0000
0100
0000
0000
0010
0000
0000
3002
0000
,  // measure 164
0003
0000
0000
1000
0010
1000
0010
0000
0000
0000
0000
0000
0000
0000
0000
0001
0000
0000
0000
0000
0000
1000
0000
0000
,  // measure 165
0000
0000
0000
0000
0000
0000
0010
0100
0000
0000
0001
0000
1000
0200
0000
0000
0000
0000
0000
0000
0000
0300
0000
0000
,  // measure 166
0000
0001
0020
0000
0000
0000
2030
0000
,  // measure 167
3000
0000
0000
0000
0000
0001
0000
1000
0000
0001
0000
0000
2002
0000
0000
3003
0000
0000
0000
0000
0000
1010
0000
0000
,  // measure 168
1001
0022
0033
0000
0000
0000
0000
0000
;

//---------------dance-single - ----------------
#NOTES:
     dance-single:
     :
     Medium:
     8:
     0.444075,0.598329,0.192453,0.033470,0.016735,743.000000,697.000000,46.000000,8.000000,0.000000,0.000000,0.444075,0.598329,0.192453,0.033470,0.016735,743.000000,697.000000,46.000000,8.000000,0.000000,0.000000:
0000
0001
1000
0001
,
1000
0001
1000
0001
,
1000
0001
0010
0100
,
0010
0100
0010
0100
,
1000
0001
1000
0001
,
1000
0001
0100
0010
,
0100
0010
1000
0010
,
1000
0001
0100
0100
,
0100
0010
1000
0010
,
1000
0100
0100
0100
,
0100
0010
0010
0010
,
0010
0001
0001
0001
,
0001
0100
0100
0100
,
0100
0010
0010
0010
,
0010
1000
1000
1000
,
1000
0000
0001
1000
0000
0001
0000
1000
,
0000
0001
1000
0000
0001
0000
0010
0000
,
0100
0010
0100
1000
,
0001
0100
0010
0100
,
0001
0010
0100
0010
,
0001
1000
1000
1000
,
1000
0001
0001
0001
,
0001
0100
0100
0100
,
0100
0000
0010
0100
0000
0010
0000
0100
,
0000
0010
0100
0000
0001
0000
1000
0000
,
0001
1000
0001
1000
,
0001
0100
0010
0100
,
0010
0100
0010
0100
,
0010
1000
0001
1000
,
0001
1000
0001
1000
,
0001
0010
0100
0010
,
0100
0010
0100
0010
,
0100
1100
0000
0000
,
0000
0101
0000
0000
,
0000
0110
0000
0000
,
0000
1010
0000
0000
,
0000
1001
0000
0000
,
0000
0011
0000
0000
,
0000
0110
0000
1001
,
0000
1000
0001
1000
,
0001
0100
0100
0100
,
0100
0100
0100
0100
,
0100
0100
0100
0100
,
0100
0001
0100
0001
0000
0001
0000
1000
,
0000
0001
1000
0000
0100
0000
1000
0000
,
0100
1000
0100
1000
,
0100
1000
0100
1000
,
0100
1001
0000
1000
,
0010
1000
0010
1000
,
0010
1000
0010
1000
,
0010
0100
0001
0100
,
0001
0100
0001
0100
,
0001
1000
0001
1000
,
0001
1000
0001
1000
,
0001
0010
0100
0010
,
0100
0010
0100
0010
,
0100
1000
0001
1000
,
0001
0100
0010
0100
,
0010
1000
0100
1000
,
0100
0010
0001
0010
,
0001
1000
0001
1000
,
0001
0100
0010
0100
,
0010
1000
0010
1000
,
0010
1001
0000
0000
,
0000
0001
0001
0001
,
0001
0001
0001
0001
,
0001
1000
1000
1000
,
1000
1000
1000
1000
,
1000
0010
0010
0010
,
0010
0010
0010
0010
,
0010
0100
0100
0100
,
0100
0100
0100
0100
,
0100
0001
0001
0001
,
0001
0001
0001
0001
,
0001
1000
1000
1000
,
1000
1000
1000
1000
,
1000
0010
0010
0010
,
0010
0010
0010
0010
,
0010
0100
0100
0100
,
0100
0100
0100
0100
,
0100
1001
0000
0000
,
0000
0000
0000
0000
,
0000
0001
0010
0001
,
0010
0001
0010
0001
,
0010
0001
0001
0001
,
0001
0001
0001
0001
,
0001
1000
1000
1000
,
1000
1000
1000
1000
,
1000
0010
0010
0010
,
0010
0010
0010
0010
,
0010
1000
0100
1000
,
0100
1000
0001
0001
,
0001
0001
0010
0001
,
0010
0100
0100
0100
,
0100
1000
0010
1000
,
0010
1000
0001
1000
,
0001
1000
0100
1000
,
0100
0010
0001
0010
,
0001
0010
0100
1001
,
1001
0010
0100
0110
,
0110
0010
1000
0001
,
0100
1010
1010
0101
,
0101
0001
0010
0011
,
0011
0100
1000
1100
,
1100
0010
1000
0010
,
1000
0001
0001
0001
,
0001
1000
0100
1100
,
1100
0001
0010
0011
,
0011
0001
1000
0001
,
1000
0001
0001
0001
,
0001
1000
0010
1010
,
1010
0001
0100
0101
,
0101
0001
1000
0010
,
0100
0001
0001
0001
,
0001
1001
0001
1000
,
0001
1000
0001
1000
,
0001
0110
0100
0010
,
0100
0110
0100
1000
,
0001
1001
0001
1000
,
0001
0110
0010
0100
,
0010
0110
0010
1000
,
0001
1001
0001
0010
,
0100
0110
0100
0010
,
0001
0101
0001
0100
,
0010
1010
1000
0100
,
1000
1100
0100
0010
,
0001
0011
0001
1000
,
0001
1001
0001
0100
,
0010
0110
0010
1000
,
0001
1000
0001
1000
,
0001
0001
0001
0001
,
0001
1000
1000
1000
,
1000
0010
0010
0010
,
0010
1000
1000
1000
,
1000
0100
0100
0100
,
0100
0010
0010
0010
,
0010
0001
0001
0001
,
0001
0100
0100
0100
,
0100
0010
0010
0010
,
0010
1000
1000
1000
,
1000
0001
0001
0001
,
0001
0010
0010
0010
,
0010
0100
0100
0100
,
0100
0010
0010
0010
,
0010
0001
0001
0001
,
0001
1000
0001
1000
,
0001
1001
0001
0001
,
0001
0001
0001
0001
,
0001
1000
1000
1000
,
1000
1000
1000
1000
,
1000
0000
0001
1000
0001
1000
0001
1000
,
0001
1000
0001
1000
0001
1000
0001
1000
,
0001
1000
0001
1000
0001
1000
0001
1000
,
0001
1000
0001
1000
0001
1000
0001
1000
,
0001
1000
0001
1000
0001
1000
0001
1000
,
0001
1000
0001
1000
0001
1000
0001
1000
,
0001
1000
0001
1000
0001
1000
0001
1000
,
0001
1000
0001
1000
0001
1000
0001
1000
,
0001
1000
0001
1000
0001
1000
0001
1000
,
0001
1000
0001
1000
0001
1000
0001
1000
,
0001
1000
0001
1000
0001
1000
0001
1000
,
0001
1000
0001
1000
0001
1000
0001
1000
,
0001
1000
0200
0000
1000
1000
0000
0000
,
0000
0000
0000
0000
0320
0000
0000
0000
1000
0000
0000
0001
0000
0000
0230
0000
,
0300
0000
0000
0010
0001
0010
0001
0000
0000
0000
0000
0000
0000
0000
0000
0100
0000
0000
0000
0000
0000
0010
0000
0000
,
0000
0000
0000
0000
0000
0000
0001
1000
0000
0000
0100
0000
0010
2000
0000
0000
0000
0000
0000
0000
0000
3000
0000
0000
,
0000
0100
0002
0000
0000
0000
0023
0000
,
0030
0000
0000
0000
0000
0100
0000
0010
0000
0100
0000
0000
0020
0000
0000
0030
0000
0000
0000
0000
0000
0001
0000
0000
,
0100
0002
0003
0000
0000
0000
0000
0000
;
