#TITLE:Misis Güiñi;
#SUBTITLE:(Full);
#ARTIST:Tronic;
#TITLETRANSLIT:;
#SUBTITLETRANSLIT:;
#ARTISTTRANSLIT:;
#CREDIT:;
#BANNER:Misis Güiñi-bn.png;
#BACKGROUND:Misis Güiñi-bg.png;
#LYRICSPATH:Misis Güiñi.lrc;
#CDTITLE:cd.png;
#MUSIC:Misis Güiñi.mp3;
#OFFSET:-0.656;
#SAMPLESTART:19.490;
#SAMPLELENGTH:12.000;
#SELECTABLE:YES;
#BPMS:0.000=204.000,329.000=102.000,344.000=204.000;
#STOPS:4.000=0.883
,13.000=0.883
,63.000=0.294
,94.000=0.294
,193.000=0.294
,224.000=0.294
,328.000=0.294
,351.000=0.294
,382.000=0.294
;
#BGCHANGES:;

//---------------dance-single - ----------------
#NOTES:
     dance-single:
     :
     Hard:
     11:
     0.656,0.659,0.377,0.528,0.000: // measure 1
0002
0000
0000
0003
,  // measure 2
1001
2000
0000
0000
,  // measure 3
3000
0001
0001
0001
,  // measure 4
1000
0010
2002
0000
,  // measure 5
0000
3003
0010
0010
,  // measure 6
1000
0001
1000
0010
,  // measure 7
0100
0000
0110
0000
1000
0010
1000
0010
,  // measure 8
1000
0001
1000
0010
,  // measure 9
0100
0000
1000
0001
0100
0010
0100
0001
,  // measure 10
0100
0010
0200
0001
,  // measure 11
0010
0000
0301
0000
0010
1000
0010
0100
,  // measure 12
0001
1000
0001
1010
,  // measure 13
0101
0000
1010
0000
0001
1000
0010
1000
,  // measure 14
0010
0100
0002
0023
,  // measure 15
0230
0000
2300
0000
3010
1000
0010
1000
,  // measure 16
0001
0100
0010
0100
0001
0100
0010
0200
,  // measure 17
0000
0310
0000
0000
1000
0020
0000
0000
,  // measure 18
1030
0000
0100
0000
0001
0000
0100
0010
,  // measure 19
0100
0001
0110
0100
,  // measure 20
1001
0001
0101
0010
,  // measure 21
0101
0000
1000
0000
0010
1000
0010
0000
,  // measure 22
0100
0001
0100
0000
0010
0000
0100
0000
,  // measure 23
0001
0100
0010
0100
0001
1000
0100
0010
,  // measure 24
0001
0010
0100
0001
1000
2000
0000
3002
,  // measure 25
0000
0003
1000
0002
0000
0003
1000
0020
,  // measure 26
0000
0030
1000
0000
0010
0000
0010
0000
,  // measure 27
0200
0000
0302
0000
,  // measure 28
2003
0000
3020
0000
,  // measure 29
0130
0000
2002
3003
,  // measure 30
0010
0010
0100
0010
,  // measure 31
1000
0100
0010
0001
1000
0000
0002
0000
,  // measure 32
0103
0000
0010
0100
0010
0000
0110
0000
,  // measure 33
0001
0000
0010
0100
0010
0000
0100
0000
,  // measure 34
0200
2300
3020
0230
,  // measure 35
0301
0100
0010
1000
0200
0000
0310
0000
,  // measure 36
0100
0110
1001
0110
,  // measure 37
0001
1000
0100
1000
0010
0000
0100
0000
,  // measure 38
0001
0000
0110
0000
1001
0000
0100
0001
,  // measure 39
1000
0010
0100
0010
1000
0000
0002
0000
,  // measure 40
0103
0000
0010
1000
0010
0000
0100
0010
,  // measure 41
0100
0001
1000
0100
1000
0000
0200
0000
,  // measure 42
1300
1001
0200
0301
,  // measure 43
0001
0100
0010
1000
0001
0100
0010
0000
,  // measure 44
1000
0000
0100
1000
0010
0000
1010
0000
,  // measure 45
0220
0000
0000
0330
,  // measure 46
2002
0000
0000
0000
,  // measure 47
0000
0000
3003
0000
,  // measure 48
0001
1000
0010
1000
0010
1000
0100
1000
,  // measure 49
0001
0100
0010
1000
0000
0001
0000
0000
,  // measure 50
0100
0020
0000
0000
0130
0000
0001
0000
,  // measure 51
0100
0000
0010
0100
0001
0000
1000
0000
,  // measure 52
1010
0010
1001
0001
,  // measure 53
0110
0100
0101
0010
,  // measure 54
0100
0001
0100
0000
0010
1000
0010
0000
,  // measure 55
0100
0000
0001
0100
0010
0000
0100
0010
,  // measure 56
0100
0001
1000
0001
0100
0001
0010
0100
,  // measure 57
1000
0002
0000
1003
0000
0000
0100
2000
,  // measure 58
0000
3000
0100
0020
0000
0030
0001
0000
,  // measure 59
0100
0010
0100
0200
,  // measure 60
0310
0020
1030
2000
,  // measure 61
3001
0001
1010
1010
,  // measure 62
0101
0101
0110
1001
,  // measure 63
0110
1001
1000
1000
,  // measure 64
2001
0000
3002
1003
,  // measure 65
0100
0100
0000
0000
1000
0000
0010
0000
,  // measure 66
0120
0000
0130
0010
,  // measure 67
0100
0001
2000
0000
,  // measure 68
3020
0000
0130
0100
,  // measure 69
0002
0000
1003
0010
,  // measure 70
0200
0000
0301
0001
,  // measure 71
0100
0000
1001
0000
0100
0001
0100
0001
,  // measure 72
0100
0001
0100
0001
0100
0010
0100
0010
,  // measure 73
1000
0010
1000
0010
0100
0010
0100
0010
,  // measure 74
0100
0010
0100
0010
1000
0001
1000
0001
,  // measure 75
0100
0010
0100
0010
1000
0010
1000
0010
,  // measure 76
1000
0100
1000
0100
0010
0001
0010
0001
,  // measure 77
0100
0001
0100
0010
0100
0001
1000
0010
,  // measure 78
0100
0010
1000
0010
1000
0100
0010
0001
,  // measure 79
0010
0100
0010
0100
1000
0001
1000
0001
,  // measure 80
1000
0001
1000
0001
0100
0010
0100
0010
,  // measure 81
0100
0010
0100
0010
1000
0001
1000
0001
,  // measure 82
1000
0001
1000
0010
2002
0000
0000
3003
,  // measure 83
0000
2000
0000
3020
,  // measure 84
0000
0230
0000
0302
,  // measure 85
0000
2003
0000
3020
,  // measure 86
0000
0230
0000
0000
,  // measure 87
0300
0000
1001
0000
0010
0100
0010
0100
,  // measure 88
0010
1000
0010
0100
0001
0010
0001
0200
,  // measure 89
0000
0310
0000
0000
0100
0020
0000
0000
,  // measure 90
0130
0000
0010
0000
0010
0000
1000
0001
,  // measure 91
1000
0010
0110
0010
,  // measure 92
0110
0001
1001
0001
,  // measure 93
0010
0001
0100
0000
0010
0001
0010
0000
,  // measure 94
0100
1000
0010
0000
0010
0000
1000
0010
,  // measure 95
1000
0010
1000
0010
0100
0001
0100
0010
,  // measure 96
1000
0001
0010
0100
1000
0200
0000
1300
,  // measure 97
0000
0000
0010
0200
0000
0300
0010
0200
,  // measure 98
0000
0300
0001
0000
0001
0000
1000
0000
,  // measure 99
0002
2003
3020
0230
,  // measure 100
0302
0023
0230
2300
,  // measure 101
3010
0010
0100
0100
,  // measure 102
0110
0110
1001
1001
,  // measure 103
0001
0010
0001
0010
0100
0010
0001
0010
,  // measure 104
0100
1000
0010
0100
0001
0100
0010
0100
,  // measure 105
0001
0010
0100
1000
0001
1000
0010
1000
,  // measure 106
0001
1000
0010
1000
0001
0100
0010
0100
,  // measure 107
0001
0012
1003
0210
,  // measure 108
0301
1020
0130
0210
,  // measure 109
0301
1002
1003
0010
,  // measure 110
1100
0011
1100
0101
,  // measure 111
1002
0000
0100
0000
,  // measure 112
1000
0000
0023
0000
,  // measure 113
0001
0000
0100
0000
,  // measure 114
1030
0000
0000
0000
;

//---------------dance-single - ----------------
#NOTES:
     dance-single:
     :
     Medium:
     9:
     0.489,0.543,0.158,0.391,0.000: // measure 1
0020
0000
0000
0000
,  // measure 2
0130
0002
0000
0000
,  // measure 3
0000
2003
0000
3001
,  // measure 4
0000
0100
0002
0000
,  // measure 5
0000
0000
2003
0000
,  // measure 6
0000
0000
3001
0000
,  // measure 7
1000
0000
0010
0010
,  // measure 8
1000
0100
1000
1010
,  // measure 9
0001
0101
0010
0100
,  // measure 10
0001
1000
0002
1000
,  // measure 11
1000
1003
0010
0100
,  // measure 12
0010
1000
0100
1010
,  // measure 13
0101
1010
0001
0010
,  // measure 14
0100
1000
0010
0100
,  // measure 15
0001
0000
1000
0000
1000
0010
1000
0000
,  // measure 16
0001
0100
0001
0000
0010
1000
0010
0100
,  // measure 17
0000
0001
0000
0000
0001
1000
0000
0000
,  // measure 18
0010
0010
0010
1000
,  // measure 19
0001
1000
0001
0100
,  // measure 20
0010
0100
0010
1000
,  // measure 21
0001
0010
0001
0010
,  // measure 22
0100
1000
0010
1000
,  // measure 23
0010
0000
1000
0100
1000
0000
0010
0100
,  // measure 24
0010
0000
0100
0001
0100
0010
0000
0200
,  // measure 25
0000
0300
0001
2000
0000
3000
1000
0020
,  // measure 26
0000
0030
0000
0000
0100
0000
0100
0000
,  // measure 27
1000
0010
0100
0001
,  // measure 28
1000
0010
0100
0001
,  // measure 29
0010
0011
0100
1100
,  // measure 30
0010
0010
0100
0110
,  // measure 31
1000
0100
1000
0100
1000
0000
0010
0000
,  // measure 32
0100
0001
0010
0100
,  // measure 33
1000
0000
0010
1000
0010
0000
1000
0000
,  // measure 34
0200
0320
0032
2003
,  // measure 35
3010
0100
0010
0100
0010
0000
1000
0000
,  // measure 36
0001
1000
0010
0100
,  // measure 37
0001
0100
0001
0000
0100
0000
0010
0000
,  // measure 38
0002
0203
0320
2030
,  // measure 39
3002
1000
1000
1003
,  // measure 40
2000
0010
0010
3010
,  // measure 41
0020
0100
0100
0130
,  // measure 42
0001
0010
0100
0110
,  // measure 43
0001
1000
0010
0100
,  // measure 44
2000
0001
0010
3100
,  // measure 45
0220
0000
0000
0330
,  // measure 46
2002
0000
0000
0000
,  // measure 47
0000
0000
0000
0000
0000
0000
0000
0000
0000
0000
0000
0000
0000
0000
0000
0000
0000
0000
0000
0000
0000
0000
0000
0000
0000
0000
0000
0000
0000
0000
0000
0000
0000
0000
0000
0000
0000
0000
0000
0000
0000
0000
0000
0000
0000
0000
0000
0000
0000
0000
0000
0000
0000
0000
0000
0000
0000
0000
0000
0000
0000
0000
0000
0000
0000
0000
0000
0000
0000
0000
0000
0000
0000
0000
0000
0000
0000
0000
0000
0000
0000
0000
0000
0000
0000
0000
0000
0000
0000
0000
0000
0000
0000
0000
0000
0000
3000
0003
0000
0000
0000
0000
0000
0000
0000
0000
0000
0000
0000
0000
0000
0000
0000
0000
0000
0000
0000
0000
0000
0000
0000
0000
0000
0000
0000
0000
0000
0000
0000
0000
0000
0000
0000
0000
0000
0000
0000
0000
0000
0000
0000
0000
0000
0000
0000
0000
0000
0000
0000
0000
0000
0000
0000
0000
0000
0000
0000
0000
0000
0000
0000
0000
0000
0000
0000
0000
0000
0000
0000
0000
0000
0000
0000
0000
0000
0000
0000
0000
0000
0000
0000
0000
0000
0000
0000
0000
0000
0000
0000
0000
0000
0000
,  // measure 48
0001
0100
0001
0000
1000
0010
1000
0000
,  // measure 49
0100
0001
0100
0010
0000
1000
0000
0000
,  // measure 50
1000
0001
0000
0000
0100
0000
0100
0000
,  // measure 51
0100
0001
1000
0001
,  // measure 52
1000
0010
0100
0010
,  // measure 53
0100
0001
1000
0100
,  // measure 54
1000
0100
0010
0001
,  // measure 55
0100
0000
0001
0000
0100
0000
0001
0010
,  // measure 56
0001
0000
0100
0010
0100
0000
0010
1000
,  // measure 57
0010
0100
0000
0020
0000
0030
1000
0002
,  // measure 58
0000
0003
0001
0200
0000
0300
0000
0000
,  // measure 59
0010
0010
0001
0100
,  // measure 60
0010
1000
0001
0100
,  // measure 61
0010
1000
0100
1100
,  // measure 62
0010
0011
0100
0100
,  // measure 63
0010
0110
1000
0001
,  // measure 64
0001
0000
2000
0000
,  // measure 65
3002
0000
0203
0000
,  // measure 66
0320
0000
0130
0100
,  // measure 67
0010
0000
2000
0000
,  // measure 68
3002
0000
0000
0003
0100
0000
0010
0000
,  // measure 69
0100
0000
0002
0000
,  // measure 70
0000
0000
1003
1000
,  // measure 71
0001
1000
1001
0001
,  // measure 72
0001
0001
1000
0001
,  // measure 73
1000
0001
1000
1000
,  // measure 74
1000
1000
0010
1000
,  // measure 75
0010
0100
0001
0001
,  // measure 76
0001
0001
0010
0100
,  // measure 77
1000
0000
0010
0000
1000
0010
1000
0000
,  // measure 78
0010
1000
0010
0000
0100
0001
0100
0000
,  // measure 79
0010
0100
0001
0001
,  // measure 80
0001
0001
1000
1000
,  // measure 81
1000
1000
0010
0010
,  // measure 82
0010
0000
0010
0000
2002
0000
0000
3003
,  // measure 83
0000
2000
0000
3020
,  // measure 84
0000
0230
0000
0000
,  // measure 85
0000
0320
0000
2030
,  // measure 86
0000
0000
3002
0000
0000
0000
0000
0003
,  // measure 87
0000
1001
0001
1000
,  // measure 88
0010
0000
1000
0010
1000
0010
1000
0010
,  // measure 89
0000
0100
0000
0000
0001
0100
0000
0000
,  // measure 90
0010
0010
1000
0001
,  // measure 91
0010
0100
1000
0001
,  // measure 92
0010
0001
1000
0010
,  // measure 93
0100
0000
0011
0000
0100
1000
0100
0000
,  // measure 94
1000
0010
0100
0000
0010
0000
0100
0000
,  // measure 95
0001
0000
0100
0010
0100
0000
0001
1000
,  // measure 96
0001
0000
0010
0100
0010
0001
0000
2000
,  // measure 97
0000
3000
0010
0200
0000
0300
0001
0020
,  // measure 98
0000
0030
0100
0000
0100
0000
1000
0000
,  // measure 99
0020
0000
0230
0000
,  // measure 100
0302
0000
2003
0000
,  // measure 101
0010
3010
0100
0010
,  // measure 102
0100
0001
1000
1001
,  // measure 103
0100
0100
0100
0100
,  // measure 104
0010
0100
0010
0000
1000
0010
1000
0000
,  // measure 105
0001
0001
0001
0001
,  // measure 106
0010
0001
0010
0000
0100
0010
0100
0000
,  // measure 107
2000
3100
0020
0130
,  // measure 108
0002
1003
0200
0310
,  // measure 109
0020
1030
0100
0100
,  // measure 110
1010
1010
0101
0101
,  // measure 111
0020
0000
0000
0000
,  // measure 112
0000
0000
0000
0000
,  // measure 113
0230
0000
0000
0000
,  // measure 114
0001
0300
0000
0000
0000
0000
0000
0000
0000
0000
0000
0000
0000
0000
0000
0000
0000
0000
0000
0000
0000
0000
0000
0000
0000
0000
0000
0000
0000
0000
0000
0000
0000
0000
0000
0000
0000
0000
0000
0000
0000
0000
0000
0000
0000
0000
0000
0000
0000
0000
0000
0000
0000
0000
0000
0000
0000
0000
0000
0000
0000
0000
0000
0000
0000
0000
0000
0000
0000
0000
0000
0000
0000
0000
0000
0000
0000
0000
0000
0000
0000
0000
0000
0000
0000
0000
0000
0000
0000
0000
0000
0000
0000
0000
0000
0000
0000
0000
0000
0000
0000
0000
0000
0000
0000
0000
0000
0000
0000
0000
0000
0000
0000
0000
0000
0000
0000
0000
0000
0000
0000
0000
0000
0000
0000
0000
0000
0000
0000
0000
0000
0000
0000
0000
0000
0000
0000
0000
0000
0000
0000
0000
0000
0000
0000
0000
0000
0000
0000
0000
0000
0000
0000
0000
0000
0000
0000
0000
0000
0000
0000
0000
0000
0000
0000
0000
0000
0000
0000
0000
0000
0000
0000
0000
0000
0000
0000
0000
0000
0000
0000
0000
0000
0000
0000
0000
0000
0000
0000
0000
0000
0000
;

//---------------dance-single - ----------------
#NOTES:
     dance-single:
     :
     Easy:
     6:
     0.336,0.465,0.123,0.364,0.000: // measure 1
0010
0000
0000
0000
,  // measure 2
1001
0200
0000
0000
,  // measure 3
0300
0010
0010
0100
,  // measure 4
0100
0010
2020
0000
,  // measure 5
0000
3030
0001
0000
,  // measure 6
0000
0000
1000
1000
,  // measure 7
1000
0010
1000
0100
,  // measure 8
1000
0010
1000
0000
,  // measure 9
0001
0000
0100
0100
,  // measure 10
0010
1000
0001
0010
,  // measure 11
0100
1000
0001
1000
,  // measure 12
0010
1000
0100
0000
,  // measure 13
1000
0000
0010
1000
,  // measure 14
0001
0010
0100
0010
,  // measure 15
0001
0001
1000
1000
,  // measure 16
0001
0001
1000
0010
,  // measure 17
0000
1000
0000
0010
,  // measure 18
0000
1000
0000
0001
,  // measure 19
1000
0001
0000
1000
,  // measure 20
0000
0010
0000
0100
,  // measure 21
0000
0110
0000
1001
,  // measure 22
0000
0110
0000
1001
,  // measure 23
0000
0001
0001
0001
,  // measure 24
0001
1000
1000
0000
,  // measure 25
0010
0000
1000
0000
,  // measure 26
0001
0000
1000
0010
,  // measure 27
1000
0000
0100
0000
,  // measure 28
0010
0000
0011
0000
,  // measure 29
1100
0000
1001
0000
,  // measure 30
0001
0001
1000
0000
,  // measure 31
0010
1000
0100
1000
,  // measure 32
0020
0000
1030
0000
,  // measure 33
1000
0001
0100
0010
,  // measure 34
1000
0001
0010
0100
,  // measure 35
1000
0001
1000
0010
,  // measure 36
0200
0000
0310
0000
,  // measure 37
0100
0001
1000
0100
,  // measure 38
0001
0100
0010
0100
,  // measure 39
0001
1000
0010
1000
,  // measure 40
0200
0000
1300
0000
,  // measure 41
0010
0100
0001
0100
,  // measure 42
0010
1000
0100
0010
,  // measure 43
0001
1000
0010
0100
,  // measure 44
1001
0000
0010
0000
,  // measure 45
0200
0000
0000
0000
,  // measure 46
0320
0000
0000
0000
,  // measure 47
0000
0000
0030
0000
,  // measure 48
1000
1000
0010
0010
,  // measure 49
0100
0100
0000
0002
,  // measure 50
0000
2003
0000
3020
,  // measure 51
0000
1030
0010
1000
,  // measure 52
0000
0010
0000
0110
,  // measure 53
0000
1001
0000
0002
,  // measure 54
0000
2003
0000
3020
,  // measure 55
0000
0230
0000
0301
,  // measure 56
1000
0010
1000
0100
,  // measure 57
0010
0000
0010
0000
,  // measure 58
0001
0000
1000
0000
,  // measure 59
0010
1000
0200
0000
,  // measure 60
2300
0000
3020
0000
,  // measure 61
0230
0000
0302
0000
,  // measure 62
2003
0000
3010
1000
,  // measure 63
0020
0230
0302
0000
,  // measure 64
0000
0000
0000
0000
,  // measure 65
0000
0003
0000
0000
,  // measure 66
0000
0000
1000
1000
,  // measure 67
1000
0000
0020
0000
,  // measure 68
0000
0000
0000
0000
,  // measure 69
0000
0000
0030
0000
,  // measure 70
0000
0000
0100
0100
,  // measure 71
0010
0000
2000
0000
,  // measure 72
0000
3000
0002
0000
,  // measure 73
0203
0000
0320
0000
,  // measure 74
0000
0000
2030
0000
,  // measure 75
3002
0000
0023
0000
,  // measure 76
0000
0000
0230
0000
,  // measure 77
2300
0000
3020
0000
,  // measure 78
0000
0000
0230
0000
,  // measure 79
0000
0300
0010
0000
,  // measure 80
0000
0000
1001
0000
,  // measure 81
0000
0000
1001
0000
,  // measure 82
0000
0000
1001
0000
,  // measure 83
0000
2000
0000
3020
,  // measure 84
0000
0230
0000
0000
,  // measure 85
0000
0302
0000
0000
,  // measure 86
0000
2003
0000
3000
,  // measure 87
0000
1001
0001
0001
,  // measure 88
1000
0010
1000
0010
,  // measure 89
0000
0100
0000
0010
,  // measure 90
0000
0100
0000
0001
,  // measure 91
0001
2000
0000
3020
,  // measure 92
0000
0230
0000
0302
,  // measure 93
0000
1003
0000
0010
,  // measure 94
0000
0100
0000
0010
,  // measure 95
0000
0100
0100
0010
,  // measure 96
0100
0010
0100
0010
,  // measure 97
0100
0000
0010
0000
,  // measure 98
0100
0000
0001
0001
,  // measure 99
2000
0000
3020
0000
,  // measure 100
0230
0000
0301
0000
,  // measure 101
0202
0303
1020
0030
,  // measure 102
0010
0010
0100
0010
,  // measure 103
1000
0010
1000
0000
,  // measure 104
0001
0100
0001
0000
,  // measure 105
0100
0010
0100
0000
,  // measure 106
0001
0100
0010
0100
,  // measure 107
0001
1000
0100
0010
,  // measure 108
0001
1000
0010
1000
,  // measure 109
0100
1000
0010
0100
,  // measure 110
0001
0001
1000
1000
,  // measure 111
0020
0000
0000
0000
,  // measure 112
0000
0000
0000
0000
,  // measure 113
0230
0000
0000
0000
,  // measure 114
0000
0000
0300
0000
0000
0000
0000
0000
0000
0000
0000
0000
0000
0000
0000
0000
0000
0000
0000
0000
0000
0000
0000
0000
0000
0000
0000
0000
0000
0000
0000
0000
0000
0000
0000
0000
0000
0000
0000
0000
0000
0000
0000
0000
0000
0000
0000
0000
0000
0000
0000
0000
0000
0000
0000
0000
0000
0000
0000
0000
0000
0000
0000
0000
0000
0000
0000
0000
0000
0000
0000
0000
0000
0000
0000
0000
0000
0000
0000
0000
0000
0000
0000
0000
0000
0000
0000
0000
0000
0000
0000
0000
0000
0000
0000
0000
0000
0000
0000
0000
0000
0000
0000
0000
0000
0000
0000
0000
0000
0000
0000
0000
0000
0000
0000
0000
0000
0000
0000
0000
0000
0000
0000
0000
0000
0000
0000
0000
0000
0000
0000
0000
0000
0000
0000
0000
0000
0000
0000
0000
0000
0000
0000
0000
0000
0000
0000
0000
0000
0000
0000
0000
0000
0000
0000
0000
0000
0000
0000
0000
0000
0000
0000
0000
0000
0000
0000
0000
0000
0000
0000
0000
0000
0000
0000
0000
0000
0000
0000
0000
0000
0000
0000
0000
0000
0000
0000
0000
0000
0000
0000
0000
;
