#TITLE:Lophophora;
#SUBTITLE:;
#ARTIST:Chancho en piedra;
#TITLETRANSLIT:;
#SUBTITLETRANSLIT:;
#ARTISTTRANSLIT:;
#GENRE:;
#CREDIT:;
#BANNER:Lophophora-jacket.png;
#BACKGROUND:Lophophora-bg.png;
#LYRICSPATH:;
#CDTITLE:cdtitle.png;
#MUSIC:lopopora.mp3;
#OFFSET:-0.002422;
#SAMPLESTART:37.389000;
#SAMPLELENGTH:15.000000;
#SELECTABLE:YES;
#DISPLAYBPM:134.000000;
#BPMS:0.000000=135.100006
;
#STOPS:
;
#BGCHANGES:0.000=Chancho En Piedra - Lophophora (Video Version).avi=1.000=0=0=0=StretchNoLoop====,
99999=-nosongbg-=1.000=0=0=0 // don't automatically add -songbackground-
;
#KEYSOUNDS:;
#ATTACKS:;

//---------------dance-single - ----------------
#NOTES:
     dance-single:
     :
     Easy:
     4:
     0.232713,0.269777,0.257576,0.041769,0.000000,234.000000,197.000000,37.000000,6.000000,0.000000,0.000000,0.232713,0.269777,0.257576,0.041769,0.000000,234.000000,197.000000,37.000000,6.000000,0.000000,0.000000:
0000
0000
0000
0000
,
0000
0000
0000
0000
,
0000
1001
0000
0000
,
0001
1001
0000
0000
,
0010
0110
0000
0000
,
0100
0101
0000
0000
,
0010
0011
0000
0000
,
0100
1100
0000
0000
,
0010
1010
0000
0000
,
0001
1001
0000
0100
,
0100
0010
0000
0001
,
0001
0100
0000
0100
,
0100
0010
0000
1000
,
1000
0001
0000
0010
,
0001
0010
0000
0100
,
1000
0100
0000
1000
,
0010
1000
0000
0010
,
0100
0010
0000
0100
,
0000
1001
0000
1100
,
0000
1001
0001
0001
,
0001
0100
0000
0100
,
0000
0010
0010
0010
,
0010
1010
0000
0100
,
0000
0010
0010
0001
,
0010
0110
0000
0010
,
0000
2002
0000
0000
,
3003
0010
0000
0010
,
0010
0100
0000
0100
,
0100
1000
0000
0001
,
0001
0100
0000
0100
,
0100
1000
0000
0010
,
0010
0100
0000
0001
,
0001
0010
0000
0001
,
0010
0100
0000
1000
,
0000
1010
0000
0001
,
0000
0101
0000
1000
,
0000
1100
0000
0001
,
0000
0011
0000
1000
,
0000
1001
0000
0010
,
0000
0110
0000
1000
,
0000
1001
0000
0100
,
0000
0110
0000
0001
,
0000
1001
0000
0101
,
0000
1000
0010
0100
,
0001
1000
0000
1100
,
0000
0001
0010
0100
,
1000
0010
0000
1010
,
0000
0010
1000
0001
,
0010
0001
0000
0011
,
0000
0100
0010
0100
,
0010
0001
0000
1001
,
0000
0010
0000
0110
,
0000
0001
0000
0101
,
0000
1000
0000
1100
,
0000
0010
0000
1010
,
0000
0100
0000
0110
,
0100
0001
1000
0001
,
1000
2200
0000
0000
,
3300
0001
0001
0001
,
0001
0100
0000
0000
,
0000
0010
0010
0010
,
0010
1000
0000
0000
,
0000
0100
0100
0100
,
0100
0010
0000
0000
,
0000
0001
0001
0001
,
0001
1000
0000
0000
,
0000
0010
1000
0001
,
0100
0010
1000
0001
,
0000
0010
0001
1000
,
0010
0100
0001
0100
,
0000
0010
1000
0100
,
0010
0100
1000
0001
,
0000
0001
0100
0010
,
0100
0001
1000
0100
,
0000
0010
0001
1000
,
0010
0110
0000
1001
,
0000
2002
0000
0000
,
0000
0000
0000
0000
0000
0000
0000
0000
0000
0000
0000
0000
0000
0000
0000
0000
0000
0000
0000
0000
0000
0000
0000
0000
0000
0000
0000
0000
0000
0000
0000
0000
0000
0000
0000
0000
0000
0000
0000
0000
0000
0000
0000
0000
0000
0000
0000
0000
0000
0000
0000
0000
0000
0000
0000
0000
0000
0000
0000
0000
0000
0000
0000
0000
0000
0000
0000
0000
0000
0000
0000
0000
0000
0000
0000
0000
0000
0000
0000
0000
0000
0000
0000
0000
0000
0000
0000
0000
0000
0000
0000
0000
0000
0000
0000
0000
0000
3003
0000
0000
0000
0000
0000
0000
0000
0000
0000
0000
0000
0000
0000
0000
0000
0000
0000
0000
0000
0000
0000
0000
0000
0000
0000
0000
0000
0000
0000
0000
0000
0000
0000
0000
0000
0000
0000
0000
0000
0000
0000
0000
0000
0000
0000
0000
0000
0000
0000
0000
0000
0000
0000
0000
0000
0000
0000
0000
0000
0000
0000
0000
0000
0000
0000
0000
0000
0000
0000
0000
0000
0000
0000
0000
0000
0000
0000
0000
0000
0000
0000
0000
0000
0000
0000
0000
0000
0000
0000
0000
0000
0000
0000
0000
;

//---------------dance-single - ----------------
#NOTES:
     dance-single:
     :
     Medium:
     7:
     0.372938,0.434398,0.167076,0.097461,0.000000,375.000000,351.000000,24.000000,14.000000,0.000000,0.000000,0.372938,0.434398,0.167076,0.097461,0.000000,375.000000,351.000000,24.000000,14.000000,0.000000,0.000000:
0000
0000
0000
0000
,
0000
0000
0000
0000
,
0000
0000
1001
0000
0000
0000
0001
1000
,
0001
0000
0100
0000
0000
0000
0010
0100
,
0010
0000
1000
0000
0000
0000
0010
0100
,
0010
0000
0001
0000
0000
0000
0001
0100
,
1000
0000
0010
0000
0000
0000
0010
0100
,
0001
0000
0010
0000
0000
0000
0010
0001
,
0100
0000
0010
0000
0000
0000
0010
1000
,
0100
0001
0100
1000
,
0001
0100
0100
0100
,
0100
0010
0010
0010
,
0010
1000
1000
1000
,
1000
0001
0001
0001
,
0001
0010
0010
0010
,
0010
0100
0100
0100
,
0100
0001
0001
0001
,
0001
0100
0100
0100
,
1000
0010
0100
0000
0010
1000
0000
0000
,
0100
0000
0010
0000
0001
0000
0100
0001
,
0010
0100
1000
0000
1000
0100
0000
0000
,
0001
0000
0100
1000
0010
0100
0001
0000
,
0001
0100
1000
0000
1000
0100
0000
0000
,
0001
0000
0010
0000
0100
0010
0100
0000
,
0010
0000
0001
0000
0100
0010
0000
0000
,
0100
2002
0000
0000
,
3003
0000
0010
0000
0010
0000
0010
0100
,
1000
0100
0001
0000
0001
0000
0001
0010
,
0100
1000
0100
0000
0100
0000
0100
1000
,
0010
1000
0100
0000
0100
0000
0001
0100
,
1000
0100
0010
0000
0010
0000
0010
0001
,
0100
0001
0010
0000
0010
0000
0001
0100
,
0010
1000
0010
0000
0010
0000
0010
0100
,
0001
0010
0100
0000
0100
0000
0001
0100
,
1000
0010
0110
0000
1001
0000
0001
1000
,
0001
1000
0100
0000
0100
0000
0010
0100
,
0010
0100
0001
0000
0001
0000
0100
0010
,
0100
0010
1000
0000
1000
0000
0010
0001
,
0100
0010
1000
0000
1000
0000
0010
0001
,
0010
0000
1000
0000
1000
0000
0010
0100
,
0010
0000
1000
0000
1000
0000
0001
0010
,
0001
0000
0010
0100
0010
0000
0100
1000
,
0100
0000
1001
0000
0000
0101
0000
0000
,
0110
0010
1000
0100
,
0010
0000
0011
0000
0000
0101
0000
0000
,
0011
0000
0001
0100
0010
1000
0010
0000
,
0010
0100
0110
0000
0000
1001
0000
0000
,
1100
0000
0100
1000
0100
1000
0010
0000
,
0010
0000
0100
0000
0000
0110
0000
0000
,
1001
0000
0001
1000
0001
1000
0001
1000
,
0001
1000
0100
0000
0110
0010
0000
0010
,
0001
0000
0010
0001
0010
0001
1000
0100
,
1000
0010
0100
0000
0100
0001
0000
0000
,
0100
0000
1000
0100
0010
0100
0001
0000
,
0001
0010
1000
0000
1000
0010
0000
0010
,
0001
0000
0001
0100
0010
1000
0100
0000
,
0100
0000
0001
1000
0100
0001
1000
0000
,
1000
2002
0000
0000
,
3003
0010
0010
0010
,
0010
0202
0000
0000
,
0303
1000
1000
1000
,
1000
2200
0000
0000
,
3300
0010
0010
0010
,
0010
0022
0000
0000
,
0033
0100
0100
0100
,
0100
0202
0000
0000
,
0303
0000
1000
0010
1000
0010
0100
0001
,
0100
0001
1000
0000
1000
0000
0100
0000
,
0100
0000
0001
0010
0001
0010
0100
1000
,
0100
1000
0001
0000
0001
0000
0100
0000
,
0100
0000
0010
0100
0010
0100
0001
1000
,
0001
1000
0010
0000
0010
0000
0100
0000
,
0100
0000
1000
0100
1000
0100
0001
0100
,
0001
0100
1000
0000
1000
0000
0001
0000
,
0001
0000
0100
0010
0100
0000
0001
1000
,
0001
0000
1001
0000
0010
0011
0000
0100
,
2200
0000
0000
0000
,
0000
0000
0000
0000
,
3300
0000
0000
0000
;

//---------------dance-single - ----------------
#NOTES:
     dance-single:
     :
     Hard:
     12:
     0.537031,0.596340,0.696151,0.257576,0.125307,540.000000,440.000000,100.000000,37.000000,0.000000,0.000000,0.537031,0.596340,0.696151,0.257576,0.125307,540.000000,440.000000,100.000000,37.000000,0.000000,0.000000:
0000
0000
0000
0000
,
0000
0000
0000
0000
,
0000
0000
1001
1000
0001
0000
0000
0100
,
0001
0000
1001
0001
1000
0000
0000
0100
,
1000
0000
1001
0100
0001
0001
0000
0100
,
0001
0000
1001
0001
1000
1000
0000
0100
,
1000
0000
0010
0010
0100
0100
0000
0100
,
0010
0000
0010
0010
0100
0100
0000
0100
,
0010
0000
0010
0010
1000
1000
0000
1000
,
0001
0000
1001
0000
0000
0011
0000
0000
,
1001
0000
0100
0010
0001
0000
0000
0000
1000
0000
0000
0000
0010
0000
0100
0000
,
0001
0000
0100
1000
0100
0001
0100
0000
,
0010
0000
0100
0000
0001
0000
0010
0100
,
0010
0001
0010
0010
0100
0100
1000
0100
,
0011
0100
1001
0000
0101
0000
1000
0001
,
1000
0000
0100
0100
0010
0010
0001
0001
,
1000
1000
0101
0000
1010
0000
0010
0100
,
0001
0010
0000
0010
0100
0000
1001
0000
,
1100
0000
0001
1000
0001
0000
0000
0000
0010
0000
2200
0000
3300
0000
0000
0000
,
1001
0000
0202
0303
2002
3003
2020
3030
,
0220
0330
0202
0303
0000
2002
3003
0000
,
1100
0000
0000
0000
0220
0000
0330
0000
2200
0000
3300
0000
0010
0001
0010
0000
,
0100
1000
0100
0000
0110
0000
0000
0000
1000
0000
0110
0000
0000
0000
0010
0000
,
1001
0000
0000
0010
0100
0000
0001
0000
1000
0000
0001
0000
1000
0000
0000
0000
,
1010
0000
0000
0100
0001
0000
0000
0000
1000
0000
0101
0000
0000
0000
0010
0000
,
0220
0000
0330
0000
,
0000
0000
0000
0010
0100
0000
0000
0000
0000
0000
0110
0000
0110
0000
0001
0000
,
0100
0001
0100
0000
0000
1001
1001
0100
,
1000
0100
1000
0000
0000
0110
0110
0001
,
0010
0001
0020
0030
0000
1200
1300
0010
,
0200
0310
0200
0000
0301
1000
1000
0001
,
0001
0010
0001
1000
0010
0001
0010
1000
,
0001
0010
0100
0000
0001
0000
0100
1000
,
0010
0101
1010
1001
,
0010
0000
0001
0010
0100
0000
0100
0000
0100
0000
1000
0000
0001
0000
1000
0000
,
0101
0000
0000
0000
1000
0000
0000
0000
0110
0000
0000
0010
1000
0000
0001
0000
,
1000
0100
2000
3000
0101
0000
0010
0100
,
0010
1000
0001
0000
0010
0000
0100
0100
,
0100
0010
0011
0000
0101
0000
1001
0000
,
1100
0000
0001
0010
0100
1000
0001
0010
,
0100
1000
0100
0000
0100
0011
0000
0000
,
0100
0000
0101
0000
0000
0000
1000
0000
1001
0000
0000
0000
0110
0000
0001
1000
,
0001
1000
0001
1000
0001
0000
0000
0000
0010
0000
0110
0000
0000
0000
0100
0000
,
1100
0000
1000
0001
1000
0000
0010
0000
0010
0000
0010
0000
0010
0000
0000
0001
,
0100
0000
1000
1000
0000
2020
0000
0000
,
3030
0000
0000
0000
0010
0000
0010
0000
0010
0000
0010
0000
1000
0001
1000
0000
,
0001
0100
0001
0000
1000
0000
0000
0000
0110
0000
1001
0000
0000
0000
0000
0000
,
0101
0000
0010
0010
0001
0001
1100
0000
,
0100
0011
1001
0000
0010
2002
0000
0000
,
0000
0000
0000
0000
3003
0000
0100
0000
0101
0000
0000
0000
0010
1000
0010
0000
,
1000
0010
1000
0000
1100
0000
0000
0000
0110
0000
1100
0000
0000
0000
0100
0000
,
1001
0000
0000
0000
0100
0001
0100
0000
1000
0001
1000
0000
0100
1000
0100
0000
,
1000
0010
1000
0000
0100
0000
0000
0000
0010
0000
0101
0000
0000
0000
0100
0000
,
1001
0000
0000
0000
0100
0000
0100
0000
0010
0000
0001
0000
1000
0001
1000
0000
,
0001
1000
0001
0000
1001
0000
0000
0000
0100
0000
1010
0000
0000
0000
0100
0000
,
0011
0001
1000
1000
0100
0100
1100
0000
,
0011
0000
0100
0010
0100
0010
0110
0000
,
2020
0000
0000
0000
0000
0000
0000
3030
,
0000
0000
0001
0000
0000
0010
0000
0000
,
0100
0000
1010
0000
0101
0000
0010
0100
,
0010
0200
0300
0000
1010
0000
0101
0000
,
1001
0000
0022
0033
0000
1001
0000
0010
,
0100
1000
0000
0100
0010
0001
0010
0001
,
0100
0000
0001
0000
0010
0000
0000
0010
0001
0000
1000
0000
0000
1000
0100
0000
,
1000
0001
0010
0000
1001
0000
0100
1000
,
0010
0100
0002
0003
1010
0000
0000
0010
,
0100
0010
0000
1000
0001
1000
0100
0100
,
0010
0000
0100
0000
1000
0100
1000
0000
0010
0000
0000
0000
0100
0001
0100
0000
,
0010
0000
0000
0000
1000
0001
1000
0000
0100
0000
0000
0000
0010
0100
0010
0000
,
0100
0000
0100
0000
0010
0001
0010
0000
0100
0000
0000
0000
1000
0010
1000
0000
,
0100
0000
0000
0000
1000
0001
1000
0000
0010
0000
0001
0000
0010
0000
1000
0000
,
0001
0010
0110
0000
0000
0011
0000
0000
,
0101
0000
1001
0000
0000
1100
0000
0000
,
1001
0000
0101
0000
0000
0110
0000
0000
,
1010
0000
0000
0000
0101
0000
0000
1001
0000
0000
0110
0000
1001
0000
0000
0000
,
0010
0001
0010
0001
0010
0000
0000
0000
0100
0000
1001
0000
0000
0000
0010
0000
,
2002
0000
0000
0000
,
0000
0000
0000
0000
0000
0000
0000
3003
;

//---------------dance-double - ----------------
#NOTES:
     dance-double:
     :
     Easy:
     4:
     0.207851,0.263145,0.132269,0.000000,0.000000,209.000000,190.000000,19.000000,0.000000,0.000000,0.000000,0.207851,0.263145,0.132269,0.000000,0.000000,209.000000,190.000000,19.000000,0.000000,0.000000,0.000000:
00000000
00000000
00000000
00000000
,
00000000
00000000
00000000
00000000
,
00000000
00000000
00000000
00000000
,
00000001
00000000
00000100
00000000
,
00001000
00000000
00010000
00000000
,
01000000
00000000
00000000
00000000
,
10000000
10000000
01000000
00010000
,
00001000
00001000
00000100
00000001
,
00001000
00000001
00000100
00001000
,
00010000
00010000
01000000
10000000
,
10010000
01000000
00010000
00001000
,
00010000
01001000
00010000
00000100
,
00000010
00001001
00000100
00001000
,
00010000
01001000
00010000
01001000
,
00100000
10000000
01000000
00010000
,
00100000
10000000
01000000
00010000
,
00100000
10000000
01000000
00010000
,
00001000
00000100
00000001
00000110
,
00000010
00000001
00000100
00001000
,
00000010
00000001
00000100
00001000
,
00000010
00000001
00000100
00001000
,
00010000
01000000
10000000
01100000
,
00010000
00001000
00000100
00000001
,
00000100
00001000
00010000
01000000
,
00010000
00001000
00000100
00000001
,
00000100
00001000
00010000
01000000
,
00001000
00010000
00000010
00001000
,
00010000
00001000
01000000
00010000
,
00001000
00010000
00000010
00001000
,
00010000
00001000
01000000
00010000
,
10000000
10000000
01000000
00000000
,
00010000
00001000
00000100
00000000
,
00000001
00001000
00000100
00000000
,
00000001
00000100
00000010
00000000
,
00000100
00001000
00010000
00000000
,
10000000
00000000
00100000
01000000
,
00010000
00000000
00001000
00000100
,
00000001
00000000
00000010
00000100
,
00001000
00010000
00000100
00000101
,
00001000
00010000
00000100
00000101
,
00001000
00010000
00000100
00000101
,
00001000
00010000
01000000
00001000
,
00010000
00001000
01000000
11000000
,
00010000
00001000
01000000
11000000
,
00010000
00001000
01000000
11000000
,
00010000
00001000
00000100
00010000
,
00100000
00010000
10000000
01000000
,
00010000
00001000
00000100
00000001
,
00000010
00000001
00000100
00001000
,
00010000
00001000
00100000
01000000
,
10000000
01000000
00010000
01001000
,
00010000
00010100
00001000
00010100
,
00001000
01001000
00010000
00010100
,
00000010
00000001
00000100
00000001
,
00001100
00000000
00000000
00000000
,
00000000
00000000
00000000
00000000
;

//---------------dance-double - ----------------
#NOTES:
     dance-double:
     :
     Medium:
     6:
     0.289400,0.300737,0.250614,0.000000,0.000000,291.000000,255.000000,36.000000,0.000000,0.000000,0.000000,0.289400,0.300737,0.250614,0.000000,0.000000,291.000000,255.000000,36.000000,0.000000,0.000000,0.000000:
00000000
00000000
00000000
00000000
,
00000000
00000000
00000000
00000000
,
00000000
00000000
00000000
00000000
,
00000001
00000100
00001000
00010000
,
01000000
00000000
01000000
00000000
10000000
00010000
01000000
00000000
,
10010000
01000000
01000000
01000000
,
10010000
00000000
11000000
00000000
00010000
10000000
01000000
00000000
,
00010000
00000000
00001000
00000000
00000100
00000001
00000010
00000000
,
00001000
00000000
00000001
00000000
00000100
00001000
00010000
00000000
,
00100000
10000000
00010000
10000000
,
10010000
01000000
01010000
00001000
,
00011000
01000000
00011000
00000100
,
00001100
00010000
00001001
00000100
,
00001000
00000000
00010000
00000000
01000000
10000000
00100000
00000000
,
01010000
00000000
11000000
00000000
00000000
00100000
00000000
00010000
,
01000000
00000000
00011000
00000000
00000000
00000100
00000000
00001000
,
00000100
00000000
00010100
00000000
00000000
00000010
00000000
00000100
,
00000001
00000000
00000001
00000000
00001000
00000100
00001000
00000000
,
00000101
00000000
00001100
00000000
00000010
00001000
00000100
00000000
,
00010100
00000000
00011000
00000000
00001000
00010000
00100000
00000000
,
10010000
00000000
11000000
00000000
00100000
10000000
01000000
00000000
,
00110000
00000000
01010000
00000000
00100000
10000000
01000000
00000000
,
00010000
00000000
10000000
00000000
00100000
10000000
01000000
00000000
,
00010000
00000000
10000000
00000000
00010000
10000000
01000000
00000000
,
00010000
00010000
00001000
00001000
,
00000100
00000000
00000100
00000000
00000001
00001000
00000100
00000000
,
00001000
00000001
00000100
00000000
00000010
00001000
00000100
00000000
,
00010000
00001000
00100000
01000000
10000000
00010000
01000000
00000000
,
10000000
10000000
01000000
01000000
,
00010000
00000000
00010000
00000000
00001000
00000100
00000001
00000000
,
00000001
00000010
00000001
00000000
00001000
00000100
00001000
00000000
,
00000010
00000000
00010000
00000000
00100000
10000000
01000000
00000000
,
00010000
00010000
00001000
00001000
,
00000100
00000100
00000001
00000001
00001000
00000000
00000100
00000000
,
00000001
00000001
00000100
00000100
00001000
00010000
01000000
00000000
,
00100000
00100000
00010000
00010000
10000000
00000000
01000000
00000000
,
10000000
00010000
10000000
00010000
,
10000000
01000000
00010000
00000000
00010000
00001000
00000100
00000000
,
00000101
00000000
00001100
00000000
00000010
00000001
00000100
00000000
,
00001100
00000000
00010100
00000000
00001000
00010000
00100000
00000000
,
10010000
00000000
01010000
00000000
00100000
10000000
01000000
00000000
,
10010000
00000000
11000000
00000000
00100000
00010000
01000000
00000000
,
01001000
00000000
00011000
00000000
00010000
00001000
00000010
00000000
,
00001001
00000000
00000101
00000000
00000010
00000001
00000100
00000000
,
00001010
00000000
00001100
00000000
00000010
00000001
00000100
00000000
,
00000010
00010000
00000100
00000000
00010000
00001000
01000000
00000000
,
10000000
00010000
10000000
00010000
,
00100000
10000000
01000000
00000000
00100000
00010000
01000000
00000000
,
00001000
00100000
00001000
00100000
,
00001000
00010000
00000100
00000000
00000010
00000001
00000100
00000000
,
00000001
00001000
00000001
00001000
,
00000001
00001000
00000100
00000000
00000001
00001000
00000100
00000000
,
00000010
00010000
00001000
00000000
00100000
00010000
01000000
00000000
,
00100000
10000000
01000000
00000000
10000000
00010000
01000000
00000000
,
00011000
00000000
00000000
00000000
,
00000000
00000000
00000000
00000000
;

//---------------dance-double - ----------------
#NOTES:
     dance-double:
     :
     Hard:
     8:
     0.387856,0.338329,0.285422,0.000000,0.003481,390.000000,349.000000,41.000000,0.000000,0.000000,0.000000,0.387856,0.338329,0.285422,0.000000,0.003481,390.000000,349.000000,41.000000,0.000000,0.000000,0.000000:
00000000
00000000
00000000
00000000
,
00000000
00000000
00000000
00000000
,
00000000
00000000
00000000
00000000
,
00000001
00001000
00000100
00000000
00001000
00010000
01000000
00000000
,
10000000
00010000
01000000
00000000
00010000
00001000
00000100
00000000
,
00000010
00000001
00000100
00001000
00010000
01000000
10000000
00000000
,
00100000
10000000
01000000
00010000
00001000
00000100
00000001
00000010
,
00000001
00000100
00001000
00000100
00000001
00000010
00001000
00000010
,
00000001
00000100
00001000
00010000
00001000
00000100
00001000
00010000
,
01000000
10000000
00100000
01000000
00100000
10000000
01000000
00010000
,
00001000
00000100
00000010
00001000
00000100
00010000
00001000
00000100
,
00000001
00000010
00000001
00000100
00001000
00010000
01000000
10000000
,
00010000
01000000
00100000
10000000
01000000
00010000
00001000
00000100
,
00001000
00010000
01000000
00010000
00001000
00000100
00000001
00000001
,
00001100
00000000
00000101
00000000
00000010
00001000
00000100
00010000
,
00011000
00000000
01001000
00000000
00100000
00010000
10000000
01000000
,
10010000
00000000
01010000
00000000
10000000
01000000
00010000
00001000
,
00010100
00000000
00011000
00000000
00000010
00000001
00000100
00000000
,
00001100
00000000
00000101
00000000
00000010
00001000
00000100
00010000
,
01001000
00000000
00011000
00000000
00100000
00010000
10000000
01000000
,
10010000
00000000
01010000
00000000
10000000
01000000
00010000
00001000
,
00010100
00000000
00011000
00000000
00000010
00000001
00000100
00000000
,
00000001
00001000
00000100
00000010
00000001
00000100
00001000
00010000
,
00100000
00010000
00001000
00010000
00100000
10000000
01010000
00000000
,
00100000
10000000
01000000
00000000
01001000
00010000
00001000
00000000
,
00000010
00001000
00000100
00010000
00001000
00000100
00000001
00000000
,
00001000
00000100
00000010
00000001
00000100
00000001
00000100
00001000
,
00010000
01000000
10000000
00100000
01000000
00010000
11000000
00000000
,
00100000
00010000
01000000
00000000
00011000
00010000
00000100
00000000
,
00001000
00000010
00001000
00000100
00000001
00000100
00001000
00000000
,
00001001
00001001
00000101
00000000
00001000
00010000
01000000
00000000
,
00100000
10000000
01000000
00010000
00001000
00010000
01000000
00000000
,
00010000
00001000
00000100
00000000
00001000
00010000
01000000
00000000
,
10000000
00100000
10000000
01000000
00010000
00001000
01001000
00000000
,
00100000
00000000
00100000
00000000
00001000
00000000
00001000
00000000
00010000
00000000
00010000
00000100
00000000
00000000
00000000
00000000
,
00000010
00000001
00000100
00001000
00010000
00001000
00000100
00000000
,
00010000
00001000
00000100
00000000
00001000
00010000
01000000
00000000
,
10000000
00100000
00010000
00001000
00000010
00000001
00000100
00000000
,
00001001
00000000
00000101
00000000
00000010
00001000
00000100
00010000
,
00011000
00000000
01001000
00000000
00100000
10000000
01000000
10000000
,
01010000
00000000
01001000
00000000
00100000
10000000
01000000
00010000
,
00011000
00000000
00010100
00000000
00000010
00000001
00000100
00000000
,
00001001
00000000
00000101
00000000
00000010
00001000
00000100
00010000
,
00011000
00000000
01001000
00000000
00100000
10000000
01000000
10000000
,
01010000
00000000
01001000
00000000
00100000
10000000
01000000
00010000
,
00010100
00000000
00011000
00000000
00000010
00000001
00000100
00000000
,
00000010
00000001
00000100
00001000
00010000
01000000
10000000
00100000
,
10000000
01000000
00010000
01000000
10000000
00100000
00010000
00100000
,
10000000
01000000
00010000
00001000
00010000
01000000
00010000
00001000
,
00000100
00000001
00000010
00000100
00000010
00000001
00000100
00001000
,
00010000
01000000
00100000
00010000
01000000
00001000
00010000
01000000
,
10000000
00100000
10000000
01000000
00010000
00001000
00000100
00000001
,
00001000
00000100
00000010
00000001
00000100
00001000
00010000
01000000
,
00010000
00001000
00000100
00001000
00010000
01000000
10000000
00100000
,
01010000
00000000
00000000
00000000
,
00000000
00000000
00000000
00000000
;
