#VERSION:0.83;
#TITLE:Likey x2;
#SUBTITLE:;
#ARTIST:Twice;
#TITLETRANSLIT:;
#SUBTITLETRANSLIT:;
#ARTISTTRANSLIT:;
#GENRE:;
#ORIGIN:;
#CREDIT:;
#BANNER:UUIO.png;
#BACKGROUND:Proyecto1.png;
#PREVIEWVID:;
#JACKET:;
#CDIMAGE:;
#DISCIMAGE:;
#LYRICSPATH:;
#CDTITLE:CDtitle.png;
#MUSIC:TWICE Likey (Speed Up).mp3;
#OFFSET:-0.095000;
#SAMPLESTART:0.040000;
#SAMPLELENGTH:9.900000;
#SELECTABLE:YES;
#BPMS:0.000=198.000;
#STOPS:;
#DELAYS:;
#WARPS:;
#TIMESIGNATURES:0.000=4=4;
#TICKCOUNTS:0.000=4;
#COMBOS:0.000=1;
#SPEEDS:0.000=1.000=0.000=0;
#SCROLLS:0.000=1.000;
#FAKES:;
#LABELS:0.000=Song Start;
#BGCHANGES:;
#KEYSOUNDS:;
#ATTACKS:
;

//---------------dance-single - ----------------
#NOTEDATA:;
#CHARTNAME:;
#STEPSTYPE:dance-single;
#DESCRIPTION:;
#CHARTSTYLE:;
#DIFFICULTY:Challenge;
#METER:19;
#RADARVALUES:1.316917,1.346815,0.518941,1.246901,1.798276,1279.000000,1207.000000,72.000000,173.000000,0.000000,0.000000,0.000000,0.000000,0.000000,1.316917,1.346815,0.518941,1.246901,1.798276,1279.000000,1207.000000,72.000000,173.000000,0.000000,0.000000,0.000000,0.000000,0.000000;
#CREDIT:;
#NOTES:
0000
0000
0000
0000
,
0000
0000
0000
0000
,
0000
0000
0000
0000
,
0000
0000
0000
0000
0000
0000
0000
0220
,
0330
0000
0000
0000
0000
0000
0000
0000
1100
0000
0000
0000
0000
0000
0000
0000
0101
0000
0000
0000
0000
0110
0000
0000
0000
0000
0000
0000
0000
0000
0000
0000
,
0001
0000
0000
0000
0010
0000
0000
0000
0100
0000
0000
0000
0000
0000
0000
0000
0011
0000
0000
0000
0000
1001
0000
0000
0000
0000
0000
0000
0000
0000
0000
0000
,
1000
0100
0010
0000
1001
0000
0100
0010
,
1000
0002
0000
0000
0000
0003
1000
0001
,
0010
0000
0100
0000
1000
0100
1000
0100
0010
0001
0010
0100
1000
0001
1000
0001
,
0100
0010
0100
0001
1000
0010
1000
0010
0100
0001
0010
0100
1000
0100
0010
0100
,
1000
0001
0010
0100
1000
0010
0100
0010
1000
0010
0100
0001
2000
3020
0230
0320
,
2030
3020
0230
0301
0100
0010
1000
0100
1000
0010
0100
0001
0200
0000
0300
0000
,
1001
0000
0100
0000
1000
0100
0010
0001
1000
0010
0100
0010
1000
0001
1000
0100
,
0010
0100
1000
0100
0010
0001
1000
0100
0010
0100
1000
0100
0010
0001
1000
0100
,
0010
0100
1000
0001
1000
0100
0010
0001
0010
0100
1000
0001
2000
3200
0320
0032
,
2003
3200
2300
3001
1000
0100
0010
0001
1000
0100
1000
0100
0010
0000
0001
0100
,
0000
0010
1000
0001
1000
0000
0001
0000
1100
0000
0010
0000
0002
0000
0003
0000
,
0110
0000
0001
0000
2020
0000
3030
0000
0220
0000
0330
0000
1001
0000
0010
1000
,
0000
0001
1000
0010
0100
0000
0001
0000
0101
0000
0010
0000
0200
0000
0300
0000
,
1100
0000
0100
0000
0022
0000
0033
0000
2200
0000
3300
0000
0011
0000
1000
0100
,
0000
0010
0001
1000
0001
0000
2200
0000
3300
0000
0101
0000
1000
0100
0000
0000
,
0010
0001
0000
0000
2200
0000
3300
0000
2002
0000
0000
0000
3003
0000
1000
0000
,
0001
0100
0000
2002
0000
3003
1000
0000
0100
0000
0010
0000
0100
0000
1000
0000
,
0022
0000
0033
0000
0220
0000
0000
0000
0330
0000
0101
0000
1000
0100
1000
0001
,
0010
0100
1000
0001
2000
0000
0000
0000
3000
0000
0001
0010
0200
0000
0300
0000
,
1000
0010
2002
0000
3003
0001
0010
0100
,
0010
0000
0001
2000
0000
3000
0001
0000
1000
0000
0100
0000
2000
0000
3000
0000
,
1001
0000
1000
0100
0000
0000
2002
0000
0000
0000
0000
0000
3003
0000
0220
0000
,
0330
0000
1000
0000
0001
0000
0100
0000
0001
1000
0000
0220
0330
0000
1000
0100
,
1000
0000
0001
0000
0100
0000
0001
0000
1000
0100
0000
2002
0000
0000
0000
0000
,
0000
3003
0000
0000
2200
0000
3300
0000
0100
0000
2000
0000
3000
0000
0001
0000
,
0100
0202
0000
0000
0000
0303
0000
0001
,
0100
0000
0001
0000
1100
0000
0001
0010
0100
0000
1000
0100
0010
0000
0001
0000
,
1000
0000
0010
0000
1001
0000
0100
0010
1000
0000
0010
0100
0001
0000
0100
0000
,
0010
0000
1000
0000
0001
0010
0001
0100
0001
1000
0001
0010
0002
0000
0003
0000
,
1000
0000
0002
0000
0000
0000
0003
0000
0001
0000
2000
0000
3000
0000
0001
0100
,
0001
0000
1000
0000
0001
0000
0100
0000
0220
0000
0000
0000
0330
0000
1000
0100
,
1000
0100
0010
0001
2002
0000
3003
1001
,
0010
0000
1100
0000
0002
0203
0320
2030
3200
0320
0230
2300
3002
0203
0320
0230
,
0302
2003
3200
0000
0000
0000
0300
0000
0220
0000
0330
0000
2002
0000
3003
0000
,
0010
0000
0100
0000
0001
1000
0100
0010
0100
1000
0100
0010
0001
1000
0100
0010
,
0100
1000
0100
1000
0100
0010
0001
0100
0010
1000
0001
0010
0100
0010
0001
1000
,
0100
0010
0100
1000
0001
0100
0010
1000
0100
0010
0100
1000
0001
0100
0010
0100
,
0001
1000
0100
1000
0100
0010
0001
0010
0100
1000
0001
1000
0001
0100
0010
0100
,
0001
1000
0010
1000
0010
0100
0001
1000
0010
0100
0001
0100
0010
1000
0010
0100
,
0001
1000
0001
1000
0100
0010
0001
0010
0100
1000
0001
1000
0100
0010
0001
1000
,
0100
1000
0001
1000
0100
0010
0001
1000
0100
1000
0010
0100
0001
0100
0010
1000
,
0100
1000
0010
0100
0001
0100
0010
1000
0100
1000
0010
0100
0010
1000
0100
0010
,
0001
1000
0010
0100
0010
1000
0001
0100
0010
1000
0100
0010
0100
1000
0001
0100
,
0010
0100
0001
1000
0001
1000
0100
0010
0100
1000
0100
0010
0001
1000
0100
0010
,
0100
1000
0100
0010
0001
1000
0100
0010
0100
1000
0002
0023
0230
2300
3200
0320
,
0230
2300
3002
1003
0100
0010
0001
0010
0100
1000
0001
1000
0002
0000
0003
0000
,
1100
0000
0001
0000
0100
0010
1000
0100
1000
0010
0100
0001
0100
0010
1000
0100
,
1000
0010
0100
0010
1000
0100
0010
0001
1000
0010
0100
0010
1000
0100
1000
0100
,
0010
0001
0010
0100
1000
0001
1000
0001
0100
0010
0200
0302
2003
3020
2030
3020
,
0230
0302
2003
3001
1000
0100
0010
0100
1000
0100
0010
0001
2000
0000
3000
0000
,
0110
0000
0001
0100
0002
0000
0000
0000
0003
0000
1000
0100
0010
0000
0001
0010
,
0100
0000
1000
0002
0000
0000
0000
0000
0000
0000
0003
0000
1100
0000
0100
0010
,
0001
0000
0100
0000
0202
0000
0000
0000
0303
0000
1000
0100
1000
0000
0001
0000
,
0200
0300
2200
3300
0101
0010
2002
3003
,
0220
0000
0330
0000
2200
0000
3300
0000
0101
0000
1000
0020
0000
0000
0030
0000
,
1001
0000
0100
2000
0000
0000
3000
0000
1100
0000
0001
0010
0001
0000
1000
0000
,
0022
0000
0000
0033
2020
3030
1000
0001
,
0100
0001
1000
0010
0100
0001
1000
0001
,
0010
0000
0100
0000
1100
0000
0100
0010
0100
0000
0010
0001
0010
0000
0001
0000
,
1000
0000
0001
0000
1001
0000
0001
0100
0001
0000
0100
0010
0100
0000
0010
0000
,
1000
0000
0001
0000
1000
0100
1000
0010
1000
0001
1000
0100
2000
0000
3000
0000
,
0001
0000
2000
0000
0000
0000
3000
0000
1000
0000
0002
0000
0003
0000
0100
0001
,
1000
0000
0010
0000
0110
0000
1000
0000
2200
0000
0000
0000
3300
0000
0010
1000
,
0001
0100
0101
0010
2002
0000
3003
1100
,
0010
0000
0101
0000
0010
1000
0001
0010
0001
0100
0001
1000
0100
1000
0010
1000
,
0001
1000
0200
0000
0000
0000
0300
0000
2200
0000
3300
0000
0022
0000
0033
0000
,
0001
0000
1000
0000
0001
1000
0100
0010
0100
1000
0100
0010
0001
1000
0100
0010
,
0100
1000
0100
1000
0100
0010
0001
0100
0010
1000
0001
0010
0100
0010
0001
1000
,
0100
0010
0100
1000
0001
0100
0010
1000
0100
0010
0100
1000
0001
0100
0010
0100
,
0001
1000
0100
1000
0100
0010
0001
0010
0100
1000
0001
1000
0001
0100
0010
0100
,
0001
1000
0010
1000
0010
0100
0001
1000
0010
0100
0001
0100
0010
1000
0010
0100
,
0001
1000
0001
1000
0100
0010
0001
0010
0100
1000
0001
1000
0100
0010
0001
1000
,
0100
1000
0001
1000
0100
0010
0001
1000
0100
1000
0010
0100
0001
0100
0010
1000
,
0100
1000
0010
0100
0001
0100
0010
1000
0100
1000
0010
0100
0010
1000
0100
0010
,
0001
1000
0020
0000
0000
0000
0000
0000
0000
0030
0000
0100
1000
0000
0001
1000
,
0001
1000
0010
0100
0001
2000
0000
0000
0000
0000
0000
0000
0000
0000
0000
0000
,
0000
0000
3000
0000
0220
0000
0000
0000
0000
0000
0330
0000
0001
0000
1000
0010
,
1000
0000
0000
0000
0000
0100
0000
0000
0000
0010
0000
0000
0000
0002
0000
0000
0000
0000
0000
0000
0000
0000
0000
0000
0000
0000
0000
0000
0000
0000
0000
0000
,
0003
0000
1001
0000
0200
0000
0000
0000
0000
0000
0300
0000
1100
0000
0001
0100
,
0000
0000
0001
0000
1000
0000
0010
0000
1000
0000
0000
0000
0000
0002
0000
0000
0000
0000
0000
0000
0003
0000
0000
0000
1000
0000
0000
0000
0001
0000
0000
0000
,
0010
0100
1000
0001
1000
0100
1000
0001
,
0100
0000
0020
0030
1000
0100
1000
0010
0100
0001
1000
0010
0100
0001
1000
0001
,
1000
0010
1000
0100
2000
0000
0000
0000
0000
0000
0000
0000
0000
0000
3000
0000
,
1100
0000
0000
0000
0000
0002
0000
0000
0000
0000
0003
0000
1000
0000
0010
0000
1000
0000
0001
0000
0010
0000
0001
0000
1000
0000
0100
0000
1000
0000
0001
0000
,
0100
0002
0000
0000
0000
0003
0001
0100
0001
0000
1000
0100
1000
0000
0001
0000
,
1000
0100
0000
0010
0001
0010
0100
0010
0001
1000
0010
0100
0001
0010
0100
0010
,
0001
1000
0100
0010
0100
1000
0001
0010
0001
1000
0001
0100
0001
1000
0100
0020
,
0000
0000
0000
0030
0000
0000
2002
0000
0000
0000
0000
0000
0000
0000
0000
3003
0000
0000
1000
0000
0100
0000
1000
0000
,
0001
0100
0001
1000
0100
1000
0010
1000
0001
1000
0100
0010
,
0200
0000
0000
0000
0300
0000
1000
0100
0010
0001
0010
0100
1000
0001
0100
0010
,
1000
0001
0010
0001
1000
0100
1000
0100
0010
0001
1000
0002
0000
0003
0100
0020
,
0000
0000
0030
0000
0100
0001
1000
0001
1000
0100
0010
0100
1000
0001
1000
0100
,
0010
0100
1000
0100
0010
0001
1000
0100
0010
0100
1000
0100
0010
0001
1000
0100
,
0010
0100
1000
0001
0010
0100
1000
0100
0010
0100
1000
0001
0010
0100
1000
0010
,
0100
0010
1000
0010
0100
0001
1000
0010
0100
0010
1000
0010
1000
0001
1000
0100
,
0010
0001
0010
0100
1000
0001
1000
0100
0010
0001
1000
0100
1000
0001
1000
0100
,
0010
0001
1000
0100
1000
0010
0100
0001
0100
0010
1000
0100
1000
0010
0100
0001
,
0100
0010
1000
0100
1000
0010
0100
0010
1000
0100
0010
0001
1000
0010
0100
0010
,
1000
0001
0100
0010
1000
0100
0010
0100
1000
0001
1000
0100
1000
0100
0010
0001
,
1000
0001
1000
0100
0020
0000
0030
0000
0001
1000
0010
1000
0001
0010
0100
0010
,
0001
1000
0100
0010
0100
1000
0100
0010
0001
0010
0100
1000
0001
1000
0001
0100
,
0010
1000
0100
0010
0100
1000
0001
0100
0010
0100
0001
1000
0200
0320
0230
2300
,
3002
0023
0032
1003
0100
1000
0010
1000
0001
0100
0010
1000
0002
1003
0100
1000
,
0200
0310
0001
0010
0100
1000
0001
1000
0001
0100
0010
0100
0001
1000
0010
1000
,
0010
0100
0001
0010
0100
1000
0100
0010
0100
1000
0001
1000
0100
0010
0100
1000
,
0100
0010
0001
1000
0100
0010
0100
1000
0100
0010
0001
1000
0200
0320
0230
2300
,
3002
0023
0230
1300
0100
0010
0100
1000
0001
0010
0100
1000
0020
0000
0030
0000
,
2200
3300
0000
0000
;

//---------------dance-single - ----------------
#NOTEDATA:;
#CHARTNAME:;
#STEPSTYPE:dance-single;
#DESCRIPTION:;
#CHARTSTYLE:;
#DIFFICULTY:Edit;
#METER:24;
#RADARVALUES:1.737012,2.004231,3.185723,1.030675,1.837917,1687.000000,1243.000000,442.000000,143.000000,0.000000,17.000000,0.000000,0.000000,0.000000,1.737012,2.004231,3.185723,1.030675,1.837917,1687.000000,1243.000000,442.000000,143.000000,0.000000,17.000000,0.000000,0.000000,0.000000;
#CREDIT:;
#NOTES:
0000
0000
0000
0000
,
0000
0000
0000
0000
,
0000
0000
0000
0000
,
0000
0000
0000
0000
0000
0000
0000
0220
,
0330
0000
0000
0000
0000
0000
0000
0000
1100
0000
0000
0000
0000
0000
0000
0000
0101
0000
0000
0000
0000
0110
0000
0000
0000
0000
0000
0000
0000
0000
0000
0000
,
0001
0000
0000
0000
0010
0000
0000
0000
0100
0000
0000
0000
0000
0000
0000
0000
0011
0000
0000
0000
0000
1001
0000
0000
0000
0000
0000
0000
0000
0000
0000
0000
,
1000
0100
0010
0000
1001
0000
0100
0010
,
1000
0002
0000
0000
0000
0003
1000
0001
,
0010
0000
0100
0000
1001
0100
0011
0100
0010
0001
1100
0001
0110
1000
0011
0100
,
1010
0100
1001
0100
0011
1000
0101
0010
0100
1000
0011
0100
1010
0001
0110
1000
,
0011
0100
1010
0100
1001
0010
0101
0010
0100
1000
0010
0001
1100
0011
1100
0011
,
1100
0011
1000
0100
0011
1000
0100
0010
1100
0001
1000
0100
0022
1033
0100
0010
,
2002
3103
0011
1000
0101
1000
0110
0001
0010
0001
1100
0010
0101
1000
0110
0001
,
1010
0100
1001
0010
0101
0010
1100
0010
1000
0100
0011
1000
0110
1000
0101
0010
,
1100
0001
0110
0001
1100
0010
0101
0010
0001
0100
0010
0001
1100
0011
1100
0011
,
1100
0011
1000
0100
0010
0100
1000
0001
0110
0001
0010
0100
1001
0000
0010
1000
,
0000
0010
0001
0010
1100
0000
0010
0000
0110
0000
0001
0000
2200
0000
3300
0000
,
1010
0000
0000
0000
0100
0000
0000
0000
0202
0000
0000
0000
0303
0000
0000
0000
1000
0100
0010
0002
0000
0003
0000
0000
0100
0000
0000
0000
0001
0000
1000
0000
,
0000
0001
0100
0010
0101
0000
0010
0000
1100
0000
0001
0000
2002
0000
3003
0000
,
0110
0000
0000
0000
1000
0000
0000
0000
0022
0000
0000
0000
0033
0000
0000
0000
0100
0010
0001
2000
0000
3000
0000
0000
1100
0000
0000
0000
0001
0000
0010
0000
,
0000
0100
0010
0001
0100
0000
2000
0000
3000
0000
0110
0000
0010
1000
0000
0000
,
0100
0001
0000
0000
2200
0000
3300
0000
0220
0000
0000
0000
0330
0000
1000
0000
,
0010
0001
0000
1000
0000
0000
0100
0000
0011
0000
1000
0000
0101
0000
0010
0000
,
2002
0000
3003
0000
0020
0000
1000
0000
1031
0000
1000
0000
0010
0100
0010
1000
,
0100
0010
1000
0100
0022
0000
0000
0000
0033
0000
1000
0010
2200
0000
3300
0000
,
0110
0001
2000
0001
3110
0010
0101
0010
,
1100
0000
0001
0100
0000
0000
1000
0000
0101
0000
0010
0000
2002
0000
3003
0000
,
1010
0000
0001
1000
0000
0000
0200
0000
0000
0000
0011
0000
0300
0000
0202
0000
,
0303
0000
1000
0000
0110
0000
0001
0000
1000
0010
0000
0101
0000
0000
0001
1000
,
0110
0000
0001
0000
1100
0000
0010
0000
0001
1000
0000
0200
0000
0000
1000
0000
,
0311
0000
2200
3300
0011
0220
0330
1000
,
0011
2200
0000
0000
0022
0000
3333
0001
,
0110
0000
1000
0000
0101
0000
0010
0100
1001
0000
0100
0010
1100
0000
0001
0000
,
0110
0000
1000
0000
0110
0000
0001
0010
1100
0000
0010
0001
0110
0000
1000
0000
,
0101
0000
0010
0000
1100
0010
0001
0100
0010
1000
0010
0100
2020
0000
3030
0000
,
1001
0000
0220
0000
0000
0000
0330
0000
1100
0000
0022
0000
0033
0000
1000
0100
,
1001
0000
0010
0000
1100
0000
1000
0000
0022
0000
0000
0000
0033
0000
0001
0010
,
0101
0010
1001
0100
0022
0000
0033
1000
,
0110
0000
0001
0000
1100
0001
0010
0001
1000
0100
1000
0010
0001
0010
0100
1000
,
0001
0100
2020
0000
0000
0000
3030
0000
0022
0000
0033
0000
2200
0000
3300
0000
,
1000
0000
0001
0000
1100
0001
0100
0001
0110
0001
0010
0100
1001
0100
1000
0010
,
0101
0010
1100
0011
1000
0010
0101
0010
0001
1000
0010
0100
1001
0100
1010
0001
,
0110
1000
0101
0010
1001
0010
0100
1000
0101
0010
0001
1000
0110
1000
0001
0100
,
0011
0100
1010
0100
0010
1000
0101
0010
1100
0001
0010
0001
1000
0100
1000
0010
,
1100
0010
1001
0010
0101
1000
0010
0100
0011
0100
0010
1000
0101
0010
1001
0100
,
1010
0100
0011
1100
0010
0100
1001
0010
0001
0100
0010
0100
1001
0100
1010
0001
,
1100
0010
0101
0010
1001
0100
0010
1000
0011
0100
1010
0001
1000
0100
0010
1000
,
0101
0010
1001
0100
0010
0100
1000
0001
0010
0001
0100
0001
1010
0100
0011
0100
,
1010
0100
0011
0100
1001
0100
0011
0100
0010
0001
1100
0001
0110
1000
0011
0100
,
1010
0100
1001
0100
0011
1000
0101
0010
0100
1000
0011
0100
1010
0001
0110
1000
,
0011
0100
1010
0100
1001
0010
0101
0010
0100
1000
0010
0001
1100
0011
1100
0011
,
1100
0011
1000
0100
0011
1000
0100
0010
1100
0001
1000
0100
0022
1033
0100
0010
,
2002
3103
0011
1000
0101
1000
0110
0001
0010
0001
1100
0010
0101
1000
0110
0001
,
1010
0100
1001
0010
0101
0010
1100
0010
1000
0100
0011
1000
0110
1000
0101
0010
,
1100
0001
0110
0001
1100
0010
0101
0010
0001
0100
0010
0001
1100
0011
1100
0011
,
1100
0011
1000
0100
0010
0100
1000
0001
0110
0001
0010
0100
2002
0000
3003
0000
,
0220
0330
1000
0100
1001
0000
0220
0000
0330
0000
0001
0100
0010
0000
1000
0100
,
0000
0001
2200
0000
3300
0000
0220
0000
0000
0000
0330
0000
0101
0000
0010
0100
,
1001
0000
1000
0000
0220
0000
0000
0000
0330
0000
0001
1000
0110
0000
1000
0000
,
0022
0033
2200
3300
0110
0011
2002
3003
,
0220
0000
0330
0000
0202
0000
0303
0000
1100
0000
0001
0200
0000
0300
0000
0000
,
1010
0000
0100
2000
0000
3000
0000
0000
1100
0000
0010
0100
0011
0000
1000
0000
,
0110
1000
0022
0033
2200
3300
0011
1000
,
0110
0001
1010
0100
0101
0010
1100
1000
,
0110
0000
0001
0000
1010
0000
0100
0010
1001
0000
0010
0100
0011
0000
1000
0000
,
0110
0000
0001
0000
0110
0000
1000
0100
0011
0000
0100
1000
0110
0000
0001
0000
,
1010
0000
0100
0000
0011
0100
1000
0010
0100
0001
0100
0010
0202
0000
0303
0000
,
1001
0000
0220
0000
0000
0000
0330
0000
0011
0000
2200
0000
3300
0000
0001
0010
,
1001
0000
0100
0000
0011
0000
0001
0000
2200
0000
0000
0000
3300
0000
1000
0100
,
1010
0100
1001
0010
2200
0000
3300
0001
,
0110
0000
1000
0000
0011
1000
0100
1000
0001
0010
0001
0100
1000
0100
0010
0001
,
1000
0010
0202
0000
0000
0000
0303
0000
2200
0000
3300
0000
0022
0000
0033
0000
,
0001
0000
1000
0000
0011
1000
0010
1000
0110
1000
0100
0010
1001
0010
0001
0100
,
1010
0100
0011
1100
0001
0100
1010
0100
1000
0001
0100
0010
1001
0010
0101
1000
,
0110
0001
1010
0100
1001
0100
0010
0001
1010
0100
1000
0001
0110
0001
1000
0010
,
1100
0010
0101
0010
0100
0001
1010
0100
0011
1000
0100
1000
0001
0010
0001
0100
,
0011
0100
1001
0100
1010
0001
0100
0010
1100
0010
0100
0001
1010
0100
1001
0010
,
0101
0010
1100
0011
0100
0010
1001
0100
1000
0010
0100
0010
1001
0010
0101
1000
,
0011
0100
1010
0100
1001
0010
0100
0001
1100
0010
0101
1000
0001
0010
0100
0001
,
1010
0100
1001
0010
0100
0010
0001
1000
0100
1000
0010
1000
0101
0010
1100
0010
,
0101
0010
2200
0000
0000
0000
0000
0000
3300
0000
0000
1000
0100
0000
0001
0100
,
0001
1000
0100
0010
1000
0001
0020
0000
0000
0000
2000
0000
0000
0000
3200
0000
,
0000
0000
2300
0000
0000
0000
3002
0000
0000
0000
1033
0000
0110
0000
1000
0001
,
0100
0000
0000
0000
0000
0010
0000
0000
0000
0001
0000
0000
0000
2000
0000
0000
0000
0000
0000
0000
0022
0000
0000
0000
0000
0000
0000
0000
0000
0000
0000
0000
,
3033
1000
0220
0330
0202
0303
1100
0110
,
0011
0000
0001
0100
1010
0000
1001
0000
1100
0000
0110
0000
0011
0000
0110
0000
,
1010
1100
0110
0011
0110
1100
0110
0101
,
1010
0000
0110
0000
1000
0100
1000
0010
0001
0010
0100
0001
1000
0100
0010
0100
,
1000
0001
0100
0010
2200
0000
0000
0000
0000
0000
0000
0000
0000
0000
3300
0000
,
0110
0000
0000
0000
0000
0002
0000
0000
0003
0000
0000
0000
1000
0000
0100
0000
1000
0000
0010
0000
0100
0000
0001
0000
0010
0000
0001
0000
1000
0000
0100
0000
,
0010
0002
0000
0000
0003
0000
1000
0100
1000
0000
0001
0010
0001
0000
1000
0000
,
0010
0001
0000
0100
0010
1000
0100
0010
0101
1000
0001
0010
0001
1000
0100
1000
,
0110
1000
0001
0010
0100
0001
1000
0010
1100
0010
0001
1000
0100
1000
0001
0010
,
1001
0000
0000
0000
0000
0000
0220
0000
0000
0000
0000
0000
0000
0000
0000
0330
0000
0000
1100
0000
0010
0000
0001
0000
,
0110
1000
0100
0011
0100
0010
1100
0001
0010
1001
0100
0010
,
0202
0000
0000
0000
0303
0000
1000
0100
1010
0001
0010
0100
0010
0001
1000
0010
,
1100
0001
0010
0001
1000
0100
1000
0010
0101
1000
0010
0100
0000
0000
0001
2000
,
0000
0000
3000
0000
1100
0010
0001
1000
0110
0001
1010
0001
0010
0100
1000
0010
,
0101
0010
1001
0010
1100
0010
0001
0100
0011
1000
0110
1000
0001
0010
0001
1000
,
0101
0010
1100
0001
1010
0100
0010
0100
1001
0010
1001
0100
0010
0100
1000
0010
,
1100
0010
0101
0010
1001
0100
0010
1000
0110
0001
1100
0010
0100
1000
0010
1000
,
0101
1000
0110
1000
0011
0100
1000
0010
1100
0010
0101
1000
0100
0010
0100
1000
,
0101
0010
1100
0001
1010
0100
1000
0001
0110
1000
0011
0100
1000
0100
0010
0001
,
1100
0010
1001
0010
0101
1000
0100
1000
0110
0001
0010
0001
1100
0010
1001
0010
,
1100
0010
0101
1000
0001
0010
0001
0100
1010
0001
1000
0100
0011
0100
1001
0100
,
1010
0001
0110
1000
0202
0000
0303
0000
1100
0010
1001
0100
0011
0100
1001
0100
,
1010
0100
0011
1000
0110
1000
0101
0010
0001
0010
1100
0001
1010
0001
0110
1000
,
0011
0100
1001
0010
0101
0010
1100
0010
0001
0010
0100
1000
0011
1100
0011
1100
,
0011
1100
0001
0010
0001
1000
0100
0010
0101
0010
1000
0100
2020
3031
0010
0100
,
2002
3103
1010
0100
1010
0001
0110
0001
1000
0100
0011
0100
1010
0001
0110
1000
,
0101
1000
0110
0001
1100
0010
1100
0010
0001
1000
0101
1000
0110
1000
0011
0100
,
1010
0001
0110
0001
1100
0001
1010
0100
0010
0001
1000
0100
0011
1100
0011
1100
,
0011
1100
0001
1000
0100
1000
0010
0100
0011
1000
0100
0010
2200
0000
3300
0000
,
2222
0000
3333
0000
;

//---------------dance-single - Blank----------------
#NOTEDATA:;
#CHARTNAME:Blank;
#STEPSTYPE:dance-single;
#DESCRIPTION:Blank;
#CHARTSTYLE:;
#DIFFICULTY:Hard;
#METER:15;
#RADARVALUES:0.826805,1.267983,0.518941,1.124373,0.349565,803.000000,731.000000,72.000000,156.000000,0.000000,0.000000,0.000000,0.000000,0.000000,0.826805,1.267983,0.518941,1.124373,0.349565,803.000000,731.000000,72.000000,156.000000,0.000000,0.000000,0.000000,0.000000,0.000000;
#CREDIT:Blank;
#NOTES:
// measure 0
0000
0000
0000
0000
,  // measure 1
0000
0000
0000
0000
,  // measure 2
0000
0000
0000
0000
,  // measure 3
0000
0000
0000
0000
0000
0000
0000
0220
,  // measure 4
0330
0000
0000
0000
0000
0000
0000
0000
1100
0000
0000
0000
0000
0000
0000
0000
0101
0000
0000
0000
0000
0110
0000
0000
0000
0000
0000
0000
0000
0000
0000
0000
,  // measure 5
0001
0000
0000
0000
0010
0000
0000
0000
0100
0000
0000
0000
0000
0000
0000
0000
0011
0000
0000
0000
0000
1001
0000
0000
0000
0000
0000
0000
0000
0000
0000
0000
,  // measure 6
1000
0100
0010
0000
1001
0000
0100
0010
,  // measure 7
1000
0002
0000
0000
0000
0003
1000
0001
,  // measure 8
0010
0100
1000
0002
0003
1000
0010
0001
,  // measure 9
0010
1000
0001
2000
3000
0001
0010
1000
,  // measure 10
0010
0001
1000
0002
0000
0003
0100
0001
,  // measure 11
1000
0100
0010
0100
1000
0001
1100
0000
,  // measure 12
1001
0100
0010
2000
3000
0001
0010
0100
,  // measure 13
1000
0100
0010
0002
0003
0100
0010
1000
,  // measure 14
0001
0010
0100
2000
0000
3000
0010
1000
,  // measure 15
0001
0000
0010
0000
0100
0000
1000
0000
0100
0000
0010
0000
0001
0000
0001
0100
,  // measure 16
0000
0010
1000
0001
1000
0000
0001
0000
0010
0000
0100
0000
2000
0000
3000
0000
,  // measure 17
0010
0000
0100
0000
0002
0000
0000
0000
0000
0000
0003
0000
1000
0000
0010
1000
,  // measure 18
0000
0001
1000
0010
0100
0000
0010
0000
1000
0000
0001
0000
2000
0000
3000
0000
,  // measure 19
0010
0000
1000
0000
0200
0000
0000
0000
0000
0000
0300
0000
0001
0000
1000
0100
,  // measure 20
0000
0010
0001
1000
0001
0000
2000
0000
3000
0000
0001
0000
1000
0100
0000
0000
,  // measure 21
0010
0001
0000
0000
2200
0000
3300
0000
2002
0000
0000
0000
3003
0000
1000
0000
,  // measure 22
1000
0100
0000
1000
0000
0000
0010
0000
0100
0000
0001
0000
1000
0000
0100
0000
,  // measure 23
0020
0030
2002
0000
3003
1000
0100
0010
,  // measure 24
0001
0010
0200
0000
0300
1000
0100
0000
,  // measure 25
0010
0001
0200
0000
0300
0010
0100
0001
,  // measure 26
1000
0000
0010
0100
0000
0000
0001
0000
1000
0000
0010
0000
0100
0000
0000
0000
,  // measure 27
0001
0000
1000
0020
0000
0030
0000
2000
0000
3000
0000
0000
0000
0000
2002
0000
,  // measure 28
3003
0000
0001
0000
1000
0000
0010
0000
0100
0001
0000
0000
1100
0000
0001
0100
,  // measure 29
0001
0000
1000
0000
0100
0000
0010
0000
0001
0100
0000
0000
0220
0000
0000
0000
,  // measure 30
0330
0000
0022
0033
1000
0002
0003
0100
,  // measure 31
0010
2200
0000
0000
0000
3300
0000
0001
,  // measure 32
0010
0100
1000
0010
0202
0000
0303
0010
,  // measure 33
0100
0001
1000
0010
2200
0000
3300
0100
,  // measure 34
0010
0001
0010
0100
1000
0001
2002
3003
,  // measure 35
1000
0000
0220
0000
0000
0000
0330
0000
0100
0000
2020
0000
3030
0000
0001
0100
,  // measure 36
0001
0000
1000
0000
0001
0000
0100
0000
2020
0000
0000
0000
3030
0000
1000
0100
,  // measure 37
1000
0100
0010
0001
2200
0000
3300
0001
,  // measure 38
0010
0100
0010
0001
1000
0100
0011
0000
,  // measure 39
0001
2200
0000
3300
0220
0330
2002
3003
,  // measure 40
1000
0100
0010
0001
0100
0010
1000
0001
,  // measure 41
0010
0000
0001
1000
0000
0000
0002
0000
0000
0000
0003
0000
1000
0000
0100
0000
,  // measure 42
0010
0001
2000
0000
3002
0000
0203
0000
,  // measure 43
0310
2000
0000
3001
0200
0000
0000
0300
,  // measure 44
0001
0010
0001
1000
0100
1000
0010
0100
,  // measure 45
0001
0000
1000
0100
0000
0000
2000
0000
0000
0000
3000
0000
0100
0000
1000
0000
,  // measure 46
0001
0100
0022
0033
0100
2002
0000
3003
,  // measure 47
0010
2200
3300
2002
0000
3003
0001
1000
,  // measure 48
0100
0010
0001
2000
3000
0001
0100
1000
,  // measure 49
0100
0001
1000
0002
0003
1000
0100
0001
,  // measure 50
0100
1000
0001
2000
0000
3000
0010
1000
,  // measure 51
0001
0010
0100
0010
0001
1000
0011
0000
,  // measure 52
1001
0010
0100
0002
0003
1000
0100
0010
,  // measure 53
0001
0010
0100
2000
3000
0010
0100
0001
,  // measure 54
1000
0100
0010
0002
0000
0003
0100
0001
,  // measure 55
1000
0100
0010
0001
0010
0100
2020
3030
,  // measure 56
0110
0000
0001
0100
0002
0000
0000
0000
0003
0000
1000
0100
0010
0000
0001
0010
,  // measure 57
0100
0000
1000
0002
0000
0000
0000
0000
0000
0000
0003
0000
1000
0000
0100
0010
,  // measure 58
0001
0000
0100
0000
0202
0000
0000
0000
0303
0000
1000
0100
1000
0000
0001
0000
,  // measure 59
0200
0300
2200
3300
0101
0010
2002
3003
,  // measure 60
0220
0000
0330
0000
2200
0000
3300
0000
0101
0000
0010
2000
0000
3000
0000
0000
,  // measure 61
1001
0000
0100
2000
0000
3000
0000
0000
1100
0000
0001
0010
0001
0000
1000
0000
,  // measure 62
0022
0000
0000
0033
2200
3300
1000
0001
,  // measure 63
0100
0001
1000
0100
0010
0001
0001
1000
,  // measure 64
0100
0010
0001
0100
2020
0000
3030
0100
,  // measure 65
0010
1000
0001
0100
0022
0000
0033
0010
,  // measure 66
0100
1000
0100
0010
0001
1000
2002
3003
,  // measure 67
0001
0000
0220
0000
0000
0000
0330
0000
0010
0000
0202
0000
0303
0000
1000
0010
,  // measure 68
1000
0000
0001
0000
1000
0000
0010
0000
0202
0000
0000
0000
0303
0000
0001
0010
,  // measure 69
0001
0010
0100
1000
0022
0000
0033
1000
,  // measure 70
0100
0010
0100
1000
0001
0010
1100
0000
,  // measure 71
1000
0022
0000
0033
0220
0330
2002
3003
,  // measure 72
0001
0010
0100
1000
0010
0100
0001
1000
,  // measure 73
0100
0000
1000
0001
0000
0000
2000
0000
0000
0000
3000
0000
0001
0000
0010
0000
,  // measure 74
0100
1000
0002
0000
2003
0000
3020
0000
,  // measure 75
0130
0002
0000
1003
0020
0000
0000
0030
,  // measure 76
1000
0100
1000
0001
0010
0001
0100
0010
,  // measure 77
1000
0000
0001
0010
0000
0000
0002
0000
0000
0000
0003
0000
0010
0000
0001
0000
,  // measure 78
1000
0010
2200
3300
0010
2002
0000
3003
,  // measure 79
0100
0022
0033
2002
0000
0000
0000
0000
,  // measure 80
0000
0000
0000
0000
0000
0000
0000
0000
3003
0000
0000
0100
1000
0000
0001
1000
,  // measure 81
0001
1000
0010
0100
0001
2000
0000
0000
0000
0000
0000
0000
0000
0000
0000
0000
,  // measure 82
0000
0000
3000
0000
0220
0000
0000
0000
0000
0000
0330
0000
0001
0000
1000
0010
,  // measure 83
1000
0000
0000
0000
0000
0100
0000
0000
0000
0010
0000
0000
0000
0002
0000
0000
0000
0000
0000
0000
0000
0000
0000
0000
0000
0000
0000
0000
0003
0000
0000
0000
,  // measure 84
0000
0000
1001
0000
0200
0000
0000
0000
0000
0000
0300
0000
1100
0000
0001
0100
,  // measure 85
0000
0001
1000
0010
0100
0000
0001
0000
0010
0000
0100
0000
1000
0000
0100
0000
,  // measure 86
1000
0010
0100
0001
0010
0001
1000
0010
,  // measure 87
0100
0001
0010
0001
1000
0100
1000
0001
,  // measure 88
0100
0001
0220
0000
0000
0000
0000
0330
,  // measure 89
1100
0000
0000
0000
0000
0002
0000
0000
0003
0000
0000
0000
1000
0000
0010
0000
1000
0000
0001
0000
0010
0000
0001
0000
1000
0000
0100
0000
1000
0000
0001
0000
,  // measure 90
0100
0002
0000
0000
0003
0000
0001
0100
0001
0000
1000
0100
1000
0000
0001
0000
,  // measure 91
1000
0100
0000
0010
0001
0010
0100
0010
0001
0100
0010
1000
0001
0010
0100
1000
,  // measure 92
0100
0010
0100
1000
0001
0100
0010
1000
0001
0010
0100
0010
0001
1000
0100
0020
,  // measure 93
0000
0000
0000
0030
0000
0000
2002
0000
0000
0000
0000
0000
0000
0000
0000
3003
0000
0000
1000
0000
0100
0000
1000
0000
,  // measure 94
0001
0100
0001
1000
0100
1000
0010
1000
0001
1000
0100
0010
,  // measure 95
0200
0000
0000
0000
0300
0000
1000
0100
0010
0001
0010
0100
1000
0001
0100
0010
,  // measure 96
1000
0001
0010
0001
1000
0100
1000
0100
0010
0001
1000
0002
0000
0003
0100
0020
,  // measure 97
0000
0030
0100
0010
0100
0001
1000
0100
,  // measure 98
0010
0100
1000
0001
0100
0010
1000
0001
,  // measure 99
0010
0001
1000
0100
1000
0100
0010
0001
,  // measure 100
0010
0100
1000
0100
0001
0100
1000
0010
,  // measure 101
0001
0010
1000
0100
1000
0001
0010
0001
,  // measure 102
0100
0010
1000
0001
0100
0010
0100
0001
,  // measure 103
1000
0100
1000
0001
0100
0001
1000
0010
,  // measure 104
1000
0001
0010
0001
0100
0010
1000
0001
,  // measure 105
0010
0100
1000
0002
0003
1000
0010
0001
,  // measure 106
0010
1000
0001
2000
3000
0001
0010
1000
,  // measure 107
0010
0001
1000
0002
0000
0003
0100
0001
,  // measure 108
1000
0100
0010
0100
1000
0001
1100
0000
,  // measure 109
1001
0100
0010
2000
3000
0001
0010
0100
,  // measure 110
1000
0100
0010
0002
0003
0100
0010
1000
,  // measure 111
0001
0010
0100
2000
0000
3000
0010
1000
,  // measure 112
0001
0010
0100
1000
0100
0010
0202
0303
,  // measure 113
2002
0000
3003
0000
;
