#VERSION:0.83;
#TITLE:La guapa y los ninjas;
#SUBTITLE:;
#ARTIST:Xoxe Tétano & Ladislao Tétano;
#TITLETRANSLIT:;
#SUBTITLETRANSLIT:;
#ARTISTTRANSLIT:;
#GENRE:;
#ORIGIN:;
#CREDIT:RLZ;
#BANNER:La guapa y los ninjas BN.png;
#BACKGROUND:La guapa y los ninjas BG.png;
#PREVIEWVID:;
#JACKET:;
#CDIMAGE:La guapa y los ninjas CD.png;
#DISCIMAGE:La guapa y los ninjas CD.png;
#LYRICSPATH:;
#CDTITLE:RLZ.png;
#MUSIC:La guapa y los ninjas.mp3;
#OFFSET:0.120000;
#SAMPLESTART:31.200001;
#SAMPLELENGTH:12.000000;
#SELECTABLE:YES;
#DISPLAYBPM:101.000000;
#BPMS:0.000=101.500;
#STOPS:193.000=1.773;
#DELAYS:;
#WARPS:;
#TIMESIGNATURES:0.000=4=4;
#TICKCOUNTS:0.000=4;
#COMBOS:0.000=1;
#SPEEDS:0.000=1.000=0.000=0;
#SCROLLS:0.000=1.000;
#FAKES:;
#LABELS:0.000=Song Start;
#BGCHANGES:0.500=La guapa y los ninjas.mp4=1.000=1=0=1===CrossFade==,
322.000=La guapa y los ninjas BG.png=1.000=1=0=1===CrossFade==,
99999=-nosongbg-=1.000=0=0=0 // don't automatically add -songbackground-
;
#KEYSOUNDS:;
#ATTACKS:
;

//---------------dance-single - ----------------
#NOTEDATA:;
#CHARTNAME:;
#STEPSTYPE:dance-single;
#DESCRIPTION:;
#CHARTSTYLE:;
#DIFFICULTY:Challenge;
#METER:14;
#RADARVALUES:0.509381,0.678768,0.269587,1.724340,0.732463,701.000000,648.000000,53.000000,339.000000,215.000000,0.000000,0.000000,0.000000,0.000000,0.509381,0.678768,0.269587,1.724340,0.732463,701.000000,648.000000,53.000000,339.000000,215.000000,0.000000,0.000000,0.000000,0.000000;
#CREDIT:RLZ!;
#DISPLAYBPM:103.000000;
#NOTES:
0000
0000
0000
0000
0000
0000
1200
0300
M000
0000
0021
0030
000M
0000
1200
0300
,
M000
0000
00M0
0000
0001
1000
0100
0010
0001
0100
0010
1000
0001
1000
0100
1000
,
0001
0000
00M0
0000
M000
0000
0201
0300
000M
0000
1020
0030
M000
0000
0201
0300
,
000M
0000
00M0
0000
1000
0001
0010
0100
1000
0010
0100
0001
1000
0001
0010
0001
,
1000
0000
000M
0000
M000
0000
0201
0300
000M
0000
1020
0030
M000
0000
0201
0300
,
000M
0000
M000
0000
0010
0100
0001
1000
0010
0001
1000
0100
0010
0100
0001
0100
,
0010
0000
000M
0000
M000
0000
1200
0300
M000
0000
0021
0030
000M
0000
1200
0300
,
M000
0000
00M0
0000
0100
0010
1000
0001
0100
1000
0001
0010
0100
0010
1000
0010
,
1000
0000
0000
0000
MMMM
0000
0000
0000
0001
0000
1000
0000
0200
0300
0010
0000
0001
0000
0100
0000
0020
0030
1000
0000
0001
0000
0010
0000
0200
0300
1000
0000
,
0001
0000
1000
0000
0010
0000
0100
0000
0002
0003
0200
0300
0020
0030
2000
3000
0002
0003
0020
0030
0200
0300
0020
0030
0002
0003
2000
3000
0200
0300
0020
0030
,
0002
0003
1000
0000
0010
0000
0100
0000
0001
0000
0100
0000
0020
0030
1000
0000
0001
0000
1000
0000
0200
0300
0010
0000
0001
0000
0010
0000
0200
0300
0010
0000
,
0001
0000
1000
0000
0010
0000
0100
0000
0002
0003
0200
0300
0020
0030
2000
3000
0002
0003
2000
3000
0200
0300
0020
0030
0002
0003
2000
3000
0020
0030
0200
0300
,
0002
0003
1000
0000
0100
0000
0010
0000
0001
0000
0010
0000
0200
0300
1000
0000
0010
0000
0100
0000
0002
0003
0100
0000
1000
0000
0100
0000
0020
0030
1000
0000
,
0100
0000
0010
0000
0001
0000
0010
0000
0200
0300
2000
3000
0020
0030
0200
0300
0002
0003
0020
0030
2000
3000
0020
0030
0002
0003
0020
0030
0200
0300
0020
0030
,
0002
0003
0100
0000
1000
0000
0100
0000
0010
0000
1000
0000
0002
0003
0010
0000
0100
0000
1000
0000
0020
0030
0100
0000
0001
0000
1000
0000
0020
0030
0100
0000
,
0001
0000
1000
0000
0010
0000
1000
0000
0002
0003
0020
0030
0200
0300
2000
3000
0002
0003
0020
0030
0200
0300
2000
3000
0020
0030
0200
0300
0002
0003
0200
0300
,
0020
0030
0000
0000
2000
0000
3000
0000
0002
0000
0003
0000
0000
2000
0000
0000
0000
3000
0000
0000
0000
0000
0000
0000
0000
0000
0000
0000
0020
0000
0030
0000
,
0200
0000
0300
0000
0002
0000
0003
0000
2000
0000
3000
0000
0000
0200
0000
0000
0000
0300
00M0
0000
M000
0000
0000
0000
0M00
0000
0000
0000
000M
0000
0000
0000
,
0M00
0000
20M2
3003
2M02
30M3
0000
0000
M000
0000
000M
0000
0020
0030
0200
0300
,
0002
0003
2000
3000
0200
0300
0020
0030
0002
0003
0200
0300
0020
0030
2000
3000
,
0000
0000
0000
0000
0000
2000
0000
3200
0000
0320
0000
0030
0000
0002
0000
0000
0000
0000
00M3
0000
0000
0000
M000
0000
0000
0000
000M
0000
0M00
0000
0000
0000
,
00M0
0000
200M
0000
3M00
0000
00M0
0000
M000
0000
000M
0000
0M00
0000
00M2
0003
,
2000
3000
0002
0003
0200
0300
0020
0030
2000
3000
0200
0300
0020
0030
0002
0003
,
0000
0000
00M0
0000
0000
0000
0M00
0000
000M
0000
0000
2000
0000
0000
00M0
0000
3000
0000
0000
0000
0000
0000
0M00
0000
0000
0000
0000
0000
M000
0000
0000
0000
,
000M
0000
0000
0000
0200
0000
0300
0000
0020
0000
0030
0000
0000
0200
0000
0000
0000
0300
0000
0000
0000
0000
0000
0000
0000
0000
0000
0000
2000
0000
3000
0000
,
0002
0000
0003
0000
0020
0000
0030
0000
0200
0000
0300
0000
0000
0002
0000
0000
0000
0003
0000
0000
00M0
0000
0000
0000
M000
0000
0000
0000
0000
0000
0M00
0000
,
0000
000M
0220
M330
0220
033M
0000
0M00
0000
00M0
0000
000M
2000
3000
0002
0003
,
0020
0030
0200
0300
0002
0003
2000
3000
0020
0030
0002
0003
2000
3000
0200
0300
,
0000
0000
0020
0030
2000
3000
0020
0030
0000
000M
0000
M000
0000
0000
0002
0003
,
2000
0000
3000
0000
0200
0000
0300
0000
0020
0000
0030
0000
0000
0002
0000
0003
M000
0000
0000
0000
00M0
0000
0000
0000
2000
0000
3000
0000
0020
0000
0030
0000
,
0200
0000
0300
0000
0020
0000
0030
0000
0000
0000
0M00
2000
0000
0000
000M
0000
0000
3000
00M0
0000
0000
0000
M000
0000
0000
0000
00M0
0000
0000
0000
000M
0000
,
0000
0000
0M00
0000
0000
0000
00M0
0000
0000
0000
0000
0000
2000
0000
3000
0000
0020
0000
0030
0000
0200
0000
0300
0000
0002
0000
0003
0000
0000
2000
0000
3000
,
0000
0000
MMMM
0000
1001
0000
0000
0001
0100
0000
0010
1000
0100
0000
0010
0001
,
0100
0000
0100
0000
0002
0003
0000
0002
0203
0300
0020
2030
3200
0300
0020
0032
,
0203
0300
0200
0300
1000
0100
0010
0001
0100
0010
1010
0000
1010
0000
000M
0000
,
0M00
0000
2000
3200
0320
0032
0203
0320
2030
3000
2000
0000
3000
0000
00M0
0000
,
0M00
0000
0001
1000
0100
1000
0001
1000
0010
0000
0010
0000
000M
0000
0M00
0000
,
0000
0000
0000
0000
0002
0000
2003
0000
3000
0200
0000
0300
2000
0000
3000
0002
0000
0003
2000
0000
3000
0000
0020
0000
0000
0000
0030
0000
0020
0000
0000
0000
,
0030
0000
1000
0001
0010
0001
1000
0001
0100
0000
0100
0000
00M0
0000
000M
M000
,
0000
0000
0000
0000
2000
0000
3002
0000
0003
0020
0000
0030
0002
0000
0003
2000
0000
3000
0002
0000
0003
0000
0200
0000
0000
0000
0300
0000
0200
0000
0000
0000
,
0300
0000
0000
0000
1001
0000
0000
1000
0010
0000
0100
0001
0010
0000
0100
1000
,
0010
0000
0010
0000
2000
3000
0000
2000
3020
0030
0200
0302
0023
0030
0200
2300
,
3020
0030
0020
0030
0001
0010
0100
1000
0010
0100
0101
0000
0101
0000
00M0
0000
,
M000
0000
0002
0023
0230
2300
3020
0230
0302
0003
0002
0000
0003
0000
000M
0000
,
0M00
0000
1000
0001
0010
0001
1000
0001
0100
0000
0100
0000
000M
0000
M000
0000
,
000M
0000
0000
0000
2000
0000
3002
0000
0003
0020
0000
0030
0002
0000
0003
2000
0000
3000
0002
0000
0003
0000
0200
0000
0000
0000
0300
0000
0200
0000
0000
0000
,
0300
0000
0001
1000
0100
1000
0001
1000
0010
0000
0010
0000
000M
0000
0M00
0000
,
M000
0000
0000
0000
0002
0000
2003
0000
3000
0200
0000
0300
2000
0000
3000
0002
0000
0003
2000
0000
3000
0000
0020
0000
0000
0000
0030
0000
0020
0000
0000
0000
,
0030
0000
0000
0000
0000
0000
0000
0000
0000
0000
0000
0000
M000
0000
0000
0000
0000
0000
0000
0000
0000
0000
0000
0000
000M
0000
0000
0000
0000
0000
0000
0000
0000
0000
0000
0000
0000
0000
0000
0000
0000
0000
0000
0000
0000
0000
0000
0000
2002
3003
0000
0000
0000
0000
0000
0000
0000
0000
0000
0000
0000
0000
0000
0000
0000
0000
0000
0000
0000
0000
0000
0000
M00M
0000
0000
0000
0000
0000
0000
0000
0000
0000
0000
0000
0000
0000
0000
0000
0000
0000
0000
0000
0000
0000
0000
0000
2002
0000
0000
0000
0000
0000
3003
0000
0000
0000
0000
0000
0000
0000
0000
0000
0000
0000
0000
0000
0000
0000
0000
0000
2002
0000
0000
0000
0000
0000
3003
0000
0000
0000
0000
0000
0000
0000
0000
0000
0000
0000
0000
0000
0000
0000
0000
0000
00M0
0000
0000
0000
0000
0000
0000
0000
0000
0000
0000
0000
0000
0000
0000
0000
0000
0000
0000
0000
0000
0000
0000
0000
M000
0000
0000
0000
0000
0000
0000
0000
0000
0000
0000
0000
0000
0000
0000
0000
0000
0000
0000
0000
0000
0000
0000
0000
,
000M
0000
0000
0000
00M0
0000
0000
0000
M000
0000
0000
0000
0M00
0000
0000
0000
20M2
3003
0000
0000
2M02
3003
0000
0000
000M
0000
0000
0000
M000
0000
0000
0000
,
00M0
0000
0000
0000
0M00
0000
0000
0000
000M
0000
0000
0000
M000
0000
0000
0000
20M2
3003
0000
0000
2M02
3003
0000
0000
M000
0000
0000
0000
000M
0000
0000
0000
,
00M0
0000
0000
0000
M000
0000
0000
0000
000M
0000
0000
0000
0M00
0000
0000
0000
20M2
3003
0000
0000
2M02
3003
0000
0000
000M
0000
0000
0000
M000
0000
0000
0000
,
0M00
0000
0000
0000
000M
0000
0000
0000
0M00
0000
0000
0000
M000
0000
0000
0000
2M20
3030
0000
0000
202M
3030
0000
0000
00M0
0000
0000
0000
M000
0000
0000
0000
,
000M
0000
0000
0000
0M00
0000
0000
0000
00M0
0000
0000
0000
M000
0000
0000
0000
202M
3030
0000
0000
2M20
3030
0000
0000
000M
0000
0000
0000
M000
0000
0000
0000
,
00M0
0000
0000
0000
M000
0000
0000
0000
0M00
0000
0000
0000
000M
0000
0000
0000
M202
0303
0000
0000
02M2
0303
0000
0000
M000
0000
0000
0000
000M
0000
0000
0000
,
0M00
0000
0000
0000
00M0
0000
0000
0000
M000
0000
0000
0000
000M
0000
0000
0000
220M
3300
0000
0000
MM00
0000
220M
3300
0000
0000
MM00
0000
2200
0000
000M
0000
,
3300
0000
MM00
0000
0000
0000
0000
0000
M022
0033
0000
0000
MMMM
0000
0000
0000
0001
0000
1000
0000
0100
0000
0010
0000
0001
0000
0100
0000
0010
0000
1000
0000
,
0001
0010
0100
1000
0001
1000
0010
0100
0001
0100
0010
1000
0001
0010
0100
0010
,
0001
1000
0100
0010
0001
1000
0010
0100
0001
0100
0010
1000
0001
1000
0100
0010
,
0001
0010
0100
0010
0001
1000
0010
0100
0001
0100
0010
1000
0001
1000
0100
0010
,
0001
1000
0010
0100
0001
1000
0100
0010
0001
0010
0100
1000
0010
0100
0001
0100
,
1000
0100
0010
1000
0100
0010
0001
0010
0100
1000
0010
0100
0001
0010
1000
0010
,
0001
0000
0000
0000
220M
3300
0000
0000
M022
0033
0000
0000
220M
3300
0000
0000
20M2
0000
3003
2002
0M00
0000
0000
0000
00M0
0000
0000
0000
0M00
0000
0000
0000
,
3003
0000
0000
000M
M000
0000
0M00
0000
000M
0000
M000
0000
00M0
0000
M000
0000
,
000M
0000
0000
0000
00M0
0000
0000
0000
2002
3003
0000
0000
MMMM
0000
0000
0000
1001
0000
0000
0000
0000
0000
0001
0000
0100
0000
0000
0000
0010
0000
1000
0000
,
0100
0000
0010
0001
0100
0000
0100
0000
0002
0003
0000
0002
0203
0300
0020
2030
,
3200
0300
0020
0032
0203
0300
0200
0300
1000
0100
0010
0001
0100
0010
1010
0000
,
1010
0000
000M
0000
M000
0000
2000
3200
0320
0032
0203
0320
2030
3000
2000
0000
,
3000
0000
M000
0000
00M0
0000
0001
1000
0100
1000
0001
1000
0010
0000
0010
0000
,
M000
0000
0000
0000
0M00
0000
0000
0000
000M
0000
0000
0000
0002
0000
2003
0000
3000
0200
0000
0300
2000
0000
3000
0002
0000
0003
2000
0000
3000
0000
0020
0000
,
0000
0030
0020
0000
0030
0000
1000
0001
0010
0001
1000
0001
0100
0000
0100
0000
,
M000
0000
0000
0000
00M0
0000
0000
0000
0M00
0000
0000
0000
2000
0000
3002
0000
0003
0020
0000
0030
0002
0000
0003
2000
0000
3000
0002
0000
0003
0000
0200
0000
,
0000
0300
0200
0000
0300
0000
0000
0000
1001
0000
0000
1000
0010
0000
0100
0001
,
0010
0000
0100
1000
0010
0000
0010
0000
2000
3000
0000
2000
3020
0030
0200
0302
,
0023
0030
0200
2300
3020
0030
0020
0030
0001
0010
0100
1000
0010
0100
0101
0000
,
0101
0000
000M
0000
M000
0000
0002
0023
0230
2300
3020
0230
0302
0003
0002
0000
,
0003
0000
M000
0000
00M0
0000
1000
0001
0010
0001
1000
0001
0100
0000
0100
0000
,
M000
0000
0000
0000
000M
0000
0000
0000
0M00
0000
0000
0000
2000
0000
3002
0000
0003
0020
0000
0030
0002
0000
0003
2000
0000
3000
0002
0000
0003
0000
0200
0000
,
0000
0300
0200
0000
0300
0000
0001
1000
0100
1000
0001
1000
0010
0000
0010
0000
,
000M
0000
0000
0000
M000
0000
0000
0000
00M0
0000
0000
0000
0002
0000
2003
0000
3000
0200
0000
0300
2000
0000
3000
0002
0000
0003
2000
0000
3000
0000
0020
0000
,
0000
0030
0020
0000
0030
0000
M000
0000
000M
0000
0M00
0000
0000
0000
00M0
0000
;

//---------------dance-single - ----------------
#NOTEDATA:;
#CHARTNAME:;
#STEPSTYPE:dance-single;
#DESCRIPTION:;
#CHARTSTYLE:;
#DIFFICULTY:Hard;
#METER:8;
#RADARVALUES:0.324812,0.390806,0.203462,1.225858,0.231438,447.000000,407.000000,40.000000,241.000000,223.000000,0.000000,0.000000,0.000000,0.000000,0.324812,0.390806,0.203462,1.225858,0.231438,447.000000,407.000000,40.000000,241.000000,223.000000,0.000000,0.000000,0.000000,0.000000;
#CREDIT:RLZ!;
#DISPLAYBPM:101.000000;
#NOTES:
// measure 0
0000
0000
0000
0000
0000
0000
0200
0300
M000
0000
0020
0030
000M
0000
0200
0300
,  // measure 1
M000
00M0
0001
1000
0010
0100
0001
1000
,  // measure 2
0100
0000
00M0
0000
M000
0000
0200
0300
000M
0000
0020
0030
M000
0000
0200
0300
,  // measure 3
000M
00M0
1000
0010
0100
0001
0010
0100
,  // measure 4
1000
0000
000M
0000
M000
0000
0200
0300
000M
0000
0020
0030
M000
0000
0200
0300
,  // measure 5
000M
M000
0010
0001
0010
1000
0010
0001
,  // measure 6
0010
0000
000M
0000
M000
0000
0200
0300
M000
0000
0020
0030
000M
0000
0200
0300
,  // measure 7
M000
00M0
0100
1000
0100
0001
0100
1000
,  // measure 8
0010
0000
MMMM
0000
0000
0000
0200
0300
M000
0000
0020
0030
000M
0000
0200
0300
,  // measure 9
M000
00M0
0001
1000
0010
0100
0001
1000
,  // measure 10
0100
0000
00M0
0000
M000
0000
0200
0300
000M
0000
0020
0030
M000
0000
0200
0300
,  // measure 11
000M
00M0
1000
0010
0100
0001
0010
0100
,  // measure 12
1000
0000
000M
0000
M000
0000
0200
0300
000M
0000
0020
0030
M000
0000
0200
0300
,  // measure 13
000M
M000
0010
0001
0010
1000
0010
0001
,  // measure 14
0010
0000
000M
0000
M000
0000
0200
0300
M000
0000
0020
0030
000M
0000
0200
0300
,  // measure 15
M000
00M0
0100
1000
0100
0001
0100
1000
,  // measure 16
0020
0030
0000
0000
2000
0000
3000
0000
0002
0000
0003
0000
0000
2000
0000
0000
0000
3000
0000
0000
0000
0000
0000
0000
0000
0000
0000
0000
0020
0000
0030
0000
,  // measure 17
0200
0000
0300
0000
0002
0000
0003
0000
2000
0000
3000
0000
0000
0200
0000
0000
0000
0300
00M0
0000
M000
0000
0000
0000
0M00
0000
0000
0000
000M
0000
0000
0000
,  // measure 18
0M00
0000
20M2
3003
2M02
30M3
0000
0000
M000
0000
000M
0000
0020
0030
0200
0300
,  // measure 19
0002
0003
2000
3000
0200
0300
0020
0030
0002
0003
0200
0300
0020
0030
2000
3000
,  // measure 20
0000
0000
0000
0000
0000
2000
0000
3200
0000
0320
0000
0030
0000
0002
0000
0000
0000
0000
00M3
0000
0000
0000
M000
0000
0000
0000
000M
0000
0M00
0000
0000
0000
,  // measure 21
00M0
0000
200M
0000
3M00
0000
00M0
0000
M000
0000
000M
0000
0M00
0000
00M2
0003
,  // measure 22
2000
3000
0002
0003
0200
0300
0020
0030
2000
3000
0200
0300
0020
0030
0002
0003
,  // measure 23
0000
0000
00M0
0000
0000
0000
0M00
0000
000M
0000
0000
2000
0000
0000
00M0
0000
3000
0000
0000
0000
0000
0000
0M00
0000
0000
0000
0000
0000
M000
0000
0000
0000
,  // measure 24
000M
0000
0000
0000
0200
0000
0300
0000
0020
0000
0030
0000
0000
0200
0000
0000
0000
0300
0000
0000
0000
0000
0000
0000
0000
0000
0000
0000
2000
0000
3000
0000
,  // measure 25
0002
0000
0003
0000
0020
0000
0030
0000
0200
0000
0300
0000
0000
0002
0000
0000
0000
0003
0000
0000
00M0
0000
0000
0000
M000
0000
0000
0000
0000
0000
0M00
0000
,  // measure 26
0000
000M
0220
M330
0220
033M
0000
0M00
0000
00M0
0000
000M
2000
3000
0002
0003
,  // measure 27
0020
0030
0200
0300
0002
0003
2000
3000
0020
0030
0002
0003
2000
3000
0200
0300
,  // measure 28
0000
0000
0020
0030
2000
3000
0020
0030
0000
000M
0000
M000
0000
0000
0002
0003
,  // measure 29
2000
0000
3000
0000
0200
0000
0300
0000
0020
0000
0030
0000
0000
0002
0000
0003
M000
0000
0000
0000
00M0
0000
0000
0000
2000
0000
3000
0000
0020
0000
0030
0000
,  // measure 30
0200
0000
0300
0000
0020
0000
0030
0000
0000
0000
0M00
2000
0000
0000
000M
0000
0000
3000
00M0
0000
0000
0000
M000
0000
0000
0000
00M0
0000
0000
0000
000M
0000
,  // measure 31
0000
0000
0M00
0000
0000
0000
00M0
0000
0000
0000
0000
0000
2000
0000
3000
0000
0020
0000
0030
0000
0200
0000
0300
0000
0002
0000
0003
0000
0000
2000
0000
3000
,  // measure 32
0000
0000
MMMM
0000
1001
0000
0000
0001
0100
0000
0000
1000
0100
0000
0000
0001
,  // measure 33
0100
0000
0100
0000
0002
0003
0000
0002
0203
0300
0000
2000
3200
0300
0000
0002
,  // measure 34
0203
0300
0200
0300
1000
0000
0010
0000
0100
0000
1010
0000
1010
0000
000M
0000
,  // measure 35
0M00
0000
2000
3000
0020
0030
0200
0300
2000
3000
2000
0000
3000
0000
00M0
0000
,  // measure 36
0M00
0001
0100
0001
0010
0010
000M
0M00
,  // measure 37
0000
0000
0000
0000
0002
0000
0003
0000
0000
0200
0000
0300
0000
0000
0000
0002
0000
0003
0000
0000
0000
0000
0020
0000
0000
0000
0030
0000
0020
0000
0000
0000
,  // measure 38
0030
0000
1000
0000
0010
0000
1000
0000
0100
0000
0100
0000
00M0
0000
000M
M000
,  // measure 39
0000
0000
0000
0000
2000
0000
3000
0000
0000
0020
0000
0030
0000
0000
0000
2000
0000
3000
0000
0000
0000
0000
0200
0000
0000
0000
0300
0000
0200
0000
0000
0000
,  // measure 40
0300
0000
0000
0000
1001
0000
0000
1000
0010
0000
0000
0001
0010
0000
0000
1000
,  // measure 41
0010
0000
0010
0000
2000
3000
0000
2000
3020
0030
0000
0002
0023
0030
0000
2000
,  // measure 42
3020
0030
0020
0030
0001
0000
0100
0000
0010
0000
0101
0000
0101
0000
00M0
0000
,  // measure 43
M000
0000
0002
0003
0200
0300
0020
0030
0002
0003
0002
0000
0003
0000
000M
0000
,  // measure 44
0M00
1000
0010
1000
0100
0100
000M
M000
,  // measure 45
000M
0000
0000
0000
2000
0000
3000
0000
0000
0020
0000
0030
0000
0000
0000
2000
0000
3000
0000
0000
0000
0000
0200
0000
0000
0000
0300
0000
0200
0000
0000
0000
,  // measure 46
0300
0001
0100
0001
0010
0010
000M
0M00
,  // measure 47
M000
0000
0000
0000
0002
0000
0003
0000
0000
0200
0000
0300
0000
0000
0000
0002
0000
0003
0000
0000
0000
0000
0020
0000
0000
0000
0030
0000
0020
0000
0000
0000
,  // measure 48
0030
0000
0000
0000
0000
0000
0000
0000
0000
0000
0000
0000
M000
0000
0000
0000
0000
0000
0000
0000
0000
0000
0000
0000
000M
0000
0000
0000
0000
0000
0000
0000
0000
0000
0000
0000
0000
0000
0000
0000
0000
0000
0000
0000
0000
0000
0000
0000
2002
3003
0000
0000
0000
0000
0000
0000
0000
0000
0000
0000
0000
0000
0000
0000
0000
0000
0000
0000
0000
0000
0000
0000
M00M
0000
0000
0000
0000
0000
0000
0000
0000
0000
0000
0000
0000
0000
0000
0000
0000
0000
0000
0000
0000
0000
0000
0000
2002
0000
0000
0000
0000
0000
3003
0000
0000
0000
0000
0000
0000
0000
0000
0000
0000
0000
0000
0000
0000
0000
0000
0000
2002
0000
0000
0000
0000
0000
3003
0000
0000
0000
0000
0000
0000
0000
0000
0000
0000
0000
0000
0000
0000
0000
0000
0000
00M0
0000
0000
0000
0000
0000
0000
0000
0000
0000
0000
0000
0000
0000
0000
0000
0000
0000
0000
0000
0000
0000
0000
0000
M000
0000
0000
0000
0000
0000
0000
0000
0000
0000
0000
0000
0000
0000
0000
0000
0000
0000
0000
0000
0000
0000
0000
0000
,  // measure 49
000M
0000
0000
0000
00M0
0000
0000
0000
M000
0000
0000
0000
0M00
0000
0000
0000
20M2
3003
0000
0000
2M02
3003
0000
0000
000M
0000
0000
0000
M000
0000
0000
0000
,  // measure 50
00M0
0000
0000
0000
0M00
0000
0000
0000
000M
0000
0000
0000
M000
0000
0000
0000
20M2
3003
0000
0000
2M02
3003
0000
0000
M000
0000
0000
0000
000M
0000
0000
0000
,  // measure 51
00M0
0000
0000
0000
M000
0000
0000
0000
000M
0000
0000
0000
0M00
0000
0000
0000
20M2
3003
0000
0000
2M02
3003
0000
0000
000M
0000
0000
0000
M000
0000
0000
0000
,  // measure 52
0M00
0000
0000
0000
000M
0000
0000
0000
0M00
0000
0000
0000
M000
0000
0000
0000
2M20
3030
0000
0000
202M
3030
0000
0000
00M0
0000
0000
0000
M000
0000
0000
0000
,  // measure 53
000M
0000
0000
0000
0M00
0000
0000
0000
00M0
0000
0000
0000
M000
0000
0000
0000
202M
3030
0000
0000
2M20
3030
0000
0000
000M
0000
0000
0000
M000
0000
0000
0000
,  // measure 54
00M0
0000
0000
0000
M000
0000
0000
0000
0M00
0000
0000
0000
000M
0000
0000
0000
M202
0303
0000
0000
02M2
0303
0000
0000
M000
0000
0000
0000
000M
0000
0000
0000
,  // measure 55
0M00
0000
0000
0000
00M0
0000
0000
0000
M000
0000
0000
0000
000M
0000
0000
0000
220M
3300
0000
0000
0000
0000
220M
3300
0000
0000
0000
0000
2200
0000
000M
0000
,  // measure 56
3300
0000
0000
0000
0000
0000
0000
0000
M022
0033
0000
0000
MMMM
0000
0000
0000
1000
0000
0000
0000
0001
0000
0000
0000
0010
0000
0000
0000
0100
0000
0000
0000
,  // measure 57
1000
0010
0100
0001
0100
0010
1000
0100
,  // measure 58
0010
0001
0100
0010
1000
0100
1000
0010
,  // measure 59
0100
0001
0010
0100
1000
0010
0100
0001
,  // measure 60
0010
0100
1000
0010
0100
0001
0100
0010
,  // measure 61
1000
0001
0010
0100
0010
0001
1000
0010
,  // measure 62
0001
0000
0000
0000
200M
3000
0000
0000
M002
0003
0000
0000
200M
3000
0000
0000
20M2
0000
3003
2002
0M00
0000
0000
0000
00M0
0000
0000
0000
0M00
0000
0000
0000
,  // measure 63
0000
0000
0000
00M0
0000
0000
0000
0000
,  // measure 64
0000
0000
0000
0000
3003
0000
0000
0000
2002
3003
0000
0000
MMMM
0000
0000
0000
1001
0000
0000
0000
0000
0000
0001
0000
0100
0000
0000
0000
0000
0000
1000
0000
,  // measure 65
0100
0000
0000
0001
0100
0000
0100
0000
0002
0003
0000
0002
0203
0300
0000
2000
,  // measure 66
3200
0300
0000
0002
0203
0300
0200
0300
1000
0000
0010
0000
0100
0000
1010
0000
,  // measure 67
1010
0000
000M
0000
M000
0000
2000
3000
0020
0030
0200
0300
2000
3000
2000
0000
,  // measure 68
3000
M000
00M0
0001
0100
0001
0011
0011
,  // measure 69
M000
0000
0000
0000
0M00
0000
0000
0000
000M
0000
0000
0000
0002
0000
0003
0000
0000
0200
0000
0300
0000
0000
0000
0002
0000
0003
0000
0000
0000
0000
0020
0000
,  // measure 70
0000
0030
0020
0000
0030
0000
1000
0000
0010
0000
1000
0000
0100
0000
0100
0000
,  // measure 71
M000
0000
0000
0000
00M0
0000
0000
0000
0M00
0000
0000
0000
2000
0000
3000
0000
0000
0020
0000
0030
0000
0000
0000
2000
0000
3000
0000
0000
0000
0000
0200
0000
,  // measure 72
0000
0300
0200
0000
0300
0000
0000
0000
1001
0000
0000
1000
0010
0000
0000
0001
,  // measure 73
0010
0000
0000
1000
0010
0000
0010
0000
2000
3000
0000
2000
3020
0030
0000
0002
,  // measure 74
0023
0030
0000
2000
3020
0030
0020
0030
0001
0000
0100
0000
0010
0000
0101
0000
,  // measure 75
0101
0000
000M
0000
M000
0000
0002
0003
0200
0300
0020
0030
0002
0003
0002
0000
,  // measure 76
0003
M000
00M0
1000
0010
1000
0100
0100
,  // measure 77
M000
0000
0000
0000
000M
0000
0000
0000
0M00
0000
0000
0000
2000
0000
3000
0000
0000
0020
0000
0030
0000
0000
0000
2000
0000
3000
0000
0000
0000
0000
0200
0000
,  // measure 78
0000
0300
0200
0000
0300
0000
0001
0000
0100
0000
0001
0000
0010
0000
0010
0000
,  // measure 79
000M
0000
0000
0000
M000
0000
0000
0000
00M0
0000
0000
0000
0002
0000
0003
0000
0000
0200
0000
0300
0000
0000
0000
0002
0000
0003
0000
0000
0000
0000
0020
0000
,  // measure 80
0000
0030
0020
0000
0030
0000
M000
0000
000M
0000
0M00
0000
0000
0000
00M0
0000
;

//---------------dance-single - ----------------
#NOTEDATA:;
#CHARTNAME:;
#STEPSTYPE:dance-single;
#DESCRIPTION:;
#CHARTSTYLE:;
#DIFFICULTY:Medium;
#METER:5;
#RADARVALUES:0.192562,0.224507,0.076298,0.010173,0.000000,265.000000,250.000000,15.000000,2.000000,0.000000,0.000000,0.000000,0.000000,0.000000,0.192562,0.224507,0.076298,0.010173,0.000000,265.000000,250.000000,15.000000,2.000000,0.000000,0.000000,0.000000,0.000000,0.000000;
#CREDIT:RLZ!;
#DISPLAYBPM:101.000000;
#NOTES:
// measure 0
0000
0000
0000
1000
0000
0001
0000
1000
,  // measure 1
0000
0010
0100
0001
,  // measure 2
0010
0000
0000
0001
0000
1000
0000
0001
,  // measure 3
0000
0010
0100
1000
,  // measure 4
0010
0000
0000
1000
0000
0001
0000
1000
,  // measure 5
0000
0001
0010
0001
,  // measure 6
0100
0000
0000
0001
0000
1000
0000
0001
,  // measure 7
0000
1000
0010
1000
,  // measure 8
0100
1000
0000
0001
,  // measure 9
0000
0100
0010
1000
,  // measure 10
0100
0000
0001
0000
,  // measure 11
1000
0001
0010
0100
,  // measure 12
1000
0000
0001
0000
,  // measure 13
1000
0010
1000
0001
,  // measure 14
0100
0000
0001
0000
,  // measure 15
1000
0010
0100
0010
,  // measure 16
1000
0001
0000
0000
,  // measure 17
1000
0001
0000
0000
,  // measure 18
0000
1001
0000
1000
,  // measure 19
0001
0100
0010
1000
,  // measure 20
0000
0001
0000
0000
,  // measure 21
0000
1001
0000
0000
,  // measure 22
0001
0010
0100
1000
,  // measure 23
0000
1001
0000
0000
,  // measure 24
0000
0001
0100
0010
,  // measure 25
1000
0100
0010
0001
,  // measure 26
0010
0100
1000
0001
,  // measure 27
0100
0010
1000
0001
,  // measure 28
0100
0010
1000
0100
,  // measure 29
0010
0001
0100
0010
,  // measure 30
1000
0100
1000
0010
,  // measure 31
0100
0001
1000
0001
,  // measure 32
1001
0001
1000
0010
,  // measure 33
0100
0001
0010
0100
,  // measure 34
1000
0010
0100
0001
,  // measure 35
0000
0010
0100
0001
,  // measure 36
0000
0010
0100
1000
,  // measure 37
0000
0010
0100
1000
,  // measure 38
0010
1000
0001
0010
,  // measure 39
0000
1000
0001
0100
,  // measure 40
0010
1000
0010
0100
,  // measure 41
0001
1000
0010
0100
,  // measure 42
0001
0001
0010
0100
,  // measure 43
0000
0001
0010
0100
,  // measure 44
0000
1000
0010
0100
,  // measure 45
0001
1000
0010
0100
,  // measure 46
0001
1000
0010
0100
,  // measure 47
0001
0010
0100
1000
,  // measure 48
0010
1001
1001
0000
,  // measure 49
0000
0000
1010
0000
,  // measure 50
0000
0000
0101
0000
,  // measure 51
0000
0000
1001
0000
,  // measure 52
0000
0000
1100
0000
,  // measure 53
0000
0000
1100
0000
,  // measure 54
0000
0000
1001
0000
,  // measure 55
0000
0000
0101
0000
,  // measure 56
0101
0000
0001
0010
,  // measure 57
0100
1000
0010
1000
,  // measure 58
0010
0100
0001
0100
,  // measure 59
0001
0010
0001
0010
,  // measure 60
0100
1000
0010
0100
,  // measure 61
0001
0010
0100
1000
,  // measure 62
0010
2000
0002
0000
,  // measure 63
0000
0000
0000
3003
,  // measure 64
0000
1001
0010
0100
,  // measure 65
0001
0010
0010
0100
,  // measure 66
0001
0010
0100
1000
,  // measure 67
0010
0000
0100
1000
,  // measure 68
0010
0000
0001
0100
,  // measure 69
0001
0000
0001
0100
,  // measure 70
0001
0001
0010
0100
,  // measure 71
0010
0000
0001
0010
,  // measure 72
0100
0100
1000
0010
,  // measure 73
0100
0001
1000
0010
,  // measure 74
0100
0001
1000
0100
,  // measure 75
1000
0000
1000
0100
,  // measure 76
1000
0000
0001
0010
,  // measure 77
0001
0000
0001
0010
,  // measure 78
0001
0100
0010
0100
,  // measure 79
0010
0000
0100
0010
,  // measure 80
0100
0010
0000
0000
;
