#VERSION:0.83;
#TITLE:La Posada De Los Muertos;
#SUBTITLE:;
#ARTIST:Mago de Oz;
#TITLETRANSLIT:;
#SUBTITLETRANSLIT:;
#ARTISTTRANSLIT:;
#GENRE:;
#ORIGIN:;
#CREDIT:Magna Trick;
#BANNER:LPSLM-BN.png;
#BACKGROUND:LPSLM-BG.png;
#PREVIEWVID:;
#JACKET:;
#CDIMAGE:;
#DISCIMAGE:;
#LYRICSPATH:;
#CDTITLE:Magna Trick title!.png;
#MUSIC:07-La Posada de los Muertos.mp3;
#OFFSET:-0.700000;
#SAMPLESTART:241.277023;
#SAMPLELENGTH:11.980000;
#SELECTABLE:YES;
#BPMS:0.000=73.000,
16.000=146.000,
57.000=73.000,
76.000=146.000,
230.000=73.000,
241.000=146.000,
279.000=110.000,
289.500=146.000,
469.000=73.000,
484.000=146.000;
#STOPS:289.500=0.220,
469.000=0.800;
#DELAYS:;
#WARPS:;
#TIMESIGNATURES:0.000=4=4;
#TICKCOUNTS:0.000=4;
#COMBOS:0.000=1;
#SPEEDS:0.000=1.000=0.000=0;
#SCROLLS:0.000=1.000;
#FAKES:;
#LABELS:0.000=Song Start;
#BGCHANGES:0.000=laposadadelosmuertos.mp4=1.000=1=0=0=StretchNoLoop==CrossFade==,
99999=-nosongbg-=1.000=0=0=0 // don't automatically add -songbackground-
;
#KEYSOUNDS:;
#ATTACKS:
;

//---------------dance-single - ----------------
#NOTEDATA:;
#CHARTNAME:;
#STEPSTYPE:dance-single;
#DESCRIPTION:;
#CHARTSTYLE:;
#DIFFICULTY:Medium;
#METER:8;
#RADARVALUES:0.578540,0.661516,0.142280,0.020821,0.985550,1167.000000,1126.000000,41.000000,6.000000,0.000000,0.000000,0.000000,0.000000,0.000000,0.578540,0.661516,0.142280,0.020821,0.985550,1167.000000,1126.000000,41.000000,6.000000,0.000000,0.000000,0.000000,0.000000,0.000000;
#CREDIT:;
#NOTES:
0001
0000
0000
1000
0100
0000
0000
0000
0000
0000
0000
0000
0000
0000
0000
0000
1001
0000
0000
0000
0010
0000
1000
0000
0000
0000
0000
0000
0000
0000
0000
0000
,
1001
0000
0000
0000
0000
0000
0000
0000
0000
0000
0000
0000
0000
0000
0000
0000
0000
0000
0001
0000
0000
0000
0000
0000
0010
0000
0000
0000
0000
0000
0000
0000
0000
0000
0000
0000
0000
0000
0000
0000
0000
0000
0000
0000
0000
0000
0000
0000
0000
0000
0000
0000
0000
0000
0000
0000
0000
0000
0000
0000
0000
0000
0000
0000
0000
0000
0000
0000
0000
0000
0000
0000
1100
0000
0000
0000
0000
0000
0000
0000
0000
0000
0000
0000
0000
0000
0000
0000
1010
0000
0000
0000
0000
0000
0000
0000
0000
0000
0000
0000
0000
0000
0000
0000
0101
0000
0000
0000
0000
0000
0000
0000
0000
0000
0000
0000
0000
0000
0000
0000
0011
0000
0000
0000
0000
0000
0000
0000
0000
0000
0000
0000
0000
0000
0000
0000
0000
0000
0000
0000
0000
0000
0000
0000
0000
0000
0000
0000
0000
0000
0000
0000
0000
0000
0000
0000
0000
0000
0000
0000
0000
0000
0000
0000
0000
0000
0000
0000
0000
0000
0000
0000
0000
0000
0000
0000
0000
0000
0000
0000
0000
0000
0000
0000
0000
0000
0000
0000
0000
0000
0000
0000
,
0100
0000
0000
1000
0001
0000
0000
0000
0000
0000
0000
0000
0000
0000
0000
0000
0110
0000
0000
0010
1000
0000
0010
0000
0000
0000
0000
0000
0000
0000
0000
0000
,
0000
0000
0001
0010
0000
0100
0000
1000
0000
0001
0000
0100
0000
0010
0000
1000
0000
0000
0000
0000
0000
0000
0000
0000
,
1001
0000
0000
0110
0000
0010
1000
0010
0100
0010
0000
0100
,
0000
0001
0000
0010
0000
0001
0010
0001
0010
0001
0000
0010
,
0000
0100
0000
1000
0000
0100
1000
0100
1000
0100
0000
1000
,
0000
0010
0000
1000
0000
0010
0100
0010
0100
0010
0000
0100
,
0000
0001
0000
1000
0000
0001
1000
0001
1000
0001
0000
1000
,
0001
1000
0001
1000
0000
0010
0100
0010
0100
0010
0000
1000
,
0000
0100
0000
1000
0000
0001
0010
0001
0010
0001
0000
0010
,
0000
0100
0000
1000
0000
0100
1000
0100
1000
0100
0000
1000
,
0000
0010
0000
0100
0000
0010
0100
0010
0100
0010
0000
1000
,
0000
0001
0000
1000
0000
0001
1000
0001
1000
0001
0000
1000
,
0001
0000
1000
0000
0001
0000
1000
0000
0000
0010
0000
0000
0010
0000
0000
0010
0000
0000
0010
0000
0000
0010
0000
0000
,
0010
0000
0000
1000
0000
0100
0010
0000
0000
0001
0000
0000
1000
0000
0000
0010
0000
0000
0100
0000
0000
0001
0000
1000
,
0001
0000
0000
1000
0000
0010
1000
0000
0010
0000
0100
0000
0001
0000
1000
0000
0100
0000
0010
0000
0000
0001
0000
0010
,
0001
0000
0000
1000
0000
0010
1000
0000
0000
0010
0000
0000
0100
0000
0000
0001
0000
0000
1000
0000
1000
0000
1000
0000
,
0001
0000
0000
1000
0000
0010
0100
0000
0100
0000
0001
0000
0010
0000
0010
0000
0100
0000
1000
0000
1000
0000
0001
0000
,
1000
0000
0000
0001
1000
0001
1000
0000
0000
0010
0000
0000
,
0100
0000
0000
0001
0000
0000
1000
0000
0000
0100
0000
0010
,
0001
0000
0000
0010
0000
0100
1000
0000
0001
0000
0100
0000
,
0010
0000
1000
0000
0100
0000
0100
0000
0010
0000
0001
0000
,
1000
0000
0000
0010
0000
0100
0001
0000
0000
1000
0000
0000
,
0100
0000
0000
0010
0000
0000
0002
0000
0000
1003
0000
1000
,
0001
0000
0000
0100
0000
0000
0010
0000
1000
0000
0001
0000
,
0010
0000
0001
0000
1000
0000
0100
0000
0001
0000
0100
0000
,
0010
0100
1001
0110
,
1001
0000
0000
0110
0000
0001
1000
0000
0001
0000
0100
0000
,
0001
0000
0010
0000
0100
0000
1000
0000
0001
0000
0000
0000
,
0001
0000
0100
0000
0010
0000
1000
0000
0100
0000
1000
0000
,
0001
0000
0010
0000
0100
0000
1000
0000
0000
0000
0000
0000
,
0001
0000
0100
0000
0010
0000
0010
0000
1000
0000
0100
0000
,
1000
0000
0001
0000
0100
0000
0010
0000
0010
0000
0000
1000
,
0001
0000
1000
0000
0010
0000
0010
0000
0100
0000
1000
0000
,
0001
0000
0010
0000
1000
0000
1100
0000
0011
0000
0110
0000
,
1001
0000
0000
0010
0000
0100
0010
0000
0000
1000
0000
0000
,
0001
0000
0000
0010
0001
0010
0001
0000
0000
1000
0000
0000
,
0010
0000
0000
0100
0000
1000
0001
0000
0000
0010
0000
0000
,
1000
0000
1000
0000
1000
0000
0100
0000
0000
0010
0000
0000
,
0001
0000
0000
0010
0000
0010
0001
0000
0000
1000
0000
0000
,
0010
0000
0000
0100
0000
0100
0010
0000
0000
1000
0000
0000
,
0100
0000
0000
0010
0000
0001
1000
0000
1000
0000
0001
0000
,
1000
0000
0001
0000
0001
0000
1000
0010
0100
0010
0100
0010
,
0100
0010
0100
0010
0100
0010
1000
0000
0000
0100
0010
0001
,
0010
0000
0000
0010
0100
1000
0001
0000
0000
1000
0000
0000
,
0001
0000
0000
0100
0010
1000
0010
0000
0000
0100
0000
0000
,
0001
0000
0001
0000
1000
0000
0100
0000
0000
0010
0001
0010
,
0001
0000
0000
1000
0000
0010
0100
0000
0000
0001
0000
0000
,
1000
0000
0000
0100
0000
0100
0010
0000
0001
1000
0000
0000
,
0010
0000
0000
0100
0000
0010
1000
0000
1000
0000
0001
0000
,
0100
0000
0010
0000
0010
0000
1000
0001
0100
0010
1000
0001
,
0100
0000
0010
1000
0001
0100
0010
0000
0010
1000
0010
1000
,
0010
0000
0010
0000
0010
0000
0010
0000
0100
0010
0100
0010
,
0100
0000
0100
0000
0100
0000
0100
0000
0100
0001
0010
0001
,
0010
0000
0010
0000
0010
0000
0010
0000
0010
0100
0010
0100
,
1000
0000
1000
0000
1000
0000
1000
0000
0001
0100
0010
1000
,
0010
0000
0000
0000
0010
0000
1000
0000
0010
0000
0100
0000
0001
0000
0000
1000
0000
0000
1000
0000
0000
1000
0000
0000
,
1000
0000
0000
1000
0000
0000
1000
0000
0000
0010
0000
0100
0010
0000
0000
1000
0000
0000
0100
0000
0000
0010
0000
0000
,
0001
0000
0000
1000
0000
0001
1000
0000
0000
0001
0000
0100
0010
0000
1000
0000
0100
0000
0010
0000
1000
0000
0001
0000
,
0100
0000
0000
0010
0000
0001
2000
0000
0000
0000
0000
0000
0000
0000
0000
0000
0000
0000
3010
0000
0000
0000
0000
0000
,
0100
0001
1000
0100
,
0010
0000
0001
1000
0000
0000
0010
0000
0100
0010
0000
1000
,
0000
0100
0000
0100
0000
1000
0000
0001
0000
0010
0000
0100
,
0000
0010
0000
0001
0000
0000
0100
0000
0000
1001
0000
0000
,
0110
0000
0000
1001
0000
0000
0110
0000
0000
1000
0000
0010
,
0000
0100
0000
0001
0000
1000
0000
0100
0000
0100
0000
0010
,
0000
0000
0000
0001
0000
1000
0000
0010
0000
0010
0000
0100
,
0000
1000
0000
0001
0000
0010
0000
1000
0000
0100
0000
0000
,
0000
0000
0000
0000
0000
0000
0100
0000
0000
0000
0010
0000
0000
0000
0001
0000
0000
0000
0001
0000
0000
1000
0000
0000
,
0001
0000
0001
0000
1000
0000
0010
0000
0100
0000
0010
0000
0000
1000
0010
0000
,
0100
0001
0010
0100
1000
0001
0001
1000
,
0110
0000
0000
1001
0000
0000
0110
0000
0000
1001
0000
0000
0100
0000
0000
0000
0010
0000
0100
0000
0000
0000
0000
0000
,
0001
0000
0000
1000
0000
0000
0100
1000
0100
1000
0000
0000
,
0001
0000
0000
0100
0000
0000
0010
0000
0001
1000
0000
0000
,
0100
0000
0000
0001
0000
0001
0000
0001
0000
0010
0000
0000
,
0100
0000
0000
1000
0000
0000
0100
0000
0100
1000
0000
0000
,
0001
0000
0000
0100
0000
0000
0010
0000
0010
0100
0000
0000
,
0001
0000
0000
0010
0000
0000
0100
0000
1000
0001
0000
0001
,
0000
1000
0000
0001
0000
1000
0000
1000
0000
0001
0100
0010
,
0100
0010
0100
0010
0100
0010
0100
0010
0100
0001
0000
0000
,
0010
0100
1000
0100
0000
0000
0100
0010
0001
1000
0000
0000
,
0001
0000
0000
1000
0000
0000
0010
0100
0001
0100
0000
0000
,
0010
0000
0000
1000
0000
1000
0000
0001
0000
0010
0000
0000
,
0100
1000
0100
1000
0000
0000
0001
0000
0100
0010
0000
0000
,
1000
0000
0000
0001
0000
0000
0010
0000
0010
0100
0000
1000
,
0001
0000
0000
0100
0000
0000
0010
0000
0100
0001
0000
0001
,
0000
1000
0000
0010
0000
0100
0000
0100
0000
0001
1000
0010
,
0100
0001
1000
0010
0000
0100
0001
1000
0010
0100
0000
0100
,
0001
0100
0001
0100
0000
0000
0010
0000
0000
1000
0000
0000
,
0010
1000
0010
1000
0000
0000
0001
0000
0000
1000
0000
0000
,
0001
0010
0001
0010
0000
0000
0100
0000
0000
1000
0000
0000
,
0001
1000
0001
1000
0000
0000
0010
0000
0000
0100
0000
0000
,
0001
0000
0000
1000
0100
0010
0100
0010
0001
0010
0100
1000
,
0100
0010
0001
1000
0000
0000
0010
0000
0000
0100
0010
0100
,
0010
1000
0001
0010
0100
1000
0100
0010
0001
0010
0000
0000
,
0100
1000
0001
0100
0000
0000
0010
0000
0000
1000
0000
0010
,
1000
0010
1000
0010
0000
0100
0000
0100
0000
0100
0000
0001
,
0100
0001
0100
0001
0000
0010
0000
0010
0000
0010
0000
0010
,
0100
0010
0100
0010
0000
0100
0000
0100
0000
1000
0000
1000
,
0000
0001
0000
0001
0000
0100
0000
0100
0000
0010
0000
0010
,
1000
0010
1000
0010
0000
1000
0000
1000
0000
1000
0000
0001
,
1000
0001
1000
0001
0000
0010
0000
0010
0000
0010
0000
0100
,
0010
0100
0010
0100
0000
1000
0000
1000
0000
0001
0000
0001
,
0000
0100
0000
0100
0000
0010
0000
0010
0000
0000
0000
0001
,
1000
0010
0100
0001
0000
1000
0000
0100
0000
0000
0000
0100
,
0010
0001
0010
0100
0000
1000
0000
0001
0000
0000
0000
0001
,
1000
0010
0100
0001
0000
1000
0000
0100
0000
0010
0001
0010
,
0100
1000
0001
0010
0100
1000
0001
0010
0100
1000
0000
0000
,
1000
0010
0100
0001
0000
0000
0001
0010
0100
1000
0000
0000
,
1000
0010
0100
0001
0000
0000
0001
0010
0100
1000
0000
0000
,
1000
0001
0100
0010
0000
0000
0010
0100
0001
1000
0100
0010
,
0001
0010
0100
1000
0001
0100
0010
0100
0001
1000
0000
0000
,
1000
0001
0100
0010
0000
0000
0010
0100
0001
1000
0000
0000
,
1000
0001
0100
0010
0000
0000
0010
0100
0001
1000
0000
0000
,
1000
0100
0010
0001
0000
0000
0001
0010
0100
1001
0000
0110
,
0000
0000
0010
1000
0010
0100
0001
0100
0010
1100
0000
0110
,
0000
0000
0000
0000
0011
0000
0000
0000
0000
0000
0000
0000
2002
0000
0000
3003
0000
0000
0010
0000
0000
0000
0010
0000
1000
0000
0000
0000
0000
0000
0010
0000
0000
0000
0000
0000
1000
0000
0000
0000
0000
0000
0010
0000
0000
0000
0000
0000
,
0100
0000
0000
0001
0000
0000
0100
0000
0000
0001
0000
1000
0001
0000
0000
1000
0000
0000
0001
0000
0001
0000
0001
0000
,
1000
0000
0000
0001
0000
0000
1000
0000
0000
0001
0000
0100
0010
0000
0000
1000
0000
0000
0100
0000
0000
1000
0000
1000
,
0001
0000
0000
0010
0000
0000
0100
0000
0000
1000
0000
0000
0001
0000
1000
0000
0010
0000
0100
0000
0001
0000
1000
0000
,
0100
0000
0010
0001
1000
0001
1000
0001
1000
0001
1000
0001
,
1000
0000
0000
0010
0000
0000
0100
0000
0000
0001
0000
1000
,
0001
0000
0000
1000
0000
0000
0100
0000
0000
0010
0000
0010
,
0001
0000
0000
1000
0000
0000
1001
0000
1010
0000
0110
0000
,
0101
0000
0000
0001
0000
0010
0001
0000
0000
0010
0000
0010
,
0100
0000
0000
1000
0000
0000
0001
0000
0000
1000
0000
1000
,
0010
0000
0000
0100
0000
0000
0001
0000
0000
0010
0000
0010
,
0100
0000
1000
0000
0001
0000
0100
0000
0010
0000
0010
1000
,
0001
0010
0100
1000
0100
0010
0001
1000
0100
1000
0010
0100
,
0010
1000
0100
1000
0010
0100
0001
0010
0100
0010
0001
1000
,
0010
0100
0001
1000
0100
1000
0001
0010
0100
0010
0001
1000
,
0010
0100
0001
1000
0100
0010
0001
0010
0100
1000
0001
0100
,
0010
0100
0001
1000
0100
1000
0001
0010
1000
0010
0100
1000
,
0001
0100
0010
0100
0001
1000
0100
1000
0001
0010
0100
0010
,
0001
1000
0010
0100
0001
1000
0010
0100
0001
1000
0100
0010
,
0001
1000
0100
0010
0001
1000
0010
0100
0001
1000
0100
0010
,
0001
1000
0010
1000
0010
1000
0010
1000
0001
0100
0001
0100
,
0001
0000
1000
0100
0000
0100
0010
0000
0010
0001
1000
0010
,
0100
0000
0100
0010
0000
0010
1000
0000
1000
0001
0010
0100
,
0010
0000
0010
0001
0000
0001
1000
0000
1000
0010
0100
0001
,
1000
0000
1000
0100
0000
0100
0010
0000
0010
0001
1000
0010
,
0100
0000
0100
0010
1000
0100
1000
0001
0010
0100
0010
0001
,
1000
0000
1000
0010
0100
0001
1000
0000
1000
0000
1000
0000
,
1000
0000
0001
0010
0100
1000
0001
0000
0100
0000
0100
0000
,
0100
0000
0010
1000
0100
1000
0010
0000
0100
0000
0100
0000
,
0100
0000
0001
0010
0100
0010
0001
0000
1000
0000
1000
0000
,
1000
0000
0010
0100
0001
1000
0100
0000
0100
0010
0001
0010
,
1100
0000
0011
0000
0000
0001
1000
0010
0100
0001
1000
0100
,
0011
0000
0101
0000
1010
0000
2200
0000
0000
0000
0000
0000
,
0000
0000
0000
0000
,
0000
0000
0000
0000
,
0000
0000
3300
0000
;

//---------------dance-single - ----------------
#NOTEDATA:;
#CHARTNAME:;
#STEPSTYPE:dance-single;
#DESCRIPTION:;
#CHARTSTYLE:;
#DIFFICULTY:Hard;
#METER:17;
#RADARVALUES:0.903751,1.137807,1.159062,0.072875,1.516497,1823.000000,1489.000000,334.000000,21.000000,0.000000,3.000000,0.000000,0.000000,0.000000,0.903751,1.137807,1.159062,0.072875,1.516497,1823.000000,1489.000000,334.000000,21.000000,0.000000,3.000000,0.000000,0.000000,0.000000;
#CREDIT:;
#NOTES:
// measure 0
1000
0000
0000
0001
0020
0000
0000
0000
0000
0000
0000
0000
0030
0000
0000
0000
1001
0000
0000
0000
0100
0000
0002
0000
0000
0000
0000
0000
0003
0000
0000
0000
,  // measure 1
1001
0000
0000
0000
0000
0000
0000
0000
0000
0000
0000
0000
0000
0000
0000
0000
0000
0000
1000
0000
0000
0000
0000
0000
0200
0000
0000
0000
0000
0000
0000
0000
0000
0000
0000
0000
0000
0000
0000
0000
0000
0000
0000
0000
0000
0000
0000
0000
0000
0000
0000
0000
0000
0000
0000
0000
0000
0000
0000
0000
0300
0000
0000
0000
0000
0000
0000
0000
0000
0000
0000
0000
0011
0000
0000
0000
0000
0000
0000
0000
0000
0000
0000
0000
0000
0000
0000
0000
0101
0000
0000
0000
0000
0000
0000
0000
0000
0000
0000
0000
0000
0000
0000
0000
1010
0000
0000
0000
0000
0000
0000
0000
0000
0000
0000
0000
0000
0000
0000
0000
2100
0000
0000
0000
0000
0000
0000
0000
0000
0000
0000
0000
0000
0000
0000
0000
0000
0000
0000
0000
0000
0000
0000
0000
0000
0000
0000
0000
0000
0000
0000
0000
0000
0000
0000
0000
0000
0000
0000
0000
0000
0000
0000
0000
0000
0000
0000
0000
0000
0000
0000
0000
0000
0000
0000
0000
0000
0000
0000
0000
3000
0000
0000
0000
0000
0000
0000
0000
0000
0000
0000
0000
,  // measure 2
0010
0000
0000
0001
2000
0000
0000
0000
0000
0000
0000
0000
3000
0000
0000
0000
0110
0000
0000
0100
0001
0000
0200
0000
0000
0000
0000
0000
0000
0000
0300
0000
,  // measure 3
0000
0000
1000
0100
0000
0010
0000
0001
0000
1000
0000
0010
0000
0100
0000
0002
0000
0000
0000
0000
0000
0003
0000
0000
,  // measure 4
1001
0000
0000
0110
0000
0100
0001
1000
0001
0100
0000
0010
,  // measure 5
1000
1000
0000
1010
0000
1000
0100
0001
0100
1000
0000
0100
,  // measure 6
0010
0010
0000
0101
0000
0010
0001
1000
0001
0010
0000
0001
,  // measure 7
0100
0100
0000
0101
0000
0100
0010
1000
0010
0100
0000
0010
,  // measure 8
1000
1000
0000
1010
0000
0010
0010
0010
0010
0110
0000
0100
,  // measure 9
0100
0100
0100
0110
0000
0100
0010
1000
0010
0100
0000
0001
,  // measure 10
0010
0010
0000
0011
0000
1000
0100
0001
0100
1000
0000
0100
,  // measure 11
0010
0010
0000
0110
0000
0010
0001
1000
0001
0010
0000
0001
,  // measure 12
0100
0100
0000
0101
0000
0100
0010
1000
0010
0100
0000
0001
,  // measure 13
1000
1000
0000
1001
0000
0001
0001
0001
0001
1001
0000
1000
,  // measure 14
1000
0000
1000
0000
1000
0000
1001
0000
0100
0010
0100
0010
0100
0000
0100
0010
0100
0010
0100
0000
0100
0010
0100
0010
,  // measure 15
0100
0000
0100
0010
0100
0010
1001
0000
0100
0010
1000
0010
0100
0000
0100
0010
1000
0010
0100
0000
0100
0010
1000
0010
,  // measure 16
0100
0000
0100
0010
1000
0010
0100
0000
0100
0010
1000
0010
0100
0000
0100
0010
1000
0010
0100
0000
0100
0010
1000
0010
,  // measure 17
0100
0000
0100
0010
1000
0010
0100
0000
0100
0010
1000
0010
0100
0000
0100
0010
1000
0010
0100
0000
0100
0010
1000
0010
,  // measure 18
0100
0000
0100
0010
1000
0010
0100
0000
0100
0000
1001
0000
1010
0000
1100
0000
0011
0000
0101
0000
1001
0000
0110
0000
,  // measure 19
1001
0000
0000
1000
1000
1000
1001
0000
0000
0001
1000
0001
,  // measure 20
1000
0000
0000
1000
0001
1000
0001
0000
0000
0100
0010
0100
,  // measure 21
0010
0000
0000
1000
0010
1000
0010
0000
0100
0001
0010
0100
,  // measure 22
1000
0010
0100
0001
0010
0001
0010
0100
1000
0100
1000
0010
,  // measure 23
0100
0010
0100
0001
1000
0001
1001
0000
0000
0001
0010
0001
,  // measure 24
0010
0000
0000
0100
0001
0100
0001
0000
0000
1000
0010
1000
,  // measure 25
0010
0000
0000
0010
1000
0100
0010
0001
0100
0010
1000
0100
,  // measure 26
0010
0100
0010
0001
1000
0001
1000
0010
0001
0010
1000
0100
,  // measure 27
1000
0100
0001
0010
0001
0010
1001
0000
0000
0101
0000
0000
,  // measure 28
0011
0000
0000
1010
0000
1010
0110
0000
0101
0000
0011
0000
,  // measure 29
0110
0000
1100
0000
1001
0000
0011
0000
0110
0000
0000
1010
,  // measure 30
0101
0000
0011
0000
0110
0000
1100
0000
1010
0000
0110
0000
,  // measure 31
0101
0000
1010
0000
1001
0000
0110
1000
1000
1000
0001
0001
,  // measure 32
1001
0000
1010
0000
1100
0000
0101
0000
0110
0100
0010
0100
,  // measure 33
0110
0000
0101
0000
1010
0000
0101
0000
0110
0000
0000
1001
,  // measure 34
0110
0000
1010
0000
0101
0000
1010
0000
1100
0100
0100
0010
,  // measure 35
0100
0000
0000
0000
0000
0000
0000
0000
0000
0000
0000
0000
0000
0000
0000
0000
0100
0000
0000
0000
0000
0000
0000
0000
0000
0000
0000
0000
0000
0000
0000
0000
0101
0000
0000
0000
0000
0000
0000
0000
0000
0000
0000
0000
0000
0000
0000
0000
0000
0000
0000
0000
0000
0000
0000
0000
0000
0000
0000
0000
0000
0000
0000
0000
1010
0000
0000
0000
0000
0000
0000
0000
0000
0000
0000
0000
0000
0000
0000
0000
0000
0000
0000
0000
0000
0000
0000
0000
0000
0000
0000
0000
0000
0000
0000
0000
0011
0000
0000
0000
0000
0000
0000
0000
0000
0000
0000
0000
0000
0000
0000
0000
0000
0000
0000
0000
0000
0000
0000
0000
0000
0000
0000
0000
0000
0000
0000
0000
1100
0000
0000
0000
0000
0000
0000
0000
0000
0000
0000
0000
0000
0000
0000
0000
0000
0000
0000
0000
0000
0000
0000
0000
0000
0000
0000
0000
0000
0000
0000
0000
0110
0000
0000
0000
0000
0000
0000
0000
0000
0000
0000
0000
0000
0000
0000
0000
0000
0000
0000
0000
0000
0000
0000
0000
0000
0000
0001
0000
0000
0000
0000
0000
,  // measure 36
1000
0000
0000
0110
0000
0011
1100
0000
0100
0001
0100
0001
,  // measure 37
1000
0000
1000
0001
0010
0001
0010
0000
0100
1000
0000
0000
,  // measure 38
1000
0000
0001
1000
0010
1000
0001
0000
0000
0100
0000
0001
,  // measure 39
0010
0100
1000
0010
1000
0001
0100
0000
0000
0001
1000
0010
,  // measure 40
0100
0000
0100
0010
1000
0100
0010
0000
0010
0001
0010
0100
,  // measure 41
1000
0000
0001
1100
1000
1100
1001
0000
0001
1001
0000
1000
,  // measure 42
0100
0000
1000
0100
1001
0100
0010
1001
0001
1001
1000
0101
,  // measure 43
0010
1000
0101
1000
0101
1000
0101
1000
0100
0010
0001
0010
,  // measure 44
0100
1000
0100
1001
0100
0011
1100
0000
0100
0001
0100
0001
,  // measure 45
1000
0000
1000
0101
0010
0001
1010
0000
0110
1000
0000
0000
,  // measure 46
1000
0000
0001
1100
0010
1001
0101
0000
0000
0100
0000
0001
,  // measure 47
0110
1000
0101
0010
1100
0010
1001
0000
0000
0001
1000
0010
,  // measure 48
0100
0000
0100
0011
1000
0101
0011
0000
0010
0001
0010
0100
,  // measure 49
1000
0000
0001
1100
0010
0101
1001
0000
0010
1100
0000
1000
,  // measure 50
0100
0000
0010
0100
1001
0110
0001
1010
0100
0011
1000
0110
,  // measure 51
1000
0001
0110
1000
0011
0100
1010
0100
0010
0001
0010
0100
,  // measure 52
1000
0001
0100
0010
1000
0100
0011
0000
0001
0100
1000
0100
,  // measure 53
0001
0000
0010
0010
0100
0000
0110
0000
1000
0100
0001
0100
,  // measure 54
1000
0000
1000
0100
0100
0000
1100
0000
0010
0100
0001
0100
,  // measure 55
0010
0000
1000
1000
0100
0000
1100
0000
0010
0001
0100
0001
,  // measure 56
0010
0000
0010
0010
0001
0000
0011
0000
0001
0001
0001
0001
,  // measure 57
1001
0000
0000
0000
1000
0000
1000
0000
1000
0000
1000
0000
1001
0000
0100
0010
0100
0010
0100
0000
0100
0010
0100
0010
,  // measure 58
0100
0000
0100
0010
0100
0010
0100
0000
0100
0010
0100
0010
1001
0000
0100
0010
1000
0010
0100
0000
0100
0010
1000
0010
,  // measure 59
0100
0000
0100
0010
1000
0010
0100
0000
0100
0010
1000
0010
0100
0000
0100
0010
1000
0010
0100
0000
0100
0010
1000
0010
,  // measure 60
0100
0000
0100
0010
1000
0010
2001
0000
0000
0000
0000
0000
3011
0000
0000
0000
0110
0000
1001
0000
0000
0000
0000
0000
,  // measure 61
1001
0010
0100
0011
0000
0000
0110
0001
1000
0011
0000
0000
,  // measure 62
0010
0100
0010
1001
0000
0000
0100
0010
0100
1001
0000
1000
,  // measure 63
0001
0100
0010
1000
0000
1000
0100
0010
0001
0010
0100
1000
,  // measure 64
0100
0010
0001
1000
0001
1000
0001
0100
0010
0100
0000
0000
,  // measure 65
1100
0000
0000
1010
0000
0000
0011
0000
0000
0110
0001
1100
,  // measure 66
0000
0011
0000
0110
0000
1010
0000
0110
0000
0101
0010
1001
,  // measure 67
0000
0100
0000
0011
0000
1100
0000
1010
0000
0101
1000
0110
,  // measure 68
0000
1001
0000
1100
0000
0011
0000
0101
0000
1010
0100
0001
,  // measure 69
1000
0000
0100
0000
0010
0000
0101
0000
0000
0000
1100
0000
0000
0000
0011
0000
0000
0000
1010
0000
0000
0001
0000
0000
,  // measure 70
1000
0001
1000
0000
0001
0000
0100
0000
0010
0000
1000
0000
0100
0010
0100
0000
,  // measure 71
0010
0000
0001
0000
1000
0000
0010
0000
0100
0010
0100
0000
0010
0000
1000
0000
,  // measure 72
0011
0000
0000
0000
0000
0000
0000
0000
0000
0000
0000
0000
0000
0000
0000
0000
0000
0000
0000
0000
0000
0000
0000
0000
1100
0000
0000
0000
0000
0000
0000
0000
0000
0000
0000
0000
0000
0000
0000
0000
0000
0000
0000
0000
0000
0000
0000
0000
0110
0000
0000
0000
0000
0000
0000
0000
0000
0000
0000
0000
0000
0000
0000
0000
0000
0000
0000
0000
0000
0001
0000
0000
1000
0000
0000
0000
0000
0000
0000
0000
0000
0000
0000
0000
0000
0000
0000
0000
0000
0000
0000
0000
0000
0000
0000
0000
0110
0000
0000
0000
0000
0000
0000
0000
0000
0000
0000
0000
0000
0000
0000
0000
0000
0000
0000
0000
0000
0000
0000
0000
0000
0000
0000
0000
0000
0000
0000
0000
1100
0000
0000
0000
0000
0000
0000
0000
0000
0000
0000
0000
0000
0000
0000
0000
0011
0000
0000
0000
0000
0000
0000
0000
0000
0000
0000
0000
0000
0000
0000
0000
0000
0000
0000
0000
0000
0000
0000
0000
0000
0000
0000
0000
0000
0000
0000
0000
0010
0000
0000
0000
0000
0000
0000
0000
0000
0000
0000
0000
0000
0000
0000
0000
,  // measure 73
1000
0010
1000
0001
0000
0001
0010
0100
1000
0100
0000
0100
,  // measure 74
0010
0001
0010
0100
0000
1000
0001
1000
0001
0010
0000
0000
,  // measure 75
0010
0000
0001
0010
0001
0010
0100
1000
0100
1000
0000
0000
,  // measure 76
1000
0001
0100
0010
0000
0010
1000
0001
1000
0100
0000
0100
,  // measure 77
1000
0100
0010
0001
0000
0001
0010
0100
1000
0100
0000
0100
,  // measure 78
0010
0000
0001
0010
0000
0100
0010
1000
0110
1001
0100
0011
,  // measure 79
1000
0101
0010
1001
0100
1010
0001
1100
0010
0101
0010
0100
,  // measure 80
1000
0100
0010
0001
1000
0010
0101
0010
1100
0011
0000
0010
,  // measure 81
1000
0010
1000
0001
0000
0001
1010
0100
1000
0101
0000
0110
,  // measure 82
0001
0010
0100
1000
0000
1000
0011
0100
1001
1010
0000
0100
,  // measure 83
0010
0001
1000
0110
0001
1010
0100
0011
0100
1001
0000
0001
,  // measure 84
1000
0001
0100
0010
0000
0010
1100
0001
1010
1100
0000
0100
,  // measure 85
1000
0100
0010
0001
0000
1000
0011
0100
1010
1001
0000
0110
,  // measure 86
0001
1000
0001
0010
0000
0100
0010
1000
0110
1001
0100
1010
,  // measure 87
0100
0011
1000
0101
1000
0110
0001
1100
0010
0101
0010
0100
,  // measure 88
1000
0001
1000
0011
0010
0011
1000
0001
0010
2100
0000
0001
,  // measure 89
0001
0100
0000
3010
0000
0001
0001
0100
0000
0010
2000
0001
,  // measure 90
3001
0100
0001
0200
0000
0010
0310
1000
0001
0100
0010
1000
,  // measure 91
0010
0100
0010
1000
0010
0100
0010
1000
0010
0100
0001
1000
,  // measure 92
0001
0010
0001
1000
0100
0020
0000
0001
0031
0002
0000
1000
,  // measure 93
1003
0000
0001
0000
0100
0000
0020
0000
0000
0030
0010
0000
1000
0000
0100
0000
1000
0000
0010
0000
0100
0000
0010
0000
,  // measure 94
1000
0010
0100
0002
0000
1003
1000
0100
0000
0010
0100
0010
,  // measure 95
0001
0000
1000
0000
0010
0100
0001
1000
0100
0010
0001
0010
0100
1000
0001
0000
0100
0000
0020
0000
0000
0000
0000
0000
,  // measure 96
1030
0010
0100
0020
0000
0000
1130
0101
0011
1010
0000
1000
,  // measure 97
0010
0100
0010
1000
0000
0100
0010
0010
0000
0110
0000
0010
,  // measure 98
0001
0010
0100
0010
0000
0001
1000
1000
0000
1001
0000
0100
,  // measure 99
1000
0100
0001
0100
0000
0010
1000
1000
0000
1010
0000
1010
,  // measure 100
0000
0110
0000
0110
0000
0101
0000
0101
0000
1001
0000
0001
,  // measure 101
0100
0010
0100
0001
0000
0010
0100
0100
0000
0110
0000
0100
,  // measure 102
1000
0100
0010
0100
0000
1000
0001
0001
0000
1001
0000
0010
,  // measure 103
0001
0010
1000
0010
0000
0100
0001
0001
0000
0101
0000
0101
,  // measure 104
0000
0110
0000
0110
0000
1010
0000
1010
0000
0000
0000
1010
,  // measure 105
1010
1010
1010
1010
0000
0110
0000
1001
0000
0000
0000
0101
,  // measure 106
0101
0101
0101
0101
0000
0110
0000
1001
0000
0000
0000
0110
,  // measure 107
0110
0000
0110
0000
0110
0000
0110
0000
0000
0000
1001
0000
0000
0000
0110
0000
0000
0000
0010
1000
0100
0000
0010
0000
,  // measure 108
0101
0010
0001
1100
0010
0100
0011
1000
0100
1010
0000
0000
,  // measure 109
1000
0100
0010
0001
0000
0000
1001
0010
0100
1001
0000
0000
,  // measure 110
1000
0010
0100
0001
0000
0000
1001
0100
0010
1001
0000
0000
,  // measure 111
1000
0100
0010
1000
0000
0000
1001
0010
0100
1001
0010
0100
,  // measure 112
1000
0001
0010
1000
0100
0010
1100
0101
0011
1010
0000
0000
,  // measure 113
1000
0100
1000
0010
0000
0000
1010
0100
0001
1010
0000
0000
,  // measure 114
0010
0001
0100
0010
0000
0000
0011
1000
0100
0011
0000
0000
,  // measure 115
0010
0100
1000
0001
0000
0000
0001
0010
1000
0110
0000
1001
,  // measure 116
0000
0000
1010
1100
0011
0101
0110
1001
0110
1001
0000
1010
,  // measure 117
0000
0000
0101
0000
0000
0000
2002
0000
0000
3013
0000
1000
0100
0000
0000
1000
0000
0000
0010
0000
0000
0100
0000
0001
,  // measure 118
0100
0000
0010
0001
0000
0000
1000
0000
0000
0100
0000
0100
0001
0000
0000
0010
0000
0000
1000
0000
0100
0000
1000
0000
,  // measure 119
0010
0000
0000
1000
0000
0000
0001
0000
0000
0100
0000
0100
0010
0000
0000
1000
0000
0000
0100
0000
0000
1000
0000
1000
,  // measure 120
0001
0000
1000
0001
0000
0000
1000
0000
0000
0010
0000
0000
0100
0000
0010
0000
1000
0000
0001
0000
0100
0000
0010
0000
,  // measure 121
1000
0000
1000
1000
1000
1000
1000
0001
0001
0001
0001
0001
,  // measure 122
1001
0000
0010
1000
0010
1000
0001
0000
0001
0010
0100
1000
,  // measure 123
0100
0000
0100
0010
0001
0010
0100
0000
1000
0010
0100
0001
,  // measure 124
0100
0000
0000
0010
0000
1000
0100
0010
0001
0100
0010
1000
,  // measure 125
0100
0000
0000
1000
0001
0100
0010
0000
0010
0100
0001
1000
,  // measure 126
0100
0000
0100
1000
0100
0010
0001
0000
1000
0001
0100
0010
,  // measure 127
1000
0000
0100
0010
0000
0001
0010
0000
0100
0010
0100
0010
,  // measure 128
1001
0100
0011
1000
0101
0010
1001
0100
1010
0001
1100
0010
,  // measure 129
0101
0010
0100
1000
0100
0010
0001
1000
0010
0101
0010
1100
,  // measure 130
0011
0100
0010
1000
0010
1000
0001
0100
0001
1010
0100
1000
,  // measure 131
0101
1000
0110
0001
0010
0100
1000
0001
1000
0011
0100
1001
,  // measure 132
1010
0001
0100
0010
0001
1000
0110
0001
1010
0100
0011
0100
,  // measure 133
1001
0010
0001
1000
0001
0100
0010
1000
0010
1100
0001
1010
,  // measure 134
1100
0001
0100
1000
0100
0010
0001
0100
1000
0011
0100
1010
,  // measure 135
1001
0010
1100
0001
1000
0001
0010
1000
0100
0010
1000
0110
,  // measure 136
1001
0100
1010
0100
0011
1000
0101
1000
0110
0001
1100
0010
,  // measure 137
0101
0010
0100
0001
1000
0100
0010
0001
0010
0100
1000
0001
,  // measure 138
0110
0001
0100
0010
1000
0010
1000
0100
1000
0101
0010
0001
,  // measure 139
1100
0010
1000
0010
0100
0001
0100
0001
1000
0011
0100
0010
,  // measure 140
1001
0100
1000
0100
0010
0100
0010
0001
0010
0101
1000
0010
,  // measure 141
1100
0001
1000
0001
1000
0010
1000
0010
0100
0010
0100
0001
,  // measure 142
0100
0001
0010
0100
1000
0001
0100
0010
1000
0100
0010
0001
,  // measure 143
0110
0000
1000
0100
0001
0100
1000
0000
1000
1000
0010
0000
,  // measure 144
1010
0000
0010
0100
0001
0100
0010
0000
0010
0010
1000
0000
,  // measure 145
1010
0000
1000
0100
0001
0100
1000
0000
0001
0001
0100
0000
,  // measure 146
0101
0000
0001
0100
1000
0100
0001
0000
0001
0001
0010
0000
,  // measure 147
0011
0000
0100
1000
0001
0100
0010
0000
0010
1000
0100
1000
,  // measure 148
0011
0000
1100
0000
0000
0001
0010
0100
0010
0001
1000
0010
,  // measure 149
1100
0000
0011
0000
0110
0000
2002
0000
0000
0000
0000
0000
,  // measure 150
0000
0000
0000
0000
,  // measure 151
0000
0000
0000
0000
,  // measure 152
0000
0000
3003
0000
;

//---------------dance-single - ----------------
#NOTEDATA:;
#CHARTNAME:;
#STEPSTYPE:dance-single;
#DESCRIPTION:;
#CHARTSTYLE:;
#DIFFICULTY:Easy;
#METER:7;
#RADARVALUES:0.407506,0.608594,0.142280,0.079816,0.352230,822.000000,781.000000,41.000000,23.000000,0.000000,1.000000,0.000000,0.000000,0.000000,0.407506,0.608594,0.142280,0.079816,0.352230,822.000000,781.000000,41.000000,23.000000,0.000000,1.000000,0.000000,0.000000,0.000000;
#CREDIT:;
#NOTES:
1000
0000
0000
0001
0010
0000
0000
0000
0000
0000
0000
0000
0000
0000
0000
0000
0001
0000
0000
0000
0001
0000
0001
0000
0000
0000
0000
0000
0000
0000
0000
0000
,
1000
0000
0000
0000
0000
0000
0000
0000
0000
0000
0000
0000
0000
0000
0000
0000
0000
0000
1000
0000
0000
0000
0000
0000
0100
0000
0000
0000
0000
0000
0000
0000
0000
0000
0000
0000
0000
0000
0000
0000
0000
0000
0000
0000
0000
0000
0000
0000
0000
0000
0000
0000
0000
0000
0000
0000
0000
0000
0000
0000
0000
0000
0000
0000
0000
0000
0000
0000
0000
0000
0000
0000
0001
0000
0000
0000
0000
0000
0000
0000
0000
0000
0000
0000
0000
0000
0000
0000
0010
0000
0000
0000
0000
0000
0000
0000
0000
0000
0000
0000
0000
0000
0000
0000
0100
0000
0000
0000
0000
0000
0000
0000
0000
0000
0000
0000
0000
0000
0000
0000
1000
0000
0000
0000
0000
0000
0000
0000
0000
0000
0000
0000
0000
0000
0000
0000
0000
0000
0000
0000
0000
0000
0000
0000
0000
0000
0000
0000
0000
0000
0000
0000
0000
0000
0000
0000
0000
0000
0000
0000
0000
0000
0000
0000
0000
0000
0000
0000
0000
0000
0000
0000
0000
0000
0000
0000
0000
0000
0000
0000
0000
0000
0000
0000
0000
0000
0000
0000
0000
0000
0000
0000
,
0010
0000
0000
0001
1000
0000
0000
0000
0000
0000
0000
0000
0000
0000
0000
0000
0100
0000
0000
0100
0001
0000
0100
0000
0000
0000
0000
0000
0000
0000
0000
0000
,
0000
0000
1000
0100
0000
0010
0000
0001
0000
1000
0000
0010
0000
0100
0000
0001
0000
0000
0000
0000
0000
0000
0000
0000
,
1001
1100
0010
0100
,
0001
0000
0100
0001
0000
0000
1000
0000
0000
0100
0000
0000
,
0010
0000
0001
0010
0000
0000
0001
0000
0000
0100
0000
0000
,
0010
0000
0010
0100
0000
0000
0100
0000
0000
0001
0000
0000
,
0010
0000
0001
0010
0000
0000
0100
0000
0000
1100
0000
0000
,
1000
0101
0001
1000
,
0100
0000
0100
0010
0000
0000
0010
0000
0000
0001
0000
0000
,
0100
0000
0100
0010
0000
0000
0001
0000
0000
1000
0000
0000
,
0100
0000
1000
0100
0000
0000
1000
0000
0000
0001
0000
0000
,
0100
0000
0100
0001
0000
0000
0001
0000
1000
0100
0000
0000
,
1000
0000
0001
0000
1000
0000
0001
0000
0000
0100
0000
0000
0100
0000
0000
0100
0000
0000
0100
0000
0000
0100
0000
0000
,
0100
0000
0000
0001
0000
0010
0100
0000
0000
1000
0000
0000
0001
0000
0000
0100
0000
0000
0010
0000
0000
1000
0000
0001
,
1000
0000
0000
0001
0000
0100
0001
0000
0100
0000
0010
0000
1000
0000
0001
0000
0010
0000
0100
0000
0000
1000
0000
0100
,
1000
0000
0000
0001
0000
0100
0001
0000
0000
0100
0000
0000
0010
0000
0000
1000
0000
0000
0001
0000
0001
0000
0001
0000
,
1000
0000
0000
0001
0000
0100
0010
0000
0010
0000
1000
0000
0100
0000
0100
0000
0010
0000
0001
0000
0001
0000
1000
0000
,
0001
0000
0000
1000
0001
1000
0001
0000
0000
0100
0000
0000
,
0010
0000
0000
1000
0000
0000
0001
0000
0000
0010
0000
0100
,
1000
0000
0000
0100
0000
0010
0001
0000
1000
0000
0010
0000
,
0100
0000
0001
0000
0010
0000
0010
0000
0100
0000
1000
0000
,
0001
0000
0000
0100
0000
0010
1000
0000
0000
0001
0000
0000
,
0010
0000
0000
0100
0000
0000
2000
0000
0000
3001
0000
0001
,
1000
0000
0000
0010
0000
0000
0100
0000
0001
0000
1000
0000
,
0100
0000
1000
0000
0001
0000
0010
0000
1000
0000
0010
0000
,
0100
0010
0002
0023
,
0230
0000
0000
2300
0000
0001
3001
0000
1000
0000
0010
0000
,
1000
0000
0100
0000
0010
0000
0001
0000
1000
0000
0000
0000
,
1000
0000
0010
0000
0100
0000
0001
0000
0010
0000
0001
0000
,
1000
0000
0100
0000
0010
0000
0001
0000
0000
0000
0000
0000
,
1000
0000
0010
0000
0100
0000
0100
0000
0001
0000
0010
0000
,
0001
0000
1000
0000
0010
0000
0100
0000
0100
0000
0000
0001
,
1000
0000
0001
0000
0100
0000
0100
0000
0010
0000
0001
0000
,
1000
0000
0100
0000
1000
0000
2000
0000
3200
0000
0320
0000
,
1031
0010
1000
0100
,
0100
0000
0000
0000
0010
0000
0010
0000
0000
0001
0000
0000
,
0001
0100
0100
0010
,
0010
1000
0001
1000
,
0100
0010
0010
0001
,
0100
0010
0010
1000
,
0100
0010
0100
0100
,
1000
1000
0001
1000
,
0001
1000
0010
0010
,
0010
0010
1000
0100
,
0100
0100
0010
0001
,
0001
0001
0100
0010
,
0010
0010
1000
0001
,
1000
0001
0100
0010
,
0100
0010
1000
1000
,
0001
0001
0010
0100
,
1000
0100
1000
0001
,
0100
0000
0000
0010
0000
0100
0001
0000
0000
1000
0000
0000
,
0100
0000
0000
0010
0000
0010
0001
0000
0000
0001
0000
0000
,
1000
0000
0000
0100
0000
1000
0100
0000
0000
1000
0000
0000
,
0001
0000
0000
0100
0000
0010
0100
0000
0000
0001
0000
1000
,
0001
0000
1000
0000
1001
0001
0001
0001
,
0001
0000
0000
0001
0000
0000
0001
0000
0000
0100
0000
0010
0100
0000
0000
0001
0000
0000
0010
0000
0000
0100
0000
0000
,
1000
0000
0000
0001
0000
1000
0001
0000
0000
1000
0000
0001
1000
0000
0001
0000
0001
0000
0001
0000
1000
0000
1000
0000
,
1000
0000
0000
0001
0000
1000
0002
0000
0000
0000
0000
0000
0000
0000
0000
0000
0000
0000
0103
0000
0000
0000
0000
0000
,
0010
1000
0001
0010
,
0100
0000
1000
0001
0000
0000
0100
0000
0010
0100
0000
0001
,
0000
0010
0000
0010
0000
0001
0000
1000
0000
0100
0000
0010
,
0000
0100
0000
1000
0000
0000
0010
0000
0000
0002
0000
0000
,
0023
0230
2300
3001
,
1000
0010
0010
0100
,
0001
0010
0010
0100
,
1000
0001
0001
0100
,
0010
0000
0100
0000
0001
0000
1001
0001
,
1000
0000
1000
0000
0001
0000
0100
0000
0010
0000
0100
0000
0000
0001
0100
0000
,
0010
1000
0100
0010
0001
1000
1000
0001
,
1000
1000
0001
1001
0000
0000
0010
0000
,
1000
0000
0001
0010
,
0100
0000
1000
0010
,
0000
0100
0001
0100
,
0000
0000
0010
1000
,
0000
0000
0100
0010
,
0000
0000
0000
0001
,
0100
0001
1000
0010
,
0010
0010
1000
0001
,
1000
0001
1000
0010
,
0100
0010
0100
0001
,
0100
0001
0100
0001
,
1000
0001
1000
0001
,
0010
0001
0010
0100
,
0010
0100
0010
0001
,
0001
1000
1000
0110
,
1001
1100
0011
0101
,
0010
1000
0001
1000
,
1000
0001
0001
0010
,
0100
0010
0001
0100
,
0010
0000
0000
0100
0010
0000
0000
0000
0000
0002
0000
0000
,
0000
2003
3020
0230
,
0320
2030
3000
1000
,
0001
0010
0100
1001
,
0010
0100
0001
1000
0000
0000
0100
0000
0000
0010
0000
0000
,
0010
0001
0001
0100
,
0100
0010
0010
1000
,
1000
0000
0000
0001
0000
0000
0001
0000
0000
0010
0000
0100
,
0000
1000
0000
0001
0000
0100
0000
0010
0000
1000
0000
0000
,
1000
0001
0001
0010
,
0010
0100
0100
1000
,
1000
0000
0000
0001
0000
0000
0001
0000
0000
0100
0000
0100
,
0000
0100
0000
0010
0000
0010
0000
0010
0000
0000
0000
1000
,
0001
1000
0001
1000
0000
0001
0000
1000
0000
0000
0000
0010
,
0100
0010
0100
0010
0000
0100
0000
0010
0000
0000
1000
0001
,
1000
0001
1000
0000
0000
0001
0000
0010
0000
0100
0000
0000
,
1000
0001
0100
0110
,
0001
1000
0001
0110
,
0001
1000
0001
0110
,
0001
1000
0001
1010
,
0101
0011
1100
1001
,
0010
1000
0010
0101
,
0001
0010
0001
1100
,
1000
0010
1000
1001
,
0000
0000
0000
0010
0000
0000
0100
0000
0000
0001
0000
0001
,
0000
0000
0000
0000
1000
0000
0000
0000
0000
0000
0000
0000
2002
0000
0000
3003
0000
0000
0100
0000
0000
0000
0100
0000
0001
0000
0000
0000
0000
0000
0100
0000
0000
0000
0000
0000
0001
0000
0000
0000
0000
0000
0100
0000
0000
0000
0000
0000
,
0010
0000
0000
1000
0000
0000
0010
0000
0000
1000
0000
0001
1000
0000
0000
0001
0000
0000
1000
0000
1000
0000
1000
0000
,
0001
0000
0000
1000
0000
0000
0001
0000
0000
1000
0000
0010
0100
0000
0000
0001
0000
0000
0010
0000
0000
0001
0000
0001
,
1000
0000
0000
0100
0000
0000
0010
0000
0000
0001
0000
0000
1000
0000
0001
0000
0100
0000
0010
0000
1000
0000
0001
0000
,
0010
0000
0100
1000
0001
1000
0001
1000
0001
1000
0001
1000
,
0001
0000
0000
0100
0000
0000
0010
0000
0000
1000
0000
0001
,
1000
0000
0000
0001
0000
0000
0010
0000
0000
0100
0000
0100
,
1000
0000
0000
0001
0000
0000
0001
0000
0100
0000
0010
0000
,
1000
0000
0000
1000
0000
0100
1000
0000
0000
0100
0000
0100
,
0010
0000
0000
0001
0000
0000
1000
0000
0000
0001
0000
0001
,
0100
0000
0000
0010
0000
0000
1000
0000
0000
0100
0000
0100
,
0010
0000
0001
0000
1000
0000
0010
0000
0100
0000
0100
0000
,
0010
1000
1000
1000
,
0001
0001
0001
0001
,
1000
1000
1000
1000
,
0010
0010
0010
0010
,
0100
0100
0100
0100
,
0110
0110
0110
0110
,
1001
1001
1001
1001
,
0001
0000
0010
0000
0100
0000
1000
0000
0010
0000
0100
0000
,
0001
1000
0001
1000
,
0110
0001
1000
0001
,
0110
1000
0001
1000
,
0110
0010
0100
0010
,
1001
0001
1000
0001
,
1001
0010
1000
0100
,
0011
0000
0000
0001
0100
0001
0100
0000
0010
0000
1000
0000
,
0010
0000
0000
1000
0100
1000
0100
0000
0010
0000
0010
0000
,
0001
0000
0000
0010
0001
0010
0001
0000
0100
0000
0010
0000
,
1000
0000
0000
0010
1000
0010
1000
0000
0010
0000
1000
0000
,
0100
0000
0010
0001
0010
0001
0100
0000
0010
1000
0010
1000
,
0100
0000
0010
0000
0000
0001
1000
0001
1000
0001
1000
0001
,
1000
0000
0001
0000
1000
0000
2002
0000
0000
0000
0000
0000
,
0000
0000
0000
0000
,
0000
0000
0000
0000
,
0000
0000
3003
0000
;

//---------------dance-single - ----------------
#NOTEDATA:;
#CHARTNAME:;
#STEPSTYPE:dance-single;
#DESCRIPTION:;
#CHARTSTYLE:;
#DIFFICULTY:Edit;
#METER:18;
#RADARVALUES:1.009842,1.667019,1.818409,0.076345,1.552935,2037.000000,1513.000000,524.000000,22.000000,0.000000,3.000000,0.000000,0.000000,0.000000,1.009842,1.667019,1.818409,0.076345,1.552935,2037.000000,1513.000000,524.000000,22.000000,0.000000,3.000000,0.000000,0.000000,0.000000;
#CREDIT:;
#NOTES:
0001
0000
0000
1000
0200
0000
0000
0000
0000
0000
0000
0000
0300
0000
0000
0000
1001
0000
0000
0000
0010
0000
2000
0000
0000
0000
0000
0000
3000
0000
0000
0000
,
1001
0000
0000
0000
0000
0000
0000
0000
0000
0000
0000
0000
0000
0000
0000
0000
0000
0000
0001
0000
0000
0000
0000
0000
0020
0000
0000
0000
0000
0000
0000
0000
0000
0000
0000
0000
0000
0000
0000
0000
0000
0000
0000
0000
0000
0000
0000
0000
0000
0000
0000
0000
0000
0000
0000
0000
0000
0000
0000
0000
0030
0000
0000
0000
0000
0000
0000
0000
0000
0000
0000
0000
1100
0000
0000
0000
0000
0000
0000
0000
0000
0000
0000
0000
0000
0000
0000
0000
1010
0000
0000
0000
0000
0000
0000
0000
0000
0000
0000
0000
0000
0000
0000
0000
0101
0000
0000
0000
0000
0000
0000
0000
0000
0000
0000
0000
0000
0000
0000
0000
0012
0000
0000
0000
0000
0000
0000
0000
0000
0000
0000
0000
0000
0000
0000
0000
0000
0000
0000
0000
0000
0000
0000
0000
0000
0000
0000
0000
0000
0000
0000
0000
0000
0000
0000
0000
0000
0000
0000
0000
0000
0000
0000
0000
0000
0000
0000
0000
0000
0000
0000
0000
0000
0000
0000
0000
0000
0000
0000
0000
0003
0000
0000
0000
0000
0000
0000
0000
0000
0000
0000
0000
,
0100
0000
0000
1000
0002
0000
0000
0000
0000
0000
0000
0000
0003
0000
0000
0000
0110
0000
0000
0010
1000
0000
0020
0000
0000
0000
0000
0000
0000
0000
0030
0000
,
0000
0000
0001
0010
0000
0100
0000
1000
0000
0001
0000
0100
0000
0010
0000
2000
0000
0000
0000
0000
0000
3000
0000
0000
,
1001
0000
0000
0110
0000
0010
1000
0001
1000
0010
0000
0100
,
0001
0001
1000
0101
0000
0001
0010
1000
0010
0001
0000
0010
,
0100
0100
1000
1010
0000
0100
1000
0001
1000
0100
0000
1000
,
0010
0010
1000
1010
0000
0010
0100
0001
0100
0010
0000
0100
,
0001
0001
0100
0101
0000
0101
0011
1010
1100
1001
0000
1010
,
1100
0011
0101
1001
0000
0010
0100
0001
0100
0010
0000
1000
,
0100
0100
1000
1100
0000
0001
0010
1000
0010
0001
0000
0010
,
0100
0100
0010
0110
0000
0100
1000
0001
1000
0100
0000
1000
,
0010
0010
1000
1010
0000
0010
0100
0001
0100
0010
0000
1000
,
0001
0001
1000
1001
0000
0011
0101
1010
1100
1001
0000
1010
,
1100
0000
0011
0000
0101
0000
1001
0000
0010
0100
0010
0100
0110
0000
0010
0100
0010
0100
0110
0000
0010
0100
0010
0100
,
0110
0000
0010
1100
0010
1100
1001
0000
0010
1100
0001
0100
1010
0000
0010
1100
0001
0100
1010
0000
0010
0100
0001
1100
,
1001
0000
0100
0001
0010
1001
0110
0000
0101
0010
1001
0100
1010
0000
0011
0100
1010
0001
0110
0000
0100
0010
0001
1010
,
0101
0000
0100
1001
0010
0101
1010
0000
1000
0101
0010
0100
1010
0000
1000
0011
0100
0010
0101
0000
1001
0010
1100
0001
,
0110
0000
0010
0100
1000
0101
1010
0000
0110
0001
1100
0010
0101
0000
0011
1000
0110
0001
1100
0000
0011
0100
1010
0100
,
1001
0000
0000
0011
1100
0011
1100
0000
0000
1010
0100
0001
,
0110
0000
0000
0011
1000
0100
1010
0000
0000
0010
0001
1100
,
0011
0000
0000
0010
0001
1100
0011
0000
1010
0001
0110
1000
,
0011
0000
1100
0010
0101
1000
0110
0001
1010
0001
0110
0001
,
1010
0100
0010
0101
1000
0011
1100
0000
0000
1001
0010
0100
,
1010
0000
0000
1010
0100
0010
1001
0000
0000
0001
0100
1010
,
0101
0000
0000
0100
0001
0010
1100
0000
0011
0100
1010
0001
,
0110
0000
1100
0001
1010
0001
1100
0010
0101
0010
1100
0001
,
1010
0100
1000
0101
0010
0100
0011
0000
0000
1010
0000
0000
,
1100
0000
0000
0101
0000
0101
0110
0000
1010
0000
1100
0000
,
0110
0000
0011
0000
1001
0000
1100
0000
0110
0000
0000
0101
,
1010
0000
1100
0000
0110
0000
0011
0000
0101
0000
0110
0000
,
1010
0000
0101
0000
1001
0000
0110
0001
0010
0001
0100
0010
,
1100
0000
0101
0000
0011
0000
1010
0000
0110
0001
1100
0010
,
0101
0000
1010
0000
0101
0000
1010
0000
0110
0000
0000
1001
,
0110
0000
0101
0000
1010
0000
0101
0000
0011
0100
1010
0001
,
1100
0000
0000
0000
0000
0000
0000
0000
0000
0000
0000
0000
0000
0000
0000
0000
0000
0000
0000
0000
0000
0000
0000
0000
0000
0000
0000
0000
0000
0000
0000
0000
0110
0000
0000
0000
0000
0000
0000
0000
0000
0000
0000
0000
0000
0000
0000
0000
0000
0000
0000
0000
0000
0000
0000
0000
0000
0000
0000
0000
0000
0000
0000
0000
0101
0000
0000
0000
0000
0000
0000
0000
0000
0000
0000
0000
0000
0000
0000
0000
0000
0000
0000
0000
0000
0000
0000
0000
0000
0000
0000
0000
0000
0000
0000
0000
1100
0000
0000
0000
0000
0000
0000
0000
0000
0000
0000
0000
0000
0000
0000
0000
0000
0000
0000
0000
0000
0000
0000
0000
0000
0000
0000
0000
0000
0000
0000
0000
0011
0000
0000
0000
0000
0000
0000
0000
0000
0000
0000
0000
0000
0000
0000
0000
0000
0000
0000
0000
0000
0000
0000
0000
0000
0000
0000
0000
0000
0000
0000
0000
0110
0000
0000
0000
0000
0000
0000
0000
0000
0000
0000
0000
0000
0000
0000
0000
0000
0000
0000
0000
0000
0000
0000
0000
0000
0000
1000
0000
0000
0000
0000
0000
,
0001
0000
0000
0110
0000
1100
0011
0000
0010
1000
0010
1000
,
0001
0000
0001
1010
0100
1000
0101
0000
0110
0001
0000
0000
,
0001
0000
1000
0011
0100
1001
1010
0000
0000
0010
0000
1000
,
0110
0001
1010
0100
0011
0100
1001
0000
0000
1000
0001
0100
,
0010
0000
0010
1100
0001
1010
1100
0000
0100
1000
0100
0010
,
0001
0000
1000
0011
0100
1010
1001
0000
0100
0011
0000
0001
,
0010
0000
0100
0010
1001
0110
1000
0101
0010
1100
0001
0110
,
0001
1000
0110
0001
1100
0010
0101
0010
0100
1000
0100
0010
,
0001
1000
0010
0101
0010
1100
0011
0000
0010
1000
0010
1000
,
0001
0000
0001
1010
0100
1000
0101
0000
0110
0001
0000
0000
,
0001
0000
1000
0011
0100
1001
1010
0000
0000
0010
0000
1000
,
0110
0001
1010
0100
0011
0100
1001
0000
0000
1000
0001
0100
,
0010
0000
0010
1100
0001
1010
1100
0000
0100
1000
0100
0010
,
0001
0000
1000
0011
0100
1010
1001
0000
0100
0011
0000
0001
,
0010
0000
0100
0010
1001
0110
1000
0101
0010
1100
0001
0110
,
0001
1000
0110
0001
1100
0010
0101
0010
0100
1000
0100
0010
,
0001
1000
0010
0100
0001
0010
1100
0000
1000
0010
0001
0010
,
1000
0000
0100
0100
0010
0100
0110
0000
0001
0010
1000
0010
,
0001
0000
0001
0010
0010
0001
0011
0000
0100
0010
1000
0010
,
0100
0000
0001
0001
0010
0001
0011
0000
0100
1000
0010
1000
,
0100
0000
0100
0100
1000
0100
1100
0000
1100
1010
0101
0011
,
1001
0000
0000
0000
0101
0000
0011
0000
1100
0000
1010
0000
1001
0000
0010
0100
0010
0100
0110
0000
0010
0100
0010
0100
,
0110
0000
0010
0100
0010
0100
0110
0000
0010
1100
0010
1100
1001
0000
0010
1100
0001
0100
1010
0000
0010
1100
0001
0100
,
1010
0000
0010
0100
0001
1100
1001
0000
0100
0001
0010
1001
0110
0000
0101
0010
1001
0100
1010
0000
0011
0100
1010
0001
,
0110
0000
0100
0010
0001
1010
1002
0000
0000
0000
0000
0000
1103
0000
0000
0000
0110
0000
1001
0000
0000
0000
0000
0000
,
1001
0100
0010
1100
0000
0000
0110
1000
0001
1100
0000
0000
,
0100
0010
0101
1100
0000
0000
1000
0100
0001
1010
0000
0101
,
1000
0011
1000
0101
0000
1010
0100
1010
0001
1100
0010
0101
,
0010
1001
0100
1010
0001
0100
1001
0010
0100
1010
0000
0000
,
0011
0000
0000
0101
0000
0000
1100
0000
0000
0110
1000
0011
,
0000
1100
0000
0110
0000
0101
0000
0110
0000
1010
0100
1001
,
0000
0010
0000
1100
0000
0011
0000
0101
0000
1010
0001
0110
,
0000
1001
0000
0011
0000
1100
0000
1010
0000
0101
0010
1000
,
0001
0000
0010
0000
0100
0000
1010
0000
0000
0000
0011
0000
0000
0000
1100
0000
0000
0000
0101
0000
0000
1000
0001
0000
,
1000
0000
0000
0000
0001
0000
0001
0000
0000
0000
0000
0000
1000
0000
0000
0000
0000
0000
0010
0000
0000
0000
0000
0000
0100
0000
0000
0000
0000
0000
0001
0000
0000
0000
0000
0000
0010
0000
0000
0100
0000
0000
0010
0000
0000
0000
0000
0000
,
0200
0000
0000
1300
0000
0000
0001
0000
0000
0100
0010
0000
1000
0000
0100
0010
0000
0000
0100
0000
0000
0001
0000
0000
,
1100
0000
0000
0000
0000
0000
0000
0000
0000
0000
0000
0000
0000
0000
0000
0000
0000
0000
0000
0000
0000
0000
0000
0000
0011
0000
0000
0000
0000
0000
0000
0000
0000
0000
0000
0000
0000
0000
0000
0000
0000
0000
0000
0000
0000
0000
0000
0000
0110
0000
0000
0000
0000
0000
0000
0000
0000
0000
0000
0000
0000
0000
0000
0000
0000
0000
0000
0000
0000
1000
0000
0000
0001
0000
0000
0000
0000
0000
0000
0000
0000
0000
0000
0000
0000
0000
0000
0000
0000
0000
0000
0000
0000
0000
0000
0000
0110
0000
0000
0000
0000
0000
0000
0000
0000
0000
0000
0000
0000
0000
0000
0000
0000
0000
0000
0000
0000
0000
0000
0000
0000
0000
0000
0000
0000
0000
0000
0000
0011
0000
0000
0000
0000
0000
0000
0000
0000
0000
0000
0000
0000
0000
0000
0000
1100
0000
0000
0000
0000
0000
0000
0000
0000
0000
0000
0000
0000
0000
0000
0000
0000
0000
0000
0000
0000
0000
0000
0000
0000
0000
0000
0000
0000
0000
0000
0000
0100
0000
0000
0000
0000
0000
0000
0000
0000
0000
0000
0000
0000
0000
0000
0000
,
0001
0100
0001
1000
0000
1000
0101
0010
0001
1010
0000
0110
,
1000
0001
0100
0010
0000
0001
1100
0010
1001
0101
0000
0000
,
0100
0000
0001
0110
1000
0101
0010
1100
0010
1001
0000
0000
,
0001
1000
0010
0100
0000
0100
0011
1000
0101
0011
0000
0010
,
0001
0010
0100
1000
0000
0001
1100
0010
0101
1001
0000
0010
,
1100
0000
1000
0100
0000
0010
0100
0001
0110
1001
0010
1100
,
0001
1010
0100
1001
0010
0101
1000
0011
0100
1010
0100
0010
,
0001
0010
0100
1000
0001
0100
1010
0100
0011
1100
0000
0100
,
0001
0100
0001
1000
0000
1000
0101
0010
0001
1010
0000
0110
,
1000
0100
0010
0001
0000
0001
1100
0010
1001
0101
0000
0010
,
0100
1000
0001
0110
1000
0101
0010
1100
0010
1001
0000
1000
,
0001
1000
0010
0100
0000
0100
0011
1000
0101
0011
0000
0010
,
0001
0010
0100
1000
0000
0001
1100
0010
0101
1001
0000
0110
,
1000
0001
1000
0100
0000
0010
0100
0001
0110
1001
0010
0101
,
0010
1100
0001
1010
0001
0110
1000
0011
0100
1010
0100
0010
,
0001
1000
0001
1100
0100
1100
0001
1000
0100
0012
0000
1000
,
1000
0010
0000
0103
0000
1000
1000
0010
0000
0100
0002
1000
,
1003
0010
1000
0020
0000
0100
0130
0001
1000
0010
0100
0001
,
0100
0010
0100
0001
0100
0010
0100
0001
0100
0010
1000
0001
,
1000
0100
1000
0001
0010
0200
0000
1000
1300
2000
0000
0001
,
3001
0000
1000
0000
0010
0000
0200
0000
0000
0300
0100
0000
0001
0000
0010
0000
0001
0000
0100
0000
0010
0000
0100
0000
,
0001
0100
0010
2000
0000
3001
0001
0010
0000
0100
0010
0100
,
1000
0000
0001
0000
0100
0010
1000
0001
0010
0100
1000
0100
0010
0001
1000
0000
0010
0000
0200
0000
0000
0000
0000
0000
,
0301
0100
0010
0200
0000
0000
0311
1010
1100
0101
0000
0001
,
0100
0010
0100
0001
0000
0010
0100
0100
0000
0110
0000
0100
,
1000
0100
0010
0100
0000
1000
0001
0001
0000
1001
0000
0010
,
0001
0010
1000
0010
0000
0100
0001
0001
0000
0101
0000
0101
,
0000
0110
0000
0110
0000
1010
0000
1010
0000
1001
0000
1000
,
0010
0100
0010
1000
0000
0100
0010
0010
0000
0110
0000
0010
,
0001
0010
0100
0010
0000
0001
1000
1000
0000
1001
0000
0100
,
1000
0100
0001
0100
0000
0010
1000
1000
0000
1010
0000
1010
,
0000
0110
0000
0110
0000
0101
0000
0101
0000
0000
0000
0101
,
0011
1100
1010
1001
0000
0110
0000
1001
0000
0000
0000
1100
,
1010
0101
0011
1001
0000
0110
0000
1001
0000
0000
0000
0110
,
1001
0000
0110
0000
1001
0000
0110
0000
0000
0000
1001
0000
0000
0000
0110
0000
0000
0000
0100
0001
0010
0000
0100
0001
,
1010
0000
0100
0000
1000
0100
0011
0000
0100
0000
0010
0001
1100
0000
0001
0000
0010
1000
0101
0000
0000
0000
0000
0000
,
0001
0010
0100
1000
0000
0000
1001
0100
0010
1001
0000
0000
,
0001
0100
0010
1000
0000
0000
1001
0010
0100
1001
0000
0000
,
0001
0010
0100
1000
0000
0000
1001
0100
0010
1001
0100
0010
,
0001
1000
0100
0001
0010
0100
0011
1010
1100
0101
0000
0000
,
0001
0010
0001
0100
0000
0000
0101
0010
1000
0101
0000
0000
,
0100
1000
0010
0100
0000
0000
1100
0001
0010
1100
0000
0000
,
0100
0010
0001
1000
0000
0000
1000
0100
0001
0110
0000
1001
,
0000
0000
0101
0011
1100
1010
0110
1001
0110
1001
0000
0101
,
0000
0000
1010
0000
0000
0000
2002
0000
0000
3103
0000
0001
0010
0000
0000
0001
0000
0000
0100
0000
0000
0010
0000
1000
,
0010
0000
0100
1000
0000
0000
0001
0000
0000
0010
0000
0010
1000
0000
0000
0100
0000
0000
0001
0000
0010
0000
0001
0000
,
0100
0000
0000
0001
0000
0000
1000
0000
0000
0010
0000
0010
0100
0000
0000
0001
0000
0000
0010
0000
0000
0001
0000
0001
,
1000
0000
0001
1000
0000
0000
0001
0000
0000
0100
0000
0000
0010
0000
0100
0000
0001
0000
1000
0000
0010
0000
0100
0000
,
0001
0000
0110
1001
0110
1001
0110
1001
0110
1001
0100
0011
,
1100
0000
0100
0001
0100
0001
1000
0000
1000
0101
0010
0001
,
1010
0000
0110
1000
0001
0100
0010
0000
0001
1100
0010
1001
,
0101
0000
0000
0100
0000
0001
0110
1000
0101
0010
1100
0010
,
1001
0000
0000
0001
1000
0010
0100
0000
0100
0011
1000
0101
,
0011
0000
0010
0001
0010
0100
1000
0000
0001
1100
0010
0101
,
1001
0000
0010
1100
0000
1000
0100
0000
0010
0100
0001
0110
,
1001
0010
1100
0001
1010
0100
1001
0010
0101
1000
0011
0100
,
1010
0100
0010
0001
0010
0100
1000
0001
0100
1010
0100
0011
,
1100
0010
0100
0001
0100
0001
1000
0010
1000
0101
0010
0001
,
1010
0001
0110
1000
0100
0010
0001
1000
0001
1100
0010
1001
,
0101
1000
0010
0100
1000
0001
0110
1000
0101
0010
1100
0010
,
1001
0100
1000
0001
1000
0010
0100
0001
0100
0011
1000
0101
,
0011
1000
0010
0001
0010
0100
1000
0010
0001
1100
0010
0101
,
1001
0100
0011
1000
0001
1000
0100
0001
0010
0100
0001
0110
,
1001
0010
0101
0010
1100
0001
1010
0001
0110
1000
0011
0100
,
1010
0100
0010
1000
0001
0010
0100
1000
0100
0010
0001
1000
,
0110
1000
0010
0100
0001
0100
0001
0010
0001
1010
0100
1000
,
0011
0100
0001
0100
0010
1000
0010
1000
0001
1100
0010
0100
,
1001
0010
0001
0010
0100
0010
0100
1000
0100
1010
0001
0100
,
0011
1000
0001
1000
0001
0100
0001
0100
0010
0100
0010
1000
,
0010
1000
0100
0010
0001
1000
0010
0100
0001
0010
0100
1000
,
0110
0000
0001
0010
1000
0010
0001
0000
0001
0001
0100
0001
,
0101
0000
0100
0010
1000
0010
0100
0000
0100
0100
0001
0100
,
0101
0000
0001
0010
1000
0010
0001
0000
1000
1000
0010
1000
,
1010
0000
1000
0010
0001
0010
1000
0000
1000
1000
0100
1000
,
1100
0000
0010
0001
1000
0010
0100
0000
0100
0001
0010
0001
,
1100
0000
0011
0000
0000
1000
0100
0010
0100
1000
0001
0100
,
0011
0000
1100
0000
0110
0000
2002
0000
0000
0000
0000
0000
,
0000
0000
0000
0000
,
0000
0000
0000
0000
,
0000
0000
3003
0000
;
