#VERSION:0.83;
#TITLE:Kabuki Quantum Fighter;
#SUBTITLE:~Mindlink OC Rmx~;
#ARTIST:Aureolius;
#TITLETRANSLIT:;
#SUBTITLETRANSLIT:;
#ARTISTTRANSLIT:;
#GENRE:;
#ORIGIN:;
#CREDIT:;
#BANNER:quantumfighter bn.jpg;
#BACKGROUND:quantumfighter bg.png;
#PREVIEWVID:;
#JACKET:quantumfighter jacket.png;
#CDIMAGE:;
#DISCIMAGE:;
#LYRICSPATH:;
#CDTITLE:cdtitle2.png;
#MUSIC:Quantum Fighter.mp3;
#OFFSET:-21.694000;
#SAMPLESTART:33.333000;
#SAMPLELENGTH:12.000000;
#SELECTABLE:YES;
#BPMS:0.000=180.000,
256.000=90.000,
304.000=180.000,
624.000=157.500,
631.000=135.000,
637.000=112.500,
642.000=90.000;
#STOPS:;
#DELAYS:;
#WARPS:;
#TIMESIGNATURES:0.000=4=4;
#TICKCOUNTS:0.000=4;
#COMBOS:0.000=1;
#SPEEDS:0.000=1.000=0.000=0;
#SCROLLS:0.000=1.000;
#FAKES:;
#LABELS:0.000=Song Start;
#BGCHANGES:;
#KEYSOUNDS:;
#ATTACKS:
;

//---------------dance-single - Maro----------------
#NOTEDATA:;
#CHARTNAME:Maro;
#STEPSTYPE:dance-single;
#DESCRIPTION:Maro;
#CHARTSTYLE:;
#DIFFICULTY:Hard;
#METER:14;
#RADARVALUES:0.702646,1.041970,0.170257,0.355647,0.372673,1300.000000,1255.000000,45.000000,94.000000,0.000000,0.000000,0.000000,0.000000,0.000000,0.702646,1.041970,0.170257,0.355647,0.372673,1300.000000,1255.000000,45.000000,94.000000,0.000000,0.000000,0.000000,0.000000,0.000000;
#CREDIT:Maro;
#NOTES:
// measure 0
1000
0020
0000
0130
0002
0000
0013
0200
,  // measure 1
0000
1300
0200
0000
0310
0001
0010
0001
,  // measure 2
0100
0020
0000
0031
0020
0000
1030
0200
,  // measure 3
0000
1300
0020
0000
1030
0010
1000
0010
,  // measure 4
0100
0002
0000
0013
0200
0000
1300
0200
,  // measure 5
0000
0310
0002
0000
0013
0100
1000
0010
,  // measure 6
0100
0002
0000
0013
0002
0000
0103
0020
,  // measure 7
0000
1030
0020
0000
0130
0001
0100
0001
,  // measure 8
1000
2000
0000
3100
0200
0000
0310
0020
,  // measure 9
0000
0031
0002
0000
0013
0100
1000
0100
,  // measure 10
0010
0020
0000
0031
0002
0000
0103
0200
,  // measure 11
0000
0310
0020
0000
0031
0010
1000
0100
,  // measure 12
1000
2000
0000
3010
0020
0000
0130
0200
,  // measure 13
0000
0301
0002
0000
0013
0100
1000
0100
,  // measure 14
1000
2000
0000
3001
0002
0000
0103
0200
,  // measure 15
0000
0310
0020
0000
1030
0010
0100
0001
,  // measure 16
1000
2000
0000
3001
0002
0000
0103
0200
,  // measure 17
0000
0310
0020
0000
1030
1000
0001
0001
,  // measure 18
0100
0200
0000
0301
0002
0000
0013
0020
,  // measure 19
0000
0130
0200
0000
1300
1000
0100
0100
,  // measure 20
0010
0020
0000
0031
0002
0000
0103
0200
,  // measure 21
0000
0310
0020
0000
1030
1000
0001
0001
,  // measure 22
0100
0200
0000
1300
2000
0000
3100
0200
,  // measure 23
0000
0301
0002
0000
0013
0010
0100
0100
,  // measure 24
1001
0101
0110
1010
,  // measure 25
1100
0000
0110
0000
0010
0001
0100
0010
,  // measure 26
0110
0101
0011
0110
,  // measure 27
1100
0000
0110
0000
0010
0001
1000
0010
,  // measure 28
1010
0101
0110
0101
,  // measure 29
1001
0000
1100
0000
0100
0010
0001
0100
,  // measure 30
0110
0011
0110
1010
,  // measure 31
1100
0000
1001
0000
0001
0010
0100
1000
,  // measure 32
0001
0001
0100
0010
0010
1000
0100
0100
,  // measure 33
1000
0010
0010
1000
0001
0010
0100
1000
,  // measure 34
0100
0100
0010
0001
0001
0010
0100
0100
,  // measure 35
1000
0010
0010
0100
0001
1000
0100
0010
,  // measure 36
0001
0001
0100
0010
0010
0001
0010
0010
,  // measure 37
0100
0010
0010
1000
0100
0010
0001
0100
,  // measure 38
0010
0010
1000
0001
0001
1000
0100
0100
,  // measure 39
1000
0001
0001
0010
0100
1000
0010
0100
,  // measure 40
0001
0100
0001
0000
1000
0000
0100
0000
0010
0000
0001
0000
1000
0100
1000
0000
,  // measure 41
0001
0100
0001
0000
1000
0000
0010
0000
0100
0000
0001
0000
0010
0100
0010
0000
,  // measure 42
0001
0010
0001
0000
0100
0000
0010
0000
1000
0000
0100
0000
1000
0010
1000
0000
,  // measure 43
0010
0100
0010
0000
0100
0000
0001
0000
1000
0000
0100
0000
0010
0001
0010
0000
,  // measure 44
0001
1000
0001
0000
1000
0000
0010
0000
0100
0000
0001
0000
0100
0010
0100
0000
,  // measure 45
0010
1000
0010
0000
1000
0000
0100
0000
1000
0000
0010
0000
1000
0001
1000
0000
,  // measure 46
0001
1000
0001
0000
0010
0000
0001
0000
0100
0000
0001
0000
0100
0010
0100
0000
,  // measure 47
0010
0100
0010
0000
1000
0000
0010
0000
0100
0000
0001
0000
1000
0000
0100
0000
,  // measure 48
0010
0010
0001
0010
0010
1000
0010
0010
,  // measure 49
0001
0100
0100
0010
0001
0010
1000
0100
,  // measure 50
1000
1000
0010
0001
0001
0010
0100
0100
,  // measure 51
0010
0001
0001
0010
1000
0100
0010
0001
,  // measure 52
1000
1000
0100
0010
0010
0100
0001
0001
,  // measure 53
0100
1000
1000
0100
1000
0010
0100
0001
,  // measure 54
0010
0010
1000
0010
0010
0100
0010
0010
,  // measure 55
0001
0100
0100
0010
0001
0010
1000
0100
,  // measure 56
1000
0001
1000
0001
1000
0000
0001
0000
0100
0000
0010
0000
1000
0100
0010
0000
,  // measure 57
0010
0100
1000
0000
0010
0000
0100
0000
0001
0000
0010
0000
0100
0010
0001
0000
,  // measure 58
0001
0010
0100
0000
0010
0000
0001
0000
1000
0000
0010
0000
0100
0001
1000
0000
,  // measure 59
1000
0001
0100
0000
0010
0000
1000
0000
0100
0000
0010
0000
0001
1000
0010
0000
,  // measure 60
0010
1000
0001
0000
0100
0000
0010
0000
0001
0000
0010
0000
1000
0100
0010
0000
,  // measure 61
0010
0100
1000
0000
0100
0000
0010
0000
0001
0000
0100
0000
1000
0100
0001
0000
,  // measure 62
0001
0100
1000
0000
0100
0000
0001
0000
0010
0000
0100
0000
0010
0001
1000
0000
,  // measure 63
1000
0001
0010
0000
0100
0000
1000
0000
0010
0000
0100
0000
1001
0000
0010
0000
,  // measure 64
0220
0000
0330
2000
,  // measure 65
0002
0000
3003
0000
,  // measure 66
2020
0000
3030
0200
,  // measure 67
0002
0000
0000
0300
2000
0000
0000
3003
,  // measure 68
1000
0100
0000
0100
1000
0000
1000
0010
0000
0010
1000
0000
1000
0001
0010
0100
,  // measure 69
0010
0001
0000
0001
0100
0000
0100
0001
0000
0001
0010
0000
0010
0100
1000
0010
,  // measure 70
0100
0001
0000
0001
1000
0000
1000
0100
0000
0100
1000
0000
1000
0010
0100
0001
,  // measure 71
0010
0100
0000
0100
1000
0000
1000
0001
0000
0001
0010
0000
0100
0010
0001
1000
,  // measure 72
0001
0010
0100
0010
0001
0100
0010
0001
0010
0100
0010
1000
0100
0010
0100
1000
,  // measure 73
0100
0001
0100
1000
0010
0100
1000
0100
0010
1000
0100
0010
0001
0010
0100
1000
,  // measure 74
0001
0001
1000
1000
0010
0010
0100
0100
0001
0001
1000
1000
0100
0100
0010
0010
,  // measure 75
0001
1000
0001
1000
0001
1000
0001
1000
0001
1000
1001
0000
1010
0000
0101
0000
,  // measure 76
1000
0000
0100
0010
0100
0000
0010
0000
0001
0100
0001
0000
0100
0000
0010
0001
,  // measure 77
0010
0000
0100
0000
0010
1000
0010
0000
1000
0000
0100
0000
0010
0000
0001
0000
,  // measure 78
1000
0000
0001
0100
0001
0000
0100
0000
1000
0100
1000
0000
0100
0000
0010
1000
,  // measure 79
0010
0000
1000
0000
0100
0010
0100
0000
0010
0000
0001
0000
0100
0000
0001
0000
,  // measure 80
0010
0000
0100
1000
0100
0000
0010
0000
0001
1000
0001
0000
1000
0000
0010
0001
,  // measure 81
0010
0000
0100
0000
0001
0100
0001
0000
1000
0000
0100
0000
1000
0000
0010
0000
,  // measure 82
0100
0000
0001
0010
0001
0000
0010
0000
0100
0010
0100
0000
1000
0000
0100
1000
,  // measure 83
0100
0000
1000
0000
0001
0010
0001
0000
1000
0000
0010
0000
0100
0000
0001
0000
,  // measure 84
1000
0000
0010
1000
0010
0000
0100
0000
0001
0100
0001
0000
0010
0000
0100
0010
,  // measure 85
0100
0000
0010
0000
0001
0010
0001
0000
1000
0000
1000
0000
0100
0000
0100
0000
,  // measure 86
0010
0000
0001
1000
0001
0000
1000
0000
0010
1000
0010
0000
0100
0000
0001
0100
,  // measure 87
0001
0000
0010
0000
0100
1000
0100
0000
0010
0000
0010
0000
0001
0000
0001
0000
,  // measure 88
1000
0000
0010
1000
0010
0000
0001
0000
0010
0100
0010
0000
1000
0000
0100
1000
,  // measure 89
0100
0000
1000
0000
0001
0100
0001
0000
1000
0000
1000
0000
0010
0000
0010
0000
,  // measure 90
0100
0001
0100
0000
0001
1000
0001
0000
1000
0100
1000
0000
0010
1000
0010
0000
,  // measure 91
1000
0001
0010
0100
1000
0001
0010
0100
2000
0000
3020
0000
0230
0000
0302
0000
,  // measure 92
2003
0100
0010
0001
,  // measure 93
0010
0100
3002
0010
,  // measure 94
0023
0000
0000
0130
2000
0000
3010
0200
,  // measure 95
0000
0302
1000
0000
0010
0000
0100
0000
,  // measure 96
0023
1000
0100
0001
,  // measure 97
1000
0000
0001
0000
0230
2000
0000
0300
,  // measure 98
3002
0000
0103
0010
2000
0000
3020
0200
,  // measure 99
0000
0000
0000
0330
0010
1000
0001
0100
,  // measure 100
0010
1000
1100
0000
0100
0010
0011
0000
,  // measure 101
0001
0100
0110
0000
0100
0001
1001
0000
,  // measure 102
1000
0100
0110
0000
0010
0001
1001
0000
,  // measure 103
1000
0010
0110
0000
0100
0001
0101
0000
,  // measure 104
0001
1000
0110
0000
1000
0010
0101
0000
,  // measure 105
0001
0010
1100
0000
0010
0001
1010
0000
,  // measure 106
1000
0100
0011
0000
0100
0010
0101
0000
,  // measure 107
1000
0010
1001
0000
0002
0023
0230
2300
,  // measure 108
3001
0100
0010
0100
0001
1000
0100
0010
,  // measure 109
0100
1000
0001
0010
0100
0010
0001
0100
,  // measure 110
0010
1000
0001
0100
0010
0100
0001
0010
,  // measure 111
0100
1000
0100
0010
0100
1000
0010
0100
,  // measure 112
0001
0010
0100
0010
0001
0100
0010
1000
,  // measure 113
0100
0010
0001
0100
0010
0100
0001
1000
,  // measure 114
0010
0100
0001
1000
0100
0010
0100
1000
,  // measure 115
0010
0100
0001
1000
0010
0100
0001
0010
,  // measure 116
0100
1000
0010
1000
0001
0100
0001
0010
,  // measure 117
0001
1000
0001
0100
0010
0100
1000
0100
,  // measure 118
0010
0100
0001
0010
0100
0010
1000
0010
,  // measure 119
0001
0100
0010
0100
0001
0100
1000
0100
,  // measure 120
0001
1000
0100
0010
0001
0100
0010
1000
,  // measure 121
0001
0001
0010
0010
0100
0100
1000
1000
,  // measure 122
0100
0010
0100
0000
0010
0001
0010
0000
0001
0100
0001
0000
0100
0010
0100
0000
,  // measure 123
0010
1000
0010
0000
1000
0100
1000
0000
0001
0100
0001
0000
1000
0100
0010
0001
,  // measure 124
1000
0000
0100
0010
0100
0000
0010
0000
0001
0000
0001
0000
0100
0000
0010
1000
,  // measure 125
0010
1000
0100
0100
0010
0001
1000
0010
,  // measure 126
0100
0000
0001
0100
0001
0000
1000
0000
0100
0000
0100
0000
0010
0000
0001
0010
,  // measure 127
0001
0010
0100
0100
1000
0010
0100
0001
,  // measure 128
1000
0000
0010
1000
0010
0000
0100
0000
0001
0100
0001
0000
1000
0000
0100
0000
,  // measure 129
0010
0000
0001
1000
0001
0000
1000
0000
0010
0000
0100
0000
0001
0000
0010
0000
,  // measure 130
0100
0000
1000
0100
1000
0000
0100
0000
0010
0001
0010
0000
0001
0000
0100
0000
,  // measure 131
0100
0000
0010
0000
1000
0010
1000
0000
0001
0000
0100
0000
0010
0000
0100
0000
,  // measure 132
0001
0100
0010
0000
0100
0000
0001
1000
0000
1000
0010
0000
0100
0000
0001
0000
,  // measure 133
0010
0100
1000
0000
0100
0000
0010
0001
0000
0010
0001
0000
0100
0000
0010
0000
,  // measure 134
1000
0100
1000
0000
0010
0000
0100
0001
0000
0001
0010
0000
0100
0000
1000
0000
,  // measure 135
0001
0100
0001
0000
1000
0000
0010
0100
0000
0010
0100
0000
0001
0000
1000
0000
,  // measure 136
0100
0010
0001
0000
1000
0000
0010
0100
0000
0100
0010
0000
1000
0000
0100
0000
,  // measure 137
0010
0001
1000
0000
0010
0000
0100
0001
0000
0001
0010
0000
0100
0000
0010
0000
,  // measure 138
0001
1000
0100
0000
1000
0000
0010
0100
0000
0001
1000
0000
0100
0000
1000
0000
,  // measure 139
0010
0100
0001
0000
1000
0000
0010
0100
0000
0001
1000
0000
0100
0000
0010
0000
,  // measure 140
0001
0010
0001
0000
0100
0000
0010
1000
0010
1000
0010
0000
1000
0000
0100
0000
,  // measure 141
1000
0100
1000
0000
0010
0000
0100
0001
0100
0001
0100
0000
0001
0000
0010
0000
,  // measure 142
0100
1000
0100
0000
0010
0000
0001
1000
0001
1000
0001
0000
0100
0000
0010
0000
,  // measure 143
1000
0100
0010
0000
0001
0000
1000
0010
1000
0010
1000
0000
0001
0000
0100
0000
,  // measure 144
0010
1000
0001
0000
0100
0010
1000
0000
0001
0100
0010
0000
0100
0001
1000
0000
,  // measure 145
0100
0010
0001
0000
0010
0100
1000
0000
0001
0010
0100
0000
0010
0001
1000
0000
,  // measure 146
0001
0100
0001
0000
1000
0100
1000
0000
0001
0100
0001
0000
1000
0100
1000
0000
,  // measure 147
0001
0010
0100
1000
0010
0100
0001
0010
0100
1000
0010
0100
0001
1000
0001
1000
,  // measure 148
0001
0200
0000
0310
2000
0000
3100
2000
,  // measure 149
0000
3010
0200
0000
0301
0010
0100
1000
,  // measure 150
0100
0020
0000
0031
0200
0000
0310
2000
,  // measure 151
0000
3001
0200
0000
0310
0100
0001
1000
,  // measure 152
0200
0000
0000
0000
,  // measure 153
0000
0000
0000
0000
,  // measure 154
0020
0000
0300
0000
,  // measure 155
0000
0000
0000
0000
,  // measure 156
0032
0000
0000
0000
,  // measure 157
0000
0000
0000
2003
,  // measure 158
0000
0000
0000
0000
,  // measure 159
0000
3020
0000
0000
,  // measure 160
0000
0000
0230
0000
,  // measure 161
0310
2000
0000
0000
0000
0002
0000
0000
3000
0000
0000
0000
0000
0000
0000
0000
,  // measure 162
0003
0000
0000
0000
;

//---------------dance-single - Maro----------------
#NOTEDATA:;
#CHARTNAME:Maro;
#STEPSTYPE:dance-single;
#DESCRIPTION:Maro;
#CHARTSTYLE:;
#DIFFICULTY:Challenge;
#METER:19;
#RADARVALUES:1.017756,1.911792,0.211875,0.071886,1.165312,1883.000000,1827.000000,56.000000,19.000000,0.000000,0.000000,0.000000,0.000000,0.000000,1.017756,1.911792,0.211875,0.071886,1.165312,1883.000000,1827.000000,56.000000,19.000000,0.000000,0.000000,0.000000,0.000000,0.000000;
#CREDIT:Maro;
#NOTES:
0001
0000
0001
0010
0001
0000
0001
0000
0001
0100
0001
0000
0001
0000
0001
1000
,
0001
0000
0001
0000
0001
0100
0010
0000
1000
0000
0100
0000
0010
0000
0001
0000
,
1000
0000
1000
0100
1000
0000
1000
0000
1000
0010
1000
0000
1000
0000
1000
0001
,
1000
0000
1000
0000
1000
0100
0010
0000
0001
0000
0100
0000
0010
0000
1000
0000
,
0001
0000
0001
0010
0001
0000
0001
0000
0001
0100
0001
0000
0001
0000
0001
1000
,
0001
0000
1000
0000
0010
0100
0001
0000
1000
0000
0100
0000
0010
0000
0001
0000
,
1000
0000
1000
0100
1000
0000
1000
0000
1000
0001
1000
0000
1000
0000
1000
0010
,
1000
0000
0001
0000
0100
0010
1000
0000
0001
0000
0100
0000
0010
0000
1000
0000
,
0001
0000
0100
0001
0100
0000
0001
0000
0100
0001
0100
0000
0001
0000
0100
0001
,
0100
0000
0001
0000
0010
0100
1000
0000
0001
0000
0010
0000
0100
0000
1000
0000
,
0010
0000
0100
0010
0100
0000
0010
0000
0100
0010
0100
0000
0010
0000
0100
0010
,
0100
0000
0001
0000
1000
0100
0010
0000
0001
0000
0010
0000
0100
0000
1000
0000
,
0001
0000
1000
0010
1000
0000
0010
0000
1000
0010
1000
0000
0010
0000
1000
0010
,
1000
0000
0001
0000
0100
0010
1000
0000
0001
0000
0010
0000
0100
0000
1000
0000
,
0001
0000
0010
0100
0010
0000
0100
0000
0010
0100
0010
0000
0100
0000
0010
0100
,
0010
0000
0001
0000
0100
0010
1000
0000
0001
0000
0010
0000
0100
0000
1000
0000
,
0010
0000
1000
0010
1000
0000
0001
0000
1000
0010
1000
0000
0100
0000
1000
0010
,
1000
0000
0001
0000
0100
0010
0100
0000
0010
0000
1000
0000
0100
0000
0010
0000
,
0001
0000
0100
0001
0100
0000
0010
0000
0100
0001
0100
0000
1000
0000
0100
0001
,
0100
0000
0001
0000
0010
0100
0010
0000
0001
0000
1000
0000
0100
0000
1000
0000
,
0010
0000
0100
0010
0100
0000
1000
0000
0100
0010
0100
0000
0001
0000
0100
0010
,
0100
0000
0001
0000
0010
0100
0010
0000
0001
0000
0010
0000
0100
0000
1000
0000
,
0010
0000
1000
0100
1000
0000
0010
0000
0100
0010
0100
0000
0010
0000
1000
0100
,
1000
0000
0001
0000
1000
0100
0010
0000
0001
0000
0010
0000
0100
0000
1000
0000
,
1001
0000
0001
0100
0010
0000
0010
0000
0010
0100
0001
0000
1000
0000
1000
0100
,
0010
0000
0010
0000
0010
0100
1000
0000
0010
0000
0100
0000
0001
0000
1000
0000
,
0010
0000
0100
0001
1000
0000
1000
0000
1000
0001
0100
0000
0010
0000
1000
0100
,
0010
0000
0010
0000
0010
0100
1000
0000
0001
0000
0010
0000
0100
0000
1000
0000
,
0001
0000
0010
0100
1000
0000
1000
0000
1000
0100
0010
0000
0001
0000
0100
0010
,
1000
0000
1000
0000
1000
0010
0100
0000
0001
0000
1000
0000
0100
0000
0010
0000
,
0001
0000
1000
0010
0001
0000
0001
0000
0001
0010
1000
0000
0100
0000
0010
0001
,
0100
0000
0100
0000
0100
0001
0010
0000
0100
0000
1000
0000
0010
0000
0100
0000
,
0001
0000
0100
0010
1000
0000
0100
0000
0010
0001
0100
0000
0001
0000
0010
0100
,
1000
0000
0010
0000
0100
0001
1000
0000
0100
0000
0010
0000
0011
0000
0001
0000
,
0100
0000
0010
1000
0100
0000
1000
0000
0010
0100
0001
0000
0010
0000
0100
1000
,
0001
0000
1000
0000
0010
0100
0001
0000
1000
0000
0010
0000
0110
0000
0100
0000
,
0001
0000
0010
0100
1000
0000
0100
0000
0001
0100
1000
0000
0010
0000
0100
0001
,
0010
0000
0100
0000
0010
0001
0100
0000
0010
0000
1000
0000
1001
0000
0001
0000
,
0100
0000
0010
1000
0001
0000
1000
0000
0100
0010
0001
0000
0100
0000
1000
0100
,
0001
0000
0010
0000
0100
1000
0001
0000
0100
0000
0010
0000
1010
0000
1000
0000
,
0001
0100
0001
0100
0010
0000
1000
0000
0100
0000
0010
0000
0001
0100
0010
0100
,
0001
1000
0001
1000
0100
0000
0010
0000
0001
0000
1000
0000
0010
1000
0100
1000
,
0010
0100
0010
0100
0001
0000
0010
0000
1000
0000
0010
0000
0001
0100
0010
0100
,
0001
1000
0001
1000
0100
0000
0010
0000
0001
0000
1000
0000
0001
0100
1000
0100
,
0001
0010
0001
0010
0100
0000
1000
0000
0010
0000
0100
0000
0001
0010
0100
0010
,
0001
1000
0001
1000
0100
0000
1000
0000
0010
0000
0001
0000
0010
1000
0100
1000
,
0010
0100
0010
0100
0001
0000
0010
0000
0100
0000
1000
0000
0001
0010
1000
0010
,
0001
0100
0001
0100
0010
0000
0001
0000
0010
0000
1000
0000
1001
0000
0010
0000
,
0001
0000
0100
0010
1000
0000
0100
0000
0010
0001
1000
0000
1001
0000
0010
0100
,
0001
0000
1000
0000
0100
0010
0001
0000
1000
0000
0010
0000
0110
0000
0100
0000
,
0001
0000
1000
0100
0010
0000
0001
0000
0001
0010
0100
0000
1100
0000
1000
0010
,
0100
0000
0001
0000
0100
0010
1000
0000
0001
0000
0010
0000
0110
0000
0100
0000
,
1000
0000
0001
0010
0100
0000
0010
0000
0001
0100
0010
0000
0110
0000
0010
0100
,
0001
0000
1000
0000
0100
0010
0001
0000
1000
0000
0100
0000
1100
0000
1000
0000
,
0010
0000
0100
0001
0010
0000
0100
0000
0010
0001
0100
0000
0101
0000
0010
1000
,
0100
0000
1000
0000
0010
0100
0001
0000
1000
0000
0010
0000
0110
0000
1000
0000
,
0001
0100
1000
0100
0001
0000
0010
0000
0100
0000
1000
0000
0010
1000
0001
0010
,
0100
1000
0001
0000
1001
0000
0100
0000
0010
0000
1000
0000
0100
0010
0001
0100
,
0010
1000
0100
0000
0110
0000
0010
0000
0001
0000
0100
0000
0010
0001
0010
1000
,
0100
0010
0001
0000
1001
0000
1000
0000
0010
0000
0100
0000
0010
1000
0100
1000
,
0010
0100
0001
0000
0011
0000
0010
0000
0100
0000
1000
0000
0001
0010
0100
0010
,
0001
0100
0010
0000
1010
0000
1000
0000
0100
0000
1000
0000
0010
0100
0001
0010
,
0100
1000
0001
0000
1001
0000
1000
0000
0100
0000
0010
0000
0001
1000
0010
0100
,
0001
1000
0100
0000
0110
0000
0010
0000
0001
0000
0100
0000
0110
0000
1000
0000
,
2002
0000
0000
3000
0200
0003
0320
0000
,
2000
0000
0000
0030
0002
0000
0000
3003
,
0022
0000
0000
0030
0200
0003
0320
0000
,
1030
0100
0010
0001
0010
0100
2000
0000
0000
0000
0000
0000
,
3001
0000
0100
0001
0100
0000
0010
0000
1000
0100
1000
0000
0010
0000
0100
0001
0100
0000
0001
0000
0010
0100
0010
0000
0001
0000
1000
0000
0100
0000
1000
0000
,
0010
0000
0100
0010
0100
0000
0001
0000
0010
0100
0010
0000
0001
0000
1000
0100
1000
0000
0010
0000
0100
0001
0100
0000
0010
0000
1000
0000
0001
0000
0010
0000
,
1000
0000
0010
0001
0010
0000
0001
0000
0100
0010
0100
0000
0010
0000
1000
0001
1000
0000
0100
0000
0010
0001
0010
0000
0100
0000
1000
0000
0010
0000
0100
0000
,
0001
0000
1000
0100
1000
0000
0010
0000
0100
0001
0100
0000
0001
0000
0010
0100
0010
0000
0001
0000
1000
0001
1000
0000
0010
0000
0100
0000
0001
0000
1000
0000
,
0001
0100
0110
1000
0100
0010
0011
1000
0010
0100
0101
0010
0100
0001
1001
0100
,
0010
0001
0011
1000
0010
0100
0110
1000
0001
0100
0101
0010
1000
0100
0110
0010
,
0001
0010
0100
1000
0010
0100
0001
0100
0010
1000
0100
0010
0001
0100
0010
1000
0001
0010
0100
1000
0010
0100
0001
1000
0100
0010
0001
0100
0010
1000
0001
0100
,
0010
0100
0010
0100
0010
0100
0010
0100
0010
0100
0010
0100
0010
0100
0010
0100
0010
1000
0001
0000
0101
0000
0100
0000
0110
0000
0010
0000
1010
0000
1000
0000
,
0001
0000
0100
0010
1000
0010
0100
0000
0001
0010
0100
0010
0001
0000
1000
0100
,
0010
0100
1000
0000
0001
0100
0010
0000
1000
0000
0001
0000
0101
0000
0010
0000
,
0100
0000
0001
0010
0100
1000
0100
0000
0010
0001
1000
0001
0010
0000
0100
1000
,
0010
1000
0100
0000
0010
0001
1000
0000
0010
0000
0100
0000
1001
0000
1000
0000
,
0100
0000
0010
0001
1000
0001
0010
0000
0100
1000
0010
1000
0100
0000
0010
0001
,
1000
0010
0100
0000
0001
0100
0010
0000
1000
0000
0100
0000
1100
0000
0010
0000
,
0001
0000
1000
0010
0100
0001
0010
0000
0100
0010
0001
0100
0010
0000
1000
0010
,
0100
0001
1000
0000
0100
0010
0001
0000
1000
0000
0010
0000
0110
0000
0100
0000
,
0001
0000
0010
0100
1000
0100
0010
0000
0001
0010
0100
0010
0001
0000
1000
0010
,
0100
0010
1000
0000
0001
0100
0010
0000
1000
0000
0001
0000
0101
0000
0010
0000
,
1000
0000
0100
1000
0010
0001
0010
0000
1000
0100
0001
0100
1000
0000
0010
0100
,
0001
0010
0100
0000
1000
0100
0010
0000
0001
0000
0010
0000
0110
0000
0100
0000
,
1000
0000
0001
0100
0010
1000
0001
0000
0010
1000
0010
0001
0100
0000
0010
1000
,
0010
0001
0010
0000
1000
0100
0010
0000
0100
0000
1000
0000
1010
0000
0010
0000
,
0100
0001
0010
0100
1000
0010
0001
0010
1000
0100
0001
0100
1000
0010
0100
0001
,
0010
0100
1000
0100
0010
0001
0100
0010
1000
0001
0010
0100
1000
0010
0100
0001
,
1000
0100
1000
0100
0010
0100
0010
0100
,
0001
0100
0001
0100
1000
0100
1000
0100
,
1000
0010
1000
0010
0100
0010
0100
0010
,
0001
0010
0001
0010
0100
0010
0100
0010
,
0100
0001
0100
0001
0010
0001
0010
0001
,
0010
0100
0010
0100
0010
0001
0010
0001
,
1000
0001
1000
0001
1000
0010
1000
0010
,
0001
0010
0001
0010
1000
0100
0010
0001
,
1000
0010
1000
0000
0010
0000
0100
0001
0000
0001
0100
0000
0001
0000
0010
0000
,
0100
0010
0100
0000
0010
0000
0001
1000
0000
1000
0001
0000
0100
0000
0001
0000
,
0010
0100
0010
0000
0001
0000
0010
0100
0000
0100
0010
0000
0001
0000
1000
0000
,
0010
1000
0010
0000
0100
0000
0010
0100
0000
0100
0010
0000
1000
0000
0100
0000
,
0010
0001
0010
0000
0001
0000
0100
0010
0000
0010
0100
0000
0001
0000
0010
0000
,
0100
1000
0100
0000
1000
0000
0010
1000
0000
1000
0010
0000
0100
0000
0001
0000
,
0010
0100
0010
0000
0001
0000
0100
0010
0000
0010
0001
0000
0010
0000
0100
0000
,
0001
0010
0001
0000
0010
0000
0100
1000
0000
1000
0010
0000
1000
0000
0100
0000
,
1000
0100
1000
0000
1010
0000
0100
0000
0001
0010
0001
0000
0101
0000
0010
0000
,
1000
0001
1000
0000
1010
0000
0100
0000
0001
0010
0001
0000
0110
0000
1000
0000
,
0001
1000
0001
0000
1010
0000
0100
0000
0001
0010
0001
0000
0110
0000
1000
0000
,
0010
0100
0010
0000
1010
0000
0100
0000
0010
0001
0010
0000
0101
0000
0010
0000
,
1000
0001
1000
0000
0110
0000
0001
0000
1000
0100
1000
0000
0110
0000
0001
0000
,
0100
0010
0100
0000
0011
0000
0100
0000
1000
0001
1000
0000
1010
0000
0100
0000
,
0001
0010
0100
0000
1100
0000
1000
0010
0000
1000
0010
0000
0100
0000
0001
0000
,
0010
0001
0010
0000
0011
0000
0001
0100
0000
0001
0100
0000
0010
0000
1000
0000
,
0001
0100
0010
0000
1000
0100
0010
0000
0100
1000
0001
0000
1000
0001
0100
0000
,
0010
0100
0001
0000
1000
0001
0010
0000
0100
1000
0001
0000
1000
0100
0010
0000
,
0001
0010
0100
0000
0010
0001
0100
0000
0010
1000
0001
0000
1000
0010
0100
0000
,
0010
1000
0001
0000
0010
0100
1000
0000
0100
0010
0001
0000
0100
0010
1000
0000
,
0001
0100
0010
0000
0100
0001
0010
0000
0100
1000
0001
0000
1000
0100
0010
0000
,
0001
0010
1000
0000
0010
0001
0100
0000
0010
0100
0001
0000
1000
0010
0100
0000
,
0010
0100
0010
0100
0001
1000
0001
1000
0010
0100
0010
0100
0001
1000
0001
1000
,
0001
0000
0000
0010
0000
0000
0100
0000
0000
1000
0000
0000
0010
0000
0000
0100
0000
0000
0001
0000
0000
0010
0000
0000
0100
0000
0000
1000
0000
0000
0010
0000
0000
0100
0000
0000
0001
0000
1000
0000
0001
0000
1000
0000
0001
0000
1000
0000
,
0001
0010
0100
1000
0010
0100
0001
0010
0100
0010
0001
0100
0010
1000
0100
0010
,
0100
1000
0010
0100
0001
0010
0100
0010
0001
0100
0010
1000
0100
0010
0001
0100
,
0010
1000
0001
0100
0010
1000
0100
0010
0100
1000
0010
0100
0001
0010
0100
1000
,
0001
0010
0100
1000
0010
0100
0001
0010
0100
1000
0010
0100
0001
1000
0010
0100
,
0001
1000
0100
0010
0001
0100
0010
1000
0001
0010
0100
1000
0001
0010
0100
1000
,
0010
0100
0001
1000
0100
0010
0001
0100
0010
1000
0001
0010
0100
1000
0100
0010
,
0001
0100
0010
1000
0100
0010
0001
0100
0010
1000
0001
0100
0010
0100
0001
1000
,
0100
0010
0001
0010
0100
1000
0010
0100
0001
0100
0010
1000
0100
0010
0100
1000
,
0001
0010
0100
1000
0010
0100
0001
0010
0100
1000
0010
1000
0100
1000
0010
0100
,
0001
0100
0010
1000
0100
0010
0001
0100
0010
0100
0001
0100
0010
0100
1000
0100
,
0010
0100
0001
0010
0100
0010
1000
0010
0001
0100
0010
0100
0001
0010
0100
1000
,
0100
0010
0001
0100
0010
1000
0100
0010
0100
0001
0100
0010
0100
1000
0010
0100
,
0001
0100
0010
1000
0010
0001
0010
0100
0010
1000
0100
0010
0001
0100
0010
1000
,
0100
0010
0001
0010
0100
1000
0010
0100
0001
0010
0001
0010
0100
1000
0100
1000
,
0010
0100
0001
0010
0100
1000
0010
1000
0100
1000
0010
0100
0001
1000
0010
0100
,
0001
0010
0100
1000
0100
0010
0001
0100
0010
1000
0010
1000
0001
0100
0001
0100
,
0010
1000
0100
0010
0001
0010
0100
1000
0010
0100
0001
0010
0100
1000
0100
0010
,
0001
0100
0010
1000
0010
0001
0010
1000
0100
0010
0001
0100
1000
0100
0001
0010
,
0100
1000
0010
0100
0001
0010
0100
0010
0001
0100
0010
0001
0010
1000
0100
0010
,
0001
0010
0100
1000
0010
0100
1000
0100
0010
0001
0010
0100
0001
0010
0100
1000
,
0001
0100
0001
0100
0010
1000
0010
1000
0001
0100
0001
0100
0010
1000
0010
1000
,
0001
0100
0001
0100
0010
1000
0010
1000
0001
0100
0001
0100
0010
1000
0010
1000
,
0001
0010
0100
1000
0010
0100
0001
0010
0100
1000
0010
0100
0001
0010
0100
1000
,
0010
0000
0000
0100
0000
0000
0001
0000
0000
1000
0000
0000
0100
0000
0000
0010
0000
0000
0001
0000
0000
0100
0000
0000
0010
0000
0000
1000
0000
0000
0001
0000
0000
1000
0000
0000
0010
0000
0100
0000
0010
0000
0100
0000
0010
0000
0100
0000
,
0010
0000
1000
0010
1000
0000
0010
0000
1000
0010
1000
0000
0010
0000
1000
0010
,
1000
0000
0010
0000
0100
0001
0100
0000
0001
0000
0010
0000
0100
0000
1000
0000
,
0001
0000
0010
0001
0010
0000
0001
0000
0010
0001
0010
0000
0001
0000
0010
0001
,
0010
0000
0100
0000
1000
0100
1000
0000
0100
0000
0010
0000
0001
0000
0100
0000
,
0010
0000
1000
0010
1000
0000
0010
0000
0100
0000
0100
0000
0001
0000
0010
0001
,
0010
0100
1000
1000
0001
0100
0010
1000
,
0002
0000
0000
0000
,
2000
0000
0003
0000
,
0020
0000
0000
0000
,
0000
3000
0000
0200
,
0000
0000
0000
0030
,
0000
0002
0000
0000
,
0300
0000
0000
0000
2000
0000
0000
3003
,
0001
0000
0010
0100
1000
0000
0100
0000
0010
0000
0010
0000
0002
0000
0020
0000
0000
0000
0000
0000
0000
0000
0000
0000
0000
0000
0000
0000
0000
0000
0000
0000
,
0030
0000
0000
0000
,
0003
0000
0000
0000
;

//---------------dance-single - Maro----------------
#NOTEDATA:;
#CHARTNAME:Maro;
#STEPSTYPE:dance-single;
#DESCRIPTION:Maro;
#CHARTSTYLE:;
#DIFFICULTY:Medium;
#METER:8;
#RADARVALUES:0.393482,0.549929,0.291328,0.211875,0.015134,728.000000,651.000000,77.000000,56.000000,0.000000,0.000000,0.000000,0.000000,0.000000,0.393482,0.549929,0.291328,0.211875,0.015134,728.000000,651.000000,77.000000,56.000000,0.000000,0.000000,0.000000,0.000000,0.000000;
#CREDIT:Maro;
#NOTES:
0010
0000
0000
0100
0000
0000
0010
0000
,
0000
0100
0000
0000
0010
0000
1000
0000
,
0100
0000
0000
0010
0000
0000
0100
0000
,
0000
0010
0000
0000
0100
0000
0010
0000
,
0001
0000
0000
1000
0000
0000
0001
0000
,
0000
1000
0000
0000
0001
0000
0100
0000
,
0010
0000
0000
1000
0000
0000
0010
0000
,
0000
1000
0000
0000
0100
0000
0010
0000
,
0002
0000
0003
2000
0000
3000
0002
0000
,
0003
2000
0000
3000
0001
0100
0001
0000
,
0200
0000
0300
0020
0000
0030
0200
0000
,
0300
0020
0000
0030
1000
0100
1000
0000
,
0002
0000
0003
0200
0000
0300
0002
0000
,
0003
0200
0000
0300
0010
1000
0010
0000
,
2000
0000
3000
0200
0000
0300
2000
0000
,
3000
0200
0000
0300
0010
0001
0010
0000
,
0002
0000
0003
0200
0000
0300
0020
0000
,
0030
2000
0000
3000
0100
0000
0010
0000
,
0002
0000
0003
0020
0000
0030
0002
0000
,
0003
0200
0000
0300
0010
1000
0010
0000
,
2000
0000
3000
0200
0000
0300
0020
0000
,
0030
0002
0000
0003
0100
0000
0010
0000
,
2000
0000
3000
0002
0000
0003
0200
0000
,
0300
0020
0000
0030
0100
0000
0010
0000
,
1001
1000
0100
0010
,
0001
0100
0010
0100
,
0001
0010
0100
1000
,
0010
0100
0001
1000
,
0010
0100
0001
0010
,
0100
1000
0100
0010
,
0001
0100
0010
1000
,
0001
0100
0010
1000
,
0010
0100
0000
0001
0000
0010
0000
0100
,
0010
0100
0000
0010
0000
0001
0000
1000
,
0001
1000
0000
0010
0000
0100
0000
0001
,
0100
0001
0000
1000
0000
0100
0000
1000
,
0100
1000
0000
0100
0000
0010
0000
0001
,
0010
0001
0000
0100
0000
0010
0000
1000
,
0010
1000
0000
0010
0000
0100
0000
0001
,
1000
0001
0000
1000
0000
0100
0000
0010
,
0001
0001
0101
0101
,
1000
1000
1010
1010
,
0001
0001
1001
1001
,
1000
1000
1100
1100
,
0100
0100
0110
0110
,
0001
0001
1001
1001
,
0100
0100
0110
0110
,
1000
1000
1010
1010
,
0010
0100
0000
0001
0000
0100
0000
0001
,
1000
0001
0000
1000
0000
0100
0000
0010
,
0001
0010
0000
0100
0000
1000
0000
0001
,
0100
0001
0000
1000
0000
0010
0000
0100
,
0010
1000
0000
0100
0000
0010
0000
0001
,
0100
0010
0000
0100
0000
0001
0000
1000
,
0010
0100
0000
0010
0000
1000
0000
0001
,
0100
0010
0000
0100
0000
0001
0000
0001
,
1000
1010
0001
0101
,
1000
1010
0001
0011
,
1000
1100
0001
0101
,
1000
1010
0001
0011
,
1000
1010
0001
0101
,
1000
1100
0001
0101
,
1000
1010
0001
0011
,
1000
1010
0001
0101
,
0200
0000
0300
0020
,
0230
0000
0300
0000
,
0020
0000
0030
0200
,
0320
0000
0030
0000
,
1000
0000
0000
0100
0000
0000
0010
0000
0000
0001
0000
0000
0001
0000
0010
0000
,
0100
0000
0000
1000
0000
0000
0010
0000
0000
0100
0000
0000
0010
0000
0100
0000
,
0001
0000
0000
1000
0000
0000
0010
0000
0000
1000
0000
0000
0001
0000
0100
0000
,
0010
0000
0000
0100
0000
0000
0001
0000
0000
0100
0000
0000
0010
0000
1000
0000
,
0000
0101
0000
0101
0000
0110
0000
0110
,
0000
1001
0000
1001
0000
1100
0000
1100
,
0000
0011
0000
0011
0000
1001
0000
1001
,
0000
0110
0000
0110
0000
0001
1000
0001
,
1000
0100
0000
0100
1000
0000
1000
0010
,
0000
0010
1000
0000
0001
0000
0100
0000
,
0001
0010
0000
0010
0001
0000
0001
0100
,
0000
0100
0001
0000
1000
0000
0100
0000
,
0010
0100
0000
0100
0010
0000
0010
0001
,
0000
0001
0010
0000
0100
0000
1000
0000
,
0001
1000
0000
1000
0010
0000
0010
0100
,
0000
0100
0010
0000
1000
0000
0001
0000
,
1000
0100
0000
1000
0100
0000
0100
0010
,
0000
0100
0010
0000
0001
0000
0100
0000
,
0001
0100
0000
0001
0100
0000
0100
0010
,
0000
0100
0010
0000
1000
0000
0010
0000
,
0100
0001
0000
0100
0001
0000
1000
0010
,
0000
1000
0010
0000
0100
0000
0001
0000
,
1000
0001
1000
0000
0001
1000
0001
0000
,
0100
0000
0010
0000
0100
0010
1000
0010
,
0200
0000
0000
0000
,
0000
0300
0020
0000
,
2030
0000
0000
3100
0020
0000
0031
2000
,
0000
3020
0000
0000
0000
0000
0000
0030
,
2000
0000
0000
0000
,
3000
0000
0000
0000
0002
2003
3000
0000
,
0020
0000
0000
0130
0002
0000
1003
0200
,
0000
0000
0000
0300
0010
0001
0010
0001
,
0010
0011
1000
1010
,
0001
0011
1000
1010
,
0001
0011
1000
1010
,
0001
0011
1000
1010
,
0001
0011
1000
1010
,
0001
0011
1000
1010
,
0001
0011
1000
1010
,
0001
0000
0011
0000
1000
0001
1000
0001
,
1000
0010
0000
0010
0000
0010
1000
0000
,
0001
0100
0000
0100
0000
0100
0001
0000
,
1000
0100
0000
0100
0000
0100
0010
0000
,
0010
0001
0000
0001
0000
0001
1000
0000
,
0010
0100
0000
0100
0000
0100
0001
0000
,
1000
0010
0000
0010
0000
0010
0100
0000
,
0001
1000
0000
1000
0000
1000
0100
0000
,
0010
0001
0000
0001
0000
0001
1000
0000
,
0010
0110
0100
0001
,
1000
1100
0010
0001
,
0100
0110
0010
0100
,
0001
1001
1000
0100
,
0010
0011
0001
0100
,
0010
1010
1000
0100
,
1000
1010
0010
0100
,
0001
0010
0001
0000
1000
0100
2000
0000
,
3001
0100
0000
0100
0001
0000
0001
1000
,
0000
0100
1000
0000
1000
0000
0100
0000
,
0010
0001
0000
0001
0010
0000
0100
1000
,
0000
0010
1000
0000
0010
0000
0100
0000
,
0100
0001
0000
0001
1000
0000
0001
0100
,
0000
0010
1000
0000
0100
0000
0010
0000
,
0001
1000
0000
1000
0001
0000
1000
0010
,
0000
0100
0001
0000
1000
0000
0010
0000
,
0100
0001
0000
0001
1000
0000
1000
0100
,
0000
0100
0010
0000
0001
0000
1000
0000
,
0010
0100
0000
0001
0100
0000
0010
1000
,
0000
1000
0100
0000
0010
0000
0001
0000
,
1000
0100
0000
0100
1000
0000
1000
0010
,
0000
0010
0100
0000
0001
0000
0010
0000
,
0100
1000
0000
0100
0010
0000
0001
0100
,
0000
0010
1000
0000
0001
0000
0100
0000
,
0010
1000
0010
0000
0100
0000
0001
0000
,
0010
0001
0010
0000
0100
0000
1000
0000
,
0100
0010
0100
0000
0010
0000
0001
0000
,
0100
0010
0100
0000
0010
0000
1000
0000
,
0001
0101
0101
0101
,
1000
1010
1010
1010
,
0010
0100
0010
0000
0100
0010
0100
0000
,
0010
1000
1001
1001
,
0001
0000
0000
0100
0000
0000
0001
0000
,
0000
0100
0000
0000
0001
0000
0100
0000
,
0010
0000
0000
1000
0000
0000
0010
0000
,
0000
1000
0000
0000
0010
0000
1000
0000
,
0100
0000
0000
0010
0000
0000
0100
0000
,
0000
0010
0000
0000
0100
0000
0010
0000
,
0002
0000
0000
0000
,
0000
0000
0000
0000
,
2003
0000
0000
0000
,
0000
0000
0000
3020
,
0000
0000
0000
0000
,
0000
0230
0000
0000
,
0000
0000
0020
0000
,
0030
0000
0300
0000
;
