#TITLE:Invasion;
#SUBTITLE:~DDR Mode~;
#ARTIST:DRP;
#TITLETRANSLIT:;
#SUBTITLETRANSLIT:;
#ARTISTTRANSLIT:;
#GENRE:;
#CREDIT:;
#MENUCOLOR:;
#METERTYPE:DDR;
#BANNER:maroinvasionddr bn.png;
#BACKGROUND:maroinvasionddr bg.png;
#LYRICSPATH:;
#CDTITLE:cdtitle2.png;
#MUSIC:Invasion.mp3;
#OFFSET:-0.899;
#SAMPLESTART:42.234;
#SAMPLELENGTH:12.000;
#SELECTABLE:YES;
#LISTSORT:;
#BPMS:0.000=142.010,260.000=71.005,308.000=142.010,548.000=71.005;
#STOPS:;
#BGCHANGES:;
#ATTACKS:;

//---------------dance-single - Maro----------------
#NOTES:
     dance-single:
     Maro:
     Challenge:
     19:
     1.000,1.000,0.310,0.112,1.000:
0010
1000
0100
0000
0010
0001
0100
0000
0010
1000
0001
0000
0010
0001
0100
0000
,
0010
1000
0100
0000
0010
0001
0100
0000
0010
0001
1000
0000
0100
0001
0010
0000
,
0020
0000
0100
0000
0031
1000
0100
0000
0010
0001
0100
0000
0010
1000
0001
0000
,
1000
0100
0010
0000
0100
1000
0001
0000
0010
0100
1000
0000
0100
0010
0001
0000
,
0012
0000
1000
0000
0103
0010
1000
0000
0010
0100
0001
0000
1000
0010
0001
0000
,
0010
1000
0100
0000
0010
0001
0100
0000
0001
0100
1000
0000
0100
0001
1000
0000
,
2000
0000
0100
0000
3001
0010
0100
0000
0010
0001
1000
0000
0001
1000
0010
0000
,
0010
0100
0001
0000
1000
0010
0100
0000
0010
1000
0001
0000
0100
0000
0110
0000
,
0001
0000
1000
0000
0001
0000
1000
0000
0001
0000
1000
0000
0001
0000
1000
0000
0001
0000
1000
0000
0001
0000
1000
0000
0001
0000
1000
0000
0001
0000
1000
0000
0001
0000
1000
0000
0010
0000
0000
0100
0000
0000
0001
0000
0000
1000
0000
0000
,
0010
0000
0110
0000
0010
0000
1010
0000
1000
0000
1100
0000
0100
0010
0001
0100
,
0010
0000
0011
0000
0010
0000
1010
0000
1000
0000
1001
0000
0001
0010
0100
1000
,
0001
0000
0011
0000
0010
0000
0110
0000
0100
0000
1100
0000
1000
0100
0010
0001
,
0100
0000
0110
0000
0010
0000
0011
0000
0010
0000
0110
0000
0100
0001
1000
0100
,
0010
0000
0010
0001
1000
0000
1000
0001
0010
0000
0110
0000
0100
1000
0001
1000
,
0010
0000
0100
0001
1000
0000
0010
0100
0001
0000
0101
0000
0100
0010
1000
0100
,
0010
0000
0100
1000
0001
0000
1000
0010
0100
0000
0101
0000
0001
0010
0100
1000
,
0001
0000
1000
0010
0100
0000
0010
1000
0001
0000
1001
0000
1000
0010
0100
0001
,
1000
0000
0100
0000
0110
0000
0010
0000
0001
0000
0100
0000
0010
1000
0001
1000
,
0100
0000
0010
0000
0011
0000
0001
0000
0100
0000
0010
0000
1000
0010
0100
0010
,
1000
0000
0100
0000
1100
0000
1000
0000
0001
0000
0100
0000
0001
0010
0100
0010
,
0001
0000
1000
0000
1100
0000
0010
0000
0001
0000
0100
0000
0010
1000
0001
0100
,
0010
0000
0110
0000
0100
0000
0110
0000
0010
0000
0110
0000
0100
0001
1000
0100
,
0010
0000
0110
0000
0100
0000
0110
0000
0010
0000
0110
0000
0010
0001
1000
0001
,
0100
0000
0101
0000
0001
0000
0101
0000
0100
0000
0101
0000
0001
1000
0100
0010
,
0100
0000
1100
0000
1000
0000
1100
0000
0100
0000
1100
0000
0010
0001
1000
0001
,
0010
0100
1000
0000
0010
0100
0001
0000
0100
0010
1000
0000
0001
0100
0010
1000
,
0100
0010
0001
0000
0100
1000
0001
0000
0100
0001
1000
0000
0010
0100
0001
0010
,
0100
0010
0001
0000
0100
0010
1000
0000
0001
0100
0010
0000
0100
0001
1000
0010
,
0100
0001
1000
0000
0100
0010
0001
0000
0010
0100
1000
0000
0001
0100
1000
0100
,
0001
0010
0100
0000
0010
0001
0100
0000
0010
1000
0001
0000
1000
0010
0001
0010
,
1000
0100
0010
0000
0100
1000
0001
0000
0100
0010
1000
0000
0001
0010
0100
0010
,
0001
0100
0010
0000
1010
0000
1001
0000
0011
0000
1001
0000
0010
1000
0001
0100
,
0001
0000
0100
0000
0010
0000
1000
0000
0100
0000
0010
0000
0001
0000
0100
0000
0010
0000
1000
0000
0100
0000
0010
0000
0001
0000
0100
0000
0010
0000
1000
0000
0100
0000
0010
0000
0001
0000
0000
1000
0000
0000
0001
0000
0000
1000
0000
0000
,
0001
0100
1000
0000
1000
0100
0001
0000
0001
0100
1000
0000
1000
0100
0001
0010
,
0001
0010
1000
0000
1000
0010
0001
0000
0001
0010
1000
0000
1000
0010
0001
0100
,
0010
1000
0100
0000
0100
1000
0010
0000
0010
1000
0100
0000
0010
0001
1000
0001
,
0100
0010
0001
0000
0001
0010
0100
0000
0100
0010
0001
0000
0001
0010
1000
0100
,
0010
0000
0011
0000
1001
0000
1001
0000
0101
0000
0101
0000
0100
0010
0100
0010
,
0100
0000
0110
0000
1010
0000
1010
0000
1001
0000
1001
0000
1000
0100
1000
0100
,
1000
0000
1100
0000
0110
0000
0110
0000
0011
0000
0011
0000
0001
1000
0001
1000
,
0001
0100
0010
0000
1010
0000
1010
0000
0101
0000
0101
0000
0010
1000
0001
1000
,
0100
0010
0001
0000
0010
0001
0100
0000
0001
0100
0010
0000
0100
0010
1000
0100
,
0010
0001
1000
0000
0001
1000
0010
0000
1000
0010
0100
0000
0010
0100
0001
0010
,
0100
1000
0010
0000
1000
0010
0100
0000
0010
0100
0001
0000
1000
0001
0100
0001
,
0010
0100
1000
0000
0100
1000
0010
0000
1000
0010
0100
0000
0010
0100
0001
1000
,
0001
0000
0001
0000
0010
0000
0010
0000
0100
0000
0100
0000
1000
0100
0010
0001
,
1000
0000
1000
0000
0010
0000
0010
0000
0100
0000
0100
0000
0001
0100
0010
1000
,
0001
0000
0000
0001
0000
0000
0100
0000
0000
0010
0000
0000
1000
0000
0000
0100
0000
0000
0010
0000
0001
0000
1000
0000
0100
0000
0000
0100
0000
0000
0010
0000
0000
0010
0000
0000
0001
0000
0000
0001
0000
0000
1000
0000
0000
1000
0000
0000
,
0001
0100
0010
0100
0001
0100
0010
0100
0001
0100
0010
0100
0001
0100
0010
0100
0001
0100
0010
1000
0001
0100
0010
1000
,
0001
0100
0001
0100
0001
0100
0001
0100
0001
0100
0001
0100
0001
0100
0001
0100
,
0001
0100
0001
0100
0001
0100
0001
0100
0001
0100
0001
0100
0001
0100
0001
0100
,
0001
0100
0001
0100
0001
0100
0001
0100
0001
0100
0001
0100
0001
0100
0001
0100
,
0001
0100
0001
0100
0001
0100
0001
0100
0001
0010
0100
1000
0100
0010
0001
1000
,
0001
0010
0100
1000
0001
0010
0100
1000
0001
0010
0100
1000
0001
0010
0100
1000
,
0001
0010
0100
1000
0001
0010
0100
1000
0001
0010
0100
1000
0001
0010
0100
1000
,
0001
0010
0100
1000
0001
0010
0100
1000
0001
0010
0100
1000
0001
0010
0100
1000
,
0001
0010
0100
1000
0001
0010
0100
1000
0001
0100
0010
1000
0001
0000
1001
0000
,
1000
0100
1000
0100
1000
0100
1000
0100
1000
0100
1000
0100
1000
0100
1000
0100
,
1000
0100
1000
0100
1000
0100
1000
0100
1000
0100
1000
0100
1000
0100
1000
0100
,
1000
0100
1000
0100
1000
0100
1000
0100
1000
0100
1000
0100
1000
0100
1000
0100
,
1000
0100
1000
0100
1000
0100
1000
0100
1000
0100
0010
0001
0010
0100
1000
0001
,
0100
0000
0100
0010
0000
0010
1000
0000
1000
0001
0000
0001
0100
0000
0100
0001
0000
0001
0010
0000
0010
0100
0000
0100
,
1000
0000
1000
0100
0000
0100
0010
0000
0010
0100
0000
0100
1000
0000
1000
0001
0000
0001
0100
0000
0100
0010
0000
0010
,
1000
0000
1000
0001
0000
0001
0100
0000
0100
0010
0000
0010
0100
0000
0100
0001
0000
0001
1000
0000
0010
0100
0000
0100
,
0001
0000
0010
0000
0100
0000
1000
0000
0010
0000
0100
0000
0001
0000
0010
0000
0100
0000
1000
0000
0010
0000
0100
0000
0001
0000
0010
0000
0100
0000
1000
0000
0010
0000
0100
0000
0001
0000
0000
1000
0000
0000
0010
0000
0000
0100
0000
0000
,
2002
0MM0
0MM0
0MM0
,
0MM0
0MM0
0MM0
0MM0
,
0MM0
0MM0
0MM0
0MM0
,
0MM0
0MM0
0MM0
0MM0
,
0220
3003
M00M
0000
M00M
0000
M00M
0000
,
M002
0300
MM00
0000
MM00
0000
MM00
0000
,
2M00
0030
0MM0
0000
0MM0
0000
0MM0
0000
,
02M0
0000
00M0
0000
0020
0000
0000
3333
,
2MM2
0000
0MM0
3000
MM20
0000
MM00
0003
,
M20M
0000
M00M
0030
20MM
0000
00MM
0300
,
0M2M
0000
0M0M
3000
M20M
0000
M00M
0030
,
0301
0000
0001
0000
1000
0000
1000
0000
0010
0000
0010
0000
0100
0000
0100
0000
0001
0010
0100
1000
0010
0100
0001
1000
0010
0100
0001
1000
0100
0010
0001
1000
,
0010
1000
0010
1000
0010
1000
0010
1000
0010
1000
0010
1000
0010
1000
0010
1000
,
0010
0100
0010
0100
0010
0100
0010
0100
0010
0100
0010
0100
0010
0100
0010
0100
,
0001
0100
0001
0100
0001
0100
0001
0100
0001
0100
0001
0100
0001
0100
0001
0100
,
0001
1000
0001
1000
0001
1000
0001
1000
0001
1000
0001
1000
0001
1000
0001
1000
,
0001
0010
0001
0010
0001
0010
0001
0010
0001
0010
0001
0010
0001
0010
0001
0010
,
0100
0010
0100
0010
0100
0010
0100
0010
0100
0010
0100
0010
0100
0010
0100
0010
,
0100
1000
0100
1000
0100
1000
0100
1000
0100
1000
0100
1000
0100
1000
0100
1000
,
0010
0100
0010
0100
0010
0100
0010
0100
0001
1000
0001
1000
0001
1000
0001
1000
,
0001
0100
0010
0100
0001
1000
0010
0100
0010
1000
0001
1000
0100
1000
0010
0100
,
0001
0100
0010
0100
0001
1000
0100
0010
0100
1000
0001
1000
0010
0100
0001
0100
,
0010
0100
0001
1000
0100
0010
0100
1000
0100
0010
0001
0100
0010
0100
0001
1000
,
0010
0100
0001
1000
0100
0010
0001
0100
0010
0100
0001
1000
0010
0100
0001
1000
,
0100
0010
0001
0100
0010
0100
0001
0010
0100
1000
0010
0100
0001
1000
0010
0100
,
0001
1000
0100
0010
0100
1000
0001
0010
0100
0010
0001
0100
0010
1000
0010
0100
,
0001
1000
0100
0010
0001
0100
0010
1000
0100
1000
0010
0100
0001
1000
0010
0100
,
0001
1000
0000
1000
0010
0000
0010
0100
0000
1001
0000
1000
0100
0000
0010
0001
,
1000
0100
0010
0001
0100
0010
0001
0010
0100
0001
0010
0100
1000
0100
0010
1000
,
0001
1000
0010
0100
1000
0010
0100
1000
0100
0010
1000
0100
0010
0001
0100
0010
,
0001
1000
0001
0010
0100
0001
0010
1000
0010
0001
0100
0010
1000
0100
0001
0100
,
1000
0001
0010
1000
0001
0100
1000
0010
1000
0010
0100
0001
1000
0010
0001
1000
,
0100
0001
0010
1000
0010
0001
0100
0001
0100
1000
0001
0010
1000
0010
1000
0100
,
0010
0001
0100
0001
0100
0010
1000
0001
0010
1000
0010
0001
0100
1000
0001
0010
,
1000
0100
1000
0100
0001
1000
0010
0001
0010
0001
0100
0010
1000
0100
0001
0100
,
1000
0010
0100
0001
0010
0100
0010
0001
0100
0010
0001
0010
1000
0010
0001
0010
,
0100
0010
0100
0001
0010
1000
0010
0100
0010
0100
0010
0001
0100
0010
1000
0100
,
0001
0100
1000
0001
0010
1000
0010
0001
0100
0010
1000
0010
0001
0010
0100
0001
,
1000
0100
0010
0100
0001
0100
1000
0010
0100
0001
0010
1000
0010
0001
0100
0010
,
1000
0100
0010
0001
0100
1000
0001
0010
1000
0100
0001
1000
0010
0001
0010
1000
,
0001
0100
1000
0010
0001
1000
0100
0001
0010
1000
0010
0001
0100
1000
0100
0001
,
0010
0100
1000
0010
0001
0010
1000
0100
0010
0001
0100
0010
0001
0010
0100
0010
,
1000
0100
0010
0100
1000
0001
0010
0100
1000
0010
0100
1000
0100
0010
1000
0100
,
0010
0001
0010
0001
0010
0001
0010
0001
1000
0100
1000
0100
1000
0000
1001
0000
,
0001
0100
0010
0100
1000
0100
0010
0100
0001
0100
0010
0100
0010
0100
0001
1000
,
0100
0010
0100
0001
0100
0010
0100
1000
0100
0010
0001
0010
0100
0010
0100
1000
,
0010
0100
0000
0100
0001
0010
0000
1100
0000
0011
0000
1000
0100
0010
0000
0011
,
0000
1100
0000
1000
0010
0100
0000
0101
0000
1010
0000
1000
0001
0000
0110
0000
,
1000
0100
0010
0001
0100
1000
0100
0001
0010
1000
0010
0001
0100
0010
1000
0100
,
0001
0100
1000
0010
0001
0010
1000
0100
0010
0001
0100
0010
1000
0001
0100
0010
,
0110
0000
0100
0010
1000
0100
0010
0001
1001
0000
0001
0100
0010
1000
0001
0100
,
0010
1000
0010
1000
0010
1000
0010
1000
0010
1000
0010
1000
0001
0100
0001
0100
0001
0100
0001
0100
0001
0100
0001
0100
,
0002
1000
2000
0000
0000
0000
0000
3003
,
1001
0000
0001
1000
0100
0010
0100
1000
0010
0100
0001
0100
0010
0100
0001
1000
,
0100
0010
0001
0100
0001
0010
0100
1000
0010
0100
0001
1000
0010
0100
0001
1000
,
0200
0000
0310
0001
0100
0010
1000
0100
0010
0100
1000
0010
0100
0001
0010
0100
,
0010
0001
0100
0010
1000
0100
0010
0001
0100
0010
1000
0001
0100
0000
0110
0000
,
2001
0000
3100
0010
0001
0100
0010
0100
0001
0010
0100
1000
0010
0100
0001
1000
,
0100
0010
0001
0100
0010
0100
0001
0010
0100
1000
0010
0100
0001
1000
0100
0010
,
0002
0000
0103
0010
1000
0010
0100
0001
0010
0100
1000
0010
0100
0001
1000
0100
,
0010
0100
1000
0010
0100
0001
1000
0010
0100
0001
0010
0100
1000
0000
1001
0000
,
0012
0000
1003
0100
0010
0000
0001
0010
0100
0000
1000
0100
0010
0000
0001
0010
,
0100
0000
1000
0100
0010
0000
0001
0010
0100
0000
1000
0100
0010
0000
0001
0100
,
0020
0000
1030
0010
0100
0000
0001
0100
0010
0000
1000
0010
0100
0000
0001
0100
,
0010
0000
1000
0010
0100
0000
0001
0100
0010
0000
1000
0001
0100
0000
0010
0000
,
1001
0000
0010
0100
0001
0100
0010
0100
0001
0100
0010
0100
0001
0100
0010
0100
,
0001
1000
0100
1000
0001
1000
0100
1000
0001
1000
0100
1000
0001
1000
0100
1000
,
0002
0000
0103
0010
1000
0010
0100
0010
1000
0010
0100
0010
1000
0010
0100
0010
,
1000
0001
0100
0001
1000
0001
0100
0001
1000
0001
0100
0001
1000
0001
0100
0000
,
0110
0000
0010
1000
0010
0000
0100
0010
0100
0000
0001
0100
0001
0000
1000
0001
,
1000
0000
0010
0100
0010
0000
0010
1000
0000
0000
1000
0001
0000
0000
0001
0100
,
0220
0000
0300
0000
,
0200
0330
0000
0000
;

//---------------dance-single - Maro----------------
#NOTES:
     dance-single:
     Maro:
     Hard:
     15:
     0.692,0.770,0.136,0.217,0.597:
1000
0010
0100
0001
0010
0100
1000
0010
,
0100
0001
1000
0010
0100
0001
1000
0100
,
0020
0000
0031
0100
0010
1000
0100
0010
,
0001
1000
0010
0100
0001
0100
0010
1000
,
1002
0000
1003
0010
0100
0001
0100
0010
,
1000
0100
0010
0001
0100
0010
0100
0001
,
0020
0000
0130
1000
0001
1000
0100
0010
,
0001
0100
0010
1000
0001
0100
0010
0110
,
2000
0000
0000
0000
3002
0000
0000
0000
0103
0000
0100
0000
0010
1000
0001
1000
,
0100
0000
0010
0000
0001
0000
0100
0000
0010
0000
1000
0000
0001
0100
0001
0100
,
0001
0000
0010
0000
0100
0000
1000
0000
0010
0000
0100
0000
0001
1000
0001
1000
,
0001
0000
1000
0000
0100
0000
1000
0000
0010
0000
0100
0000
0001
0010
0001
0010
,
0001
0000
0100
0000
0010
0000
0100
0000
0001
0000
1000
0000
0100
0010
0100
0010
,
0100
0000
1000
0000
0001
0000
0100
0000
0010
0000
1000
0000
0001
0100
0000
0100
,
0001
0000
1000
0000
0100
0000
0010
0000
0001
0000
1000
0000
0100
0010
0000
0010
,
0100
0000
1000
0000
0010
0000
0100
0000
0001
0000
1000
0000
0001
0100
0000
0100
,
0001
0000
1000
0000
0010
0000
0100
0000
0001
0000
1000
0000
0100
0010
0000
0010
,
0100
0000
1000
0000
1010
0000
0000
0000
0010
0000
0100
0000
0001
0010
0000
0010
,
0001
0000
0100
0000
0110
0000
0000
0000
0010
0000
1000
0000
0100
0010
0000
0010
,
0100
0000
1000
0000
1001
0000
0000
0000
0001
0000
0100
0000
0010
1000
0000
1000
,
0010
0000
0100
0000
0101
0000
0000
0000
1000
0000
0100
0000
0010
0001
0000
0001
,
1000
0000
0010
0000
0100
0000
0001
0000
0100
0000
0010
0000
1000
0100
0010
0100
,
1000
0000
0001
0000
0100
0000
0010
0000
0100
0000
0001
0000
1000
0001
0100
0001
,
1000
0000
0100
0000
0010
0000
0001
0000
0100
0000
0010
0000
1000
0001
0010
0001
,
1000
0010
0100
0001
1000
0010
0100
1001
,
0001
0100
0001
0000
1000
0010
1000
0000
0100
0000
0010
0000
0001
1000
0000
0001
,
1000
0010
1000
0000
0001
0100
0001
0000
1000
0000
0100
0000
0010
0100
0000
0010
,
0100
1000
0100
0000
0010
0001
0010
0000
0001
0000
0100
0000
0010
1000
0000
0001
,
0100
0001
0100
0000
0010
1000
0010
0000
0100
0000
0001
0000
1000
0100
0000
0010
,
0001
0000
0001
0000
0100
0000
0100
0000
0010
0000
0010
0000
1000
0100
1000
0100
,
1000
0000
1000
0000
0100
0000
0100
0000
0010
0000
0010
0000
0001
1000
0001
1000
,
0001
0000
0001
0000
0100
0000
0100
0000
0010
0000
0010
0000
1000
0001
0000
0001
,
1000
0100
1000
0100
0010
0001
0010
0001
1000
0100
0010
0001
0010
0100
1000
0001
,
1000
0100
1000
0000
0001
0010
0001
0000
1000
0010
0100
0000
0002
1000
0000
0000
,
1003
0100
1000
0000
0010
0100
0010
0000
0100
0001
0100
0000
0200
0010
0000
0000
,
0301
1000
0001
0000
1000
0100
1000
0000
0001
0010
0100
0000
0200
1000
0000
0000
,
1300
0001
1000
0000
0001
0100
0001
0000
1000
0010
0100
0000
0002
0100
0000
0000
,
1003
0000
0100
0000
0010
0000
0001
0000
0010
0000
0100
0000
1000
0100
0010
0001
,
0100
0000
0010
0000
1000
0000
0001
0000
0100
0000
0001
0000
1000
0100
0010
0001
,
1000
0000
0001
0000
0100
0000
0010
0000
1000
0000
0001
0000
1000
0100
1000
0010
,
0100
0000
0001
0000
1000
0000
0001
0000
0010
0000
0001
0000
0100
0001
0010
0001
,
1000
0000
0100
0000
0010
0000
0001
0000
0100
0000
0010
0000
1000
0001
0000
0001
,
0000
0000
0100
0000
0010
0000
1000
0000
0100
0000
0010
0000
0100
1000
0000
1000
,
0000
0000
0001
0000
0100
0000
0010
0000
0100
0000
0001
0000
1000
0001
0000
0001
,
0000
0000
0010
0000
0100
0000
1000
0000
0001
0000
0100
0000
0010
1000
0000
1000
,
0001
0000
0100
0000
0010
0000
0100
0000
0001
0000
0100
0000
0010
1000
0010
1000
,
0010
0000
1000
0000
0100
0000
1000
0000
0010
0000
1000
0000
0100
0010
0100
0010
,
0100
1000
0001
0100
0010
0100
0001
1000
0100
0010
0100
1000
0001
0100
0010
1000
,
0002
0010
0023
0100
0230
1000
2300
0001
,
3002
0010
0010
0100
0100
1000
1000
0100
,
0100
0010
0010
0100
0100
0010
0010
1000
,
1000
0100
0100
1000
1000
0100
0100
0010
,
0023
0032
0023
0230
2300
3200
2300
3200
,
0310
0000
0001
0000
0100
0000
0010
0000
1000
0000
0001
0000
0100
0010
0000
0010
,
0100
0000
0001
0000
1000
0000
0100
0000
0010
0000
0001
0000
0010
0100
0000
0100
,
1000
0000
0001
0000
0100
0000
1000
0000
0100
0000
0001
0000
1000
0010
0000
0010
,
0100
0001
0010
0100
1000
0001
1000
1001
,
2000
0100
0100
0010
0010
0001
0001
0010
,
0010
0001
0001
0010
0010
0100
0100
0010
,
0010
0100
0100
0001
0001
0010
0010
0001
,
3002
0023
0230
2300
3020
0230
0302
0203
,
0310
1000
0001
0000
0100
0001
1000
0000
0010
0100
0001
0000
1000
0010
0100
0000
,
0001
0010
0100
0000
0010
0001
1000
0000
0010
0100
0001
0000
1000
0010
0100
0000
,
0010
0100
0001
0000
1000
0100
0010
0000
0100
1000
0001
0000
0100
0010
1000
0000
,
0001
0100
0010
1000
0001
0100
0010
1000
0001
0100
0010
1000
0001
0010
0100
1000
,
0020
0000
0000
0000
,
0000
0000
0000
0000
,
0000
0000
0000
0000
,
0000
0000
0000
0000
0000
0000
0000
0030
,
2020
0000
0000
0030
0020
0000
0000
0000
0000
0000
0000
0000
0000
0000
3000
0000
,
0200
0000
0000
0300
0200
0000
0000
0000
0000
0000
0000
0000
0000
0000
0030
0000
,
0002
0000
0000
0003
0002
0000
0000
0000
0000
0000
0000
0000
0000
0000
0300
0000
,
2000
0000
0000
0003
0020
0000
0000
3030
,
2002
3000
0020
0003
,
0200
0030
2000
0300
,
0002
3000
0200
0003
,
0020
0000
0000
0330
1010
0101
0011
1100
,
0001
0100
0110
0010
1000
0100
0010
0010
,
0001
1000
1010
0010
0100
0001
0010
0010
,
0100
1000
1001
0001
0010
0100
1000
1000
,
0010
0100
0101
0001
0010
0100
0010
0010
,
0001
1000
1010
0010
0100
0001
1000
1000
,
0100
0010
0011
0100
1000
0010
0100
0100
,
0001
1000
1010
0010
0100
0001
1000
1000
,
0100
0000
0010
0000
0011
0000
1000
0000
0010
0000
0100
0000
0001
1000
0001
0000
,
1000
0000
0100
0010
0001
0000
0010
0100
1000
0000
0010
0000
0100
0001
0100
0000
,
0001
0000
1000
0010
0100
0000
0010
1000
0001
0000
1000
0000
0100
0010
0100
0000
,
1000
0000
0001
0100
0010
0000
0100
0001
1000
0000
0001
0000
0010
0001
0010
0000
,
0100
0000
1000
0001
0100
0000
0010
0100
0001
0000
1000
0000
0010
0000
0010
0000
,
1000
0000
0001
0100
0010
0000
0100
0000
0001
0000
1000
0100
0010
0000
0100
0000
,
1000
0000
0001
0010
0100
0000
0010
0000
0001
0000
1000
0010
0100
0000
0001
0000
,
1000
0000
0001
0010
0100
0000
0010
0000
0001
0000
1000
0010
0100
0000
0001
0000
,
1000
0010
0000
0010
1000
0000
0001
0100
0000
0100
0000
0000
0010
0000
0000
0010
,
1000
0100
0000
0100
0010
0000
0010
0001
0000
0100
0000
0010
0100
0000
0001
1000
,
0000
0100
0000
0010
0100
0000
0010
0001
0000
0100
0000
0010
1000
0000
0001
0100
,
0000
0010
0000
0100
0001
0000
1000
0100
0000
0010
0000
0001
0100
0000
0001
0010
,
0000
0100
0000
1000
0010
0000
0100
0010
0000
1000
0000
0100
0010
0000
0010
0000
,
0010
0001
0000
0010
0100
0000
1000
0100
0000
0010
0000
0001
0100
0000
1000
0100
,
0000
0001
0000
0010
1000
0000
0010
0001
0000
0100
0000
0010
1000
0000
1000
0010
,
0000
0100
0000
0001
0010
0000
0100
0010
0000
0001
0000
0100
0010
0000
1000
0001
,
0100
0010
1000
0000
0001
0100
0010
0000
1000
0010
0100
0000
0001
0000
0001
0000
,
1000
0100
0000
0100
1000
0000
0001
0100
0000
0010
0000
0100
0001
0000
1000
0001
,
0000
0100
0000
0001
0010
0000
0100
1000
0000
0100
0000
0010
0001
0000
0001
0010
,
0000
0001
0000
0010
0100
0000
1000
0010
0000
1000
0000
0100
1000
0000
0010
0100
,
0000
0001
0000
0100
0010
0000
0010
0001
0000
0010
0000
1000
0100
0000
0010
0001
,
1000
0010
0000
0100
0001
0000
0001
1000
0000
0100
0000
1000
0010
0000
0100
0001
,
0000
0010
0000
0100
0010
0000
0010
0001
0000
1000
0000
0001
0100
0000
0001
0010
,
0000
0100
0000
1000
0100
0000
0100
0001
0000
0100
0000
1000
0010
0000
0100
0001
,
1000
0100
1000
0000
0001
0100
0001
0000
0100
0010
0100
0000
0010
0000
0010
0000
,
1000
0001
0000
0001
0100
0010
0100
0001
0000
1000
0000
0100
0010
0001
0010
0100
,
0000
1000
0000
0010
0100
0001
0100
0010
0000
1000
0000
0001
1000
0100
1000
0001
,
0000
0100
0000
0010
1000
0010
0000
1000
0000
0100
0000
0010
0001
0010
0000
0100
,
0000
1000
0000
0001
0100
0001
0000
1000
0000
0010
0000
0100
0010
0100
0000
0001
,
1000
0100
0000
0010
0001
0100
0000
0010
0000
1000
0000
0001
0100
0010
0000
0100
,
0000
0001
0000
1000
0100
0010
0000
0001
0000
1000
0000
0001
0010
0100
0000
1000
,
0000
1010
0000
0100
0000
0001
0000
0010
0000
0110
0000
0100
0000
1000
0000
0001
,
0000
0101
0000
0100
0000
0010
0000
1000
0001
0100
0001
1000
0010
1000
0001
0100
,
0020
0000
0000
0000
,
1030
0010
0100
0100
0001
0010
0100
1000
,
0001
0010
0100
0100
0010
0001
1000
0010
,
0100
0001
1000
1000
0010
0100
0001
0010
,
0100
1000
0001
0001
0100
0010
1000
0001
,
1001
0010
0100
0100
0001
0010
0100
1000
,
0010
0100
0001
0001
1000
0010
0100
0001
,
0010
0100
1000
1000
0001
0100
0010
0100
,
0001
1000
0100
0100
1000
0001
0100
0000
,
0110
0000
0010
0100
0010
0100
0010
0100
,
0001
1000
0001
1000
0001
1000
0001
1000
,
0100
0010
0100
0010
0100
0010
0100
0010
,
0001
1000
0001
1000
0001
1000
0001
1000
,
0020
0100
0000
0001
0000
0100
0000
1030
,
0000
1010
0000
1001
0000
0011
0000
0010
,
0200
0000
1300
0100
0010
0001
0010
0100
,
1000
0001
0010
0100
1000
0010
0100
0001
,
2002
3003
0110
1010
,
0101
1001
0200
0000
,
0020
0000
0000
0000
,
0000
0330
0000
0000
0000
0000
0000
0000
0000
0000
0000
0000
0000
0000
0000
0000
0000
0000
0000
0000
0000
0000
0000
0000
0000
0000
0000
0000
0000
0000
0000
0000
0000
0000
0000
0000
0000
0000
0000
0000
0000
0000
0000
0000
0000
0000
0000
0000
0000
0000
0000
0000
0000
0000
0000
0000
0000
0000
0000
0000
0000
0000
0000
0000
;

//---------------dance-single - Maro----------------
#NOTES:
     dance-single:
     Maro:
     Medium:
     9:
     0.410,0.451,0.085,0.205,0.037: // measure 1
0001
0000
0100
0000
0010
1000
0100
0000
,  // measure 2
1000
0000
0001
0000
1000
0010
0100
0000
,  // measure 3
0002
0000
0013
0000
0001
0100
0010
0000
,  // measure 4
1000
0000
0001
0000
0100
0010
0100
0000
,  // measure 5
1001
0000
1000
0000
0001
0100
0010
0000
,  // measure 6
0100
0000
0001
0000
1000
0100
0010
0000
,  // measure 7
0002
0000
0103
0000
0100
0010
1000
0000
,  // measure 8
0001
0000
0100
0000
0010
0100
0001
0000
,  // measure 9
2000
0000
3002
0000
0103
0010
0100
0000
,  // measure 10
0010
0000
0010
0000
1000
0000
1000
0100
,  // measure 11
0010
0000
0010
0000
0001
0000
0001
1000
,  // measure 12
0100
0000
0100
0000
0010
0000
0010
0001
,  // measure 13
0100
0000
0100
0000
0010
0000
0010
1000
,  // measure 14
0001
0000
1000
0000
0001
0000
1000
0010
,  // measure 15
0100
0000
0010
0000
0100
0000
0010
1000
,  // measure 16
0100
0000
0010
0000
0100
0000
0010
0001
,  // measure 17
0100
0000
0010
0000
1000
0000
0001
1000
,  // measure 18
0010
0000
1010
0000
0100
0000
0001
1000
,  // measure 19
0100
0000
0011
0000
0100
0000
1000
0001
,  // measure 20
0100
0000
1010
0000
0100
0000
0001
1000
,  // measure 21
0010
0000
0101
0000
1000
0000
1000
0100
,  // measure 22
0010
0001
0010
0000
0001
0000
0100
0010
,  // measure 23
0100
0001
1000
0000
0001
0000
1000
0100
,  // measure 24
0010
0001
0010
0000
0100
0000
1000
0010
,  // measure 25
1000
0100
1000
0000
0010
0000
0100
0001
,  // measure 26
0100
0000
0010
0000
0000
0000
1000
0000
0000
0000
0010
0000
0000
1000
0000
1000
,  // measure 27
0000
0000
0100
0000
0000
0000
0010
0000
0000
0000
0001
0000
0000
0100
0000
0001
,  // measure 28
0000
0000
1000
0000
0000
0000
0010
0000
0000
0000
0100
0000
0000
0010
0000
1000
,  // measure 29
0000
0000
0001
0000
0000
0000
0100
0000
0000
0000
0010
0000
0000
0100
0000
0001
,  // measure 30
0000
1000
0010
0100
0000
0100
0010
1000
,  // measure 31
0000
0001
0100
0010
0000
0100
0001
1000
,  // measure 32
0000
0100
0010
0001
0000
0010
0100
1000
,  // measure 33
0002
2003
3020
0230
,  // measure 34
0301
0100
0001
0100
0001
0100
0010
0000
,  // measure 35
1000
0100
1000
0100
1000
0100
0010
0000
,  // measure 36
0001
1000
0001
1000
0001
1000
0100
0000
,  // measure 37
1000
0001
1000
0001
1000
0001
0100
0000
,  // measure 38
0001
0100
0010
0000
0100
0000
0001
1000
,  // measure 39
0100
0010
0001
0000
0100
0000
0010
1000
,  // measure 40
0001
0100
0010
0000
0100
0000
0001
1000
,  // measure 41
0100
0010
0001
0000
1000
0000
0001
0001
,  // measure 42
1000
0100
1000
0000
1000
0010
1000
0000
,  // measure 43
1000
0001
1000
0000
1000
0100
1000
0000
,  // measure 44
0001
1000
0001
0000
0001
0010
0001
0000
,  // measure 45
0001
0100
0001
0000
0001
1000
0001
0000
,  // measure 46
0100
0000
0010
0000
1000
0000
0001
1000
,  // measure 47
0001
0000
1000
0000
0100
0000
0010
0100
,  // measure 48
0020
0000
0230
0000
,  // measure 49
2300
3200
0320
0032
,  // measure 50
2003
0100
0010
0010
,  // measure 51
0001
0001
0010
0010
,  // measure 52
0001
0001
0100
0100
,  // measure 53
0001
0001
0010
0010
,  // measure 54
3002
0000
0203
0000
0320
0000
1030
0100
,  // measure 55
2000
0000
3200
0000
0320
0000
0130
1000
,  // measure 56
0200
0000
0320
0000
0032
0000
1003
0001
,  // measure 57
2000
0000
3020
0000
0230
0000
0301
0100
,  // measure 58
0002
0010
0100
0100
,  // measure 59
1000
1000
0100
0100
,  // measure 60
0010
0010
0100
0100
,  // measure 61
1000
1000
0010
0010
,  // measure 62
1003
1010
0001
0011
,  // measure 63
1000
1010
0001
0011
,  // measure 64
1000
1001
0010
0110
,  // measure 65
0010
0100
0010
0000
0100
0010
1000
0001
,  // measure 66
0100
0000
0000
0000
,  // measure 67
0000
0000
0000
0000
,  // measure 68
0000
0000
0000
0000
,  // measure 69
0000
0000
0000
0000
,  // measure 70
0020
0000
0000
0000
,  // measure 71
0230
0000
0000
0000
,  // measure 72
0302
0000
0000
0000
,  // measure 73
2003
0000
3200
0000
,  // measure 74
0320
0000
0000
0030
0002
0000
0000
0003
,  // measure 75
2000
0000
0000
3000
0020
0000
0000
0030
,  // measure 76
0200
0000
0000
0300
0020
0000
0000
0030
,  // measure 77
1000
1000
0001
0001
0100
0010
0100
0010
,  // measure 78
0200
1000
0010
0001
,  // measure 79
0302
0010
0100
1000
,  // measure 80
2003
0100
0010
0001
,  // measure 81
3002
0000
0100
0000
0010
0000
0103
0100
,  // measure 82
0020
0001
0100
1000
,  // measure 83
2030
0100
0010
0001
,  // measure 84
3002
0010
0100
0010
,  // measure 85
0023
0000
1000
0000
0100
0000
0031
0001
,  // measure 86
1000
0100
0010
0000
0001
0100
0001
0000
,  // measure 87
1000
0100
1000
0000
0001
0100
0010
0000
,  // measure 88
1000
0100
0010
0000
0100
1000
0100
0000
,  // measure 89
0010
0001
0010
0000
0001
0100
0010
0010
,  // measure 90
1000
0100
1000
0000
0010
0000
0110
0000
,  // measure 91
0100
0001
0100
0000
0001
0000
0011
0000
,  // measure 92
0010
0100
0010
0000
0100
0000
0110
0000
,  // measure 93
0000
0010
0000
0100
0000
0001
0000
1000
,  // measure 94
0100
1000
0100
1000
0001
0100
0001
0000
,  // measure 95
0001
0100
0001
0100
0010
1000
0100
0000
,  // measure 96
0010
0001
0010
0001
0100
0010
1000
0000
,  // measure 97
0001
0100
0001
0100
0010
1000
0100
0000
,  // measure 98
1000
0100
1000
0100
0010
0001
1000
0000
,  // measure 99
0001
0100
0001
0100
0010
0100
0001
0000
,  // measure 100
1000
0001
1000
0001
0100
0010
1000
0000
,  // measure 101
0100
0010
0001
0010
0100
1000
0001
0001
,  // measure 102
1000
0010
1000
0000
0001
0100
0001
0000
,  // measure 103
1000
0010
0100
0001
0010
0100
1000
0000
,  // measure 104
0100
1000
0100
0000
0010
0001
0010
0000
,  // measure 105
0001
1000
0010
0100
0001
0000
1000
1000
,  // measure 106
0001
0100
0010
0000
0100
0001
1000
0000
,  // measure 107
0100
0010
0001
0010
0100
1000
0001
0000
,  // measure 108
1000
0100
1000
0000
0001
0100
0001
0000
,  // measure 109
1000
0010
0100
0001
1000
0000
0001
0001
,  // measure 110
1000
0100
0010
0000
0010
0001
0100
0000
,  // measure 111
0100
0010
1000
0000
1000
0001
0100
0001
,  // measure 112
0000
1000
0000
0000
0000
0100
0000
0010
0000
0001
0000
0000
0000
0001
0000
0010
,  // measure 113
0000
0100
0000
0000
0000
1000
0000
0001
0000
1000
0000
0000
0000
0001
0000
0000
,  // measure 114
0100
0010
1000
0000
0010
0100
0001
0000
,  // measure 115
1000
0010
0100
0000
0001
0100
0010
0000
,  // measure 116
1001
0010
1001
0100
,  // measure 117
0110
1001
0110
1001
,  // measure 118
2002
0000
0000
3003
,  // measure 119
0110
0000
0100
0000
0001
0100
0001
0000
,  // measure 120
1000
0000
0100
0000
0010
0001
0010
0000
,  // measure 121
0100
0000
1000
0000
0001
0100
0001
0000
,  // measure 122
1000
0000
0100
0000
1000
0010
1000
1000
,  // measure 123
0001
0000
0100
0000
0010
0100
0001
0000
,  // measure 124
1000
0000
0001
0000
1000
0100
1000
0000
,  // measure 125
0001
0000
0010
0000
0100
0010
0100
0000
,  // measure 126
0010
0000
0001
0000
1000
0001
1000
0010
,  // measure 127
0020
0001
0100
1030
,  // measure 128
1000
0100
0010
0001
,  // measure 129
0010
0100
1000
0001
,  // measure 130
0100
0010
1000
0001
,  // measure 131
0200
0000
0000
0000
0000
0000
0300
0010
,  // measure 132
0000
1000
0000
0010
0000
0100
0000
0001
,  // measure 133
0000
0100
0000
0010
0000
1000
0000
0001
,  // measure 134
0000
1000
0000
0100
0000
0010
0000
0100
,  // measure 135
0100
0010
0001
0100
,  // measure 136
0020
0000
0000
0000
,  // measure 137
0200
0000
0000
0000
,  // measure 138
0330
0000
0000
0000
;
