#TITLE:Inca Steppa;
#SUBTITLE:~Video Clip Ver.~;
#ARTIST:Juno Reactor;
#TITLETRANSLIT:;
#SUBTITLETRANSLIT:;
#ARTISTTRANSLIT:;
#CREDIT:;
#BANNER:maroincasteppa bn.png;
#BACKGROUND:maroincasteppa bg.png;
#LYRICSPATH:;
#CDTITLE:cdtitle2.png;
#MUSIC:Inca Steppa (Video Clip ver.).mp3;
#OFFSET:1.289;
#SAMPLESTART:66.627;
#SAMPLELENGTH:12.000;
#SELECTABLE:YES;
#BPMS:0.000=90.000,192.000=180.000,312.000=90.000,316.000=180.000;
#STOPS:;
#BGCHANGES:0.200=Juno Reactor - Inca Steppa.mpg=1.000=1=1=0,
477.000=incasteppavid bg.jpg=0.800=1=1=1,
99999=-nosongbg-=1.000=0=0=0 // don't automatically add -songbackground-
;

//---------------dance-single - Maro----------------
#NOTES:
     dance-single:
     Maro:
     Challenge:
     19:
     1.000,1.000,0.596,0.111,1.000:
0000
0000
0000
0000
0000
0020
0230
0310
,
1001
0000
1001
0001
0000
1000
0100
0010
0001
0000
0101
0000
0100
0010
1000
0000
,
1010
0000
0010
0100
0000
0100
0001
0010
0100
0000
1100
0000
0100
0010
0001
0000
,
0101
0000
0110
1000
0000
1000
0100
0010
0100
0000
2100
0000
3020
0000
0130
0000
,
0101
0000
0001
0010
0000
0100
1000
0001
0010
0000
0012
0000
2003
0000
3010
0000
,
2010
0000
0000
0000
0010
0000
0000
0000
0010
0000
0000
0000
0010
0000
0001
0000
0002
0000
0000
0000
0000
0000
0003
0000
3000
0000
0010
1000
0001
0000
0000
0000
,
1000
0000
0010
0100
0010
0000
1000
0100
1000
0000
0001
0010
0001
0000
1000
0010
0100
0000
0001
0000
1000
0000
0100
0000
0010
0000
0001
0000
0100
0000
0010
0000
,
0001
0000
0010
0100
0010
0000
1000
0010
1000
0000
0100
1000
0100
0000
0010
0001
1000
0000
0001
0000
0010
0000
1000
0000
0010
0000
0001
0000
0100
0000
0010
0000
,
1000
0000
0001
0100
0001
0000
0010
0100
0010
0000
0001
1000
0001
0000
1000
0100
0010
0000
0100
0000
1000
0000
0010
0000
0100
0000
0001
0000
0010
0000
1000
0000
,
0010
0000
0001
0100
0001
0000
0100
0010
0100
0000
0010
1000
0010
0000
1000
0100
0010
0000
0100
0000
1000
0000
0010
0000
0100
0000
0001
0000
1000
0000
0010
0000
,
0100
0000
0001
1000
0010
0000
1000
0001
0010
0000
0001
0010
0100
0000
1000
0100
0010
0000
0001
0000
0100
0000
0010
0000
0001
0000
0010
0000
0100
0000
0010
0000
,
1000
0000
0001
1000
0010
0000
1000
0100
0010
0000
0100
1000
0010
0000
0100
0001
1000
0000
0001
0000
0010
0000
1000
0000
0010
0000
0001
0000
0100
0000
0010
0000
,
0001
0000
0010
0100
0001
0000
1000
0100
0010
0000
0100
1000
0001
0000
1000
0010
0100
0000
0001
0000
1000
0000
0100
0000
0010
0000
0001
0000
0100
0000
0010
0000
,
1000
0000
0001
0100
0010
0000
0100
0001
1000
0000
0100
0000
0010
0000
0001
0000
1000
0000
0100
0000
0100
0000
0010
0000
0011
0000
1000
0100
0020
0000
0000
0000
,
0031
0000
0000
0000
1001
0000
0010
0000
0000
0000
0010
0000
1100
0000
0000
0000
1010
0000
0000
0110
0000
0000
0101
0000
0000
0000
0001
0000
1000
0000
0100
0000
,
0010
0000
0000
0000
0011
0000
0100
0000
0000
0000
0100
0000
1010
0000
0000
0000
0110
0000
0000
0101
0000
0000
1001
0000
0000
0000
1000
0000
0100
0010
0001
0000
,
1000
0000
0000
0000
1010
0000
0100
0000
0000
0000
0100
0000
0101
0000
0000
0000
0011
0000
0000
0110
0000
0000
1100
0000
0000
0000
1000
0000
0000
0000
0010
0000
,
0100
0000
0000
0000
0101
0000
0010
0000
0000
0000
0010
0000
1100
0000
0000
0000
1001
0000
0000
0101
0000
0000
0010
0000
1000
0100
1000
0000
0001
0100
0010
1000
,
0001
0000
0100
0010
1000
0000
0001
0100
0010
0000
0100
0000
0001
0000
1000
0000
0100
0000
0010
0001
1000
0000
0010
0000
0100
0000
0001
1000
0010
0000
1000
0000
,
0100
0000
0010
0001
0100
0000
0010
1000
0100
0000
1000
0000
0010
0000
0100
0000
0001
0000
1000
0010
0100
0000
0010
0000
1000
0000
0001
0100
0010
0000
0100
0000
,
0001
0100
0110
0010
1000
0100
0110
0010
0001
0100
0110
0010
1000
0100
0110
0010
,
0001
0000
0000
0100
0000
0000
0110
0000
0000
0010
0000
0000
1000
0000
0000
0100
0000
0000
0110
0000
0000
0000
0000
0000
0011
0000
0000
0000
0011
0000
0000
0000
0011
0000
0000
0000
0011
0000
0000
0000
0000
0000
1100
0000
0000
0000
0000
0000
,
1010
0000
0000
0000
0000
0000
0000
0000
0000
0000
0000
0000
0000
0000
0000
0000
1010
0000
0000
0000
0000
0000
0000
0000
0000
0000
0000
0000
0000
0000
0000
0000
1010
0000
0000
0000
0000
0000
0000
0000
0000
0000
0000
0000
0000
0000
0000
0000
1010
0000
0000
0000
0000
0000
0000
0000
0000
0000
0000
0000
0000
0000
0000
0000
0000
0000
0000
0000
0000
0000
0000
0000
0101
0000
0000
0000
0000
0000
0000
0000
0000
0000
0000
0000
0000
0000
0000
0000
0000
0000
0000
0000
0000
0000
0000
0000
0001
0000
0000
0000
0000
0000
0000
0000
0000
0000
0000
0000
1000
0000
0000
0000
0000
0000
0000
0000
0000
0000
0000
0000
1100
0000
0000
0000
0000
0000
0000
0000
0000
0000
0000
0000
0000
0000
0000
0000
0000
0000
0000
0000
0000
0000
0000
0000
0010
0000
0000
0000
0000
0000
0000
0000
0000
0000
0000
0000
0001
0000
0000
0000
0000
0000
0000
0000
0000
0000
0000
0000
0100
0000
0000
0000
0000
0000
0010
0000
0000
0000
0000
0000
1000
0000
0000
0000
0000
0000
0010
0000
0000
0000
0000
0000
,
0100
0000
0100
0001
1000
1000
0100
0010
0001
0000
0011
0000
0001
0100
0010
0000
,
1010
0010
0100
0001
1000
1000
0100
0010
0110
0000
1001
0000
0001
1000
0010
0000
,
0110
0000
1001
0001
1000
0010
0100
0010
0110
0000
1001
0000
1000
0010
0100
0000
,
0101
0001
0100
0010
1000
1000
0010
0100
0001
0000
1001
0000
1000
0001
0000
0001
,
1000
0100
0000
0100
1000
0000
0010
0000
0100
0000
0001
0010
0001
0000
0100
0000
0010
1000
0000
1000
0010
0000
0100
0000
0001
0000
1000
0000
0100
0000
0010
0000
,
0001
0100
0000
0100
0001
0000
0010
0000
0100
0000
1000
0010
0100
0000
0100
0010
1000
0000
0001
0000
0100
0000
0001
0000
0010
0000
0010
0000
0100
0000
1000
0000
,
0001
0100
0000
0100
0001
0000
1000
0000
0010
0000
0100
0001
1000
0000
0100
0000
0010
0100
0000
0100
0010
0000
0001
0000
1000
0000
0010
0100
0001
0000
1000
0000
,
0100
0100
0010
0010
0001
0001
1000
1000
0001
0100
0010
1000
2020
0000
0000
3030
,
0010
0100
0010
0100
0010
0100
0010
0100
0001
0100
0001
0100
0001
0100
0001
0100
0001
1000
0001
1000
0001
1000
0001
1000
0100
1000
0100
1000
0100
1000
0100
1000
,
0100
0010
0100
0010
0100
0010
0100
0010
0001
0010
0001
0010
0001
0010
0001
0010
0001
1000
0001
1000
0001
1000
0001
1000
0010
0100
0010
0100
0010
0100
0010
0100
,
0001
0100
0001
0100
0001
0100
0001
0100
0010
1000
0010
1000
0010
1000
0010
1000
0100
0010
0100
0010
0100
0010
0100
0010
0001
1000
0010
0100
0001
1000
0010
0100
,
0001
0100
0010
1000
0100
0010
0001
0100
0010
1000
0001
0010
0100
1000
0010
0100
0001
0000
1000
0000
0010
0000
0100
0000
0110
0000
1000
0000
0001
0000
0000
0000
,
1000
0000
0100
0000
0110
0000
0001
0000
1000
0000
0010
0000
0110
0000
0000
0000
1010
0000
0000
0110
0000
0000
0100
0000
0001
0000
1000
0000
0100
0000
0000
0000
,
0100
0000
0010
0000
0001
0000
0100
0000
0010
0000
0001
0000
0010
0000
0100
0000
0001
1000
0010
0000
1000
0010
0100
0000
0001
1000
0100
0000
0010
0001
1000
0000
,
0010
0000
0100
0000
0001
0000
0010
0000
0100
0000
1000
0000
0100
0000
0010
0000
0001
0100
0010
0000
0100
0001
1000
0000
0100
0010
0001
0000
0100
0010
1000
0000
,
0001
0000
0100
0000
0010
0000
1000
0000
0100
0000
1000
0000
0010
0000
0100
0000
0001
1000
0010
0000
1000
0100
0010
0000
0100
1000
0001
0000
0100
0010
1000
0000
,
0001
0000
0100
0000
0010
0000
0100
0000
0001
0000
1000
0000
0100
0000
0010
0000
0001
0000
0010
0000
0001
0010
0001
0000
1000
0100
0010
0001
2000
0000
0000
0000
,
3001
0000
0100
0000
0010
0000
1000
0000
0100
0000
0010
0000
0001
0000
0100
0000
0110
0000
0000
1010
0000
0000
1000
0000
0100
0000
0010
0000
0001
0000
0000
0000
,
0100
0000
0001
0000
0010
0000
0100
0000
1000
0000
0010
0000
0100
0000
0001
0000
0101
0000
0000
0110
0000
0000
0010
0000
1000
0000
0100
0000
1000
0000
0000
0000
,
0001
0000
0100
0000
0010
0000
0001
0000
0010
0000
1000
0000
0100
0000
0010
0000
0011
0000
0000
0110
0000
0000
0010
0000
0001
0000
0100
0000
0010
0000
0000
0000
,
0110
0000
0000
0000
1001
0000
0001
0000
1000
0000
0100
0000
0010
0000
0001
0000
1000
0000
1000
0000
0010
0000
0100
0000
0001
0000
0001
0000
1000
0001
0100
0010
,
2000
0000
3100
0010
0000
0100
0010
0000
0002
0000
0203
0000
0320
0000
1030
0000
,
1001
0000
0110
0100
0000
0100
0001
0000
2000
0000
3200
0000
0320
0000
0031
0000
,
1001
0000
0110
1000
0000
1000
0001
0000
0100
0010
1000
0000
1000
0010
0100
0000
,
0101
0000
0000
0000
1010
0000
1000
0000
0000
0000
0100
0000
0010
0000
0000
0000
0001
0000
0001
0100
0001
0000
1000
0000
0010
0000
0100
0000
0100
0001
0010
0100
,
1000
0100
0010
0000
0001
0100
0010
0000
0100
0001
1000
0000
0100
0010
0001
0000
,
0001
0010
0100
0000
0100
1000
0010
0000
0100
0001
1000
0000
0010
0100
0001
0000
,
0001
0010
0100
0000
0010
0001
1000
0000
0010
0100
0001
0000
1000
0010
0100
0000
,
0100
0010
1000
0000
0100
0010
0001
0000
0001
0010
0100
0000
0010
0001
0100
0000
,
0010
1000
0001
0000
1000
0010
0100
0000
0100
1000
0001
0000
0001
0010
1000
0000
,
0100
0010
0001
0000
0001
0010
1000
0000
1000
0001
0100
0000
0100
1000
0010
0000
,
0100
0001
1000
0000
0010
0100
0001
0000
1000
0100
0010
0000
0001
0100
0010
0000
,
1000
0010
0100
0000
0101
0000
1000
0000
0001
0100
0010
1000
0100
0010
0001
1000
,
0010
0010
0100
0001
1000
0100
0010
0001
,
0001
1000
0000
0000
1000
0010
0000
0000
0010
0100
0000
0000
0100
0001
0000
0000
,
1000
1000
0100
0010
0001
0100
0010
1000
,
0001
0010
0000
0000
0010
0100
0000
0000
0100
1000
0000
0000
1000
0001
0000
0000
,
1001
0001
0100
0010
1000
0100
0010
0001
,
0100
0010
0000
0000
0010
0001
0000
0000
0001
0010
0000
0000
0010
1000
0000
0000
,
1100
0000
0011
0001
0100
0010
1000
0001
,
0101
0000
0100
0000
0100
0000
0010
0000
1010
0000
0000
0000
1000
0001
1000
0001
,
1000
0000
0100
0010
0001
0000
0100
0000
0010
0000
1000
0001
0100
0000
0001
0010
,
0100
1000
0000
1000
0001
0000
0001
0100
0010
0000
0010
0000
0001
0000
0010
1000
,
0001
0100
0000
0100
0001
0000
1000
0100
0010
0000
0001
0100
0010
0000
1000
0100
,
0010
0001
0011
0011
0101
0101
0110
1010
,
1000
0010
0100
0001
0010
0000
0100
0000
1000
0000
1100
0000
0110
0000
0011
0000
,
1000
0001
1000
0001
0100
0010
0100
0010
1000
0000
0000
0000
1010
0000
0000
0000
,
1000
0100
0000
0100
0010
0000
0001
0100
0010
0000
0100
0000
0001
0000
1000
0010
,
0100
0001
0000
0001
1000
0000
0010
0100
0001
0000
0010
0000
1000
0000
0010
0000
,
0001
0100
0000
0100
0001
0000
1000
0010
0100
0000
0100
0010
1000
0000
0001
1000
,
0100
0010
0001
0010
0100
0000
1000
0000
0020
0000
0000
0000
0130
0000
0001
0000
,
1000
1000
0100
0010
0011
0110
1100
0001
,
1000
0010
0100
0001
0010
0000
0100
0000
0110
0000
0000
0000
1001
0000
0001
0000
,
1000
0010
0100
0001
0002
0010
0010
0100
,
0103
0010
1000
0100
2000
0010
0010
0001
,
3001
0000
1001
0000
0000
1000
0010
0000
0100
0000
0100
0000
0010
0000
0010
0000
,
1000
0010
0100
0010
1000
0001
0010
0100
0010
0001
0100
0010
1000
0100
0010
0001
,
0100
0010
0100
0001
0010
0100
1000
0010
0100
0001
1000
0010
0100
0010
1000
0100
,
0010
0001
0100
0010
0001
0010
0100
0001
0010
0100
1000
0010
0100
0001
0010
0100
,
1000
0010
0100
1000
0100
0010
1000
0100
0010
0001
0100
1000
0100
0001
0010
0100
,
0010
0001
0100
0010
1000
0100
0010
0001
0010
1000
0010
0001
0100
0010
1000
0100
,
0001
0100
1000
0010
0100
0001
1000
0010
0100
0010
1000
0001
0100
0010
0100
0001
,
1000
0100
0010
0001
0100
0010
1000
0001
0100
0010
0100
0001
1000
0100
0010
0001
,
1000
0000
1000
0100
0010
0000
0011
0000
0001
0010
0100
1000
0010
0000
0100
0000
,
0010
1000
0100
1100
0000
0010
0011
0000
,
0001
0100
0110
0000
0010
1000
1100
0000
,
1000
0100
1000
0100
0010
0100
0010
0100
0010
0001
0010
0001
0100
0001
0100
0001
,
0100
0010
0100
0010
1000
0010
1000
0010
1000
0001
1000
0001
0100
0010
0100
0010
,
0100
0001
0100
0001
1000
0100
1000
0100
0010
0001
0010
0001
0100
0010
1000
0001
,
0100
0010
0100
0010
1000
0010
1000
0010
0100
0001
0100
0001
0010
0001
0010
0001
,
0010
0100
0010
0100
1000
0100
1000
0100
0010
0100
0010
0001
0100
0010
1000
0010
,
0100
0001
0010
0100
1000
0010
0100
0001
1000
0010
1000
0010
1000
0010
1000
0010
,
1000
0100
1000
0000
0001
0100
0001
0000
1000
0010
1000
0000
0001
0010
0001
0000
,
1001
0000
1000
0100
0010
0000
0110
0000
0010
0001
0100
0010
0001
0010
0100
0001
,
1000
0100
0010
0001
0100
0010
1000
0010
,
1010
1001
0101
0011
,
0001
0010
0100
1000
0010
0100
0001
0010
0100
0010
0001
0100
0010
1000
0100
0010
,
0001
0100
0010
1000
0010
0100
0001
1000
0010
0100
0001
1000
0100
0010
0001
0100
,
0010
0100
0001
0010
1000
0001
1000
0010
0001
0100
0010
1000
0001
0100
1000
0001
,
1000
0100
0001
1000
0100
0010
0001
0100
0010
0100
0001
1000
0100
0010
0100
1000
,
0001
0010
0100
0010
0001
1000
0100
0010
0100
1000
0010
0100
0001
0100
0010
1000
,
0001
0100
0010
0100
0001
1000
0100
0010
0001
0100
0010
1000
0001
1000
0100
0010
,
0001
0100
0010
0100
0001
0010
0100
1000
0010
0100
0001
1000
0100
0010
0001
0100
,
0010
1000
0100
0000
0010
0001
0100
0000
0100
0001
0010
0000
0100
1000
0010
0000
,
1000
0010
0101
0010
1000
0100
0100
0000
,
0010
0001
0100
0000
0001
1000
0010
0000
1000
0010
0100
0000
0010
0100
0001
0000
,
1000
0001
1010
0100
0001
1000
1000
0000
,
0100
0010
0001
0000
0100
0010
1000
0000
1000
0010
0100
0000
0001
1000
0010
0000
,
1001
0000
0000
0000
1001
0000
0010
0000
0210
0000
0000
0000
0310
1000
0001
1000
,
0010
0000
0110
0000
0100
1001
0010
0000
,
1010
0000
0000
1100
0000
0000
0110
0000
0000
0000
0010
0000
0011
0000
0100
0000
,
0010
1000
0100
1100
0000
0100
0011
0000
,
0101
0000
0000
1001
0000
0000
1100
0000
0000
0000
0100
0000
0010
0000
0001
0000
,
0100
0100
1010
0001
1000
1001
0010
0000
,
1010
0000
1001
0100
0000
0100
1010
0000
,
0101
0000
0000
0000
2010
0000
0000
0000
0001
0000
0000
0002
0000
0000
0000
0000
,
0003
0000
0000
3000
;

//---------------dance-single - Maro----------------
#NOTES:
     dance-single:
     Maro:
     Hard:
     14:
     0.663,0.818,0.227,0.214,0.365: // measure 1
0000
0000
0000
0000
,  // measure 2
1001
0000
1001
0100
0000
0010
1000
0000
0100
0000
0001
0000
0010
0000
1000
0000
,  // measure 3
1100
0000
0010
0001
0000
0001
0010
0000
1000
0000
0100
0000
0001
0000
0010
0000
,  // measure 4
1010
0000
0101
0010
0000
0010
1000
0000
0001
0000
0100
0000
1000
0000
0100
0000
,  // measure 5
0101
0000
0010
0100
0000
0100
0010
0000
2000
0000
3200
0000
0320
0000
0031
0000
,  // measure 6
2002
0000
0000
0000
0000
0000
0000
0000
0000
0000
0000
0000
3003
0000
0010
0000
0010
0000
0000
0000
0000
0000
0000
0000
0100
0000
0010
0100
0010
0000
0000
0000
,  // measure 7
1000
0000
0010
0100
0000
0100
0010
0000
1000
0000
0100
0000
0010
0000
0001
0000
,  // measure 8
0100
0000
0001
0010
0000
0010
0001
0000
0100
0000
0010
0000
0001
0000
0100
0000
,  // measure 9
0010
0000
0001
0010
0000
0010
1000
0000
0100
0000
1000
0000
0010
0000
0100
0000
,  // measure 10
0001
0000
0010
0100
0000
0100
0010
0000
0001
1000
0010
0000
1000
0001
0010
0000
,  // measure 11
0001
0000
1000
0010
0000
0010
1000
0000
0010
0000
0001
0000
0010
0000
0100
0000
,  // measure 12
0010
0000
0100
0001
0000
0001
1000
0000
0100
0000
0010
0000
0100
0000
0001
0000
,  // measure 13
0100
0000
1000
0010
0000
0010
0100
0000
0001
0000
0100
0000
0010
0000
1000
0000
,  // measure 14
0001
0000
0000
0000
1000
0000
0001
0000
0000
0000
1000
0000
0001
0000
0000
0000
0100
0000
0010
0000
1000
0000
0000
0000
0001
0000
0100
0001
1000
0000
0000
0000
,  // measure 15
1000
0000
0000
0000
0100
0000
0010
0000
0000
0000
0001
0000
0100
0000
0000
0000
0010
0000
0000
1000
0000
0000
0100
0000
0000
0000
0010
0000
0001
0000
0000
0000
,  // measure 16
1000
0000
0000
0000
0010
0000
0100
0000
0000
0000
0001
0000
1000
0000
0000
0000
0100
0000
0000
0010
0000
0000
0001
0000
0000
0000
1000
0000
0010
0000
0000
0000
,  // measure 17
0100
0000
0000
0000
0010
0000
0100
0000
0000
0000
0001
0000
1000
0000
0000
0000
0010
0000
0000
1000
0000
0000
0100
0000
0000
0000
0010
0000
0001
0000
0000
0000
,  // measure 18
0100
0000
0000
0000
0001
0000
0010
0000
0000
0000
0100
0000
1000
0000
0000
0000
0001
0000
0000
1000
0000
0000
0001
0000
0000
0000
1000
0000
0010
0000
0100
0000
,  // measure 19
0001
0000
0010
0100
0000
0100
0010
0000
0001
0000
0100
0000
1000
0000
0100
0000
,  // measure 20
0001
0000
0010
1000
0000
1000
0010
0000
0001
0000
0100
0000
0010
0000
0001
0000
,  // measure 21
0010
0000
0100
0010
0000
0010
1000
0000
0001
0000
1000
0000
0010
0000
0001
0000
,  // measure 22
0010
0000
0000
0000
0000
0000
1000
0000
0000
0100
0000
0000
0000
0000
0000
0100
0000
0000
1000
0000
0000
0000
0000
0000
0001
0000
0000
0000
0100
0000
0000
0000
0001
0000
0000
0000
0100
0000
0000
0000
0000
0000
0010
0000
0000
0000
0000
0000
,  // measure 23
1000
0000
0100
0000
1000
0000
0100
0000
0000
0010
0000
0000
0001
0000
0000
0101
0000
0000
1000
0000
0000
1100
0000
0000
,  // measure 24
0010
0000
0100
0001
1000
0000
0100
1000
0001
0000
0100
0000
0010
1000
0000
0000
,  // measure 25
1100
0000
0010
0001
0100
0000
0010
1000
0100
0000
0010
0000
0001
1000
0000
0000
,  // measure 26
1001
0000
1000
0010
0100
0000
0001
0010
0100
0000
0010
0000
0001
0100
0000
0000
,  // measure 27
0110
0000
0010
1000
0001
0000
0010
0001
1000
0000
0010
0000
0100
0010
0000
0000
,  // measure 28
0010
0010
1000
0100
0010
0010
0001
0100
0010
0000
0010
1000
0001
0000
1000
0001
,  // measure 29
0100
0100
0010
1000
0100
0100
0010
0001
0100
0001
0010
0100
1000
0100
0010
0001
,  // measure 30
1000
1000
0100
0001
0100
0100
1000
0010
0100
0001
1000
0000
0001
1000
0010
0000
,  // measure 31
0100
0100
0010
1000
0010
0100
0001
0010
0200
0000
1000
0000
0320
0000
0000
0000
,  // measure 32
0032
0010
0100
1003
1000
0010
0100
0001
,  // measure 33
2000
0100
0010
3001
0001
0010
1000
0010
,  // measure 34
0002
1000
0100
0013
0010
0100
1000
0010
,  // measure 35
0200
1000
0010
0301
0001
0010
1000
0001
,  // measure 36
0100
0000
0000
0000
0100
0000
1000
0000
0000
0000
1000
0000
0010
0000
0000
0000
0100
0000
0000
0100
0000
0000
0100
0000
0010
0000
2000
0000
0000
0000
3000
0000
,  // measure 37
0002
0010
0100
1000
2003
3200
0320
0230
,  // measure 38
2300
0010
0100
0001
3002
0203
0320
2030
,  // measure 39
3200
0001
0010
1000
2300
3020
0230
0302
,  // measure 40
0023
0000
1000
0000
0100
0000
0001
0000
0031
1000
0010
0000
1000
0001
0010
0000
,  // measure 41
1001
0000
0001
0100
1000
0000
1000
0100
0001
0000
1000
0000
0010
0100
0000
0000
,  // measure 42
0110
0000
0100
0001
0010
0000
0100
1000
0010
0000
0100
0000
0001
1000
0000
0000
,  // measure 43
1001
0000
0001
0010
1000
0000
1000
0010
0001
0000
0100
0000
0010
1000
0000
0000
,  // measure 44
1010
0000
0100
0001
1000
0000
0100
1000
0001
0000
0100
0000
0010
1000
0000
0000
,  // measure 45
2002
0000
0000
3003
0010
1000
0100
0010
,  // measure 46
0011
2200
0000
3300
1000
0010
0100
0001
,  // measure 47
0101
2020
0000
3030
0100
0001
1000
0010
,  // measure 48
0110
0000
2002
0000
0000
0000
3003
0000
0100
0010
0001
1000
0010
0100
0001
1000
,  // measure 49
0001
0000
0100
0010
0000
1000
0100
0000
,  // measure 50
0010
0000
0000
0001
0000
0000
0100
0000
0000
0000
0010
0000
1000
0000
0100
0000
,  // measure 51
1000
0000
0001
0100
0000
0010
1000
0000
,  // measure 52
1000
0000
0000
0100
0000
0000
0010
0000
0000
0000
0001
0000
0100
0000
0001
0000
,  // measure 53
0010
0000
0100
1000
0000
1000
0001
0000
,  // measure 54
0100
0000
0000
0010
0000
0000
1000
0000
0000
0000
1000
0000
0010
0000
0001
0000
,  // measure 55
0010
0000
0100
0001
0000
0001
1000
0000
,  // measure 56
0100
0000
0010
0000
0001
0000
1000
0000
0010
0100
0010
0000
1000
0001
0010
0001
,  // measure 57
1000
0010
0100
0001
0010
0100
1000
0010
,  // measure 58
0100
0000
1010
0000
1000
0001
0000
0100
,  // measure 59
0001
0010
0100
1000
0010
0001
0010
1000
,  // measure 60
0100
0000
1100
0000
1000
0010
0000
0010
,  // measure 61
1000
0100
0001
0100
1000
0010
0100
0001
,  // measure 62
0010
0000
0110
0000
0100
1000
0000
1000
,  // measure 63
0001
0010
1000
0010
0001
0100
0010
1000
,  // measure 64
0001
0000
0000
0000
1001
0000
0000
0000
0100
0000
0000
0010
0000
0000
0000
0000
,  // measure 65
1000
0010
0000
0010
1000
0000
0010
0000
0100
0000
0100
0000
0001
0000
0010
0000
,  // measure 66
0100
1000
0000
1000
0100
0000
0010
0000
0001
0000
0001
0000
0100
0000
0010
0000
,  // measure 67
1000
0001
0000
0001
1000
0000
0001
0000
0010
0000
0100
0000
1000
0000
0100
0000
,  // measure 68
1000
0010
0001
1000
0001
0010
1000
0100
,  // measure 69
0010
0001
0000
1000
0100
0000
1000
0000
0010
0000
0001
0000
0010
0000
0100
0000
,  // measure 70
0010
1000
0010
1000
0001
0000
0100
0000
0220
0000
0000
0000
0330
0000
1000
0000
,  // measure 71
0001
0100
0000
0100
0001
0000
1000
0000
0010
1000
0000
1000
0010
0000
1000
0000
,  // measure 72
0100
1000
0000
1000
0100
0000
0010
0000
0001
0000
0100
0000
0010
0000
1000
0000
,  // measure 73
0001
0010
0000
0010
0001
0000
1000
0000
0100
0000
0100
0000
0010
0000
0001
0000
,  // measure 74
1000
0010
1000
0010
0100
0000
0001
0000
0010
0000
0000
0000
0010
0000
0100
0000
,  // measure 75
1000
1000
0100
0100
0010
0010
0001
0100
,  // measure 76
0010
0010
1000
0100
0010
0000
0011
0000
,  // measure 77
0001
1000
0010
1000
0100
0000
0110
0000
,  // measure 78
0010
0001
0100
0001
0010
0000
0110
0000
,  // measure 79
1001
0220
0000
0000
0000
0000
0000
0330
,  // measure 80
1000
0100
0010
0001
0100
0001
0010
1000
,  // measure 81
0001
0100
0010
1000
0010
0001
0100
0010
,  // measure 82
1000
0010
0001
1000
0100
0010
0001
1000
,  // measure 83
0100
0001
0010
1000
0001
0100
0010
1000
,  // measure 84
0001
0100
1000
0010
0001
1000
0001
0010
,  // measure 85
1000
0100
0001
1000
0001
0100
1000
0010
,  // measure 86
0100
0001
0010
1000
0100
0001
0010
0100
,  // measure 87
1000
0000
1000
0000
1000
0000
0100
0000
0010
0001
1000
0000
0001
0000
1000
0000
,  // measure 88
1010
0000
0010
0100
0000
0010
0100
0000
,  // measure 89
0100
0001
1000
0000
0100
1000
0001
0000
,  // measure 90
0001
0100
1000
0100
0010
0100
0001
0010
,  // measure 91
0100
0000
0010
0000
1000
0000
0010
0000
0001
0100
0001
0000
1000
0100
1000
0000
,  // measure 92
0010
0100
0001
0010
1000
0010
0100
0010
,  // measure 93
0001
0100
0010
0100
1000
0100
0010
0100
,  // measure 94
0001
1000
0100
0010
0001
0100
1000
0100
,  // measure 95
0001
0000
0010
0000
0100
0000
1000
0000
0010
0100
0010
0100
0010
0100
0010
0100
,  // measure 96
0001
0000
0001
1000
0000
1000
0100
0010
,  // measure 97
0001
0000
1000
0100
1000
0000
0001
0000
0100
0010
0100
0000
0020
0000
0000
0000
,  // measure 98
1030
0000
1000
0001
0000
1000
0001
0000
,  // measure 99
0010
0010
0100
0100
1001
0000
0110
0000
,  // measure 100
0100
0001
0010
1000
0010
0001
0100
0010
,  // measure 101
1000
0100
0001
0100
1000
0010
0100
0001
,  // measure 102
0010
0100
0010
0001
0100
0010
0001
0010
,  // measure 103
0100
1000
0100
0010
0001
0010
1000
0100
,  // measure 104
0010
0001
1000
0100
0010
0100
1000
0010
,  // measure 105
0100
1000
0100
0010
1000
0100
0010
0001
,  // measure 106
0100
1000
0100
0001
0010
0100
1000
0010
,  // measure 107
0100
0001
1000
0010
0100
0000
0110
0000
,  // measure 108
0010
0010
1000
1000
0000
1000
0100
0010
,  // measure 109
0011
1100
1010
0101
,  // measure 110
0001
0001
0100
0100
0000
0010
1000
0001
,  // measure 111
1001
0110
1100
0101
,  // measure 112
0100
0000
0000
0000
0100
0000
0010
0000
1010
0000
0000
0000
1000
0100
0010
0001
,  // measure 113
0200
0000
0320
0000
1030
0001
0000
0000
,  // measure 114
1000
0000
0000
0100
0000
0000
0110
0000
0000
0000
0010
0000
0001
0000
0100
0000
,  // measure 115
0020
0000
2030
0000
3100
0010
0000
0000
,  // measure 116
0001
0000
0000
0100
0000
0000
0110
0000
0000
0000
0010
0000
1000
0000
0100
0000
,  // measure 117
2000
0000
3001
0000
0100
0010
0100
0000
,  // measure 118
1001
0000
1000
0001
0100
0010
1000
0001
,  // measure 119
1001
0000
2002
0000
0003
3000
0000
0000
;

//---------------dance-single - Maro----------------
#NOTES:
     dance-single:
     Maro:
     Medium:
     7:
     0.447,0.557,0.258,0.125,0.024:
0000
0000
0000
0000
,
1001
2002
0000
3003
0010
0100
0010
1000
,
1200
0000
0310
0001
0100
0010
1000
0001
,
0101
0202
0000
0303
0010
1000
0001
0100
,
0220
0000
0000
0330
0010
0100
0010
0100
,
1001
0000
0000
0000
0000
0000
0000
0100
0200
0000
0000
0000
0000
0000
0300
0000
,
1010
0100
0001
0000
0001
0010
0100
1000
,
1001
0001
0010
0000
0100
1000
0010
0100
,
0101
0100
0010
0000
1000
0100
0010
0001
,
1001
1000
0010
0000
0100
0001
0010
0100
,
1000
0010
0100
0000
0100
0010
1000
0001
,
0010
0100
1000
0000
0100
0010
0001
0100
,
0010
1000
0001
0000
0001
0100
0010
0100
,
0001
0000
1000
0000
0100
0000
0000
0000
0100
0010
0001
0000
1000
1000
1000
0000
,
0001
0000
0100
0010
0000
0100
0010
0000
1000
0000
0100
0000
0010
0000
0001
0000
,
1000
0000
0100
1000
0000
0100
1000
0000
0001
0000
0010
0000
0100
0000
1000
0000
,
0001
0000
0100
0001
0000
0100
0001
0000
1000
0000
0010
0000
0100
0000
0001
0000
,
1000
0000
0100
0010
0000
0100
0010
0000
0001
0000
0100
0000
0010
0000
1000
0000
,
0001
0000
0101
0000
0100
0010
1000
0100
,
0010
0000
0011
0000
0010
0100
1000
0001
,
1000
0010
0000
0110
0000
0101
0000
1001
,
0000
1100
0000
0100
0010
0001
0010
0000
,
0001
0100
0001
0100
0000
0010
0000
1000
,
0001
0000
1001
0000
0001
0100
0001
0000
,
1000
0000
1010
0000
1000
0100
1000
0000
,
0100
0000
0110
0000
0010
0100
0010
0000
,
0001
0000
1001
0000
1000
0010
1000
0000
,
0001
0001
1000
1000
0010
0000
0110
0000
,
0100
0100
0010
0010
1000
0000
1100
0000
,
0100
0100
0010
0010
0001
0000
0101
0000
,
0001
0001
0100
0100
0010
0000
1010
0000
,
1000
0100
0010
0000
0001
0100
0010
0000
,
0100
0001
1000
0000
0100
0010
0001
0000
,
0010
0100
1000
0000
0001
0100
0010
0000
,
0010
1000
0001
0000
1000
0001
0100
0100
,
0010
1000
1010
0001
0100
0010
0100
0000
,
0010
0100
0001
0000
0001
0100
0010
0000
,
1000
0010
0100
0000
0001
1000
0100
0000
,
0010
0001
0100
0000
0010
0100
0001
0000
,
1000
0010
0100
0000
0010
0100
0001
0001
,
1000
0000
1010
0000
0010
0100
0001
0000
,
1000
0000
1001
0000
0001
0010
0100
0000
,
1000
0000
1010
0000
0100
0001
1000
0000
,
0001
0000
0011
0000
0100
1000
0001
0000
,
2002
3003
0010
0000
,
2002
3003
0000
0000
0010
0000
0000
0000
,
0220
0330
0000
0000
1000
0000
0001
0000
,
2002
3003
0000
0000
0001
0001
1000
1000
,
0010
0000
0100
0001
0000
0001
0010
0000
,
0100
0000
1000
0100
0000
0100
0010
0000
,
0001
0000
1000
0010
0000
0010
0100
0000
,
0001
0000
1000
0100
0000
0100
0010
0000
,
0001
0000
1000
0001
0000
0001
1000
0000
,
0010
0000
0100
0001
0000
0001
0100
0000
,
0100
0000
0010
1000
0000
1000
0001
0000
,
1000
0000
0001
0000
1000
0001
1000
0000
,
0010
0000
1000
0100
1000
0000
0001
0000
,
0100
0110
0010
1010
,
1000
0000
0001
0100
0010
0000
0100
0000
,
0001
0011
0010
0110
,
0100
0000
1000
0100
1000
0000
0001
0000
,
1000
1010
0010
0110
,
0100
0000
0001
0100
0001
0000
1000
0000
,
0010
0110
0100
0110
,
0010
0000
1000
0000
0010
1000
0100
0000
,
1000
0000
0010
0000
0100
0001
0010
0000
,
0100
0000
0010
0000
0001
0100
0010
0000
,
1000
0001
1000
0000
0001
1000
0001
0000
,
0100
0000
0010
0000
1000
0010
0100
0000
,
0010
0010
0110
0100
,
0010
0000
0100
0000
0001
0100
0010
0000
,
0100
0000
0001
0000
1000
0010
0100
0000
,
0010
0000
1000
0000
0100
0010
0001
0000
,
0010
0000
0100
0000
1000
0001
0100
0000
,
0010
1000
0010
0000
0100
0001
0100
0000
,
0010
1000
0001
1001
,
1000
0000
1000
0100
0020
0000
0000
0000
,
0031
0000
0001
0100
0020
0000
0000
0000
,
1030
2002
0000
0000
0000
0000
0000
3003
,
0010
0000
0100
0001
0000
1000
0010
0000
,
0100
0000
0001
0010
0000
0010
0001
0000
,
0100
0000
0010
1000
0000
0100
1000
0000
,
0010
0000
0100
0001
0000
0001
0100
0000
,
0001
0000
0010
0100
0000
0010
0001
0000
,
0100
0010
1000
0000
0001
0100
0010
0000
,
1000
0000
0001
1000
0000
1000
0001
0000
,
0100
0110
1000
1001
,
0010
0000
0100
0010
0000
0010
0100
0000
,
0010
0110
0100
0110
,
0010
1000
0010
0000
0100
0001
0100
0000
,
0001
0000
1000
0000
0100
1000
0100
0000
,
0010
0000
0001
1000
0000
1000
0001
0000
,
0100
0000
0010
0000
1000
0010
1000
0000
,
0001
0100
0001
0000
1000
0010
1000
0000
,
0001
0000
1000
0000
0100
0010
0100
0000
,
0010
0000
0001
0100
0000
0100
0010
0000
,
1000
0000
1100
0000
0100
0010
0001
0000
,
0001
0000
0100
0001
0000
0100
0001
0000
,
0001
0010
0100
1000
,
0001
0000
0010
0100
1000
0000
1000
0000
,
0001
0000
0001
0100
0010
0000
0010
0000
,
1000
0000
1000
0100
0010
0000
0010
0000
,
0001
0000
0001
0100
0010
0000
0010
0000
,
1000
0000
1000
0001
0100
0000
0100
0000
,
0001
0000
0001
0010
0100
0000
0100
0000
,
1000
0000
1000
0100
0010
0000
0010
0000
,
0001
0000
0001
0100
0010
0000
0010
0000
,
1000
0000
0010
1000
0000
1000
0010
0000
,
0100
0001
0010
0100
,
1000
0000
0001
1000
0000
1000
0001
0000
,
1000
0010
0100
0001
,
1000
0000
1000
0010
0100
0000
0001
0000
,
0011
0022
0033
0100
,
1000
0000
0001
0100
0010
0000
1000
0000
,
1010
2020
3030
0001
,
0100
0000
0010
1000
0001
0000
1000
0000
,
1001
2002
3003
0010
,
0100
0000
0010
1000
0001
0000
0100
0000
,
0110
0220
0300
0000
,
0000
0030
0000
0000
0000
0000
0000
0000
;
