#TITLE:In The End;
#SUBTITLE:;
#ARTIST:Linking Park;
#TITLETRANSLIT:;
#SUBTITLETRANSLIT:;
#ARTISTTRANSLIT:;
#GENRE:;
#CREDIT:Magna Trick;
#BANNER:ITE-BN.png;
#BACKGROUND:ITE-BG.png;
#LYRICSPATH:;
#CDTITLE:Magna Trick title!.png;
#MUSIC:Linkin Park--In The End.mp3;
#OFFSET:0.260000;
#SAMPLESTART:51.230003;
#SAMPLELENGTH:30.000000;
#SELECTABLE:YES;
#BPMS:0.000000=52.564999
,15.000000=70.086998
,17.000000=105.129997
,80.000000=140.173004
,124.000000=105.129997
,187.000000=140.070007
,231.000000=105.129997
,234.000000=52.564999
,249.000000=105.129997
,283.000000=140.070007
,327.000000=52.564999
,336.000000=50.009998
,338.500000=48.009998
,341.000000=46.009998
,342.500000=39.009998
,344.000000=35.009998
,345.000000=27.010000
,345.250000=18.010000
;
#STOPS:
;
#BGCHANGES:0.000=intheendamv.mp4=1.000=1=0=0=StretchNoLoop==CrossFade==,
99999=-nosongbg-=1.000=0=0=0 // don't automatically add -songbackground-
;
#KEYSOUNDS:;
#ATTACKS:;

//---------------dance-single - ----------------
#NOTES:
     dance-single:
     :
     Hard:
     13:
     0.591760,0.659835,0.587137,0.499297,0.815981,896.000000,769.000000,127.000000,108.000000,0.000000,7.000000,0.591760,0.659835,0.587137,0.499297,0.815981,896.000000,769.000000,127.000000,108.000000,0.000000,7.000000:
0000
0000
0002
2003
3020
0230
0320
2030
,
3200
0000
0320
0002
0230
0003
0320
0000
2030
0000
3020
0000
0230
0000
0302
0000
,
0023
0000
0032
0200
0023
0300
2030
0000
3200
0000
2300
0000
3020
0000
0230
0000
,
0302
0000
0023
0002
0230
0003
0320
0000
0230
0000
0302
0000
2003
0000
3000
0000
,
0100
0000
0000
0000
0010
0000
0000
0000
0000
0000
0000
0000
0001
0000
0000
0000
0000
0000
0000
0000
0000
0000
0000
0000
1000
0000
0000
0100
0000
0000
1000
0000
0000
0000
0000
0000
0000
0000
0000
0000
0000
0000
0000
0000
0000
1000
0000
0000
,
0001
0000
0100
0000
0010
0000
0000
0100
0010
1000
0100
1000
0010
0100
0010
0000
,
1000
0000
0100
1000
0000
0000
0000
0001
0000
0001
0000
1000
0001
0000
0010
0100
,
1000
0000
1000
0001
0000
0100
0010
1000
0000
0100
1000
0000
0001
0000
0010
0000
,
1100
0000
0000
0000
0011
0000
0000
0000
1001
0010
0100
0001
1000
0000
0100
1000
,
0001
0010
0100
0010
0000
0000
0000
0010
0001
1000
0001
0100
0010
0000
1000
0100
,
1000
0001
0100
0010
0000
0000
0000
1000
0100
1000
0100
0010
0001
0000
0010
0001
,
0010
0001
1000
0100
0000
0010
0001
1000
0001
0100
0010
1000
0000
0100
1000
0000
,
0011
0000
0000
0000
1100
0000
0000
0000
1001
0010
0100
0001
1000
0100
0010
0100
,
0010
0001
1000
0010
0000
0000
0000
0010
0100
0010
1000
0001
1000
0000
0100
0010
,
0000
0001
1000
0000
0010
0000
0000
1000
0001
0100
0010
1000
0001
0000
0000
1000
,
0100
0010
0001
0010
0100
0000
1000
0001
0000
1000
0001
1000
0001
0000
0100
0000
,
1010
0000
1000
0000
1100
0000
1000
0000
1001
0100
0010
0001
1000
0010
0100
1000
,
0100
0010
0001
1000
0000
0001
0010
0100
0010
0000
0001
1000
0000
0000
0000
0100
,
0010
1000
0100
0010
0001
0000
0000
0001
0010
0100
1000
0001
1000
0000
1000
0010
,
0100
0000
0000
0001
0000
0000
0100
0000
0000
0000
0000
0000
0100
0000
0000
0001
0000
0000
0010
0000
0000
0100
0000
0000
0010
0000
0000
0001
0000
0000
1000
0000
0000
0010
0000
0000
0100
0000
0000
0000
0000
0000
0100
0000
0010
0000
1000
0000
,
1001
0010
0100
0010
1001
0100
0010
0100
1001
0000
0010
0000
,
0001
0000
1100
0000
1100
0000
0000
0011
0000
0000
0101
0000
,
1001
0000
0010
0000
0100
0000
0001
1000
0000
1000
0011
0000
,
0110
0000
1100
0000
1000
0000
0001
0000
0100
0000
1010
0000
,
0010
1000
0100
0000
1001
0000
0011
0000
0000
0000
1100
0000
,
0000
0000
1001
0000
0110
0000
0010
0000
1010
0000
1000
0000
,
1001
0000
0001
0000
0010
0000
0011
0000
0011
0000
0000
1001
,
0000
0000
1010
0000
1010
0000
0010
0000
0100
0000
1000
0001
,
0000
0001
1010
0000
0110
0000
0101
0000
0001
0000
1000
0000
,
0100
0000
0011
0000
0001
0010
0100
0000
1001
0000
0011
0000
,
0000
0000
1100
0000
0110
0000
0011
0000
0000
0000
0100
0010
,
1001
0000
0000
0000
0001
0100
1000
0000
0000
0000
0000
0100
1000
0000
1000
0000
,
0010
0000
0000
0010
0100
0001
1000
0010
1000
0100
0010
0000
0010
0000
0001
1000
,
0000
0000
0000
0001
0000
0001
1000
0010
0100
0000
0100
1000
0001
0000
0001
0010
,
0000
0010
1000
0100
0000
1000
0001
0010
0100
0000
0010
0001
1100
0000
0000
0000
,
0011
0000
0000
0000
1001
0010
0100
0001
1000
0100
1000
0100
0000
0010
0001
0010
,
0000
0100
1000
0001
1000
0001
0100
0010
1000
0100
1000
0001
0010
0100
0010
0001
,
0000
1000
0000
0000
0010
0000
0000
0000
0000
0000
0100
0000
0001
0000
0100
0000
0001
0000
0000
0000
0001
0000
1000
0000
0001
0000
0000
0000
1000
0000
0100
0000
,
0000
0100
1000
0000
1000
0001
1000
0001
0100
0000
0001
1000
0101
0000
0000
0000
,
1010
0000
0000
0000
1001
0000
0000
0000
0010
0000
0100
0001
0000
0001
1000
0100
,
0000
0010
0001
0000
1000
0001
0100
0010
1000
0100
1000
0001
0100
0001
0010
0100
,
1000
1000
0001
0100
0010
0100
0001
1000
0100
0010
0001
0010
0100
1000
0001
1000
,
0001
0100
0010
0100
0001
1000
0100
0010
0001
0000
0010
0100
1010
0000
0000
0000
,
0101
0000
0000
0000
1001
0010
0100
0001
1000
0000
0100
0010
0001
0010
0100
1000
,
0000
0001
1000
0001
0100
0010
1000
0100
0000
0000
0000
0100
1000
0100
1000
0001
,
0010
0000
0000
0001
0010
0001
1000
0010
0100
0000
0100
0010
1000
0100
0010
0000
,
0010
0000
0000
0001
0000
0000
0010
0000
0000
0100
0000
0000
1000
0000
0000
0001
0000
0000
0100
0000
0000
0010
0000
0000
0100
0000
0000
0001
0000
0000
1000
0000
0000
0100
0000
0000
1001
0000
0000
0000
0000
0000
0000
0000
0010
0000
0000
0000
,
0000
1001
0010
0100
0010
1001
0000
0100
0000
1000
0000
0011
,
0000
0011
0000
0000
1100
0000
0000
1010
0000
1001
0000
0100
,
0000
0010
0000
1000
0001
0000
0001
1100
0000
0110
0000
0011
,
0000
0001
0000
1000
0000
0010
0000
0101
0000
0100
0001
0010
,
0000
1001
0000
1100
0000
0000
0000
0011
0000
0000
0000
1001
,
0000
0110
0000
0100
0000
0101
0000
0001
0000
1001
0000
1000
,
0000
0100
0000
1100
0000
1100
0000
0000
1001
0000
0000
0101
,
0000
0101
0000
0100
0000
0010
0000
0001
1000
0000
1000
0101
,
0000
0110
0000
1010
0000
1000
0000
0001
0000
0010
0000
1100
,
0000
1000
0100
0010
0000
1001
0000
1100
0000
0000
0000
0011
,
0000
0110
0000
1100
0000
0000
0000
0010
0100
1001
0000
0000
,
0100
0000
0000
0000
0000
0000
0000
0000
0010
0000
0000
0000
0001
0000
0000
0000
1000
0000
0001
0100
0010
1000
0100
0010
0002
0000
0000
0000
2003
0000
0000
0000
,
3020
0000
0230
0000
0302
0000
2003
0000
3200
0000
0320
0032
0020
0003
0230
0000
,
2300
0000
3020
0000
2030
0000
3002
0000
0203
0000
0320
0230
0020
0330
2000
0000
,
3002
0000
2003
0000
3200
0000
0320
0000
0032
0000
0023
0230
0020
0330
0200
0000
,
2300
3002
0223
0000
0330
0001
1000
0100
,
0000
0000
0011
0000
0100
0000
1000
0000
0001
0000
0100
0000
0010
1000
0100
1000
,
0010
0100
0001
0010
0100
0000
1000
0000
0001
0000
1000
0000
0001
1000
0010
0100
,
0010
0100
0001
0000
1000
0000
0100
1000
0100
0000
0010
0000
0001
0010
0100
1000
,
0001
0100
0010
1000
0001
0000
1000
0000
0100
0000
0010
0000
0001
0010
0100
1000
,
0010
0100
1000
0001
0010
0000
1000
0000
0100
0000
1000
0010
1000
0100
1000
0000
,
0010
1100
0001
0011
0100
1010
0001
1100
,
0010
0110
0001
1000
0100
0010
0001
0010
,
0100
0000
0000
0000
0000
0000
1000
0000
0000
0001
0000
0000
0100
0000
0000
0000
0000
0000
0010
0000
0000
0000
0000
0000
0001
0000
0000
0000
0000
0000
1000
0000
0000
0001
0000
0000
1001
0000
0000
0000
0000
0000
0000
0000
0010
0000
0000
0000
,
0000
1001
0010
0100
0010
1001
0000
0100
0000
1000
0000
0011
,
0000
0011
0000
0000
1100
0000
0000
1010
0000
1001
0000
0100
,
0000
0010
0000
1000
0001
0000
0001
1100
0000
0110
0000
0011
,
0000
0001
0000
1000
0000
0010
0000
0101
0000
0100
0001
0010
,
0000
1001
0000
1100
0000
0000
0000
0011
0000
0000
0000
1001
,
0000
0110
0000
0100
0000
0101
0000
0001
0000
1001
0000
1000
,
0000
0100
0000
1100
0000
1100
0000
0000
1001
0000
0000
0101
,
0000
0101
0000
0100
0000
0010
0000
0001
1000
0000
1000
0101
,
0000
0110
0000
1010
0000
1000
0000
0001
0000
0010
0000
1100
,
0000
1000
0100
0010
0000
1001
0000
1100
0000
0000
0000
0011
,
0000
0000
0110
0000
0000
0000
1100
0000
0000
0000
0000
0000
0000
0000
0010
0000
0100
0000
1001
0000
0000
0020
0000
0000
,
0230
0000
0302
0000
2003
0000
3200
0000
0320
0000
0032
0000
2003
0020
3230
0000
,
0302
0000
0023
0000
2030
0000
3020
0000
0032
0000
2003
0000
3002
0200
0323
0000
,
2030
0000
3200
0000
0320
0000
0032
0000
2003
0000
3020
0000
0230
0002
2303
0000
,
3200
0000
0320
0000
0032
0000
2003
0000
3020
0000
0230
0000
0302
2003
0000
3000
,
0200
0320
0032
0203
0320
2030
0002
0000
3003
0000
0000
0000
0000
0000
0000
0000
;

//---------------dance-single - ----------------
#NOTES:
     dance-single:
     :
     Medium:
     8:
     0.369189,0.419288,0.129447,0.009246,0.302815,559.000000,531.000000,28.000000,2.000000,0.000000,0.000000,0.369189,0.419288,0.129447,0.009246,0.302815,559.000000,531.000000,28.000000,2.000000,0.000000,0.000000:
0000
0000
1000
0001
0100
0010
0100
0001
,
0010
0000
0100
1000
0010
0000
0100
0000
0001
0000
0100
0000
0010
0000
1000
0000
,
0100
0000
1000
0010
0100
0000
0001
0000
0010
0000
0001
0000
0100
0000
0010
0000
,
1000
0000
0100
1000
0010
0000
0100
0000
0010
0000
1000
0000
0002
0000
0003
0000
,
0010
0000
0100
0000
0000
0000
1000
0000
0000
0000
0000
0000
0001
0000
0000
1000
0000
0000
0000
0000
0000
0000
0000
0000
,
0001
0001
0001
0000
0001
0100
0010
0100
,
0001
1000
0100
0000
0100
0010
0001
1000
,
0010
0100
0010
1000
0001
1000
0001
0010
,
0110
0000
1100
0000
0011
0000
0001
0100
,
0010
0100
0001
1000
0001
0001
0001
0010
,
0100
0010
0001
0000
1000
0010
0100
1000
,
0001
0010
1000
0100
0100
0010
0001
1000
,
1001
0000
0110
0000
1001
0000
0010
1000
,
0100
1000
0010
0000
0100
0001
0010
0001
,
0100
0100
0010
0000
0010
1000
0001
1000
,
0010
0100
0001
0100
0010
0001
0001
0010
,
1100
0000
0110
0000
0011
0000
0001
1000
,
0010
0100
1000
0000
1000
0001
0010
0000
,
0010
1000
0100
0000
0100
0010
0001
1000
,
0010
0100
0010
1000
0001
0010
0100
1000
,
1001
0000
0000
0000
0110
0000
0000
0000
1001
0000
0000
0000
,
0000
0000
0001
0000
0010
0000
0000
0100
0000
0000
1000
0000
,
0001
0000
0100
0000
0010
0000
1000
0000
0100
0000
1000
0000
,
1000
0000
1000
0000
0000
0000
0000
0000
0000
0000
0001
0000
,
0100
0000
0010
0000
1000
0000
0100
0000
0000
0000
0100
0000
,
0000
0000
0010
0000
0001
0000
0000
0000
1000
0000
0000
0000
,
0010
0000
0000
0000
0000
0000
0100
0000
0001
0000
0000
1000
,
0000
0000
0100
0000
0010
0000
0000
0000
0001
0000
0000
0000
,
1000
0000
0010
0000
0100
0000
0001
0000
1000
0000
0000
0000
,
0100
0000
0010
0000
0001
0000
0010
0000
0100
0000
1000
0000
,
0000
0000
1000
0000
0001
0000
1000
0000
0000
0000
0001
0000
,
1000
0000
1000
0001
0000
0000
0001
0100
,
0010
0000
0010
1000
0100
1000
0010
0010
,
0010
0000
0100
0001
0100
0010
1000
0001
,
1000
0010
0100
0001
1000
0100
0011
0000
,
1100
0000
1001
0000
0010
0100
0001
1000
,
0100
0000
0100
0010
0001
0010
0100
1000
,
0001
0100
0100
0010
1000
0100
1000
0010
,
0100
0001
0010
0100
1000
0001
0101
0000
,
1010
0000
1001
0000
0001
1000
0100
1000
,
0010
0010
0100
0001
0010
0001
0100
0010
,
1000
1000
0010
0100
1000
0001
0010
1000
,
0100
0010
1000
0010
0100
1000
1001
0000
,
0110
0000
1001
0000
0001
0010
0100
1000
,
0010
1000
0100
0010
0001
0100
0001
0100
,
0001
1000
0010
1000
0001
1000
0010
1000
,
0001
0010
1000
0010
0001
1000
1001
0000
,
0000
1001
0000
0000
0000
1001
0000
0000
0000
0000
0000
0001
,
0000
0010
0000
0000
0100
0000
0000
1000
0000
0010
0000
0100
,
0000
1000
0000
0001
0000
0010
0000
1000
0000
1000
0000
0100
,
0000
0000
0000
0000
0000
0000
0000
0001
0000
0010
0000
0100
,
0000
1000
0000
0010
0000
0000
0000
0010
0000
0000
0000
0010
,
0000
1000
0000
0000
0000
0100
0000
0000
0000
0010
0000
0000
,
0000
0000
0000
0001
0000
0001
0000
0000
1000
0000
0000
0010
,
0000
0100
0000
0010
0000
1000
0000
0001
0000
0010
0000
0100
,
0000
0100
0000
1000
0000
0000
0000
0000
0000
0000
0000
0001
,
0000
0100
0000
0010
0000
1000
0000
0001
0000
0000
0000
0001
,
0000
0010
0000
0100
0000
0000
0000
0100
0000
1000
0000
0000
,
0010
0000
0000
0000
0100
0000
1000
0000
0001
1000
0010
0100
0001
0000
1000
0000
,
0100
0000
0000
1000
0000
0001
0000
0000
0001
0100
0000
0010
0000
1000
0000
0100
,
0000
0010
0000
0001
0000
0000
0000
0000
0001
0010
0000
0100
0000
0000
0000
1000
,
0001
0100
0000
0010
0000
1000
0000
0010
0000
0100
0000
0002
0000
0000
0000
0000
,
0000
0000
0003
1000
0001
0000
0000
0000
0000
0000
1000
0000
0001
0000
0010
0000
,
0000
0100
1001
0010
0100
0010
1000
1000
,
1000
0001
0010
0100
1000
0001
0100
0100
,
0010
1000
0001
0010
0001
1000
0001
0100
,
0001
0010
0001
1000
0010
0100
0100
0001
,
0010
0100
1000
0001
0100
0010
0010
1000
,
0001
0010
0100
1000
0001
0100
0010
0100
,
0001
1000
0100
1000
0001
0010
0100
1000
,
0001
0000
0100
0001
0100
0000
0001
0000
1000
0000
0001
0000
1001
0000
0000
0000
,
0000
1001
0000
0000
0000
1001
0000
0000
0000
0000
0000
1000
,
0000
0010
0000
0000
0100
0000
0000
0001
0000
1000
0000
0100
,
0000
0010
0000
0001
0000
1000
0000
0010
0000
0010
0000
0010
,
0000
0000
0000
0000
0000
0000
0000
0100
0000
0001
0000
1000
,
0000
0001
0000
0100
0000
0000
0000
0010
0000
0000
0000
0010
,
0000
0010
0000
0000
0000
1000
0000
0000
0000
0100
0000
0000
,
0000
0000
0000
0100
0000
0010
0000
0000
0001
0000
0000
1000
,
0000
0010
0000
0000
0000
0100
0000
0000
0000
1000
0000
0001
,
0000
0010
0000
1000
0000
0100
0000
0000
0000
0010
0000
0001
,
0000
1000
0000
0001
0000
0100
0000
0010
0000
0000
0000
0010
,
0000
0000
0010
0000
0000
0000
1000
0000
0000
0000
0000
0000
0000
0000
1000
0000
0000
0000
0001
0000
0000
0100
0000
0000
,
0010
0000
1000
0000
0001
0000
0010
0000
0100
0000
1000
0000
0001
0100
0010
0000
,
1000
0000
0100
0000
0001
0000
0100
0000
1000
0000
0001
0000
1000
0010
0100
0000
,
0001
0000
0010
0000
0100
0000
1000
0000
0001
0000
0100
0000
0010
1000
0001
0000
,
0010
0000
0100
0000
1000
0000
0001
0000
0100
0000
0010
0000
1000
0001
0000
0000
,
0010
0100
1000
0010
0100
0001
1000
0000
0000
0000
0000
0000
0000
0000
0000
0000
;

//---------------dance-single - ----------------
#NOTES:
     dance-single:
     :
     Challenge:
     17:
     0.853296,1.297797,1.359198,0.009246,1.208947,1292.000000,998.000000,294.000000,2.000000,0.000000,0.000000,0.853296,1.297797,1.359198,0.009246,1.208947,1292.000000,998.000000,294.000000,2.000000,0.000000,0.000000:
0000
0000
0000
0000
0000
0000
0000
0000
0000
0000
0000
0000
0001
0000
0000
0000
0000
0000
0000
0000
0000
0000
0000
0000
0010
0000
0000
0000
0000
0000
0000
0000
0000
0000
0000
0000
0100
0000
0000
0000
1000
0000
0000
0000
0100
0000
0000
0000
0011
0000
0000
0000
0000
0000
1000
0000
0000
0000
0000
0000
0100
0000
0000
0000
0000
0000
0001
0000
0000
0000
0000
0000
0110
0000
0000
0000
0000
0000
0000
0000
0000
0000
0000
0000
0000
0000
0000
0000
0000
0000
1000
0000
0000
0000
0000
0000
0101
0000
0000
0000
0000
0000
0010
0000
0000
0000
0000
0000
0000
0000
0000
0000
0000
0000
0000
0000
0000
0000
0000
0000
1100
0000
0000
0000
0000
0000
0000
0000
0000
0000
0000
0000
0000
0000
0000
0000
0000
0000
0000
0000
0000
0000
0000
0000
0011
0000
0000
0000
0000
0000
0100
0000
0000
0000
0000
0000
1000
0000
0000
0000
0000
0000
0010
0000
0000
0000
0000
0000
0101
0000
0000
0000
0000
0000
0000
0000
0000
0000
0000
0000
0000
0000
0000
0000
0000
0000
0100
0000
0000
0000
0000
0000
,
1001
0010
0000
0000
1010
0000
0110
0000
0101
0010
1000
0100
0011
0000
0000
0010
1100
0001
0000
0000
0110
0000
0000
0000
0011
0100
0001
0010
1100
0000
0000
0010
,
1001
0100
0000
0000
0101
0000
0110
0000
1010
0001
0010
1000
0110
0000
0000
1000
0101
0010
0000
0000
0011
0000
0000
0000
0110
1000
0010
0001
1100
0000
0000
0100
,
1010
0000
0000
0000
0000
0000
0001
0000
0000
0000
0000
0000
0000
0000
0000
0000
0000
0000
0000
0000
0000
0000
0000
0000
0110
0000
0000
0000
0000
0000
0000
0000
0000
0000
0000
0000
0101
0000
0000
0000
0000
0000
0000
0000
0000
0000
0000
0000
1001
0000
0000
0000
0000
0000
0010
0000
0000
0000
0000
0000
1000
0000
0000
0000
0000
0000
0100
0000
0000
0000
0000
0000
0011
0000
0000
0000
0000
0000
0000
0000
0000
0000
0000
0000
0000
0000
0000
0000
0000
0000
0010
0000
0000
0000
0000
0000
1001
0000
0000
0000
0000
0000
0100
0000
0000
0000
0000
0000
0000
0000
0000
0000
0000
0000
0000
0000
0000
0000
0000
0000
0110
0000
0000
0000
0000
0000
0000
0000
0000
0000
0000
0000
1000
0000
0000
0000
0001
0000
0000
0000
1000
0000
0000
0000
1002
0000
0000
0000
0000
0000
0000
0000
0000
0000
0000
0000
0000
0000
0000
0000
0000
0000
0000
0000
0000
0000
0000
0000
0000
0000
0000
0000
0000
0000
0000
0000
0000
0000
0000
0000
0000
0000
0000
0000
0000
0000
0000
0000
0000
0000
0000
0000
,
0013
0000
0000
0000
0100
0000
0000
0000
0000
0000
0000
0000
1100
0000
0000
0000
0000
0000
0000
0000
0000
0000
0000
0000
0100
0000
0000
0010
0000
0000
1001
0000
0000
0000
0000
0000
0100
0000
0000
0000
0000
0000
0010
0000
0000
0001
0000
0000
,
1000
0010
1000
0001
0100
0000
0010
1000
0100
0001
0010
0001
0100
1000
0110
0000
,
0011
0000
1001
0110
0001
0000
0100
0010
1000
0001
0100
0001
1000
0100
0100
0010
,
0001
0000
0001
1000
0000
0010
0100
0001
0100
0010
1000
0001
1000
0000
0100
0000
,
0011
0000
0010
0000
0110
0000
0100
0000
1100
0010
0001
0100
1001
0100
0010
0001
,
1000
0100
0010
0100
1001
0000
0010
0100
1000
0001
1000
0010
0100
0000
0001
0010
,
0001
1000
0010
0100
1001
0000
0100
0001
0010
0001
0010
0100
1000
0000
0100
1000
,
0100
1000
0001
0010
0100
0100
1000
0001
1000
0010
0100
0001
1000
0010
0001
0000
,
1100
0000
0100
0000
0110
0000
0010
0000
0011
0100
0010
1000
0001
0010
0100
0010
,
0100
1000
0001
0110
1000
0000
0001
0100
0010
0100
0001
1000
0001
0000
0010
0110
,
0000
1000
1001
0000
0110
0000
0100
0001
1000
0010
0100
0001
1000
0000
0010
0001
,
0010
0100
1000
0100
0010
0000
0001
1000
0100
0001
1000
0001
1000
0000
0010
0000
,
0101
0000
0100
0000
0110
0000
0010
0000
1010
0001
0100
1000
0001
0100
0010
0001
,
0010
0100
1000
0011
0000
1000
0100
0010
1001
0000
0100
1001
0010
0000
1000
0010
,
0100
0001
0010
0100
1000
0000
0001
1000
0100
0010
0001
1000
0101
0000
0001
0100
,
0010
0000
0000
1000
0000
0000
0110
0000
0000
0000
0000
0000
0010
0000
0000
1000
0000
0000
0100
0000
0000
0010
0000
0000
0100
0000
0000
1000
0000
0000
0001
0000
0000
0100
0000
0000
0010
0000
0000
0000
0000
0000
0010
0000
0100
0000
0010
0000
,
1001
0010
0100
0010
1001
0100
0010
0100
1001
0000
0100
0000
,
1000
0000
0011
1000
0011
0000
0100
1100
0000
1000
1010
0000
,
1001
0000
0100
0000
0010
0000
1000
0001
0000
0001
1100
0000
,
0110
0000
0011
0000
0001
0000
1000
0000
0010
0000
0101
0000
,
0110
0001
0110
0000
1001
0000
1100
0000
0100
0000
0011
0000
,
0100
0000
1001
0000
0110
0000
0100
0000
0101
0000
0001
0000
,
1001
0000
1000
0000
0100
0000
1100
0001
1100
0000
0001
1001
,
0000
0100
0101
0000
0101
0000
0010
0000
0100
0000
0001
1000
,
0000
1000
0101
0000
0110
0000
1010
0000
1000
0000
0001
0000
,
0010
0000
1100
0000
0110
0001
0110
0000
1001
0000
1100
0000
,
0010
0000
0000
0000
0000
0000
0000
0000
0000
0000
0000
0000
0000
0000
0000
0000
0000
0000
0000
0000
0000
0000
0000
0000
0000
0000
0000
0000
0000
0000
0000
0000
0011
0000
0000
0000
0000
0000
0000
0000
0000
0000
0000
0000
0000
0000
0000
0000
0000
0000
0000
0000
0000
0000
0000
0000
0000
0000
0000
0000
0000
0000
0000
0000
0110
0000
0000
0000
0000
0000
0000
0000
0000
0000
0000
0000
0000
0000
0000
0000
0000
0000
0000
0000
0000
0000
0000
0000
0000
0000
0000
0000
0000
0000
0000
0000
1100
0000
0000
0000
0000
0000
0000
0000
0000
0000
0000
0000
0000
0000
0000
0000
0000
0000
0000
0000
0000
0000
0000
0000
0000
0000
0000
0000
0000
0000
0000
0000
0001
0000
0000
0000
0000
0000
0000
0000
0000
0000
0000
0000
0000
0000
0000
0000
0000
0000
0000
0000
0000
0000
0000
0000
0000
0000
0000
0000
0000
0000
0000
0000
0010
0000
0000
0000
0000
0000
0000
0000
0000
0000
0000
0000
0100
0000
0000
0000
0000
0000
0000
0000
0000
0000
0000
0010
0000
0000
0000
0000
0000
0000
0000
0000
,
1001
0000
0000
0000
1000
0001
0110
1000
0001
0000
0100
0010
0001
1000
0001
1000
,
0110
0000
0001
0100
0010
1000
0001
0100
0001
0010
1100
0000
1100
0000
0010
0011
,
0000
0000
0001
1000
0010
1000
0001
0100
0010
1000
0010
0001
1000
0010
1000
0100
,
0010
0100
0001
0010
0100
0001
1000
0100
0010
0001
0100
1000
0011
0000
0010
0000
,
0110
0000
0100
0000
1100
0001
0010
1000
0001
0010
0001
0010
1001
0100
0010
0100
,
1001
0010
0001
1000
0001
1000
0010
0100
0001
0010
0001
1000
0100
0010
0100
1000
,
0001
0000
0100
0000
0010
1000
0010
1000
0010
0000
0100
0000
0001
0000
0010
0000
0101
0000
0000
0000
1000
0000
0001
0000
1000
0000
0100
0000
0001
0000
0010
0000
,
1000
0010
0101
0000
0001
1000
0001
1000
0110
0000
1100
0001
1010
0000
0010
0000
,
0110
0000
0100
0000
0101
0000
0010
0000
1001
0000
0010
1000
0100
1000
0001
0011
,
0000
0100
1100
0000
0001
1000
0010
0100
0001
0010
0001
1000
0010
1000
0100
0010
,
0001
0001
1000
0010
0100
0010
1000
0001
0010
0100
1000
0100
0010
0001
1000
0001
,
1000
0010
0100
0010
1000
0001
0010
0100
1000
0001
1010
0101
1010
0000
0010
0000
,
0110
0000
0100
0000
0101
0010
1000
0100
0010
0001
0010
0100
1000
0100
0010
1001
,
0000
1000
0001
1000
0010
0100
0001
0110
0000
0100
1000
0010
0001
0010
0001
1000
,
0110
0000
0010
1000
0100
1000
0001
0100
1010
0000
0010
0100
0001
0010
0101
0000
,
0100
0000
0000
1000
0000
0000
0100
0000
0000
0010
0000
0000
0001
0000
0000
1000
0000
0000
0010
0000
0000
0100
0000
0000
0010
0000
0000
1000
0000
0000
0100
0000
0010
0000
0100
0000
1001
0000
0000
0000
0100
0000
0000
0000
0010
0000
0000
0000
,
0100
1001
0010
0100
0010
1001
0000
0010
0000
0001
0000
1100
,
0001
1100
0000
0010
0011
0000
0001
0101
0000
1001
0000
0010
,
0000
0100
0000
0001
1000
0000
1000
0011
0000
0110
0000
1100
,
0000
1000
0000
0001
0000
0100
0000
1010
0000
0110
1000
0110
,
0000
1001
0000
0011
0000
0010
0000
1100
0000
0010
0000
1001
,
0000
0110
0000
0010
0000
1010
0000
1000
0000
1001
0000
0001
,
0000
0010
0000
0011
1000
0011
0000
1000
1001
0000
0010
1010
,
0000
1010
0000
0100
0000
0010
0000
1000
0001
0000
0001
1010
,
0000
0110
0000
0101
0000
0001
0000
1000
0000
0100
0000
0011
,
0000
0110
1000
0110
0000
1001
0000
0011
0000
0100
0000
1100
,
0000
0000
0000
0000
0000
0000
0000
0000
0000
0000
0000
0000
0000
0000
0000
0000
0110
0000
0000
0000
0000
0000
0000
0000
0000
0000
0000
0000
0000
0000
0000
0000
0000
0000
0000
0000
0000
0000
0000
0000
0000
0000
0000
0000
0000
0000
0000
0000
0011
0000
0000
0000
0000
0000
0000
0000
0000
0000
0000
0000
0000
0000
0000
0000
0000
0000
0000
0000
0000
0000
0000
0000
0000
0000
0000
0000
0000
0000
0000
0000
1000
0000
0000
0000
0000
0000
0000
0000
0000
0000
0000
0000
0000
0000
0000
0000
0000
0000
0000
0000
0000
0000
0000
0000
0000
0000
0000
0000
0000
0000
0000
0000
0100
0000
0000
0000
0000
0000
0000
0000
0000
0000
0000
0000
0010
0000
0000
0000
0000
0000
0000
0000
0000
0000
0000
0100
0000
0000
0000
0000
0000
0000
0000
0000
1001
0000
0000
0000
0000
0000
0000
0000
0000
0000
0000
0000
0000
0000
0000
0000
0000
0000
0000
0000
0000
0000
0000
0000
0000
0000
0000
0000
0000
0000
0000
0000
0000
0000
0000
0000
0000
0000
0000
0000
0000
0000
0000
0000
0000
0000
0000
0000
,
0010
0000
0000
0000
0000
0000
0000
0000
0100
0000
0000
0000
1000
0000
0000
0000
0001
0000
1000
0010
0100
0001
0010
0100
1100
0001
0010
1000
0110
0000
0000
0001
,
1010
0100
0000
0000
0011
0000
0000
0000
1100
0010
0001
0100
1010
0000
0000
0010
1001
0100
0000
0000
0101
0000
0110
0000
1010
0100
0001
0010
1100
0000
0000
0100
,
0011
1000
0000
0000
0110
0000
0000
0000
1100
0010
1000
0100
0011
0000
0000
0100
1001
0010
0100
0001
1010
0001
0110
1000
0101
1000
0100
0001
0110
0000
0000
0001
,
1010
0100
0000
0000
1100
0000
0000
0000
0110
0001
0100
1000
0011
0000
0000
0010
0101
1000
0000
0000
0110
0000
0101
0000
1010
0100
0001
0010
1100
0000
0000
0100
,
1001
0000
0000
0000
0000
0000
0010
0000
0000
0000
0000
0000
0000
0000
0000
0000
0000
0000
0000
0000
0000
0000
0000
0000
0110
0000
0000
0000
0000
0000
0000
0000
0000
0000
0000
0000
0001
0000
0000
0000
1000
0000
0000
0000
0001
0000
0000
0000
2001
0000
0000
0000
0000
0000
0000
0000
0000
0000
0000
0000
0000
0000
0000
0000
0000
0000
0000
0000
0000
0000
0000
0000
0000
0000
0000
0000
0000
0000
0000
0000
0000
0000
0000
0000
0000
0000
0000
0000
0000
0000
0000
0000
0000
0000
0000
0000
0000
0000
0000
0000
0000
0000
0000
0000
0000
0000
0000
0000
0000
0000
0000
0000
0000
0000
0000
0000
0000
0000
0000
0000
3100
0000
0000
0000
0000
0000
0000
0000
0000
0000
0000
0000
0000
0000
0000
0000
0000
0000
0000
0000
0000
0000
0000
0000
0001
0000
0000
0000
0000
0000
0000
0000
0000
0000
0000
0000
0000
0000
0000
0000
0000
0000
0000
0000
0000
0000
0000
0000
0011
0000
0000
0000
0000
0000
0000
0000
0000
0000
0000
0000
0000
0000
0000
0000
0000
0000
0000
0000
0000
0000
0000
0000
,
0000
0000
1100
0000
1001
0000
0010
0000
0100
0000
0010
0100
0000
0100
0001
0010
,
0100
1000
0001
0100
0011
0010
0100
0000
1001
0000
0100
0010
0000
0010
0100
0100
,
1000
0001
0100
0010
0011
1000
0100
0000
1001
0000
0100
0010
0000
0010
0100
0100
,
1000
0001
0100
0010
0011
1000
0100
0000
1001
0000
0100
0010
0000
0010
0001
0001
,
1000
0010
0100
1000
1100
0001
0010
0000
1001
0000
0100
1000
0000
1000
0001
0001
,
0010
0100
0010
0001
1100
1000
0010
0000
1001
0000
0010
1000
0000
1000
0001
0001
,
0010
0100
0010
0001
1100
1000
0010
0000
1001
0000
0010
1000
0000
1000
0001
0001
,
0100
0000
0000
0010
0000
0000
1000
0000
0000
0100
0000
0000
0101
0000
0000
1000
0000
0000
0010
0000
0000
0000
0000
0000
0100
0000
0000
0000
0000
0000
0010
0000
0100
0000
0010
0000
1001
0000
0000
0000
0010
0000
0000
0000
0100
0000
0000
0000
,
0010
1001
0100
0010
0100
1001
0000
0100
0000
1000
0000
0011
,
1000
0011
0000
0100
1100
0000
1000
1010
0000
1001
0000
0100
,
0000
0010
0000
1000
0001
0000
0001
1100
0000
0110
0000
0011
,
0000
0001
0000
1000
0000
0010
0000
0101
0000
0110
0001
0110
,
0000
1001
0000
1100
0000
0100
0000
0011
0000
0100
0000
1001
,
0000
0110
0000
0100
0000
0101
0000
0001
0000
1001
0000
1000
,
0000
0100
0000
1100
0001
1100
0000
0001
1001
0000
0100
0101
,
0000
0101
0000
0010
0000
0100
0000
0001
1000
0000
1000
0101
,
0000
0110
0000
1010
0000
1000
0000
0001
0000
0010
0000
1100
,
0000
0110
0001
0110
0000
1001
0000
1100
0000
0010
0000
0011
,
0000
0000
0000
0000
0000
0000
0000
0000
0000
0000
0000
0000
0000
0000
0000
0000
0110
0000
0000
0000
0000
0000
0000
0000
0000
0000
0000
0000
0000
0000
0000
0000
0000
0000
0000
0000
0000
0000
0000
0000
0000
0000
0000
0000
0000
0000
0000
0000
1100
0000
0000
0000
0000
0000
0000
0000
0000
0000
0000
0000
0000
0000
0000
0000
0000
0000
0000
0000
0000
0000
0000
0000
0000
0000
0000
0000
0000
0000
0000
0000
0001
0000
0000
0000
0000
0000
0000
0000
0000
0000
0000
0000
0000
0000
0000
0000
0000
0000
0000
0000
0000
0000
0000
0000
0000
0000
0000
0000
0000
0000
0000
0000
0010
0000
0000
0000
0000
0000
0000
0000
0000
0000
0000
0000
0100
0000
0000
0000
0000
0000
0000
0000
0000
0000
0000
0010
0000
0000
0000
0000
0000
0000
0000
0000
1001
0000
0000
0000
0000
0000
0100
0000
0000
0000
0000
0000
0010
0000
0000
0000
0000
0000
0001
0000
0000
0000
0000
0000
1100
0000
0000
0000
0000
0000
0010
0000
0000
0000
0000
0000
1000
0000
0000
0000
0000
0000
0001
0000
0000
0000
0000
0000
,
1010
0000
0000
0100
1001
0100
0000
0000
0011
0000
0000
0000
0101
1000
0010
0100
1010
0000
0000
0001
0110
0001
0000
0000
1010
0000
0110
0000
0011
1000
0100
1000
,
0011
0000
0000
0010
1100
0010
0000
0000
0101
0000
0000
0000
0110
1000
0001
0100
1010
0000
0000
0100
0011
0100
0000
0000
1001
0000
1010
0000
0110
0000
0000
0000
,
0011
0000
0110
0000
1100
0000
1001
0000
0011
0000
0110
0000
1010
1001
0101
0000
,
0110
0000
0011
0000
1001
0000
0101
0000
0110
0000
1010
0000
1001
0110
0000
0000
,
0011
0110
1100
1010
0110
0101
1001
0000
0000
0000
0000
0000
0000
0000
0000
0000
;
