#TITLE:I ll See You Again;
#SUBTITLE:;
#ARTIST:S3RL feat Chi Chi;
#TITLETRANSLIT:;
#SUBTITLETRANSLIT:;
#ARTISTTRANSLIT:;
#GENRE:;
#CREDIT:;
#BANNER:bn.png;
#BACKGROUND:bg.png;
#LYRICSPATH:;
#CDTITLE:cdtitleitachi.png;
#MUSIC:I ll See You Again S3RL feat Chi Chi.ogg;
#OFFSET:-0.113000;
#SAMPLESTART:56.336567;
#SAMPLELENGTH:14.057144;
#SELECTABLE:YES;
#BPMS:0.000000=175.000000
,128.000000=350.000000
,130.000000=700.000000
,134.000000=1400.000000
,150.000000=175.000000
,334.000000=87.500000
,338.000000=175.000000
,590.000000=87.500000
,591.000000=175.000000
;
#STOPS:648.500000=0.171000,
649.500000=0.171000,
650.000000=0.171000,
650.500000=0.086000,
650.750000=0.086000,
651.000000=0.171000,
651.500000=0.171000,
652.000000=0.171000,
652.500000=0.171000,
653.000000=1.029000
;
#BGCHANGES:;
#KEYSOUNDS:;
#ATTACKS:;

//---------------dance-single - ----------------
#NOTES:
     dance-single:
     :
     Hard:
     14:
     0.589622,0.689335,0.332851,0.590256,0.011095,930.000000,855.000000,75.000000,133.000000,30.000000,0.000000,0.589622,0.689335,0.332851,0.590256,0.011095,930.000000,855.000000,75.000000,133.000000,30.000000,0.000000:
0000
0000
0000
0000
,
0000
0000
0000
0000
,
0000
0000
0000
0000
,
0000
0000
0000
0000
,
0000
0000
0000
0000
,
1000
0000
0001
0000
,
2000
0000
0000
3000
0010
0000
0000
0000
,
0200
0000
0300
0000
0010
0000
0000
1000
,
0002
0000
0003
0100
0020
0000
0130
0000
,
0001
0000
1001
0000
0000
0100
0001
0000
,
1001
0000
1000
0000
0100
0100
1000
0010
,
0100
0000
0101
0000
0001
0001
1000
0010
,
1000
0000
1001
0000
0010
0100
0001
0001
,
1000
0000
1001
0000
0000
0010
1000
0001
,
0001
0000
0100
0010
0000
0100
0001
0001
,
1000
0000
0010
1000
0002
0000
0003
1000
,
0200
0000
0300
1000
0010
0000
1000
0000
,
1001
0000
1000
0100
1000
0000
0010
0200
,
0000
0300
0001
0000
1000
0000
0100
2000
,
3000
0000
0010
0100
0010
0000
0100
0002
,
0003
1000
0000
0001
0000
1000
0000
0010
,
0000
0000
1000
0100
0100
0000
0010
0100
,
0000
1001
0000
0010
0000
0101
0000
2002
,
0000
0000
0000
0000
,
3003
0000
0000
0000
,
1001
0110
1001
1010
,
0101
0110
1001
1100
,
1010
0110
1001
0110
,
1001
1001
0110
0110
,
1100
1100
0110
0110
,
1001
0110
0101
0101
,
0011
0011
0110
0110
,
10M2
00M0
00M0
00M0
,
00M0
00M0
00M0
00M0
,
00M0
00M0
00M0
00M0
,
00M0
00M0
00M3
00M0
,
00M0
00M0
00M0
00M0
,
00M0
0000
0000
0000
2000
3000
0000
0010
,
0200
0000
0300
0001
2000
0000
3000
0100
,
2000
0000
3020
0000
0230
0000
0300
0001
,
0020
0000
0030
0100
2000
0000
3000
0100
,
2000
0000
3020
0000
2030
0000
3000
0001
,
0200
0000
0300
0010
0200
0000
0300
0001
,
2000
0000
0000
0000
0000
0000
3020
0000
0000
0000
0000
0000
0230
0000
0300
0001
0000
0000
1000
0000
0000
0010
0000
0000
,
1000
0001
0100
0010
1000
0000
2000
3200
,
0320
0030
0001
0000
0020
0130
2000
3010
,
0200
0301
0020
0130
2000
3001
2000
3010
,
0200
0301
0200
0310
2000
3100
0020
0031
,
2000
3100
0020
0031
2000
3100
2000
3010
,
0200
0301
0020
0130
2000
3100
2000
3001
,
2000
3010
0200
0301
0020
0130
2000
3010
,
0200
0300
0101
0000
1001
0000
2000
3010
,
2000
3100
2000
3010
0200
0301
0200
0310
,
0200
0300
0002
0003
2002
3003
2000
3100
,
2000
3010
0200
0301
2000
3100
2000
3010
,
0200
0300
0202
0303
0202
0303
2000
3010
,
2000
3001
0200
0310
2000
3100
0020
0031
,
0200
0301
0020
0130
2000
3000
0002
1003
,
0020
1030
0002
0103
0020
0130
0002
0103
,
0002
0013
0200
1300
0002
0003
2000
3010
,
0200
0301
0200
0310
0200
0300
0000
0001
,
1000
0000
1001
0000
0010
0000
1000
0010
,
2000
3000
0002
0103
0000
0000
2020
3030
,
2000
3000
0002
1003
0000
0000
0020
0130
,
0002
0003
2000
3010
0000
1001
0000
1010
,
0000
0110
0000
0101
0000
0000
2000
3100
,
2000
3000
0020
0130
0000
0011
0000
1100
,
0000
0011
0000
2000
0000
0000
0000
0000
,
0001
0000
0001
0000
3001
0000
1000
0100
,
1000
0000
0010
0000
1000
0100
1000
0010
,
0100
0001
0010
0100
1000
0010
0100
0001
,
0100
0010
1000
0001
1000
0100
0010
0001
,
1000
0010
0100
0001
0100
0010
1000
0001
,
0010
0100
1000
0010
0100
0001
0010
0001
,
0010
0001
0010
0001
0000
0001
1000
0100
,
1000
0010
0000
1001
1000
0000
0010
0000
,
0001
0010
1000
0010
,
0001
0000
0010
0000
0001
1000
0010
0100
,
0001
0100
0010
1000
0010
1000
0001
0100
,
0010
0100
0010
0100
0001
1000
0001
1000
,
0010
1000
0001
1000
0010
0100
0001
0100
,
0010
0100
0001
1000
0100
0010
0001
1000
,
0010
1000
0001
1000
0001
1000
0001
1000
,
0010
0000
1000
0000
0001
0000
0000
0000
2002
3003
0000
0010
0200
0300
0000
0100
,
0002
0003
0000
1000
0200
0300
1001
0000
1000
0000
0010
0000
0100
0000
0001
0000
,
0010
0100
1000
0001
1000
0010
0100
0001
,
1000
0010
1000
0001
1000
0010
0100
0001
,
0100
0010
0100
0001
1000
0100
0010
0001
,
1000
0000
0000
0010
0000
0000
2000
0000
3000
0010
0000
0000
1000
0000
0000
0001
0000
0000
0100
0000
0000
0010
0000
0000
,
0100
0001
1000
0010
1000
0001
0100
0010
,
0100
0001
1000
0001
1001
0000
0000
0010
,
0200
0300
0000
0001
0200
0300
0000
0001
,
0020
0031
1002
0000
,
0103
0000
0000
0000
2000
0000
0000
3000
,
0010
0000
0000
0000
0200
0000
0000
0300
,
0001
0000
0000
0000
2000
0000
3000
0010
,
0000
0100
0000
0002
0000
0003
0000
0000
,
2000
0000
0000
3000
0010
0000
0000
0000
,
0200
0000
0300
0000
0200
0300
0001
1000
,
0001
0000
1000
0001
0000
1000
0000
0010
,
0000
0100
0000
0000
0001
0000
1001
0000
,
0010
0010
0100
0000
0001
0000
1001
0000
,
0000
1000
0100
0100
1000
0000
1010
0000
,
0000
0010
0010
0100
0001
0000
1001
0000
,
1000
0100
1000
0001
1000
0000
0010
0000
,
0100
0100
0001
0100
0100
0000
0010
0000
,
1000
1000
0001
1000
0010
0000
1001
0000
,
0000
0001
1001
0000
0000
0000
0000
0000
,
0000
0000
1000
0010
,
0100
0000
0001
0100
0000
0000
0010
0000
,
1000
0000
0001
1000
0000
0000
0010
1000
,
0010
0000
0100
0001
0000
0100
0000
0010
,
0000
0010
0000
0010
0000
0000
1000
0100
,
1000
0000
0001
1000
0000
0010
0000
1000
,
0000
0001
0000
2000
0000
0000
0000
0000
,
0000
0000
0000
3000
0001
0000
0000
1000
,
0001
0100
0010
1001
,
0010
0100
0001
1000
0001
0000
1001
0000
,
0100
1000
0100
0000
0010
0000
1010
0000
,
0010
0100
0001
0000
0100
0001
0010
0100
,
1000
0001
1000
0000
1010
0000
0001
0000
,
0100
0010
0100
0001
1000
0100
0010
0000
,
0001
1001
0010
1000
,
0001
0100
0002
0000
,
0000
0000
0003
0000
1000
0001
1000
0001
,
0100
0010
0100
0001
1000
0100
0010
0001
,
1000
0010
1000
0001
1000
0001
1000
0001
,
1000
0001
1000
0001
0100
0001
0100
0001
,
0100
0000
0001
0000
1000
0010
1000
0001
,
0100
0010
0100
0001
1000
0100
0010
0001
,
1000
0100
1000
0001
1000
1000
0001
0001
,
0100
0100
0010
0100
0001
0000
2000
3200
,
0320
0030
0001
0000
1000
0010
0100
0001
,
0010
0100
1000
0010
0100
0001
0010
0100
,
1000
0001
1000
0010
0100
0001
1000
0010
,
0100
0001
0100
0010
0100
0001
1000
0010
,
1000
0001
0100
0010
1000
0001
1000
0001
,
1000
0100
1000
0100
1000
0010
0100
0010
,
0100
0001
0010
0100
1000
0001
1000
0010
,
0100
0001
0100
0010
0100
0001
1000
0010
,
1000
0000
1001
0000
1000
0100
0010
0001
,
1000
0010
0100
0001
0010
0100
1000
0001
,
1000
0010
0100
0001
0100
0010
0100
0001
,
1000
0100
1000
0001
1000
0010
0100
0001
,
0100
0010
1000
0001
0010
0100
1000
0001
,
0010
0100
0000
1000
0001
0010
0100
1000
,
0010
0100
0010
0100
0001
1000
0001
1000
,
0010
0000
0100
0000
0001
0000
1000
0000
0100
0000
0000
0010
0001
0000
0000
0000
,
0001
0000
1000
0000
0010
0100
0001
0000
,
0010
0100
0000
0000
1000
0000
0011
0000
,
1000
0001
0000
0000
0100
0010
0100
0000
,
0001
0001
0000
0110
0000
1001
0000
0010
,
0000
0002
0000
0003
1000
0100
1000
0000
,
0010
0100
0000
0001
0000
0011
0000
0011
,
0000
0022
0000
0000
0000
0003
0001
0000
,
0001
0000
0031
0000
0000
1000
0100
0000
,
1000
0000
0010
0100
0001
0010
0100
1000
,
0001
1000
0010
0100
0001
0100
0010
1000
,
0001
0010
0100
1000
0010
0100
0001
0100
,
0001
1000
0100
1000
0001
1000
0010
0100
,
0010
0100
0001
0010
0100
1000
0001
0000
,
1000
0010
0000
0100
0000
0001
0000
1000
,
0000
0000
0002
0000
0000
0000
1000
0000
1000
0000
1003
0100
1000
0000
0010
0000
,
1000
0001
2MMM
0MMM
3MMM
0000
0000
0000
;

//---------------dance-single - ----------------
#NOTES:
     dance-single:
     :
     Medium:
     6:
     0.353139,0.652555,0.381669,0.173083,0.004438,557.000000,471.000000,86.000000,39.000000,0.000000,0.000000,0.353139,0.652555,0.381669,0.173083,0.004438,557.000000,471.000000,86.000000,39.000000,0.000000,0.000000:
0000
0000
0000
0000
,
0000
0000
0000
0000
,
0000
0000
0000
0000
,
0000
0000
0000
0000
,
0000
0000
0000
0000
,
0000
0000
0000
0000
,
0000
0000
0000
0000
,
0000
0000
0000
0000
,
0000
0000
0000
0000
,
1000
0100
2000
3000
,
0010
0000
0200
0300
,
0100
0000
0000
0000
0010
0000
0000
0100
,
0010
0000
0010
0010
,
0010
0000
1000
0010
,
2000
3000
0001
0000
,
0002
0000
0003
0000
1000
0000
0000
1000
,
0010
0000
0000
0100
0010
0000
0100
0000
,
0200
0300
0000
0000
0001
0000
0000
2000
,
3000
0000
0000
0000
0010
0000
1000
0001
,
0000
0000
0100
0000
0010
0000
0000
0100
,
0000
0001
0000
0100
0000
0001
0000
0100
,
0000
0000
0100
0010
0100
0000
0100
0010
,
0000
1000
0000
1000
0000
0001
0000
2000
,
0000
0000
0000
3000
,
0010
0000
1000
0001
,
1000
1000
0010
0010
,
1000
1000
0001
0001
,
1000
1000
0100
0100
,
1000
1000
0001
0001
,
0100
0100
0001
0001
,
1000
1000
0001
1000
,
0001
0100
0010
0100
,
2002
0000
0003
0000
,
0000
0000
0000
0000
,
0000
0000
0000
0000
,
0000
0000
0000
0000
,
0000
0000
0000
0000
,
0000
0000
3002
0003
,
1000
0000
0010
0000
,
0100
0100
0100
0000
,
0001
0000
1000
0000
,
0001
1000
0010
0000
,
0100
0000
0001
0000
,
1000
0001
0100
0000
,
0010
0000
1000
0000
,
0000
0000
1001
0000
,
0110
0000
0110
0000
,
1001
1001
1001
0000
,
1100
0000
0011
0000
,
1100
0110
0011
0000
,
1001
0000
0110
0000
,
1001
0110
1001
0000
,
1000
0000
0020
0030
,
0100
0001
1000
1000
,
0001
1000
0010
0100
,
0010
1000
0100
0010
,
0100
1000
0001
0010
,
0100
0010
1001
1000
,
0100
1000
0100
1000
,
0001
1000
0010
1000
,
0001
0100
0001
0000
,
1000
0000
1000
0100
,
1000
0000
0000
0010
0000
0000
1000
0000
,
0001
0000
1000
0001
0000
0000
0100
0000
,
0010
0000
0000
0100
0000
0010
0000
0100
,
0000
0001
0000
1000
0000
0000
0010
0000
,
1000
0000
0000
0001
0000
1000
0000
1000
,
0000
0001
0000
2000
0000
0000
0010
0000
,
0010
0010
3001
0000
,
0001
1000
0100
1000
,
0001
1000
0010
1000
,
0001
0000
1000
0001
0000
0000
0100
0000
,
0010
0000
0100
0001
0000
0100
0000
0010
,
0000
0100
0000
0002
0003
0000
1000
0000
,
0001
0000
0000
1000
0000
0000
0000
0001
,
0000
0001
0000
0002
0000
0000
1000
0000
,
1000
0000
1000
1000
2000
0000
0000
0000
,
0000
3003
1000
1000
,
0001
1000
0010
1000
,
0001
0001
1000
1000
,
0001
0001
1000
0001
,
1000
0001
0100
0100
,
0010
0010
0100
0100
,
0001
0000
0000
0000
0001
0000
0000
0000
1000
0000
0000
1000
0001
0000
0000
0010
,
0100
0000
1001
1001
1001
0000
0001
0000
,
1000
0010
0100
0010
,
0100
0001
1000
0001
,
1000
0100
1000
0100
,
1000
0010
0100
0001
,
1000
0100
1000
0001
,
1000
0000
0100
0000
2002
3003
0000
1000
,
2000
0000
3000
0010
0010
0000
0000
0100
,
0100
0001
2000
0000
,
0010
0000
0000
0000
0020
3000
0000
0000
,
0100
0000
0230
0000
,
0001
0000
0002
0000
,
0000
0300
1000
0000
,
2000
0000
3000
0000
2000
0000
0000
0003
,
0100
0000
0200
0000
,
0000
0000
0000
0000
,
3000
0000
0010
0000
,
0010
0000
0000
0000
0020
0000
0000
0030
,
0002
0000
0000
0003
0002
0000
0000
0000
,
0000
0000
0000
0000
0000
0300
0000
0000
,
0000
0000
1000
0000
,
2000
0000
0000
3000
2000
0000
0000
3000
,
2000
0000
0000
3000
2000
0000
0000
0000
,
0000
0000
0000
0000
0000
3003
0000
0000
,
0000
0000
1000
0000
,
0000
0000
0000
0010
0000
0000
0000
0000
,
0000
0000
1000
0000
,
0010
0000
0000
0100
0000
0000
0000
0100
,
0000
0100
0000
0100
0000
0000
0000
0000
,
0001
0000
0010
0000
,
0000
0000
0000
0020
0000
0000
0000
0000
,
0000
0030
0000
0000
0000
0000
0000
0000
,
0000
0000
1000
0000
,
0000
1000
0001
0000
,
0000
1000
0010
0000
,
1000
0000
0100
0100
,
0100
0000
0010
0000
,
0000
1000
0001
0000
,
0000
1000
0002
0000
,
0000
1000
1000
0003
,
0000
0000
1000
0001
,
1000
0010
1000
0001
,
1000
0010
1000
0001
,
1000
0010
1000
0001
,
1000
0010
1000
1000
,
0001
0001
1000
1000
,
0001
0000
0001
0000
1000
0001
1000
0001
,
1000
0001
1000
0001
1000
0000
0000
0000
,
0000
0000
1001
0110
,
1001
1001
1100
1100
,
1001
1001
0110
0110
,
1001
1001
0110
0110
,
1001
1001
1100
1100
,
0110
0110
1001
1001
,
0110
0110
1001
1001
,
1100
0000
1100
0000
0011
0000
0000
1001
,
1001
0011
1100
1100
,
0011
0011
1100
1100
,
0001
1000
1100
1100
,
1010
1010
1001
1001
,
0100
0010
1001
1001
,
0110
0110
1001
1001
,
1100
0110
1100
1100
,
1010
0000
1010
0000
1002
1000
1000
0003
,
1000
1000
0001
0101
,
0010
0100
0001
1001
,
1000
0010
1000
1010
,
0001
0100
0001
0101
,
0101
0101
1000
0001
,
1000
0001
0000
1000
0000
0010
0000
1000
,
0000
0002
0000
0000
0000
0000
0000
0000
,
1000
0000
2000
0000
0000
0000
0000
3003
,
0000
1000
0010
1000
,
0001
1000
0000
0000
0010
0000
0100
0000
,
0001
0100
0000
0000
0001
0000
1000
0000
,
0001
1000
0000
0010
0000
1000
0000
0001
,
0000
0100
0000
0000
1000
0001
1000
0000
,
0100
1000
0000
0001
0000
1000
0000
0001
,
0000
2100
0000
0100
0010
0001
0010
0100
,
0010
0001
3020
0030
0000
0000
0000
0000
;

//---------------dance-single - ----------------
#NOTES:
     dance-single:
     :
     Challenge:
     16:
     0.777921,1.195892,0.452677,0.403859,0.503715,1227.000000,1117.000000,102.000000,91.000000,58.000000,6.000000,0.777921,1.195892,0.452677,0.403859,0.503715,1227.000000,1117.000000,102.000000,91.000000,58.000000,6.000000:
// measure 0
0000
0000
0000
0000
,  // measure 1
0000
0000
0000
0000
,  // measure 2
0000
0000
0000
0000
,  // measure 3
0000
0000
0000
0000
,  // measure 4
0000
0000
0000
0000
,  // measure 5
0000
0000
0000
0000
,  // measure 6
0000
0000
0000
0000
,  // measure 7
0000
0000
0000
0000
,  // measure 8
0000
0000
0000
0000
,  // measure 9
0010
0000
1010
0000
0010
1000
0001
0010
,  // measure 10
0100
0000
0010
0100
0000
0100
0001
0001
,  // measure 11
1000
0000
0100
1000
0040
0030
0100
0010
,  // measure 12
4000
3000
0000
0001
1000
0000
0100
0100
,  // measure 13
1000
0000
0010
0000
0100
0100
0001
1000
,  // measure 14
0100
0000
1000
0010
0000
0100
0001
0001
,  // measure 15
1000
0000
0100
1000
0040
0030
0000
0100
,  // measure 16
0004
0003
0000
1000
0400
0300
1000
0000
,  // measure 17
0010
0000
1000
0001
0010
0000
0100
1000
,  // measure 18
0000
0000
0010
0000
0100
0000
0001
1000
,  // measure 19
0000
0000
0100
1000
0010
0000
1000
0100
,  // measure 20
0000
0011
0000
1100
0000
0110
0000
1001
,  // measure 21
0000
0000
1000
0100
1000
0000
0010
0100
,  // measure 22
0000
0001
0000
1000
0000
0100
0000
0020
,  // measure 23
0000
0000
0001
0000
,  // measure 24
0002
0000
0030
0000
1000
0000
0000
0000
1000
0000
0000
0000
1000
0003
0000
0000
,  // measure 25
1000
0000
1010
0010
0101
0000
0101
0010
,  // measure 26
0000
0000
0110
1001
0110
0000
0110
0110
,  // measure 27
0000
0000
0000
1000
0010
0000
0101
0101
,  // measure 28
0000
2020
3030
2002
3003
0220
0330
1001
,  // measure 29
0000
0000
1000
0010
1000
0000
0001
0100
,  // measure 30
0000
0020
0030
1001
0000
2200
3300
2000
,  // measure 31
0020
0030
0001
0000
0010
0000
0001
0000
,  // measure 32
0002
0000
0000
0000
,  // measure 33
0000
0000
0000
0000
,  // measure 34
0000
0000
0000
0000
0000
0000
0000
0000
0000
0000
0000
0000
0000
3003
0000
0000
,  // measure 35
0000
0000
0000
0000
,  // measure 36
0000
0000
0000
0000
,  // measure 37
0000
0000
0000
0000
1001
0000
0000
0010
,  // measure 38
0200
0300
0000
0001
2000
3000
0000
0001
,  // measure 39
2000
3000
2200
3300
0220
0330
0000
0001
,  // measure 40
2000
3000
0000
0010
0200
0300
0000
0001
,  // measure 41
2000
3000
2002
3003
0100
1000
0010
0100
,  // measure 42
0001
0001
1000
1000
0100
0010
0001
1000
,  // measure 43
0010
0000
0010
0000
0100
0000
0001
1000
0001
0000
1001
0000
0110
0000
0101
0000
,  // measure 44
1000
0001
1000
0010
0100
0001
1000
0010
0100
0000
0000
0000
2000
3000
0200
0000
,  // measure 45
0320
0000
0000
0030
1111
0000
0000
0000
1000
0000
0010
0000
1010
0000
0010
0000
,  // measure 46
0100
0001
0101
0001
1000
0010
1010
0010
,  // measure 47
0100
0010
0110
0010
1001
0000
0110
0010
,  // measure 48
0100
0001
1000
0100
1100
0100
1000
0010
,  // measure 49
0110
0000
0000
0000
1001
0000
0000
0000
1000
0010
0100
0001
1000
0000
0010
0000
,  // measure 50
0110
0010
1000
0001
1001
0001
1000
0100
,  // measure 51
0110
0000
1001
0000
0110
0010
1000
0001
,  // measure 52
0001
0010
1000
0100
0110
0000
0001
1000
,  // measure 53
1010
0000
0000
0000
0101
0000
0000
0000
0010
1000
0001
0000
1000
0000
0010
0000
,  // measure 54
0100
0001
1000
0100
0010
0001
1000
0010
,  // measure 55
1010
0000
0101
0000
1010
0010
1000
0001
,  // measure 56
0010
0100
1000
0010
0100
0001
1000
0100
,  // measure 57
1100
0000
1010
0000
0010
0100
0001
1000
,  // measure 58
0100
1000
0010
0100
0001
1000
0100
1000
,  // measure 59
0010
0100
0001
1000
1100
0000
0010
0100
,  // measure 60
0101
0000
1000
0100
1100
0000
1001
0010
,  // measure 61
0100
1001
1001
0000
1000
0000
0100
1000
,  // measure 62
1010
0000
0101
0110
0000
0000
1001
0000
,  // measure 63
1100
0000
0000
0000
0020
0030
2000
3000
0000
0000
0000
0000
0010
0000
0100
0000
,  // measure 64
0001
0000
1000
0100
0000
1010
0000
0101
,  // measure 65
0000
0110
0000
1010
0000
0000
1000
0100
,  // measure 66
1000
0000
0010
0100
0000
0001
0000
1000
,  // measure 67
0000
0010
0000
2000
0010
0000
0001
0000
,  // measure 68
0010
0000
0000
3000
0010
0000
0100
0000
0001
0000
0000
0000
1000
0100
1000
0000
,  // measure 69
0010
0000
0100
0000
0001
0000
1000
0000
0100
1000
0100
0000
1000
0000
0010
0000
,  // measure 70
0100
0000
0001
0000
1000
0000
0100
1000
0100
0000
1000
0000
0010
0000
0100
0000
,  // measure 71
0001
0000
1000
0000
0100
0000
0010
0000
0001
0010
0001
0000
1000
0000
0010
0000
,  // measure 72
0100
0000
0001
0000
1000
0000
0001
0010
0001
0000
1000
0000
0010
0000
0100
0000
,  // measure 73
0001
1000
0100
0010
0001
1000
0010
0010
,  // measure 74
1000
0001
0100
0010
1000
0100
0010
0001
,  // measure 75
1000
0000
0010
1000
0010
0000
1000
0000
0001
0100
0001
0000
1000
0000
0010
0000
,  // measure 76
1000
0001
1000
0010
0100
0000
1001
0000
,  // measure 77
1101
0000
0000
0000
1111
0000
0000
0000
1000
0000
0010
0000
1000
0000
0010
0100
,  // measure 78
0010
0000
1000
0000
0001
0000
1000
0010
1000
0000
0001
0000
0100
0000
0010
1000
,  // measure 79
0010
0000
1000
0000
0100
0010
0100
0000
1000
0001
1000
0000
0010
0000
0100
0001
,  // measure 80
1000
0000
0100
0000
0010
0001
1000
0000
0001
0010
0100
0000
1000
0001
0100
0000
,  // measure 81
0010
0100
0010
1000
0001
0000
0100
0000
0001
0100
0010
0000
1000
0000
0001
0010
,  // measure 82
0001
0000
0010
0000
0100
1000
0100
0000
1000
0001
1000
0000
0010
0100
0010
0000
,  // measure 83
1000
0100
1000
0010
1000
0000
0000
0000
2MM2
3003
0000
0020
M23M
0300
0000
0002
,  // measure 84
2MM3
3000
0000
0200
M32M
0030
M022
0033
1000
0001
0100
0000
0010
1000
0010
0000
,  // measure 85
1000
0100
1000
0000
0010
0100
0001
0000
1000
0100
1000
0000
0001
0010
0100
1000
,  // measure 86
0100
0010
0001
1000
0001
0000
0100
0000
0001
1000
0001
0000
1000
0100
0010
0000
,  // measure 87
0001
0010
0100
0000
1000
0100
0010
0000
0001
0010
0001
0000
0100
0010
1000
0000
,  // measure 88
0010
0100
0001
0000
2002
0000
3003
0000
1000
0100
1000
0000
0010
1000
0010
0000
,  // measure 89
1000
0010
0100
0000
0001
0010
0001
0000
1000
0100
1000
0000
0001
0010
0001
0000
,  // measure 90
1000
0001
0100
0000
0001
0000
2002
3003
2002
3003
0000
0000
0000
0000
0220
0330
,  // measure 91
0200
0300
0000
0000
0000
0000
0002
0003
2000
3000
0000
0000
0000
0000
0200
0300
,  // measure 92
2000
3000
0000
0000
0200
0300
0000
0000
2200
0000
0000
0000
0000
0000
0300
0000
,  // measure 93
0020
0030
0002
3000
,  // measure 94
0200
0000
0000
0000
0000
0300
0000
0000
0020
0000
0003
0000
0130
0000
0001
0000
,  // measure 95
1000
0000
0010
1000
0000
0010
0000
0100
,  // measure 96
0000
0001
0000
2000
0000
0000
0000
0000
,  // measure 97
0010
0000
0001
0000
,  // measure 98
0010
0000
0000
0000
0000
0000
0000
0000
0100
0000
3000
0000
2000
3000
0200
0300
,  // measure 99
2000
3000
0000
0000
0100
0000
0010
0000
0000
0000
0010
0000
0000
0000
0001
0000
,  // measure 100
0000
0001
0000
1000
0001
0000
1001
0000
,  // measure 101
0010
0100
0001
0000
1000
1000
0100
1000
,  // measure 102
0000
1000
0010
0100
0010
0000
1000
0001
,  // measure 103
1000
0000
0100
1000
0000
0010
0000
0110
,  // measure 104
0000
1001
0000
1000
0100
0000
1000
0000
,  // measure 105
0010
0010
0100
0001
1000
0000
0100
1000
,  // measure 106
0000
1000
0010
1000
0001
0000
0100
0010
,  // measure 107
0100
0000
0001
1000
0000
0100
0000
1001
,  // measure 108
0000
0110
0000
0001
0000
0000
1000
0000
,  // measure 109
0010
0000
0100
0001
0000
0000
1000
0000
,  // measure 110
0110
0000
0010
1000
0000
0000
1000
0010
,  // measure 111
1000
0000
0001
0100
0000
0010
0000
1000
,  // measure 112
0000
0001
0000
1000
0000
0000
0100
1000
,  // measure 113
0010
0000
0000
0000
0100
0000
0001
0000
0000
0000
0020
0030
0000
0000
0002
0000
,  // measure 114
0000
1000
0000
0200
0000
0000
0000
0000
,  // measure 115
0000
0000
0300
0000
1000
0000
0003
1000
,  // measure 116
0010
1000
1001
0010
,  // measure 117
0100
0001
1000
0010
1000
0000
1100
0000
,  // measure 118
0010
0000
1000
0010
0000
0000
0110
0000
,  // measure 119
0001
0000
1000
0100
0000
1100
0000
0110
,  // measure 120
0000
0000
2002
3003
0000
0000
1101
0000
0000
0000
0000
0000
0001
0000
1000
0000
,  // measure 121
0010
0000
0100
0001
0000
1000
0000
0100
,  // measure 122
0000
0010
0000
0001
2000
0000
0010
0000
,  // measure 123
0001
3000
0000
0000
0100
0000
0010
0000
M2M0
M0MM
M0M0
M0MM
M0M0
M0MM
M0M0
M0MM
,  // measure 124
M0M0
M0MM
M0M0
M0MM
M3M0
0000
0000
0000
0001
0000
0001
0000
1000
0000
1000
0000
,  // measure 125
0010
0010
0100
0100
0001
1000
0100
1000
,  // measure 126
1000
0010
0010
0100
0100
0001
1000
0100
,  // measure 127
1000
1000
0010
0010
0100
0001
1000
0100
,  // measure 128
1000
1000
0010
0100
0001
0001
1000
1000
,  // measure 129
0100
0100
0010
0010
0001
0001
1000
1000
,  // measure 130
0010
0100
0001
1000
0010
1000
0001
1000
,  // measure 131
0010
1000
0010
1000
0001
1000
0010
1000
0001
0000
0000
0000
2001
3000
0120
0000
,  // measure 132
1231
0000
0000
0300
1011
0000
0000
0000
0010
1000
0010
1000
0010
1000
0010
1000
,  // measure 133
0001
1000
0001
1000
0001
1000
0001
1000
0010
1000
0010
1000
0010
1000
0100
1000
,  // measure 134
0001
1000
0010
1000
0001
1000
0100
1000
0001
0100
0001
0100
0001
0100
0001
0100
,  // measure 135
0010
0100
0010
0100
0010
0100
0001
0100
0001
0100
0001
0100
0001
0100
0010
0100
,  // measure 136
0001
0010
0100
1000
0100
1000
0001
1000
0010
1000
0010
1000
0010
1000
0010
1000
,  // measure 137
0001
1000
0001
1000
0001
1000
0001
1000
0100
1000
0100
1000
0100
1000
0100
1000
,  // measure 138
0010
0100
0010
1000
0001
0010
0001
0100
0010
1000
0010
0100
0010
1000
0001
1000
,  // measure 139
0010
0100
0010
1000
0010
1000
0001
1000
0100
1000
0100
1000
0100
1000
0001
1000
,  // measure 140
0100
1000
0001
1000
0100
1000
0100
1000
0010
1000
0010
1000
0010
1000
0010
1000
,  // measure 141
0001
1000
0001
1000
0001
1000
0010
1000
0001
1000
0001
1000
0001
1000
0010
1000
,  // measure 142
0001
1000
0100
1000
0001
1000
0100
1000
0001
1000
0001
1000
0001
1000
0010
1000
,  // measure 143
0100
1000
0100
1000
0001
1000
0100
1000
0010
1000
0010
1000
0010
1000
0001
1000
,  // measure 144
0010
1000
0001
1000
0100
1000
0001
1000
0010
0100
0010
0100
0010
0100
0010
0100
,  // measure 145
0001
0010
0001
0010
0001
0010
0001
1000
0100
1000
0010
0100
0001
0010
0100
1000
,  // measure 146
0010
0100
0001
1000
0010
0100
0001
1000
0010
0100
0010
1000
0010
1000
0001
0100
,  // measure 147
0010
1000
0010
0100
0010
1000
0010
0000
2MMM
300M
000M
M02M
M23M
M30M
M00M
M000
,  // measure 148
MMM1
0000
1000
0000
0001
0001
1000
0010
,  // measure 149
0100
0001
1000
0100
0010
0001
1000
0010
,  // measure 150
0100
0001
1000
0100
0010
0001
1000
0010
,  // measure 151
0100
0001
1000
0100
0010
0001
1001
0100
,  // measure 152
0011
0100
1001
0001
1000
0100
0010
0001
,  // measure 153
1000
0000
0010
0000
0100
0000
0001
0000
0010
0000
0100
1000
0100
0000
0010
0000
,  // measure 154
0001
0010
0100
0000
1000
0000
0000
0000
1001
0000
0000
0000
1001
0000
0000
0000
,  // measure 155
0110
0000
1001
0000
0100
1000
0100
0000
,  // measure 156
1000
0000
0000
0000
0010
1000
0010
1000
0010
1000
0010
1000
0001
1000
0001
1000
,  // measure 157
0001
1000
0001
1000
0010
0100
0010
0100
0010
0100
0010
0100
0001
0010
0001
0010
,  // measure 158
0001
0010
0001
1000
0100
1000
0100
1000
0100
1000
0100
1000
0010
0100
0010
0100
,  // measure 159
0010
0100
0010
0100
0001
0100
0001
0100
0001
0100
0001
0100
0001
0010
0001
0010
,  // measure 160
0001
0010
0001
0010
0001
0000
0000
0000
1000
0000
0100
0000
1000
0000
0000
0000
,  // measure 161
0010
0100
0000
0001
0000
1000
0000
0100
,  // measure 162
0000
0000
0200
0000
0300
0000
2000
0000
3020
0000
0032
0203
2300
3000
0020
0030
,  // measure 163
0200
0300
0220
0330
2002
3003
0000
0000
0000
0000
0000
0000
0000
0000
0000
0000
;

//---------------dance-single - ----------------
#NOTES:
     dance-single:
     :
     Easy:
     4:
     0.193371,0.362530,0.013314,0.075446,0.000000,305.000000,302.000000,3.000000,17.000000,0.000000,0.000000,0.193371,0.362530,0.013314,0.075446,0.000000,305.000000,302.000000,3.000000,17.000000,0.000000,0.000000:
0000
0000
0000
0000
,
0000
0000
0000
0000
,
0000
0000
0000
0000
,
0000
0000
0000
0000
,
0000
0000
0000
0000
,
0000
0000
0000
0000
,
0000
0000
0000
0000
,
0000
0000
0000
0000
,
0000
0000
0000
0000
,
1000
0000
0000
0000
,
0001
0000
0000
0000
,
1000
0000
0000
0000
,
0000
0000
0000
0000
,
0010
0000
0000
0000
,
0100
0000
0000
0000
,
0010
0000
0000
0000
,
0000
0000
0000
0000
,
2000
0000
0000
0000
,
0000
0000
0000
0000
,
0000
0000
0000
0000
,
0000
0000
3000
0000
,
0002
0000
0000
0000
,
0000
0000
0000
0000
,
0000
0000
0000
0000
0000
0003
0000
0000
,
0000
0000
0000
0000
,
0100
0100
0100
0100
,
0100
0100
0100
0100
,
0100
0100
0100
0100
,
0100
0100
0100
0100
,
0100
0100
0100
0100
,
0100
0100
0100
0100
,
0200
0000
0000
0000
,
0000
0000
0000
0000
,
0000
0000
0000
0300
,
0000
0000
0000
0000
,
0000
0000
0000
0000
,
0000
0000
0000
0000
,
0000
0000
0100
0000
,
0100
0000
0010
0000
,
0010
0010
0010
0000
,
0010
0000
0100
0000
,
0100
0100
0001
0000
,
1000
0000
0001
0000
,
1000
0001
1000
0000
,
0001
0000
1000
0000
,
0000
0000
1000
0000
,
0001
0000
1000
0000
,
0001
1000
0001
0000
,
1000
0000
0001
0000
,
0001
0001
0001
0000
,
0100
0000
0010
0000
,
0100
0100
0100
0000
,
0010
0000
0100
0000
,
1000
0000
1000
0000
,
0001
0000
1000
0000
,
0001
0001
0001
0000
,
0100
0000
0100
0000
,
0100
0100
0010
0000
,
0010
0000
0010
0000
,
0010
0010
0010
0000
,
1000
0001
2000
0000
,
3000
0000
1000
0000
,
0001
0000
1000
0000
,
0000
0000
0010
0000
,
0010
0000
0020
0000
,
0030
0000
0100
0000
,
0100
0000
0100
0000
,
0100
0000
0200
0000
,
0000
0000
0300
0000
,
0000
0000
1000
0000
,
1000
0000
1000
0000
,
0001
0000
0001
0000
,
1000
0000
1000
0000
,
0001
0000
1000
0000
,
0010
0000
0100
0000
,
0001
0000
2000
0000
,
0000
0000
0000
3000
0002
0000
0000
0000
,
0003
0000
1000
1000
,
1000
1000
0001
0001
,
0001
0001
1000
1000
,
1000
1000
0001
0001
,
0001
0001
1000
1000
,
1000
1000
0001
0001
,
0001
0001
1000
0010
,
0100
0000
0100
0100
0100
0000
0100
0000
,
0010
0010
0100
0100
,
0010
0010
0100
0100
,
0010
0010
0100
0100
,
0100
0010
1000
1000
,
0001
0001
1000
1000
,
0001
0001
1000
0000
,
0001
0000
0100
0000
,
0010
0010
0020
0000
,
0000
0000
0000
0000
,
0000
0000
0000
0000
,
0000
0000
0000
0000
0000
0030
0000
0000
,
0000
0000
2000
0000
,
0000
0000
0000
0000
,
0000
0000
0000
0000
,
0000
0000
0000
0000
0000
0000
0000
3000
,
0000
0000
0010
0100
,
0000
0010
0000
1000
,
0000
0001
0000
1000
,
0000
0001
0000
1000
,
0000
0001
0000
1000
,
0000
0010
0000
0100
,
0000
0010
0000
1000
,
0000
0000
0000
0000
,
0000
0000
2000
0000
,
0000
0000
0000
0000
,
0000
0000
0000
0000
,
0000
0000
0000
0000
,
3000
0000
0020
0000
,
0000
0000
0000
0000
,
0000
0000
0000
0000
,
0000
0000
0000
0030
0000
0000
0000
0000
,
0000
0000
1000
0000
,
0000
0000
0010
0000
,
0000
0000
0100
0000
,
0000
0000
0010
0000
,
0000
0000
1000
0000
,
0000
0000
0010
0000
,
0000
0000
0100
0000
,
0100
0000
0200
0000
,
0300
0000
0010
0000
,
1000
0000
0001
0000
,
1000
0000
0010
0000
,
0100
0000
0001
0000
,
1000
0000
0001
0001
,
1000
1000
0001
0001
,
1000
1000
0001
1000
,
0001
1000
0001
0000
,
0000
0000
0100
0000
,
0010
0000
0100
0000
,
0001
0001
0001
0000
,
1000
0000
0001
0000
,
0001
0001
1000
0000
,
0010
0000
0100
0000
,
0100
0100
0100
0000
,
0001
0000
1000
0000
,
0001
1000
0001
0000
,
0100
0000
0010
0000
,
0100
0010
0100
0000
,
0001
0000
1000
0000
,
0001
1000
0001
0000
,
0100
0000
0010
0000
,
0100
0100
0010
0000
,
0100
0000
1001
1001
,
0000
1000
1000
0010
,
0010
1000
1000
0001
,
0001
0100
0100
0100
,
0010
1000
0001
1000
,
0001
1000
1000
0010
,
0010
1000
1000
0001
,
0001
2000
0000
0000
,
0000
0000
0000
3000
,
0000
0010
0100
0001
,
1000
0010
1000
0001
,
0001
0100
0100
0010
,
0010
1000
1000
0001
,
0001
2000
0000
0000
,
0000
0000
0000
3000
,
0000
2020
0000
0000
3000
0000
0000
0000
,
0000
0000
0000
0030
0000
0000
0000
0000
;
