#TITLE:I need to fly;
#SUBTITLE:~platinum mix~;
#ARTIST:KaW;
#TITLETRANSLIT:;
#SUBTITLETRANSLIT:;
#ARTISTTRANSLIT:;
#GENRE:;
#CREDIT:;
#BANNER:maroineedtofly bn.png;
#BACKGROUND:maroineedtofly bg.png;
#LYRICSPATH:;
#CDTITLE:cdtitle2.png;
#MUSIC:I need to fly (Platinum Mix).mp3;
#OFFSET:-0.146000;
#SAMPLESTART:35.194000;
#SAMPLELENGTH:12.000000;
#SELECTABLE:YES;
#BPMS:0.000000=180.000000
,368.000000=90.000000
,400.000000=180.000000
;
#STOPS:
;
#BGCHANGES:;
#KEYSOUNDS:;
#ATTACKS:;

//---------------dance-single - Maro----------------
#NOTES:
     dance-single:
     Maro:
     Hard:
     15:
     0.848755,1.023897,0.431334,0.185520,0.391911,1281.000000,1188.000000,93.000000,40.000000,14.000000,0.000000,0.848755,1.023897,0.431334,0.185520,0.391911,1281.000000,1188.000000,93.000000,40.000000,14.000000,0.000000:
2000
0010
0000
3001
0200
0000
0010
0300
,
0000
0010
1000
0001
1000
0100
1000
0010
,
0200
0001
0000
0310
2000
0000
0100
3000
,
0000
0100
0010
0001
0010
0100
1000
0001
,
0200
0010
0320
0000
,
1030
0000
0001
0100
0010
0100
0001
1000
,
0200
0010
0320
0000
,
0030
0001
0010
0100
1000
0010
0100
0001
,
2000
0000
0000
0000
0010
0000
0000
0010
0000
0000
0000
0000
0001
0000
0000
0001
,
0000
0000
0000
0000
0100
0000
0000
0100
0000
0000
0000
0000
0100
0000
3000
0000
,
0002
0000
0000
0000
0010
0000
0000
0010
0000
0000
0000
0000
0100
0000
0000
0100
,
0000
0000
0000
0000
1000
0000
0000
1000
0000
0000
0000
0000
0100
0000
0003
0000
,
0200
0000
0000
0000
1000
0000
0000
1000
0000
0000
0000
0000
0010
0000
0000
0010
,
0000
0000
0000
0000
0001
0000
0000
0001
0000
0000
0000
0000
0010
0000
0300
0000
,
0020
0000
0000
0000
0001
0000
0000
0001
0000
0000
0000
0000
0100
0000
0000
0100
,
0000
0000
0000
0000
1000
0000
0000
1000
0000
0000
0000
0000
0100
0000
0030
0000
,
1001
0000
0001
0010
0000
0010
0100
0000
,
1000
0000
1000
0100
0000
0100
0010
0000
,
0011
0000
0001
0100
0000
0100
0010
0000
,
1000
0000
0010
0100
0000
0100
0001
0000
,
1001
0000
0010
0100
0000
0100
0010
0000
,
1001
0000
0100
0010
0000
0010
0100
0000
,
1001
0000
0001
1000
1010
0000
1000
0001
,
0011
0001
0010
0100
1000
0100
0010
0001
,
1000
0010
0100
0001
0000
0001
0010
0000
,
0001
0100
0000
0001
0010
0000
0100
0000
,
1000
0100
0010
0001
0000
0100
0001
0000
,
0001
0010
0000
0010
0100
0000
1000
0000
,
0010
1000
0001
0100
0000
0100
0010
0000
,
0010
1000
0000
0001
0100
0000
0010
0000
,
0100
0001
1000
0100
0000
0010
0001
0000
,
1000
0000
0100
0000
0000
0000
0100
0000
1000
0001
1000
0000
0010
0000
0100
0001
,
1000
1000
0010
0100
0100
0001
0010
0010
,
1000
0010
0010
0001
0100
0010
0200
0000
,
0310
0010
1000
0010
0010
0001
0010
0010
,
0100
0001
0001
1000
0100
0100
0020
0000
,
0031
0001
1000
0010
0010
0100
0001
0001
,
1000
0010
0100
0000
0110
0000
1001
0000
,
1001
0000
0001
0000
1000
0010
1000
0000
0001
0010
0001
0000
1000
0100
1000
0000
,
0001
0000
0100
0000
0010
0000
1000
0000
0001
0010
0100
0000
1000
0000
0100
0010
,
0001
0100
0010
0100
1000
0100
0010
0100
,
0001
0100
0010
0100
1000
0100
0001
0011
,
1100
1000
0100
0010
0100
0001
0100
1000
,
0100
0010
0100
1000
0010
0100
0001
0101
,
1010
1000
0010
0100
0001
0010
1000
0010
,
0001
0100
1000
0100
0001
0010
0100
0100
,
1000
0010
0100
0001
0010
0100
1000
0010
,
0100
0000
0001
0000
1000
0000
0010
0000
0100
0001
0100
0000
0010
0000
1000
0100
,
1000
0001
1000
0000
0010
0000
0100
0001
0100
0000
0010
0000
1000
0000
0001
0000
,
0100
0010
0100
0000
0010
0000
1000
0000
0001
0000
0100
0000
0010
0000
0010
0000
,
1000
0100
1000
0000
0010
0000
0100
0000
0001
0000
0010
0000
1000
0000
0010
0000
,
0001
0100
0010
1000
0001
0100
0010
0110
,
1001
1000
0100
0010
0001
0100
0010
0001
,
0010
0100
0010
1000
0001
1000
0100
0010
,
1000
0001
0100
0010
0001
1000
0010
0001
,
0010
0000
1000
0000
0100
0000
0010
0000
0001
1000
0001
0000
0100
0000
0010
0100
,
0020
1000
0000
0230
0001
0000
0320
1000
,
0000
0130
0001
0010
0100
1000
0010
0100
,
0002
1000
0000
2003
0010
0000
3020
0100
,
0000
0000
0130
0000
0001
0000
1000
0000
0100
0010
0100
0000
0010
0000
0001
1000
,
0002
0000
0103
0110
0000
0010
1010
0000
,
1000
1100
0000
0100
0110
0000
0011
0000
,
0020
0000
0031
0101
0000
0100
0110
0000
,
0010
1010
0000
1000
1100
0000
1000
1000
,
1020
0000
0130
0101
0000
0001
0011
0000
,
0100
0110
0000
0010
0011
0000
1001
0010
,
1002
0000
0103
0110
0000
0010
1010
0000
,
1010
0000
0000
0000
0101
0000
0000
0000
0100
0010
1000
0000
0001
0000
0001
0100
,
0010
1000
0110
1000
0100
0010
1100
0001
,
0100
0010
1001
0100
0010
1000
0101
0010
,
0100
1000
0011
1000
0100
0010
1001
0010
,
0100
0001
1010
0100
0001
1000
0110
0001
,
1000
0010
1100
0010
0100
0001
0110
0001
,
1000
0010
1001
0100
0010
0001
1100
0010
,
0001
1000
0101
0010
1000
0001
0110
0000
,
2002
0000
0000
0000
0000
0000
3003
0000
0010
0100
0010
0000
0100
0010
1000
0001
,
0100
0010
1000
0100
0010
0001
0100
0010
,
0001
0010
0100
0001
0010
0100
1000
1010
,
0110
0100
0001
0010
0100
0010
0001
0100
,
0010
1000
0100
0010
0100
1000
0001
0101
,
1010
1000
0100
1000
0010
0100
0001
0010
,
0100
1000
0100
0010
0001
0100
0010
0110
,
1001
0001
0010
0100
1000
0010
0100
0001
,
1000
0000
0001
0000
0100
0000
0010
0000
1000
0001
1000
0000
0010
0000
0100
0001
,
1000
0100
1000
0000
0010
0000
0100
0001
0100
0000
0001
0000
0010
0000
0100
0000
,
0010
0001
0010
0000
0001
0000
0100
0000
0010
0000
1000
0000
0001
0000
0100
0000
,
0010
1000
0001
0000
0100
0000
0010
0000
0100
0000
0001
0000
0010
0000
0100
0000
,
1000
0100
0010
0100
1000
0010
0100
0100
,
0001
0100
0001
0000
1000
0100
1000
0000
0001
0010
0001
0000
1000
0010
1000
0000
,
0001
0100
0010
0000
1000
0100
0010
0000
0010
0100
1000
0000
0001
0010
0100
0000
,
1000
0100
0010
0100
1000
0100
0010
0000
0001
0010
0100
0010
0001
0010
0100
0000
,
1000
0001
1000
0001
1000
0001
1000
0001
1000
0010
0100
0000
0001
0000
0001
0100
,
0010
0000
1010
0000
1000
0000
0100
0010
0000
0100
0000
0010
0100
0000
0110
0000
,
1001
0000
0110
0000
0010
0000
0100
0001
0000
0100
0000
0010
0100
0001
1000
0000
,
1100
0000
0011
0000
0001
0000
0100
0010
0000
1000
0000
0010
0100
0001
1000
0000
,
1001
0000
0110
0000
1000
0000
0001
0000
0100
0001
0000
0100
0001
0000
1001
0000
,
1000
0010
0001
0010
1000
0100
0010
0001
0000
0001
0000
0001
0100
0000
0100
0000
,
0001
0010
1000
0010
0001
0100
0010
1000
0000
1000
0000
1000
0001
0100
0010
0000
,
1010
0000
0101
0000
0001
0000
0001
0100
0000
0100
0000
0100
0010
1000
0001
0000
,
1100
0000
0000
0000
0011
0000
0000
0000
1000
0000
0000
0000
0001
0000
0100
0000
0010
0000
0000
0000
0110
0000
0000
0000
1000
0001
1000
0000
0001
0000
1000
0001
,
1000
0100
0110
0011
0100
0010
0011
0010
,
1000
0100
1100
0100
0010
0001
0101
0100
,
0010
1000
1001
0001
0010
0100
1100
1000
,
0010
0100
0110
0010
1000
0001
0011
0010
,
0100
1000
1100
0100
0010
0001
0101
0100
,
0010
1000
1001
0001
0100
0010
1010
1000
,
0100
0010
0011
0010
0100
1000
1001
0010
,
1002
0100
0000
0103
0020
0000
2030
0000
,
3001
0100
0010
0100
0001
0000
1000
0000
0100
0000
0010
0000
0001
0000
0100
0000
,
0010
1000
0100
1000
0010
0000
0100
0000
0001
0000
0010
0000
0100
0000
0100
0000
,
0010
0001
1000
0001
0010
0000
0100
0000
1000
0000
0010
0000
0100
0000
0001
0000
,
1000
0100
0010
0100
1000
0000
0001
0000
0100
0000
0010
0000
1000
0000
1000
0000
,
0001
0100
0010
1000
0100
0000
1000
0000
0010
0000
0100
0000
0001
0000
0010
0000
,
0001
0010
0100
1000
0001
0000
0100
0000
0010
0000
0100
0000
0001
0000
1000
0000
,
0001
0100
0001
0000
1000
0010
1000
0000
0001
0010
0001
0000
1000
0100
1000
0000
,
0001
1000
0001
1000
0001
1000
0001
1000
0001
1000
0001
1000
0001
1000
0001
1000
,
0001
0100
0010
1000
0010
0100
0001
0010
,
1000
0010
0001
0100
0020
1000
0100
1000
,
0130
0001
0010
0100
1000
0010
0100
0001
,
0010
0100
1000
0100
2000
0100
0010
0001
,
3010
0100
0001
0010
1000
0010
0001
0100
,
0010
0001
0010
1000
0200
0001
0010
1000
,
0310
0001
0100
0010
1000
0001
0100
0010
,
0110
0000
0000
0000
1001
0000
0000
0000
0010
0100
0010
0000
1000
0100
0010
0001
,
1000
0100
0010
0001
0100
1000
0100
0001
,
0010
0100
1000
0001
0020
0100
0031
0001
,
1000
0010
0100
0001
0010
0100
1000
0001
,
0100
0010
1000
0001
2000
0010
3100
0100
,
0010
0001
0100
1000
0100
0001
0010
0100
,
1000
0010
0100
0001
0020
0001
0130
0100
,
1000
0010
0100
0001
1000
0010
0100
0001
,
0012
0000
0000
0000
1003
0000
0000
0000
2010
0000
0000
0000
3001
0100
0001
0100
,
0001
0000
0100
0010
1000
0000
0100
0000
0010
0000
0001
0100
0010
0000
0100
0000
,
0001
0000
1000
0100
0010
0000
0100
0000
1000
0000
0010
0100
0001
0000
0001
0000
,
1000
0000
0100
1000
0010
0000
0100
0000
0001
0000
0010
0100
1000
0000
0100
0000
,
0010
0000
0001
1000
0100
0000
0010
0000
0100
0000
1000
0001
0100
0000
0100
0000
,
0010
0000
1000
0001
0100
0000
0001
0000
0010
0000
0100
0010
0001
0000
0100
0000
,
0010
0000
1000
0001
0100
0000
0010
0000
1000
0000
0100
1000
0010
0000
0010
0000
,
0100
0000
0001
0010
0100
0000
0010
0000
0001
0000
1000
0100
0010
0000
0100
0000
,
1000
0000
0001
0100
0001
0100
0010
0000
1000
0000
0100
0010
0100
0010
0001
0000
,
1000
0000
0010
1000
0010
1000
0100
0000
0010
0000
0001
0100
0001
0000
0100
0000
,
0010
0000
1000
0001
1000
0001
0100
0000
0001
0000
0010
0100
0010
0000
0001
0000
,
0100
0000
0010
1000
0010
1000
0100
0000
1000
0000
0010
0100
0001
0000
0100
0000
,
0001
0000
0010
0100
0010
0100
1000
0000
0001
0000
1000
0100
1000
0000
0010
0000
,
0100
0000
0001
0100
0010
0100
0001
0000
1000
0000
0100
0010
0100
0000
1000
0000
,
0001
0000
1000
0010
0100
0010
1000
0000
0001
0000
0100
0010
0100
0000
0001
0000
,
2001
0000
0000
0000
3010
0100
0010
0000
0100
0000
0001
1000
0001
0000
1000
0000
,
1002
0000
0000
0000
0103
0000
0100
0000
0010
0100
0010
0000
1000
0000
0001
1000
,
0020
0000
0000
0000
,
0000
0000
0000
0M00
0M00
0M00
0M00
0M00
,
0M00
0000
0000
0000
0M00
0000
0000
0000
0M00
0000
0000
0000
0M00
0000
0000
0000
0M00
0000
0000
0000
0000
0M00
0000
0000
,
0000
0000
0M00
0000
0000
0000
0000
0M00
0000
0000
0000
0000
0M00
0000
0000
0000
0000
0000
0000
0000
0000
0000
0000
0000
,
0000
0030
0000
0000
;

//---------------dance-single - Maro----------------
#NOTES:
     dance-single:
     Maro:
     Medium:
     10:
     0.478377,0.600216,0.352488,0.306108,0.009276,722.000000,646.000000,76.000000,66.000000,14.000000,0.000000,0.478377,0.600216,0.352488,0.306108,0.009276,722.000000,646.000000,76.000000,66.000000,14.000000,0.000000:
0010
0000
0000
0010
0000
0000
0010
0000
,
0000
0010
0000
0000
0010
0000
1000
0000
,
0100
0000
0000
0100
0000
0000
0100
0000
,
0000
0100
0000
0000
0100
0000
0010
0000
,
0001
0000
0000
0001
0000
0000
0001
0000
,
0000
0001
0000
0000
0001
0000
0100
0000
,
1000
0000
0000
1000
0000
0000
1000
0000
,
0000
1000
0000
0000
1000
0000
0100
0000
,
0002
1003
2000
3020
,
0130
0200
0320
1030
,
2000
3002
0013
0020
,
0230
1300
2000
3200
,
0310
0000
0000
0011
0000
0000
0011
0000
,
0000
0011
0000
0000
0001
0000
1000
0000
,
0010
0000
0000
1010
0000
0000
1010
0000
,
0000
1010
0000
0000
1000
0000
0010
0000
,
0110
0100
0000
0001
0000
1000
0000
0100
,
0000
0010
0000
0001
0000
1000
0001
0000
,
0001
0100
0000
0010
0000
1000
0000
0010
,
0000
0100
0000
0001
0000
1000
0100
0000
,
0011
0000
0001
1000
0000
1000
0001
0000
,
1001
0000
1000
0010
0000
0010
1000
0000
,
1020
0130
0210
0301
,
2002
0000
0000
0000
0000
3003
1001
0000
,
0010
0000
0100
0010
0000
0100
0010
0000
,
0100
0010
0000
1000
0001
0000
0101
0000
,
0001
0000
1000
0001
0000
1000
0001
0000
,
1000
0001
0000
0001
0100
0000
0110
0000
,
1000
1100
0010
0011
,
0100
0110
1000
0101
,
0001
0000
1000
0001
0000
0001
1000
0000
,
0000
0010
0100
0010
0100
0000
1001
0000
,
1000
0100
1000
0000
1000
0100
0000
0100
,
0010
0000
0010
0001
0000
0001
1000
0000
,
0001
0100
0001
0000
0001
0100
0000
0100
,
0010
0000
0010
1000
0000
1000
0100
0000
,
0011
1000
1010
0001
,
0011
1000
1010
0001
,
2002
0000
0000
3003
0010
0000
0100
0000
,
0220
0330
1001
1001
,
0001
0100
1000
0010
,
0001
0100
1000
0010
,
0001
0100
1000
0010
,
0001
0100
1000
0010
,
0001
0010
0100
0000
0001
0010
0100
0000
,
0001
0010
0100
0000
1000
0000
0010
0000
,
1000
0010
0100
0000
1000
0010
0100
0000
,
1000
0010
0100
0000
0001
0000
1000
0000
,
1000
0100
0001
0011
,
0001
0100
1000
1010
,
1000
0010
0001
0100
,
1000
1010
0001
0011
,
1000
0001
0100
0000
1000
0001
0100
0000
,
1000
0001
0100
0000
0010
0000
1000
0000
,
0001
1000
0010
0000
0001
1000
0010
0000
,
0001
1000
0020
0000
0230
0000
0310
0000
,
0220
000M
M000
000M
,
M000
000M
M000
000M
,
M000
000M
M000
000M
,
M000
0000
000M
0000
M000
0330
1001
0000
,
0110
0000
0010
0100
0000
0010
0100
0000
,
0100
0010
0000
0100
0010
0000
1000
0000
,
0001
0000
1000
0001
0000
1000
0001
0000
,
0001
1000
0000
0001
1000
0000
0010
0000
,
0100
0000
0000
0110
0000
0000
0101
0000
,
0000
1001
0000
1000
0100
0010
0001
0000
,
0010
0000
0000
0110
0000
0000
1100
0000
,
0000
1010
0000
1000
0010
0100
0001
0000
,
0001
1000
1000
0000
0010
1000
0000
0001
,
1000
0000
0100
1000
0000
0001
1000
0000
,
1000
0001
0001
0000
0010
0001
0000
0100
,
0001
0000
1000
0001
0000
0100
0001
0000
,
1000
0000
1100
0000
0010
0001
0010
0000
,
0001
0000
0101
0000
1000
0010
1000
0000
,
0001
0100
0010
1010
,
0001
0000
1000
0000
0001
1000
0001
0000
,
1000
0100
0001
0010
,
1000
0100
0001
0010
,
1000
0100
0001
0010
,
1000
0100
0001
0010
,
1000
0100
0010
0000
1000
0100
0010
0000
,
1000
0100
0010
0000
0001
0000
1000
0000
,
0001
0100
0010
0000
0001
0100
0010
0000
,
0001
0100
0010
0000
1000
0000
0001
0000
,
0001
0010
1000
1100
,
1000
0010
0001
0101
,
0100
0010
1000
1001
,
0001
0000
1000
0000
0001
1000
0001
0000
,
1000
0100
0001
0000
1000
0100
0001
0000
,
1000
0100
0001
0000
0010
0000
1000
0000
,
0001
0100
1000
0000
0001
0100
1000
0000
,
0001
0100
1000
0000
1001
0000
0110
0000
,
1001
2002
0000
0000
0000
0000
3003
0110
,
1001
0220
0000
0000
0000
0000
0330
0000
,
1010
0202
0000
0000
0000
0000
0303
0011
,
1100
0000
2020
0000
0000
0000
3030
0000
0001
1000
0000
1000
0001
0000
1001
0000
,
0020
0000
2000
0000
3030
1000
0001
0100
,
0020
0000
0000
0000
0200
0000
0000
0000
0330
0000
0000
0000
0000
0000
0001
1000
,
0020
0000
0000
0000
0200
0000
0000
0000
0330
0000
0000
0000
0010
0000
0100
0010
,
0220
0000
0000
0000
0000
0000
0330
1001
,
0001
0010
0100
1000
0001
0010
0100
1000
,
0000
1000
0001
1000
,
1000
0100
0010
0001
1000
0100
0010
0001
,
0000
0001
1000
0001
,
0001
0010
0100
1000
0001
0010
0100
1000
,
0000
1000
0001
1000
,
1000
0100
0010
0001
1000
0100
0010
0001
,
1001
0000
0000
0020
0200
0000
0330
0000
,
1000
0010
0100
0001
1000
0010
0100
0001
,
0000
0001
1000
0001
,
0001
0100
0010
1000
0001
0100
0010
1000
,
0000
1000
0001
0100
,
0010
0000
0010
0000
0010
0100
0010
0100
,
0000
0100
0000
0100
0010
0000
0100
0000
,
2002
0000
0000
0000
0000
0000
0000
3003
,
0110
0100
2002
3003
,
2000
0100
0010
3002
,
0100
0010
0103
0010
,
2000
0100
0010
3001
,
0002
0100
0010
1000
,
0203
0010
0001
0310
,
0010
2000
0100
3010
,
0020
0001
0100
0031
,
2002
0000
3003
0000
0010
0010
0100
0010
,
1000
0001
1000
0000
0001
1000
0001
0000
,
1000
0010
0100
0001
,
1000
0001
1000
0000
0001
1000
0001
0000
,
0001
0010
0100
1000
,
0010
0100
0010
0000
0100
0010
0100
0000
,
0010
1000
0001
0100
,
0001
1000
0001
0000
1000
0001
1000
0000
,
2002
0000
0000
3003
0110
0000
0110
0000
,
0001
0020
1030
0200
,
0301
0020
1030
0200
,
0301
0020
1030
0200
,
0301
0020
1030
0200
,
0301
0000
0001
1000
0000
0000
0001
1000
,
0000
0000
0001
1000
0000
1000
0001
0000
,
0100
0000
0010
0100
0000
0000
0010
0100
,
0000
0000
0010
0100
0000
0100
0010
0000
,
1000
0100
0101
0000
,
0001
0100
1100
0000
,
1000
0010
0011
0010
,
1000
0100
0010
0001
,
1000
0010
0100
0000
1000
0010
0100
0000
,
1000
0010
0100
0000
0001
0000
0010
0000
,
0100
0010
0001
0000
0100
0010
0001
0000
,
0100
0010
0001
0000
1001
0000
0110
0000
,
2002
0000
0000
0000
,
0000
0000
0000
0000
,
0000
0000
0000
0000
,
0000
0000
0000
0000
,
0000
3003
0000
0000
;

//---------------dance-single - Maro----------------
#NOTES:
     dance-single:
     Maro:
     Easy:
     6:
     0.274305,0.388375,0.217986,0.324660,0.000000,414.000000,367.000000,47.000000,70.000000,0.000000,0.000000,0.274305,0.388375,0.217986,0.324660,0.000000,414.000000,367.000000,47.000000,70.000000,0.000000,0.000000:
0220
0000
0030
0300
,
0000
0000
0010
1000
,
0002
0000
0000
1000
,
1003
0100
0010
0001
,
0002
0000
0020
0033
,
0010
0100
1000
0100
,
2000
0000
0200
3300
,
0000
1000
0001
1000
,
0002
0100
0000
0100
,
0000
0100
0000
0103
,
2000
0100
0000
0100
,
0000
0100
0000
3100
,
0002
0010
0000
0010
,
0000
0010
0000
0013
,
2000
0010
0000
0010
,
0000
0010
0000
3010
,
0220
0000
0330
0000
,
1000
0001
1000
0000
,
2002
0000
3003
0000
,
0001
0010
0100
0000
,
0220
0000
0330
0000
,
0010
0001
1000
0010
,
0100
0100
0010
0010
,
1001
0000
1001
0010
,
0010
1000
0001
1000
,
0010
0000
0010
0000
,
0100
0001
1000
0001
,
0100
0000
0100
0000
,
0001
0010
0100
0000
,
1000
0100
0010
0000
,
0001
1000
0010
0000
,
1000
0001
0010
0000
,
0000
0011
0000
0011
,
0000
0011
0000
0011
,
0000
1010
0000
1010
,
0000
1010
0000
1010
,
0000
0100
0001
1000
,
0000
1000
0001
0100
,
1001
0000
0010
0000
,
0110
0000
0110
0110
,
2002
0000
3000
0000
,
0200
0000
0300
0000
,
0020
0000
0030
0000
,
0200
0000
0300
0003
,
1000
0100
0010
0001
,
1000
0100
0010
0001
,
0001
0010
0100
1000
,
0001
0010
0100
1000
,
1000
0010
0001
0000
,
1000
0010
0001
0000
,
1000
0010
0001
0000
,
0010
1000
0100
1000
,
0001
0010
0100
1000
,
0001
0010
0100
1000
,
1000
0100
0010
0001
,
1000
0001
1000
0001
,
2002
0000
0000
0000
,
0000
0000
0000
0000
,
0000
0000
0000
0000
,
0000
0000
0000
3003
,
1000
0000
1000
0000
,
1000
0000
1000
0010
,
0100
0000
0100
0000
,
0100
0000
0100
0001
,
0010
0000
0001
0000
,
0001
0000
0001
0010
,
0100
0000
1000
0000
,
0100
0010
0001
0000
,
0000
1001
0000
0110
,
0000
1001
0000
0110
,
0000
1010
0000
0101
,
0000
1010
0000
0101
,
1000
0000
0001
0000
,
1000
0001
1000
0000
,
1001
0000
0010
0100
,
0220
0000
0030
0300
,
2002
0000
0003
0000
,
0020
0000
0030
0000
,
0200
0000
0300
0000
,
0020
0000
0030
3000
,
0001
0100
0010
1000
,
0001
0100
0010
1000
,
1000
0010
0100
0001
,
1000
0010
0100
0001
,
0001
0100
1000
0000
,
0001
0100
1000
0000
,
0001
0100
1000
0000
,
0100
0001
1000
0100
,
0020
0000
0002
0000
,
0000
0000
0000
0033
,
0011
0000
0100
0000
,
1100
0000
1001
0000
,
0002
0200
0000
0303
,
2000
0200
0000
3300
,
0020
0002
0000
0033
,
0002
2000
0000
3003
,
2000
0010
0002
3003
,
0002
0010
2000
3003
,
2000
0001
0200
3300
,
2002
0000
0000
3003
,
0010
0100
0010
0000
,
0100
0010
0100
0000
,
0001
1000
0001
0000
,
1000
0001
1000
0000
,
0001
0010
0100
0000
,
0010
0100
1000
0000
,
1000
0100
0010
0000
,
0022
0000
0003
0030
,
0100
1000
0010
1000
,
0100
0000
0100
0000
,
0010
0001
1000
0001
,
0010
0000
0010
0000
,
0001
1000
0010
1000
,
0002
0000
2000
3003
,
0220
0000
0000
0000
,
0000
0330
1001
0000
,
0001
0100
1000
0100
,
0002
0000
0003
0000
,
1000
0100
0001
0100
,
2000
0000
3000
0000
,
0001
0010
1000
0010
,
0002
0000
0003
0000
,
1000
0010
0001
0010
,
1000
0000
0001
0000
,
0001
0100
1000
0010
,
0002
0000
0003
0000
,
1000
0100
0001
0010
,
2000
0000
3000
0000
,
0001
0010
1000
0100
,
0002
0000
0003
0000
,
1000
0010
0001
0100
,
1001
0000
1001
0000
,
0220
0000
0030
0000
,
0002
0000
0003
0000
,
0020
0000
0030
0000
,
2000
0000
3000
0300
,
0010
1000
0100
0000
,
0100
1000
0010
0000
,
0010
0001
0100
0000
,
0100
0001
0010
0000
,
0010
0100
0000
0100
,
1000
0010
0000
0010
,
0100
0001
0000
0001
,
1000
0010
0100
0010
,
0210
0000
0002
0000
,
0000
0000
0000
0303
,
1010
0000
0000
0000
,
0110
0000
0101
1010
,
0220
0000
0000
0000
,
0000
0000
0000
0000
,
0000
0000
0000
0000
,
0000
0000
0000
0000
,
0000
0330
0000
0000
;

//---------------dance-single - Maro----------------
#NOTES:
     dance-single:
     Maro:
     Challenge:
     18:
     1.140949,1.234724,0.913687,0.621493,1.036594,1722.000000,1525.000000,197.000000,134.000000,80.000000,0.000000,1.140949,1.234724,0.913687,0.621493,1.036594,1722.000000,1525.000000,197.000000,134.000000,80.000000,0.000000:
1000
0020
0000
0031
0020
0000
1030
0020
,
0000
0130
0002
0023
0230
2300
3200
0320
,
0031
2000
0000
3010
0200
0000
0301
0020
,
0000
0130
2000
3200
0320
0032
0203
0320
,
0031
0020
0000
1030
0020
0000
0130
0002
,
0000
0013
0200
2300
3020
0000
0130
0000
,
0100
0020
0000
0031
0020
0000
1030
0200
,
0000
0320
0032
2003
3200
2300
3001
0001
,
0001
0000
1000
0000
1100
0000
0000
0010
0000
0000
0001
0000
0101
0000
0000
0100
,
0000
0000
0010
0000
1010
0000
0000
1000
0000
0000
0100
0000
0110
0000
0000
0010
,
0000
0000
0001
0000
1001
0000
0000
1000
0000
0000
0010
0000
0110
0000
0000
0001
,
0000
0000
1000
0000
1100
0000
0000
0010
0000
0000
0001
0000
0101
0000
0000
0010
,
0000
0000
1000
0000
1010
0000
0000
0010
0000
0000
0100
0000
0101
0000
0000
0001
,
0000
1000
1100
0100
0010
0001
0100
0010
,
0001
0000
0010
0000
0110
0000
0000
1000
0000
0000
0100
0000
0110
0000
0000
0001
,
0000
1000
0010
0100
0001
1000
1001
1001
,
0110
0010
1000
0010
0001
0010
0100
0010
,
1000
0100
1000
0000
0010
0100
0010
0000
0100
0001
0100
0000
0001
0010
0001
0000
,
0110
0010
0001
0010
1000
0010
0001
0100
,
0010
1000
0010
0000
1000
0100
1000
0000
0010
0100
0010
0000
0100
0001
0100
0000
,
1001
0000
0010
0000
1000
0000
0001
0000
0100
0010
0100
0010
0100
0000
0010
0000
,
1001
0000
1000
0000
0100
0000
0010
0000
0100
0010
0100
0010
0100
0000
1000
0000
,
0010
0100
0010
0100
0010
0100
0010
0100
0001
1000
0001
1000
0001
1000
0001
1000
,
0001
0010
0100
1000
0010
0100
0001
0010
0100
0010
0001
0100
0010
1000
0100
0010
,
0001
0010
0001
0000
0100
0000
0010
1000
0010
0000
1000
0000
0100
0010
0100
0000
,
0010
0000
0001
0000
0100
0000
0010
0000
1000
0100
0010
0000
0011
0000
1100
0000
,
0100
0010
0100
0000
0010
0000
0001
0100
0001
0000
0100
0000
0010
1000
0010
0000
,
1000
0000
0010
0000
0001
0000
0010
0000
2000
0000
0000
3000
0101
0000
1010
0000
,
1000
0010
1000
0000
0010
0000
0100
0001
0100
0000
0001
0000
0010
0001
0010
0000
,
0100
0000
1000
0100
1000
0000
0100
0000
0010
0001
1000
0000
1001
0000
1001
0000
,
0110
1000
0110
0110
0001
1001
1001
1000
,
0100
0000
0022
0000
0033
0000
1100
0000
0010
0100
0001
0000
1010
0000
0101
0000
,
0001
0100
0020
0000
0000
0000
1030
0100
0020
0000
0000
0000
0031
1000
0200
0000
,
0000
0000
0310
0001
1000
0000
0010
0000
0110
0000
1000
0000
1001
0000
0010
0000
,
0100
1000
0020
0000
0000
0000
0130
0001
2000
0000
0000
0000
3100
0010
0002
0000
,
0000
0000
1003
0100
0010
0000
0100
0000
1100
0000
0001
0000
0101
0000
1000
0000
,
0010
0100
0101
1000
0010
0110
1000
0001
,
0101
0000
1100
0000
0101
0000
1100
1100
,
0011
0000
0001
0010
0100
1000
0010
0100
0010
0100
0001
0010
0100
1000
0010
0100
,
0001
0000
0000
1000
0000
0000
0010
0000
0000
0100
0000
0000
0001
0000
1000
0000
0001
0000
1000
0000
0000
0010
0000
0000
0100
0000
0000
0010
0000
0000
0100
0000
0000
0010
0000
0000
0100
0000
0000
0010
0000
0000
0100
0000
0000
0010
0000
0000
,
1000
0100
0010
0001
1000
0100
0010
0001
1000
0100
0010
0001
1000
0100
0010
0001
,
1000
0100
0010
0001
1000
0100
0010
0001
1000
0100
0010
0001
1000
0000
1001
0000
,
0001
0010
0100
1000
0001
0010
0100
1000
0001
0010
0100
1000
0001
0010
0100
1000
,
0001
0010
0100
1000
0010
0100
0001
1000
0010
0100
0001
1000
0010
0000
0110
0000
,
0010
1000
0100
1000
0010
0100
0001
0010
0001
0100
0010
1000
0100
1000
0010
0100
,
0001
0010
0001
0100
0010
1000
0100
1000
0010
0100
0001
0010
0001
0000
1001
0000
,
1000
0010
0100
0001
0010
0100
1000
0010
0100
0001
0010
0100
1000
0010
0100
0001
,
0010
0100
1000
0010
0100
0000
0010
0000
0100
0010
1000
0000
1010
0000
0101
0000
,
0001
0010
0100
0000
0100
0000
1000
0100
0010
0000
0010
0000
1001
0000
1000
0000
,
1000
0010
0100
0000
0100
0000
0001
0100
0010
0000
0010
0000
1001
0000
1001
0000
,
0010
1000
0100
0000
0100
0000
0010
0000
0001
0000
1000
0000
1010
0000
0101
0000
,
0001
0010
0100
0000
0010
0001
0100
0000
0010
1000
0100
0000
1000
0000
1010
0000
,
0010
0100
0001
0000
1001
0000
1000
0001
0010
0100
0010
0100
0010
0100
0010
0100
,
0010
0100
0010
0100
0010
0100
0010
0100
0010
0001
1000
0100
1000
0000
1001
0000
,
0001
0100
0010
0000
0100
0010
1000
0000
1000
0010
0100
0000
0010
0100
0001
0000
,
1000
0100
0010
0000
0001
0100
0010
0000
1000
1000
0001
0000
0101
0000
0100
0010
,
2000
0M1M
0000
3002
MM10
0000
0203
M01M
,
0000
0000
0310
1000
0002
0000
0023
0000
0230
0000
2300
0000
3100
0000
0110
0000
,
0020
MM01
0000
0230
10MM
0000
0320
M10M
,
0000
0000
0032
0000
2003
0000
3020
0000
0130
0001
1000
0000
1001
0000
1000
0010
,
0200
0000
0300
0000
1M1M
0000
0202
0000
0000
0303
MM11
0000
2200
0000
0000
3300
,
1M1M
0000
0220
0000
0000
0330
1MM1
0000
2020
0000
0000
3030
0100
0001
1000
0001
,
0200
0000
0000
0300
1M1M
0000
0202
0000
0000
0303
MM11
0000
2200
0000
0000
3300
,
1M1M
0000
0202
0000
0000
0303
M11M
0000
2002
0000
0000
3003
0100
0010
0001
1000
,
0020
0000
0000
0030
1M1M
0000
0202
0000
0000
0303
1MM1
0000
2200
0000
0000
3300
,
M11M
0000
0022
0000
0000
0033
11MM
0000
2020
0000
0000
3030
0101
0000
0101
0000
,
2020
0000
0000
3030
11MM
0000
0022
0000
0000
0033
M1M1
0000
2020
0000
0000
3030
,
0100
0000
1001
0000
0010
0000
0110
0000
0100
0010
1000
0000
1001
0000
0001
0010
,
0100
1000
1M1M
0010
0100
0001
M1M1
0001
,
0010
0100
11MM
1000
0010
0100
M11M
1001
,
0001
0010
11MM
0010
0001
0100
1M1M
0100
,
0001
1000
M11M
1000
0001
0010
MM11
1100
,
0001
0100
0010
0000
1M1M
0000
1000
0100
0010
0000
0001
0000
M1M1
0000
0010
0000
,
1000
0100
0010
0000
MM11
0000
1000
0010
0100
0000
0010
0000
1M1M
0000
0101
0000
,
11M0
0000
0202
0000
0000
0303
1M10
0000
0202
0000
0000
0303
M011
0000
1100
0000
,
1002
0000
0010
0000
0100
0000
1003
0000
0010
0100
0010
0000
0100
0010
0100
0010
,
1000
0010
1000
0010
0100
0010
0100
0010
0001
0010
0001
0010
0100
0010
0100
0010
,
1000
0010
1000
0010
0100
0010
0100
0010
0001
0010
0001
0010
0100
0010
0100
0010
,
0100
0001
0100
0001
0100
0010
0100
0010
0100
1000
0100
1000
0100
0010
0100
0010
,
0100
0001
0100
0001
0100
0010
0100
0010
0100
1000
0100
0010
1000
0000
1001
0000
,
0001
0010
0100
1000
0001
0010
0100
1000
0001
0010
0100
1000
0001
0010
0100
1000
,
0001
0010
0100
1000
0001
0010
0100
1000
0001
0010
0100
1000
0010
0000
0110
0000
,
0010
1000
0001
0000
0100
0010
1000
0000
0010
0100
0001
0000
0010
0100
1000
0000
,
0100
0010
0001
0000
0100
0010
1000
0000
0001
0001
1000
0000
1010
0000
0100
0001
,
1000
0100
0010
0001
1000
0000
1000
0010
0100
0000
0001
0000
0101
0000
0110
0000
,
0010
1000
0001
1000
0010
0000
0100
0010
1000
0000
0100
0000
0110
0000
0011
0000
,
1000
0100
0010
0100
1000
0000
0100
0010
0001
0000
0100
0000
0010
0000
1000
0000
,
0001
0100
0010
0000
1000
0100
0010
0000
0001
0000
1000
0010
0100
0000
0001
0000
,
1000
0100
0010
0001
0100
0001
0100
0001
1000
0010
0100
0001
0010
0100
0010
0100
,
0010
0001
1000
0010
0100
0001
0100
0001
1000
0010
0100
0001
1000
0100
1000
0000
,
1100
0000
1000
0100
0010
0001
0100
0010
1000
0001
0100
0010
1000
0001
0010
0000
,
0110
0000
0000
0000
0000
0000
0010
0000
0000
0001
0000
0000
1000
0000
0010
0000
1000
0000
0010
0000
0000
0100
0000
0000
0001
0000
0000
1000
0000
0000
0010
0000
0000
0000
0000
0000
0110
0000
0000
0000
0000
0000
0010
0000
0000
0100
0000
0000
,
0001
0000
0000
0000
0011
0000
0000
0000
1100
0000
0000
0000
1000
0000
0010
0000
0000
0000
0110
0000
0000
0000
0010
0100
0002
0000
0000
0003
0000
0000
1000
0010
,
0100
0000
0110
0000
0101
0000
0001
1000
0000
1100
0000
0100
0010
0010
0001
0000
,
0011
0000
0101
0000
1001
0000
1000
0010
0000
0110
0000
0100
0001
1000
0010
0000
,
0110
0000
1010
0000
2000
0000
3001
0100
0101
0101
0000
1010
1010
0000
1100
0000
,
1000
1000
0100
0010
0001
0100
0010
0001
0000
0011
0000
0010
1000
0000
1010
0000
,
0001
0001
0010
0100
1000
0010
0100
1000
0000
1100
0000
0100
0001
1000
0010
0100
,
0110
0000
1001
0000
1001
0000
0010
0100
0000
0110
0000
0100
0010
0010
0100
0000
,
1001
0000
0000
0000
0001
0000
1000
0000
0010
0000
0000
0000
0010
0000
0100
0000
0101
0000
0000
0000
1010
0000
0000
0000
1000
0100
0010
0000
0001
0000
1000
0100
,
0010
0001
0100
0000
0100
0010
1000
0000
2000
0000
3200
0000
0320
0000
0032
0000
,
1003
0010
1000
0000
0010
0000
0100
0001
0100
0000
0001
0000
1010
0000
0101
0000
,
0100
0010
1000
0000
1000
0001
0100
0000
0002
0000
0023
0000
0230
0000
2300
0000
,
3010
0100
0010
0000
1000
0000
0001
0100
0001
0000
1000
0000
0010
0000
0010
0000
,
2002
0000
0000
3003
0220
0000
0000
0330
1001
0000
0010
0000
1010
0000
0100
0001
,
1000
0000
1000
0100
0010
0001
1000
0000
0010
1000
0001
0000
0110
0000
0110
0000
,
1010
1000
0001
1000
0100
0010
0011
1000
,
1100
0020
0000
0130
0002
0000
1003
0000
,
0100
1000
0010
0000
0010
0100
0001
0000
0002
0000
0023
0000
0230
0000
2300
0000
,
3001
0100
0001
0000
0100
0000
0010
1000
0010
0000
1000
0000
0101
0000
1010
0000
,
0010
0100
0001
0000
0001
1000
0010
0000
2000
0000
3200
0000
0320
0000
0032
0000
,
0103
0010
0100
0000
0001
0000
1000
0010
1000
0000
0001
0000
0100
0000
0100
0000
,
2002
0000
0000
3003
0220
0000
0000
0330
1001
0000
0100
0000
0101
0000
0010
1000
,
0001
0000
0001
0010
0100
1000
0001
0000
0100
0001
1000
0000
0110
0000
0110
0000
,
1000
0100
0010
0001
0100
0010
0001
0010
0100
0001
0010
0100
1000
0100
0010
0001
,
1000
0000
0100
0000
1000
0000
0100
0000
0000
0010
0000
0000
0001
0000
0000
0100
0000
0000
0001
0000
0000
0100
0000
0000
0001
0000
0100
0000
0001
0000
0100
0000
0000
0001
0000
0000
0100
0000
0000
0001
0000
0000
0010
0000
0000
0100
0000
0000
,
2000
0100
0010
0001
3002
0100
0010
1000
,
2003
0100
0010
3001
0101
0100
0010
1000
,
0002
0010
0100
1000
0203
1000
0010
0001
,
0320
1000
0100
1030
1001
0001
0010
0110
,
2000
0100
0010
0100
3002
0010
0100
0010
,
2003
0100
0001
3010
1010
0100
0001
1001
,
0002
0010
0100
0010
2003
0100
0010
0001
,
3001
0000
0010
0000
0110
0000
0000
0000
0010
0100
0001
0000
1000
0100
0001
0100
,
1000
0100
0010
0000
0010
0000
0001
0010
0100
0000
1000
0000
0010
0000
0001
0000
,
0010
1000
0100
0010
0001
0100
0110
1001
,
0001
0010
0100
0000
0100
0000
1000
0010
0100
0000
0001
0000
1000
0000
0100
0000
,
0010
0001
0100
0010
1000
0001
0101
1010
,
0100
0010
1000
0000
1000
0000
0001
0100
0010
0000
1000
0000
0100
0000
0010
0000
,
0001
0000
0010
0000
1000
0000
0010
0000
0001
1000
0010
0000
0110
0000
1001
0000
,
1000
0100
0010
0001
0010
0100
0010
0001
1000
0100
0010
0100
1000
0100
0010
0001
,
2000
0000
0000
0000
0010
0000
3001
0000
1001
0000
0010
0100
0010
0100
0010
0100
,
0001
0010
0100
0010
0001
0100
0010
0000
0001
0010
1000
0010
0001
0000
0010
0000
,
1000
0100
0010
0100
1000
0001
0010
0000
0100
0010
0001
0100
0010
0000
1000
0000
,
0010
0001
0010
1000
0100
0010
0001
0000
0100
0010
1000
0010
0100
0000
0001
0000
,
1000
0100
0010
0100
1000
0001
0010
0000
0100
0010
0001
0100
1000
0000
0100
0000
,
0001
0010
0100
1000
0010
0001
0010
0000
1000
0100
0010
0100
1000
0000
0001
0000
,
1000
0010
0100
0001
1000
0100
0010
0000
0001
0100
0010
1000
0001
0000
1001
0000
,
1000
0010
0100
0010
1000
0001
0100
0000
0110
0000
0010
0100
0001
0000
1000
0000
,
0100
0010
0001
0100
0010
0001
0010
0000
1000
0010
0100
0000
0001
0000
0100
0010
,
1000
0100
0010
0000
0011
0000
0001
0010
0100
0000
1000
0000
0010
0000
0110
0000
,
0100
0001
1000
0000
1001
0000
1000
0000
0100
0000
0010
0000
0011
0000
1100
0000
,
0001
0010
0100
0000
1100
0000
0010
0000
0100
0000
0001
1000
0010
0000
0100
0000
,
0010
0100
0001
0100
0010
0000
1000
0000
0100
0000
0010
0001
0010
0000
0100
0000
,
1000
0001
0010
0001
1000
0000
0010
0000
1000
0010
0100
0010
1000
0000
0001
0000
,
0010
0001
0100
0001
0010
0000
0100
0000
1000
0010
0100
0010
1000
0000
0001
0000
,
1000
0100
0010
0001
0100
0010
0001
0010
0100
1000
0100
0001
0010
0100
1000
0010
,
0001
0010
1000
0100
0010
0001
0100
0010
1000
0001
0100
0000
0110
0000
0010
1000
,
2002
0000
0000
0000
,
0000
0000
0000
0000
0000
0000
0000
0000
0000
0000
00M0
0M00
,
00M0
0000
0000
0000
0M00
0000
0000
0000
0000
00M0
0000
0000
0000
0000
0000
0M00
0000
0000
0000
0000
0000
00M0
0000
0000
0000
0000
0000
0000
0000
0000
0M00
0000
0000
0000
0000
0000
0000
0000
0000
00M0
0000
0000
0000
0000
0000
0000
0000
0000
,
0M00
0000
0000
00M0
0000
0000
0M00
0000
0000
00M0
0000
0000
0000
0000
0000
0000
,
0000
3003
0000
0000
0000
0000
0000
0000
;
