#TITLE:Heart Shaker;
#SUBTITLE:;
#ARTIST:Twice;
#TITLETRANSLIT:;
#SUBTITLETRANSLIT:;
#ARTISTTRANSLIT:;
#GENRE:;
#CREDIT:;
#BANNER:UUIO_1.png;
#BACKGROUND:OI.png;
#LYRICSPATH:;
#CDTITLE:CDtitle.png;
#MUSIC:TWICE - Heart Shaker.mp3;
#OFFSET:-0.060000;
#SAMPLESTART:53.560001;
#SAMPLELENGTH:12.000000;
#SELECTABLE:YES;
#BPMS:0.000000=163.979996
;
#STOPS:
;
#BGCHANGES:;
#KEYSOUNDS:;
#ATTACKS:;

//---------------dance-single - Blank----------------
#NOTES:
     dance-single:
     Blank:
     Challenge:
     18:
     1.110076,1.067744,0.394678,1.143027,1.363431,1516.000000,1439.000000,77.000000,223.000000,0.000000,0.000000,1.110076,1.067744,0.394678,1.143027,1.363431,1516.000000,1439.000000,77.000000,223.000000,0.000000,0.000000:
0000
0000
0000
0000
0000
0000
0000
0000
0000
1000
0000
0001
0000
0010
0000
0001
0000
2000
0000
3000
0000
0000
0000
0000
,
1100
0010
0001
0101
0100
0010
1010
1000
,
1100
1000
0100
0110
0010
0001
0011
0001
,
1000
0001
0010
0100
0020
0030
0100
0010
,
1000
0001
2000
3000
0022
0033
2200
3300
,
2100
0100
3100
0210
0010
0310
0021
0031
,
0102
0100
0103
0120
0100
0130
2010
3010
,
1000
0001
1000
0100
0010
0100
1000
0100
0010
0001
1000
0001
1000
0100
0010
0001
,
1000
0001
2200
3300
0022
0033
0220
0330
,
1000
0001
0110
0010
1000
0001
0101
0100
,
0010
1000
1100
0100
0010
0001
1001
0100
,
0010
1000
0101
0001
0010
0100
1100
1000
,
0100
0010
0011
1000
0001
0100
1001
0001
,
1000
0001
1000
0010
1000
0000
0001
0000
0010
0000
0100
0000
1000
0000
0001
0000
,
0100
0010
1000
0001
1000
0000
0010
0000
1000
0000
0001
0000
0010
0000
0100
0000
,
1000
0100
0010
0100
1000
0000
0001
0000
0010
0000
0001
0000
1001
0000
0100
0000
,
1000
0001
0110
2000
3000
1100
0011
1001
,
0220
0330
1000
0000
0011
0000
0001
0000
0010
0000
0100
0000
1100
0000
0100
0000
,
0010
0001
1001
0010
1000
0001
0110
1000
,
0001
0100
0101
0001
0100
0010
1010
1000
,
0100
1000
1100
0010
0001
0010
0011
1000
,
0001
0010
0001
1000
0001
0000
1000
0000
0010
0000
1000
0000
0001
0000
1000
0000
,
0010
1000
0001
1000
0100
0000
1000
0000
0001
0000
0010
0000
0001
0000
1000
0000
,
0002
0023
0230
2300
3002
2003
3002
0203
0320
0230
0302
2003
3002
2003
3200
0320
,
0230
2300
3200
0320
0032
2003
3200
0320
0230
2300
3200
0320
0032
2003
3002
0203
,
0320
0030
1000
0000
0001
0000
0010
0000
0110
0000
0002
0000
0003
0000
1000
0000
,
0001
0010
0001
1000
0110
0001
1000
0010
,
1000
0001
0010
0100
1001
0020
0030
1000
,
0001
0010
0001
1000
1100
1000
0100
0010
,
0001
0010
0100
1000
0110
0002
0003
1000
,
0100
0010
0100
1000
0002
0000
0000
0003
,
1000
0200
0300
0010
0001
1000
0001
0100
,
0002
0000
0003
0000
2000
0000
3000
0000
0020
0030
2000
0000
3000
0000
0001
0000
,
2000
3001
0100
0010
1000
0100
0010
0100
1000
0001
0100
0010
0100
0001
1000
0100
,
1000
0001
0010
0001
1000
0100
1000
0100
0010
0001
0010
0100
1000
0001
1000
0001
,
0100
0010
0100
0001
1000
0010
1000
0010
0100
0001
1000
0001
1000
0100
0010
0100
,
1000
0001
1000
0100
0010
0001
0010
0100
1000
0001
1000
0100
0010
0001
1000
0100
,
2000
3001
1000
0100
0010
0001
1000
0100
1000
0010
0100
0001
0100
0010
1000
0100
,
1000
0010
0100
0001
0100
0010
1000
0001
1000
0100
0010
0100
1000
0100
0010
0001
,
1000
0100
0010
0100
1000
0100
0010
0001
1000
0100
0010
0100
1000
0001
0010
0100
,
1000
0100
0010
0100
1000
0001
0010
0100
1000
0010
0100
0010
1000
0010
0100
0001
,
2000
3010
0100
0010
1000
0010
1000
0001
1000
0001
0100
0010
1000
0100
0010
0100
,
1000
0001
0100
0010
0100
0001
1000
0100
1000
0001
0010
0001
1000
0100
1000
0100
,
0010
0001
0010
0100
1000
0001
1000
0001
0100
0010
0100
0001
1000
0010
1000
0010
,
0100
0001
1000
0001
1000
0100
0010
0100
1000
0001
1000
0100
0010
0001
0010
0100
,
2000
3001
1000
0100
0010
0001
1000
0100
1000
0001
1000
0100
0010
0001
1000
0100
,
1000
0010
0100
0001
0100
0010
1000
0100
1000
0010
0100
0001
0100
0010
1000
0001
,
1000
0100
0010
0100
1000
0100
0010
0001
1000
0100
0010
0100
1000
0100
0010
0001
,
1000
0100
0010
0100
1000
0001
0010
0100
1000
0100
0010
0100
1000
0001
0010
0100
,
1000
0010
0100
0001
1000
0100
0010
0001
,
2000
3002
2003
3200
0320
0230
2300
3200
0320
0032
2003
3200
0320
0230
2300
3200
,
0320
0030
2002
3003
0220
0000
0000
0330
,
0001
1000
0011
0001
0010
0100
1100
0100
,
0010
0001
1001
0010
1000
0001
0110
1000
,
0001
0100
0101
0001
0100
0010
1010
1000
,
0100
1000
1100
0010
0001
0010
0011
1000
,
0001
0010
0001
1000
0001
0000
1000
0000
0010
0000
1000
0000
0001
0000
1000
0000
,
0100
0010
0100
0000
1000
0000
0001
0100
0001
0000
0100
0000
0001
0000
1000
0000
,
0002
0023
0230
2300
3002
2003
3002
0203
0320
0230
0302
2003
3002
2003
3200
0320
,
0230
2300
3200
0320
0032
2003
3200
0320
0230
2300
3200
0320
0032
2003
3002
0203
,
0320
0030
1000
0000
0001
0000
0010
0000
0110
0000
0002
0000
0003
0000
1000
0000
,
0001
0010
0001
1000
0110
0001
1000
0010
,
1000
0001
0010
0100
1001
0020
0030
1000
,
0001
0010
0001
1000
1100
1000
0100
0010
,
0001
0010
0100
1000
0110
0002
0003
1000
,
0100
0010
0100
1000
0002
0000
0000
0003
,
1000
0200
0300
0010
0001
1000
0001
0100
,
0002
0000
0003
0000
2000
0000
3000
0000
0020
0030
2000
0000
3000
0000
0001
0000
,
2000
3001
0100
0010
1000
0100
0010
0100
1000
0001
0100
0010
0100
0001
1000
0100
,
1000
0001
0010
0001
1000
0100
1000
0100
0010
0001
0010
0100
1000
0001
1000
0001
,
0100
0010
0100
0001
1000
0010
1000
0010
0100
0001
1000
0001
1000
0100
0010
0100
,
1000
0001
1000
0100
0010
0001
0010
0100
1000
0001
1000
0100
0010
0001
1000
0100
,
2000
3001
1000
0100
0010
0001
1000
0100
1000
0010
0100
0001
0100
0010
1000
0100
,
1000
0010
0100
0001
0100
0010
1000
0001
1000
0100
0010
0100
1000
0100
0010
0001
,
1000
0100
0010
0100
1000
0100
0010
0001
1000
0100
0010
0100
1000
0001
0010
0100
,
1000
0100
0010
0100
1000
0001
0010
0100
1000
0010
0100
0010
1000
0010
0100
0001
,
2000
3010
0100
0010
1000
0010
1000
0001
1000
0001
0100
0010
1000
0100
0010
0100
,
1000
0001
0100
0010
0100
0001
1000
0100
1000
0001
0010
0001
1000
0100
1000
0100
,
0010
0001
0010
0100
1000
0001
1000
0001
0100
0010
0100
0001
1000
0010
1000
0010
,
0100
0001
1000
0001
1000
0100
0010
0100
1000
0001
1000
0100
0010
0001
0010
0100
,
2000
3001
1000
0100
0010
0001
1000
0100
1000
0001
1000
0100
0010
0001
1000
0100
,
1000
0010
0100
0001
0100
0010
1000
0100
1000
0010
0100
0001
0100
0010
1000
0001
,
1000
0100
0010
0100
1000
0100
0010
0001
1000
0100
0010
0100
1000
0100
0010
0001
,
1000
0100
0010
0100
1000
0001
0010
0100
1000
0100
0010
0100
1000
0001
0010
0100
,
1000
0001
1000
0010
0100
0001
1000
0001
,
2200
3300
0220
0330
0202
0303
0001
2000
,
3000
0000
0000
0000
0022
0000
0000
0000
0000
0000
0033
0000
0000
2200
0000
0000
0000
0000
0000
0000
3300
0000
0000
0000
0000
0000
2020
0000
0000
0000
3030
0000
,
0000
0202
0000
0303
0000
1000
0000
0200
0000
0000
0000
0000
0000
0300
0000
0001
,
0000
0010
0000
0100
0000
0000
0000
2200
0000
3300
0000
0220
0000
0330
0000
0022
,
0000
0000
0000
0000
0000
0000
0000
0033
0000
0000
0100
0000
0010
0000
0001
0000
,
1000
0000
0001
0100
0000
0010
0000
1000
,
0100
0000
0000
0001
0000
1000
0000
0001
,
2000
0000
0000
0000
3000
0022
0033
2200
,
0000
0000
0000
0000
3300
0010
0100
0001
,
2000
3000
0202
0303
0200
0300
2002
3003
,
1000
0200
0300
2002
3003
1000
0100
1000
,
0002
0003
0220
0330
2000
3000
0202
0303
,
0001
0200
0300
2020
3030
1000
0001
0010
,
0200
2300
3200
0302
0203
2300
3020
0032
,
0023
2030
3200
2300
3002
0023
0032
2003
,
3002
0023
0230
2300
3002
2003
3002
0203
0320
0230
0302
2003
3020
2030
3020
0230
,
0302
0000
0003
0000
2000
0000
3000
0000
0020
0030
2000
0000
3000
0000
0001
0000
,
2000
3001
0100
0010
1000
0100
0010
0100
1000
0001
0100
0010
0100
0001
1000
0100
,
1000
0001
0010
0001
1000
0100
1000
0100
0010
0001
0010
0100
1000
0001
1000
0001
,
0100
0010
0100
0001
1000
0010
1000
0010
0100
0001
1000
0001
1000
0100
0010
0100
,
1000
0001
1000
0100
0010
0001
0010
0100
1000
0001
1000
0100
0010
0001
1000
0100
,
2000
3001
1000
0100
0010
0001
1000
0100
1000
0010
0100
0001
0100
0010
1000
0100
,
1000
0010
0100
0001
0100
0010
1000
0001
1000
0100
0010
0100
1000
0100
0010
0001
,
1000
0100
0010
0100
1000
0100
0010
0001
1000
0100
0010
0100
1000
0001
0010
0100
,
1000
0100
0010
0100
1000
0001
0010
0100
1000
0010
0100
0010
1000
0010
0100
0001
,
2000
3010
0100
0010
1000
0010
1000
0001
1000
0001
0100
0010
1000
0100
0010
0100
,
1000
0001
0100
0010
0100
0001
1000
0100
1000
0001
0010
0001
1000
0100
1000
0100
,
0010
0001
0010
0100
1000
0001
1000
0001
0100
0010
0100
0001
1000
0010
1000
0010
,
0100
0001
1000
0001
1000
0100
0010
0100
1000
0001
1000
0100
0010
0001
0010
0100
,
2000
3001
1000
0100
0010
0001
1000
0100
1000
0001
1000
0100
0010
0001
1000
0100
,
1000
0010
0100
0001
0100
0010
1000
0100
1000
0010
0100
0001
0100
0010
1000
0001
,
1000
0100
0010
0100
1000
0100
0010
0001
1000
0100
0010
0100
1000
0100
0010
0001
,
1000
0100
0010
0100
1000
0001
0010
0100
1000
0100
0010
0100
1000
0001
0010
0100
,
2000
3001
0100
0010
1000
0100
0010
0100
1000
0001
0100
0010
0100
0001
1000
0100
,
1000
0001
0010
0001
1000
0100
1000
0100
0010
0001
0010
0100
1000
0001
1000
0001
,
0100
0010
0100
0001
1000
0010
1000
0010
0100
0001
1000
0001
1000
0100
0010
0100
,
1000
0001
1000
0100
0010
0001
0010
0100
1000
0001
1000
0100
0010
0001
1000
0100
,
2000
3001
1000
0100
0010
0001
1000
0100
1000
0010
0100
0001
0100
0010
1000
0100
,
1000
0010
0100
0001
0100
0010
1000
0001
1000
0100
0010
0100
1000
0100
0010
0001
,
1000
0100
0010
0100
1000
0100
0010
0001
1000
0100
0010
0100
1000
0001
0010
0100
,
1000
0100
0010
0100
1000
0001
0010
0100
1000
0010
0100
0010
1000
0010
0100
0001
,
2000
3000
0000
0000
;

//---------------dance-single - Blank----------------
#NOTES:
     dance-single:
     Blank:
     Hard:
     14:
     0.746885,0.776541,0.466437,0.871366,0.056382,1020.000000,929.000000,91.000000,170.000000,0.000000,0.000000,0.746885,0.776541,0.466437,0.871366,0.056382,1020.000000,929.000000,91.000000,170.000000,0.000000,0.000000:
// measure 0
0000
0000
0000
0000
0000
0000
0000
0000
0000
1000
0000
0001
0000
0010
0000
0001
0000
2000
0000
3000
0000
0000
0000
0000
,  // measure 1
1100
0010
0001
0101
0100
0010
1010
1000
,  // measure 2
1100
1000
0100
0110
0010
0001
0101
0001
,  // measure 3
1000
0001
0010
0100
0020
0030
0100
0010
,  // measure 4
1000
0001
2000
3000
0022
0033
2200
3300
,  // measure 5
2100
0100
3100
0210
0010
0310
0021
0031
,  // measure 6
0102
0100
0103
0120
0100
0130
2010
3010
,  // measure 7
1000
0100
1000
0010
0100
1000
0001
1000
,  // measure 8
0100
0001
2200
3300
0022
0033
0220
0330
,  // measure 9
1000
0001
0110
0010
1000
0001
0101
0100
,  // measure 10
0010
1000
1100
0100
0010
0001
1001
0100
,  // measure 11
0010
1000
0101
0001
0010
0100
1100
1000
,  // measure 12
0100
0010
0011
1000
0001
0100
1001
0001
,  // measure 13
1000
0100
1010
0001
0010
0100
1001
0001
,  // measure 14
0100
0010
1100
1000
0001
1000
0110
0100
,  // measure 15
1000
0010
1001
0001
0010
0001
1001
0100
,  // measure 16
1000
0001
0110
2000
3000
1000
0011
1001
,  // measure 17
0220
0330
1000
0000
0011
0000
0001
0000
0010
0000
0100
0000
1100
0000
0100
0000
,  // measure 18
0010
0001
1001
0010
1000
0001
0110
1000
,  // measure 19
0001
0100
0101
0001
0100
0010
1010
1000
,  // measure 20
0100
1000
1100
0010
0001
0010
0011
1000
,  // measure 21
0001
0100
0101
1000
0010
1000
0011
1000
,  // measure 22
0010
1000
0110
1000
0001
0010
0001
1000
,  // measure 23
0002
0023
0230
0320
0032
2003
3200
0320
,  // measure 24
0230
2300
3002
0203
0320
2030
3002
0203
,  // measure 25
0310
1000
0001
0010
0110
0002
0003
1000
,  // measure 26
0001
0010
0001
1000
0110
0001
1000
0010
,  // measure 27
1000
0001
0010
0100
1001
0020
0030
1000
,  // measure 28
0001
0010
0001
1000
1100
1000
0100
0010
,  // measure 29
0001
0010
0100
1000
0110
0002
0003
1000
,  // measure 30
0100
0010
0100
1000
0002
0000
0000
0003
,  // measure 31
1000
0200
0300
0010
0001
1000
0001
0100
,  // measure 32
0002
0003
2000
3000
0020
2030
3000
0001
,  // measure 33
2000
3000
0100
0000
0001
0000
0100
0000
1000
0000
0010
0000
0001
0000
0010
0000
,  // measure 34
1000
0100
1000
0001
0100
0001
1000
0100
,  // measure 35
0010
0001
0010
0100
1000
0010
1000
0001
,  // measure 36
0100
0001
0100
0010
0100
0001
1000
0100
,  // measure 37
0020
0030
0100
0000
0010
0000
0001
0000
0010
0000
0100
0000
0010
0000
0001
0000
,  // measure 38
1000
0100
0010
0100
1000
0001
1000
0010
,  // measure 39
0100
0001
1000
0010
0100
0010
1000
0001
,  // measure 40
0100
0010
1000
0001
1000
0010
0100
0001
,  // measure 41
2000
3000
0100
0000
0010
0000
0001
0000
0010
0000
0100
0000
1000
0000
0100
0000
,  // measure 42
0010
0001
0100
0001
1000
0010
1000
0001
,  // measure 43
0010
0001
1000
0100
1000
0010
0100
0001
,  // measure 44
0100
0010
1000
0100
1000
0010
0100
0001
,  // measure 45
0020
0030
0100
0000
1000
0000
0001
0000
0010
0000
0001
0000
1000
0000
0100
0000
,  // measure 46
1000
0010
1000
0010
0100
0001
0100
1000
,  // measure 47
0100
0001
0010
1000
0010
0001
0010
0001
,  // measure 48
1000
0010
1000
0001
0010
0100
1000
0100
,  // measure 49
1100
0010
0100
0001
1000
0100
0010
0001
,  // measure 50
1000
0100
1000
0000
0001
0010
0001
0000
1000
0010
1000
0000
0001
0100
0001
0000
,  // measure 51
2200
3300
2002
3003
0220
0000
0000
0330
,  // measure 52
0001
1000
0011
0001
0010
0100
1100
0100
,  // measure 53
0010
0001
1001
0010
1000
0001
0110
1000
,  // measure 54
0001
0100
0101
0001
0100
0010
1010
1000
,  // measure 55
0100
1000
1100
0010
0001
0010
0011
1000
,  // measure 56
0001
0100
0101
1000
0010
1000
0011
1000
,  // measure 57
0010
1000
0110
1000
0001
0010
0001
1000
,  // measure 58
0002
0023
0230
0320
0032
2003
3200
0320
,  // measure 59
0230
2300
3002
0203
0320
2030
3002
0203
,  // measure 60
0310
1000
0001
0010
0110
0002
0003
1000
,  // measure 61
0001
0010
0001
1000
0110
0001
1000
0010
,  // measure 62
1000
0001
0010
0100
1001
0020
0030
1000
,  // measure 63
0001
0010
0001
1000
1100
1000
0100
0010
,  // measure 64
0001
0010
0100
1000
0110
0002
0003
1000
,  // measure 65
0100
0010
0100
1000
0002
0000
0000
0003
,  // measure 66
1000
0200
0300
0010
0001
1000
0001
0100
,  // measure 67
0002
0003
2000
3000
0020
2030
3000
0001
,  // measure 68
2000
3000
0100
0000
0001
0000
0100
0000
1000
0000
0010
0000
0001
0000
0010
0000
,  // measure 69
1000
0100
1000
0001
0100
0001
1000
0100
,  // measure 70
0010
0001
0010
0100
1000
0010
1000
0001
,  // measure 71
0100
0001
0100
0010
0100
0001
1000
0100
,  // measure 72
0020
0030
0100
0000
0010
0000
0001
0000
0010
0000
0100
0000
0010
0000
0001
0000
,  // measure 73
1000
0100
0010
0100
1000
0001
1000
0010
,  // measure 74
0100
0001
1000
0010
0100
0010
1000
0001
,  // measure 75
0100
0010
1000
0001
1000
0010
0100
0001
,  // measure 76
2000
3000
0100
0000
0010
0000
0001
0000
0010
0000
0100
0000
1000
0000
0100
0000
,  // measure 77
0010
0001
0100
0001
1000
0010
1000
0001
,  // measure 78
0010
0001
1000
0100
1000
0010
0100
0001
,  // measure 79
0100
0010
1000
0100
1000
0010
0100
0001
,  // measure 80
0020
0030
0100
0000
1000
0000
0001
0000
0010
0000
0001
0000
1000
0000
0100
0000
,  // measure 81
1000
0010
1000
0010
0100
0001
0100
1000
,  // measure 82
0100
0001
0010
1000
0010
0001
0010
0001
,  // measure 83
1000
0010
1000
0001
0010
0100
1000
0100
,  // measure 84
1100
0010
0100
0001
1000
0100
0010
0001
,  // measure 85
2200
3300
0220
0330
0202
0303
0001
2000
,  // measure 86
3000
0000
0000
0000
0022
0000
0000
0000
0033
0000
0000
0000
0000
2200
0000
0000
0000
0000
0000
3300
0000
0000
0000
0000
0000
0000
2200
0000
0000
0000
3300
0000
,  // measure 87
0000
0202
0000
0303
0000
1000
0000
0200
0000
0000
0000
0000
0000
0300
0000
0001
,  // measure 88
0000
0010
0000
0100
0000
0000
0000
2200
0000
3300
0000
0220
0000
0330
0000
0022
,  // measure 89
0000
0000
0000
0000
0033
0100
0010
0001
,  // measure 90
1000
0000
0001
0100
0000
0010
0000
1000
,  // measure 91
0100
0000
0000
0001
0000
1000
0000
0001
,  // measure 92
2000
0000
0000
0000
3000
0022
0033
2200
,  // measure 93
0000
0000
0000
0000
3300
0010
0100
0001
,  // measure 94
2000
3000
0202
0303
0200
0300
2002
3003
,  // measure 95
1000
0200
0300
2002
3003
1000
0100
1000
,  // measure 96
0002
0003
0220
0330
2000
3000
0202
0303
,  // measure 97
0001
0200
0300
2020
3030
1000
0001
0010
,  // measure 98
0200
2300
3200
0302
0203
2300
3020
0032
,  // measure 99
0023
2030
3200
2300
3002
0023
0032
2003
,  // measure 100
3002
0203
0302
0003
2000
3020
2030
3000
0200
0320
0230
0300
0020
0032
0023
0030
,  // measure 101
0200
0300
2000
3000
0020
2030
3000
0001
,  // measure 102
2000
3000
0100
0000
0001
0000
0100
0000
1000
0000
0010
0000
0001
0000
0010
0000
,  // measure 103
1000
0100
1000
0001
0100
0001
1000
0100
,  // measure 104
0010
0001
0010
0100
1000
0010
1000
0001
,  // measure 105
0100
0001
0100
0010
0100
0001
1000
0100
,  // measure 106
0020
0030
0100
0000
0010
0000
0001
0000
0010
0000
0100
0000
0010
0000
0001
0000
,  // measure 107
1000
0100
0010
0100
1000
0001
1000
0010
,  // measure 108
0100
0001
1000
0010
0100
0010
1000
0001
,  // measure 109
0100
0010
1000
0001
1000
0010
0100
0001
,  // measure 110
2000
3000
0100
0000
0010
0000
0001
0000
0010
0000
0100
0000
1000
0000
0100
0000
,  // measure 111
0010
0001
0100
0001
1000
0010
1000
0001
,  // measure 112
0010
0001
1000
0100
1000
0010
0100
0001
,  // measure 113
0100
0010
1000
0100
1000
0010
0100
0001
,  // measure 114
0020
0030
0100
0000
1000
0000
0001
0000
0010
0000
0001
0000
1000
0000
0100
0000
,  // measure 115
1000
0010
1000
0010
0100
0001
0100
1000
,  // measure 116
0100
0001
0010
1000
0010
0001
0010
0001
,  // measure 117
1000
0010
1000
0001
0010
0100
1000
0100
,  // measure 118
2000
3000
0100
0000
0001
0000
0100
0000
1000
0000
0010
0000
0001
0000
0010
0000
,  // measure 119
1000
0100
1000
0001
0100
0001
1000
0100
,  // measure 120
0010
0001
0010
0100
1000
0010
1000
0001
,  // measure 121
0100
0001
0100
0010
0100
0001
1000
0100
,  // measure 122
0010
0100
0010
0001
0010
0100
0010
0001
,  // measure 123
1000
0100
0010
0100
1000
0001
1000
0010
,  // measure 124
0100
0001
1000
0010
0100
0010
1000
0001
,  // measure 125
0100
0010
1000
0001
1000
0010
0100
0001
,  // measure 126
2200
3300
0000
0000
;

//---------------dance-single - Blank----------------
#NOTES:
     dance-single:
     Blank:
     Edit:
     23:
     1.452032,1.491317,2.588469,1.676098,1.360869,1983.000000,1455.000000,505.000000,327.000000,0.000000,97.000000,1.452032,1.491317,2.588469,1.676098,1.360869,1983.000000,1455.000000,505.000000,327.000000,0.000000,97.000000:
0000
0000
0000
0000
0000
0000
0000
0000
0000
1000
0000
0001
0000
0010
0000
0001
0000
2000
0000
3000
0000
0000
0000
0000
,
1101
0010
0001
1110
0100
0010
0111
1000
,
1011
0100
1000
0111
0010
0001
0111
1001
,
1100
0101
0011
1100
0220
0330
0101
0110
,
1100
0011
2022
3033
0222
0333
2220
3330
,
2110
0110
3110
0211
0011
0311
0021
0031
,
1102
1100
1103
0112
0110
0113
2011
3011
,
1001
0100
0011
1000
0110
1000
0101
0010
1100
0010
0100
1000
0011
1000
0110
1000
,
0101
1011
2220
3330
2022
3033
2202
3303
,
2100
0010
0101
0001
0100
3100
0012
0100
,
1000
0103
0120
1000
0100
0031
0201
0010
,
1000
0310
2100
0010
0001
3100
0021
0001
,
1000
0130
0102
0010
1000
0103
2100
3010
,
0012
0100
1000
0010
1100
0000
0010
0000
1000
0000
0013
0000
2001
0000
3010
0000
,
2100
0010
0001
0100
0011
0000
0010
0000
0100
0000
3001
0000
2100
0000
3010
0000
,
0021
1000
0100
0001
1100
0000
0100
0000
0001
0000
0130
0000
1002
0000
0100
0000
,
0010
0103
1020
0200
0330
0011
1100
0110
,
0012
0100
1010
1000
0010
0013
2100
0010
,
0001
3010
0210
0001
0010
1300
1020
0100
,
0001
0130
0012
0100
1000
0013
1200
1000
,
0001
0310
2010
0100
0001
3010
0012
0103
,
2100
0010
0001
0100
0011
0000
0100
0000
0001
0000
3100
0000
1002
0000
0103
0000
,
0012
0100
1000
0010
1100
0000
0100
0000
0010
0000
1003
0000
0012
0000
0103
0000
,
2200
3320
0032
0023
2032
3203
2320
3230
2300
3020
2230
3302
2023
3230
2300
3200
,
0320
0032
2003
3020
2230
3302
2023
3032
0203
2300
3202
0323
2230
3302
0023
0230
,
2302
3003
0010
0000
0110
0000
1000
0000
2200
3300
0002
0000
0000
0003
1000
0000
,
0011
0000
0100
0000
0110
0000
0001
0000
2002
3003
0100
0000
0010
0000
0001
0000
,
1100
0000
0010
0000
0101
0000
0010
0000
2200
3300
0020
0000
0000
0030
0001
0000
,
0110
0000
0001
0000
1100
0000
0010
0000
0202
0303
0010
0000
0100
0000
1000
0000
,
0110
0000
0001
0000
1010
0000
0100
0000
2002
3003
0020
0000
0000
0000
1030
0000
,
0110
0001
0101
1000
0220
0000
0000
0330
,
0011
0000
0100
0000
0000
0000
0010
0000
2200
3300
0010
0000
0001
0000
1000
0000
,
0222
0333
2220
3330
1100
0022
0033
1100
,
0022
0133
1000
0100
0010
0100
1010
0100
1001
0010
1100
0010
0001
0100
1001
0100
,
0010
0001
0010
0001
0100
1000
0110
0001
1100
0010
0101
1000
0011
0100
0011
0100
,
1010
0100
0010
1000
0101
0010
1001
0010
0100
1000
0101
0010
1000
0001
1100
0010
,
0100
1000
0010
0100
0011
0100
0010
0001
1000
0100
1010
0100
0011
0100
1010
0100
,
0022
1033
0100
0010
1100
0001
0110
0001
0010
0100
1001
0100
0010
1000
0100
0010
,
1001
0100
0011
1000
0110
0001
0010
0100
1010
0100
0011
1000
0101
0010
1001
0010
,
1100
0010
1000
0100
0011
1000
0011
0100
0010
1000
0101
0010
1100
0010
1000
0100
,
0011
1000
0010
0001
1100
0010
0001
1000
0011
1000
0110
0001
1000
0100
0011
0100
,
2002
3013
0100
1000
0100
0010
1001
0100
1010
0100
0011
0100
0010
0001
1100
0010
,
0100
0001
1000
0100
0010
1000
0101
1000
0110
0001
1100
0010
0101
0010
1100
0001
,
0110
1000
0101
0010
0101
0010
1100
0010
0001
1000
0101
0010
0100
0001
1010
0100
,
0010
1000
0100
0010
1001
0010
0001
0010
1100
0001
0110
1000
0110
0001
1100
0010
,
0101
0010
0001
0010
1001
0100
0010
1000
0101
1000
0110
0001
1010
0100
0011
1000
,
0110
0001
0010
0100
1001
0100
0010
0001
1010
0001
0110
0001
1100
0010
1001
0100
,
0010
0001
0010
0100
1001
0010
0101
0010
0100
1000
0101
0010
1100
0010
0101
1000
,
0100
0010
1000
0001
0110
0001
0010
0100
1000
0100
1000
0001
0110
0001
0010
0001
,
1100
0110
0011
1001
0011
0110
1100
0011
,
0200
0320
2030
3002
0223
0332
2003
3200
2300
3020
0230
0302
2023
3032
0023
0230
,
2302
3003
2200
3300
0022
0000
0000
0033
,
2100
0010
0101
0001
0100
3100
0012
0100
,
1000
0103
0120
1000
0100
0031
0201
0010
,
1000
0310
2100
0010
0001
3100
0021
0001
,
1000
0130
0102
0010
1000
0103
2100
3010
,
0012
0100
1000
0010
1100
0000
0010
0000
1000
0000
0013
0000
2001
0000
3010
0000
,
2100
0010
0001
0100
0011
0000
0010
0000
0100
0000
3001
0000
2100
0000
3010
0000
,
0022
0233
2300
3200
2302
3023
0232
0323
0032
0203
0322
2033
3202
0323
0032
0023
,
0230
2300
3002
0203
0322
2033
3202
2303
3020
0032
2023
3230
0322
2033
3200
0320
,
2032
3003
0100
0000
0110
0000
0001
0000
0022
0033
2000
0000
0000
3000
0001
0000
,
1100
0000
0010
0000
0110
0000
1000
0000
2002
3003
0010
0000
0100
0000
1000
0000
,
0011
0000
0100
0000
1010
0000
0100
0000
0022
0033
0200
0000
0000
0300
1000
0000
,
0110
0000
1000
0000
0011
0000
0100
0000
2020
3030
0100
0000
0010
0000
0001
0000
,
0110
0000
1000
0000
0101
0000
0010
0000
2002
3003
0200
0000
0000
0000
0301
0000
,
0110
1000
1010
0001
0220
0000
0000
0330
,
1100
0000
0010
0000
0000
0000
0100
0000
0022
0033
0100
0000
1000
0000
0001
0000
,
2220
3330
0222
0333
0011
2200
3300
0011
,
2200
3310
0001
0010
0100
0010
0101
0010
1001
0100
0011
0100
1000
0010
1001
0010
,
0100
1000
0100
1000
0010
0001
0110
1000
0011
0100
1010
0001
1100
0010
1100
0010
,
0101
0010
0100
0001
1010
0100
1001
0100
0010
0001
1010
0100
0001
1000
0011
0100
,
0010
0001
0100
0010
1100
0010
0100
1000
0001
0010
0101
0010
1100
0010
0101
0010
,
2200
3301
0010
0100
0011
1000
0110
1000
0100
0010
1001
0010
0100
0001
0010
0100
,
1001
0010
1100
0001
0110
1000
0100
0010
0101
0010
1100
0001
1010
0100
1001
0100
,
0011
0100
0001
0010
1100
0001
1100
0010
0100
0001
1010
0100
0011
0100
0001
0010
,
1100
0001
0100
1000
0011
0100
1000
0001
1100
0001
0110
1000
0001
0010
1100
0010
,
2002
3103
0010
0001
0010
0100
1001
0010
0101
0010
1100
0010
0100
1000
0011
0100
,
0010
1000
0001
0010
0100
0001
1010
0001
0110
1000
0011
0100
1010
0100
0011
1000
,
0110
0001
1010
0100
1010
0100
0011
0100
1000
0001
1010
0100
0010
1000
0101
0010
,
0100
0001
0010
0100
1001
0100
1000
0100
0011
1000
0110
0001
0110
1000
0011
0100
,
1010
0100
1000
0100
1001
0010
0100
0001
1010
0001
0110
1000
0101
0010
1100
0001
,
0110
1000
0100
0010
1001
0010
0100
1000
0101
1000
0110
1000
0011
0100
1001
0010
,
0100
1000
0100
0010
1001
0100
1010
0100
0010
0001
1010
0100
0011
0100
1010
0001
,
0010
0100
0001
1000
0110
1000
0100
0010
0001
0010
0001
1000
0110
1000
0100
1000
,
0011
0110
1100
1001
1100
0110
0011
1001
,
2200
3300
0220
0330
0022
0033
1001
2020
,
3030
0000
0000
0000
0022
0000
0000
0000
0033
0000
0000
0000
0000
2200
0000
0000
0000
0000
0000
0000
3300
0000
0000
0000
0000
0000
2200
0000
0000
0000
3300
0000
,
0000
0202
0000
0303
0000
1000
0000
0200
0000
0000
0000
0000
0300
0000
0000
0001
,
0000
0010
0000
0200
0000
0300
0000
2200
0000
3300
0000
0220
0000
0330
0000
0000
,
0011
1000
0001
0010
1000
0110
1010
0011
,
2010
3100
0011
0101
1000
0110
0001
1010
,
0002
0100
0013
2001
3100
2010
3100
0011
,
2100
0010
0100
3001
0100
0012
0103
2200
,
0000
0000
0000
0000
3300
0100
0010
0001
,
1100
0000
0110
0000
0022
0033
1100
0000
,
0001
0010
0000
2200
3300
0001
1000
0010
,
1100
0000
0110
0000
0022
0033
1100
0000
,
0001
1000
0000
0220
0330
1000
0100
0010
,
0002
0023
0230
2300
3220
2330
3002
0023
,
0230
2300
3002
0023
2032
3203
0320
0032
,
2003
3200
2300
3020
0230
0302
0023
2030
3200
2300
3020
0230
2300
3002
0023
0032
,
2003
3000
0000
0000
2220
0000
3330
0000
1100
0000
0022
0000
0033
0000
1100
0000
,
0022
0133
1000
0100
0010
0100
1010
0100
1001
0010
1100
0010
0001
0100
1001
0100
,
0010
0001
0010
0001
0100
1000
0110
0001
1100
0010
0101
1000
0011
0100
0011
0100
,
1010
0100
0010
1000
0101
0010
1001
0010
0100
1000
0101
0010
1000
0001
1100
0010
,
0100
1000
0010
0100
0011
0100
0010
0001
1000
0100
1010
0100
0011
0100
1010
0100
,
0022
1033
0100
0010
1100
0001
0110
0001
0010
0100
1001
0100
0010
1000
0100
0010
,
1001
0100
0011
1000
0110
0001
0010
0100
1010
0100
0011
1000
0101
0010
1001
0010
,
1100
0010
1000
0100
0011
1000
0011
0100
0010
1000
0101
0010
1100
0010
1000
0100
,
0011
1000
0010
0001
1100
0010
0001
1000
0011
1000
0110
0001
1000
0100
0011
0100
,
2002
3013
0100
1000
0100
0010
1001
0100
1010
0100
0011
0100
0010
0001
1100
0010
,
0100
0001
1000
0100
0010
1000
0101
1000
0110
0001
1100
0010
0101
0010
1100
0001
,
0110
1000
0101
0010
0101
0010
1100
0010
0001
1000
0101
0010
0100
0001
1010
0100
,
0010
1000
0100
0010
1001
0010
0001
0010
1100
0001
0110
1000
0110
0001
1100
0010
,
0101
0010
0001
0010
1001
0100
0010
1000
0101
1000
0110
0001
1010
0100
0011
1000
,
0110
0001
0010
0100
1001
0100
0010
0001
1010
0001
0110
0001
1100
0010
1001
0100
,
0010
0001
0010
0100
1001
0010
0101
0010
0100
1000
0101
0010
1100
0010
0101
1000
,
0100
0010
1000
0001
0110
0001
1010
0100
1001
0100
1010
0001
0110
1000
0001
0010
,
2200
3310
0001
0010
1000
0100
0011
0100
1000
0010
0100
0010
1001
0010
0100
0010
,
1001
0100
1000
0010
0100
0001
0110
1000
0001
0010
0100
1000
0101
0010
0100
0001
,
1010
0100
1000
0100
0011
0100
0001
0010
1100
0010
0100
0001
1010
0100
0010
0001
,
1010
0100
0010
1000
0101
0010
0001
0100
1010
0100
1000
0100
0011
0100
0010
0001
,
1100
0010
0100
1000
0001
0010
0101
0010
1000
0100
0010
0100
1001
0010
1000
0100
,
0011
0100
1000
0100
1010
0001
0010
0100
1001
0100
1010
0100
0001
0010
0101
0010
,
1000
0100
1000
0100
1010
0001
0110
1000
0100
0010
0101
0010
1100
0010
0101
0010
,
0100
1000
0100
0010
0001
0010
1100
0010
1100
0010
0101
0010
1001
0010
0101
1000
,
0220
0000
0330
0000
;
