#TITLE:Fancy;
#SUBTITLE:;
#ARTIST:Twice;
#TITLETRANSLIT:;
#SUBTITLETRANSLIT:;
#ARTISTTRANSLIT:;
#GENRE:;
#CREDIT:;
#BANNER:fan 2.png;
#BACKGROUND:FABCI.png;
#LYRICSPATH:;
#CDTITLE:cdtitle.png;
#MUSIC:TWICE - Fancy.mp3;
#OFFSET:-0.316405;
#SAMPLESTART:35.042999;
#SAMPLELENGTH:12.000000;
#SELECTABLE:YES;
#BPMS:0.000000=132.000000
;
#STOPS:
;
#BGCHANGES:;
#KEYSOUNDS:;
#ATTACKS:;

//---------------dance-single - Blank----------------
#NOTES:
     dance-single:
     Blank:
     Challenge:
     18:
     1.010719,0.932096,0.629617,1.096000,1.361839,1517.000000,1382.000000,135.000000,235.000000,0.000000,3.000000,1.010719,0.932096,0.629617,1.096000,1.361839,1517.000000,1382.000000,135.000000,235.000000,0.000000,3.000000:
0000
0000
1100
0000
0001
0000
0000
0000
0220
0000
0000
0000
0000
0330
0000
0000
,
1000
0100
0010
0100
1000
0001
0010
2200
,
3300
0000
1001
0000
0100
0000
0000
0000
0202
0000
0000
0000
0000
0303
0000
0000
,
0001
0010
0100
0010
0001
1000
0100
0022
,
0033
1010
0100
0000
0220
0330
2002
3003
,
1000
0001
0010
0100
1000
0100
0010
2002
,
3003
1100
0100
0110
0010
0011
0001
0101
,
0001
0000
1000
0010
0100
0001
1000
0100
0010
0001
1000
0010
0100
0010
1000
0000
,
0010
0000
0101
0000
0000
0001
0000
0000
1100
0000
0001
0000
0000
0110
0000
0000
,
1000
0000
0101
0000
0000
0001
0000
0000
0110
0000
2000
0000
0000
3000
0010
0000
,
0101
0000
1000
0000
0000
0110
0000
0000
1000
0000
0001
0000
0000
1100
0000
0000
,
0001
0000
0110
0000
0000
1000
0000
0000
0001
0000
2020
0000
0000
0000
3030
0000
,
0001
0010
0100
0000
0000
1001
0000
0000
1000
0000
0011
0000
0000
0001
0000
0000
,
1000
0000
0011
0000
0000
0110
0000
0000
2200
0000
3300
0000
0001
0000
1000
0000
,
0001
0000
0110
0000
0000
0101
0000
0000
2200
0000
3300
0000
0001
0000
0100
0000
,
0001
0000
1000
0100
0010
0001
1000
0010
0100
0010
1000
0001
0100
0010
2200
3300
,
0022
0033
1000
0010
0100
0001
1000
0100
0010
0001
1000
0010
0100
0010
1000
0001
,
0100
0010
1000
0001
0010
0100
1000
0010
0100
0001
2000
3100
2000
3001
0020
0031
,
1000
0100
1000
0001
0100
0010
1000
0100
0010
0001
1000
0010
0100
0010
1000
0001
,
0100
0001
1000
0010
1000
0001
0010
0100
1000
0010
0200
0301
2000
3100
0020
0031
,
1000
0100
0010
0100
1000
0001
0100
0010
1000
0100
0010
0001
1000
0100
0010
0001
,
1000
0001
1000
0001
1000
0010
1000
0100
0010
0100
2000
3001
0200
0301
2000
3010
,
0100
0010
1000
0010
0100
0001
1000
0100
0010
0001
1000
0010
0100
0010
1000
0001
,
0100
0010
1000
0001
0010
0100
1000
0010
0100
0001
1000
0100
1000
0001
1000
0001
,
0010
0100
1001
0000
0100
0000
0011
0000
1000
0000
0110
0000
2002
0000
3003
0000
,
1100
0010
0001
0110
0100
1000
0001
0110
,
0010
1000
0001
2200
3300
0010
0100
1000
,
0022
0033
1000
0010
1001
1100
0110
0022
,
0033
1001
0010
1100
0001
1000
0001
0100
,
0010
0100
0010
0000
1000
0000
0100
0000
1000
0001
1000
0000
0001
0000
0010
0000
,
0100
0000
1000
0000
0100
0000
0010
0000
0001
0000
1000
0000
0010
0000
0100
0000
0001
0000
1000
0100
0010
0000
0001
0000
1000
0000
0010
0000
0100
0000
0010
0000
,
1000
0001
0100
0010
1000
0001
0010
0100
1000
0010
2002
0000
3003
0000
2000
3000
,
0002
0003
1000
0010
0100
0001
1000
0100
0010
0001
1000
0010
0100
0010
1000
0001
,
0100
0010
1000
0001
0010
0100
1000
0010
0100
0001
1000
0100
1000
0001
0010
0001
,
1000
0100
1000
0001
0100
0010
1000
0100
0010
0001
1000
0010
0100
0010
1000
0001
,
0100
0001
1000
0010
1000
0001
0010
0100
1000
0010
0200
0302
2003
3200
0320
0031
,
1000
0100
0010
0100
1000
0001
0100
0010
1000
0100
0010
0001
1000
0010
0100
0001
,
1000
0001
1000
0001
0100
0010
1000
0100
0010
0100
1000
0001
0100
0001
1000
0010
,
0100
0010
1000
0010
0100
0001
1000
0100
0010
0001
1000
0010
0100
0010
1000
0001
,
0100
0010
2000
3002
0023
0230
2300
3020
0230
0302
2003
3200
2300
3002
0223
0330
,
2002
3003
1000
0010
0100
0001
1000
0100
0010
0001
1000
0010
0100
0010
1000
0001
,
0100
0010
1000
0001
0010
0100
1000
0010
0100
0001
1000
0100
1000
0001
0010
0001
,
1000
0100
1000
0001
0100
0010
1000
0100
0010
0001
1000
0010
0100
0010
1000
0001
,
0100
0001
1000
0010
1000
0001
0010
0100
1000
0010
0100
0001
1000
0100
0010
0001
,
1000
0100
0010
0100
1000
0001
0100
0010
1000
0100
0010
0001
1000
0010
0100
0001
,
1000
0001
1000
0001
0100
0010
1000
0100
0010
0100
1000
0001
0100
0001
1000
0010
,
0100
0010
1000
0010
0100
0001
1000
0100
0010
0001
1000
0010
0100
0010
1000
0001
,
0010
0100
2002
0000
3003
0000
2200
0000
3300
0022
0000
0033
0000
0000
0220
0000
,
0330
0000
0000
0000
2200
0000
0000
0000
3300
0000
0022
0000
0000
0000
0033
0000
1000
0100
1000
0100
1000
0000
0000
0000
0110
0000
0000
0000
1000
0000
0000
0000
,
0011
0000
0000
0100
0000
0010
0000
0001
0000
1000
0000
0001
0000
1000
0000
0220
0000
0000
0330
0000
0000
0110
0000
0000
,
1000
0000
0000
0000
0022
0000
0000
0000
0033
0000
2002
0000
0000
0000
3003
0000
0001
0010
0001
0010
0001
0000
0000
0000
0010
0000
0000
0000
1000
0000
0000
0000
,
0100
0000
0010
0002
0000
0003
0001
2000
0000
3000
0110
0000
0001
0000
2200
0000
,
3300
0000
0000
0000
0022
0000
0000
0000
0033
0000
0220
0000
0000
0000
0330
0000
1000
0001
1000
0001
1000
0000
0000
0000
0001
0000
0000
0000
1000
0000
0000
0000
,
0110
0000
0000
0001
0000
0010
0000
0100
0000
1000
0000
0100
0000
0010
0000
0002
0000
0000
0000
0003
0000
1000
0000
0001
,
0000
1000
0000
0002
0000
0000
0000
0003
0000
2000
0000
0000
0000
3000
0000
2000
0000
3200
0000
0320
0000
0032
0000
2003
,
0000
0000
3002
0000
0000
0000
2003
0000
0000
0000
3000
0000
0000
0000
0000
0000
0000
0000
0022
0000
0000
0000
0000
0000
0000
0000
0000
0033
0000
0000
1000
0000
0000
0001
0000
0000
0100
0000
0000
0010
0000
0000
1001
0000
0000
0000
0000
0000
,
0110
0000
1000
0010
0100
0001
1000
0100
0010
0001
1000
0010
0100
0010
1000
0001
,
0100
0010
1000
0001
0010
0100
1000
0010
0100
0001
2000
3100
2000
3001
0020
0031
,
1000
0100
1000
0001
0100
0010
1000
0100
0010
0001
1000
0010
0100
0010
1000
0001
,
0100
0001
1000
0010
1000
0001
0010
0100
1000
0010
0200
0301
2000
3100
0020
0031
,
1000
0100
0010
0100
1000
0001
0100
0010
1000
0100
0010
0001
1000
0100
0010
0001
,
1000
0001
1000
0001
1000
0010
1000
0100
0010
0100
2000
3001
0200
0301
2000
3010
,
0100
0010
1000
0010
0100
0001
1000
0100
0010
0001
1000
0010
0100
0010
1000
0001
,
0100
0010
1000
0001
0010
0100
1000
0010
0100
0001
1000
0100
1000
0001
1000
0001
,
0010
0100
1001
0000
0100
0000
0011
0000
1000
0000
0110
0000
2002
0000
3003
0000
,
1100
0010
0001
0110
0100
1000
0001
0110
,
0010
1000
0001
2200
3300
0010
0100
1000
,
0022
0033
1000
0010
1001
1100
0110
0022
,
0033
1001
0010
1100
0001
1000
0001
0100
,
0010
0100
0010
0000
1000
0000
0100
0000
1000
0001
1000
0000
0001
0000
0010
0000
,
0100
0000
1000
0000
0100
0000
0010
0000
0001
0000
1000
0000
0010
0000
0100
0000
0001
0000
1000
0100
0010
0000
0001
0000
1000
0000
0010
0000
0100
0000
0010
0000
,
1000
0001
0100
0010
1000
0001
0010
0100
1000
0010
2002
0000
3003
0000
2000
3000
,
0002
0003
1000
0010
0100
0001
1000
0100
0010
0001
1000
0010
0100
0010
1000
0001
,
0100
0010
1000
0001
0010
0100
1000
0010
0100
0001
1000
0100
1000
0001
0010
0001
,
1000
0100
1000
0001
0100
0010
1000
0100
0010
0001
1000
0010
0100
0010
1000
0001
,
0100
0001
1000
0010
1000
0001
0010
0100
1000
0010
0200
0302
2003
3200
0320
0031
,
1000
0100
0010
0100
1000
0001
0100
0010
1000
0100
0010
0001
1000
0010
0100
0001
,
1000
0001
1000
0001
0100
0010
1000
0100
0010
0100
1000
0001
0100
0001
1000
0010
,
0100
0010
1000
0010
0100
0001
1000
0100
0010
0001
1000
0010
0100
0010
1000
0001
,
0100
0010
2000
3002
0023
0230
2300
3020
0230
0302
2003
3200
2300
3002
0223
0330
,
2002
3003
1000
0010
0100
0001
1000
0100
0010
0001
1000
0010
0100
0010
1000
0001
,
0100
0010
1000
0001
0010
0100
1000
0010
0100
0001
1000
0100
1000
0001
0010
0001
,
1000
0100
1000
0001
0100
0010
1000
0100
0010
0001
1000
0010
0100
0010
1000
0001
,
0100
0001
1000
0010
1000
0001
0010
0100
1000
0010
0100
0001
1000
0100
0010
0001
,
1000
0100
0010
0100
1000
0001
0100
0010
1000
0100
0010
0001
1000
0010
0100
0001
,
1000
0001
1000
0001
0100
0010
1000
0100
0010
0100
1000
0001
0100
0001
1000
0010
,
0100
0010
1000
0010
0100
0001
1000
0100
0010
0001
1000
0010
0100
0010
1000
0001
,
0010
0100
2002
0000
3003
0000
2200
0000
3300
0022
0000
0033
0000
0000
0220
0000
,
0330
0000
2200
0000
3300
0022
0000
0033
0220
0000
0330
0000
1100
0000
0001
0000
,
1000
0000
0000
0001
0000
0010
0000
0100
0000
2000
0000
0000
0000
0000
0000
0000
0000
0000
3000
0000
0000
0011
0000
0000
,
0100
0000
2200
0000
3300
0001
0000
0000
0110
0000
1000
0000
0000
2020
0000
0000
,
3030
0000
0220
0000
0330
0001
0000
0000
1100
0000
0020
0000
0030
2000
0000
3000
,
0110
0000
0200
0000
0300
2002
0000
3003
0220
0000
0330
0022
0000
0033
1100
0000
,
1000
0000
0000
0001
0000
1000
0000
0100
0000
0020
0000
0000
0000
0000
0000
0000
0000
0000
0030
0000
0000
1000
0000
0000
,
0100
0000
0022
0000
0033
0220
0000
0330
1001
0000
2200
0000
3300
0022
0000
0033
,
1100
0000
2002
0000
3003
0220
0000
0330
0011
0000
2200
0000
3300
0000
2002
0000
,
0000
0000
0000
0000
0000
0000
0000
0000
0000
0000
0000
0000
3003
0000
2002
3003
,
0220
0330
1000
0010
0100
0001
1000
0100
0010
0001
1000
0010
0100
0010
1000
0001
,
0100
0010
1000
0001
0010
0100
1000
0010
0100
0001
1000
0100
1000
0001
0010
0001
,
1000
0100
1000
0001
0100
0010
1000
0100
0010
0001
1000
0010
0100
0010
1000
0001
,
0100
0001
1000
0010
1000
0001
0010
0100
1000
0010
0200
0302
2003
3200
0320
0031
,
1000
0100
0010
0100
1000
0001
0100
0010
1000
0100
0010
0001
1000
0010
0100
0001
,
1000
0001
1000
0001
0100
0010
1000
0100
0010
0100
1000
0001
0100
0001
1000
0010
,
0100
0010
1000
0010
0100
0001
1000
0100
0010
0001
1000
0010
0100
0010
1000
0001
,
0100
0010
2000
3002
0023
0230
2300
3020
0230
0302
2003
3200
2300
3002
0223
0330
,
2002
3003
1000
0010
0100
0001
1000
0100
0010
0001
1000
0010
0100
0010
1000
0001
,
0100
0010
1000
0001
0010
0100
1000
0010
0100
0001
1000
0100
1000
0001
0010
0001
,
1000
0100
1000
0001
0100
0010
1000
0100
0010
0001
1000
0010
0100
0010
1000
0001
,
0100
0001
1000
0010
1000
0001
0010
0100
1000
0010
0100
0001
1000
0100
0010
0001
,
1000
0100
0010
0100
1000
0001
0100
0010
1000
0100
0010
0001
1000
0010
0100
0001
,
1000
0001
1000
0001
0100
0010
1000
0100
0010
0100
1000
0001
0100
0001
1000
0010
,
0100
0010
1000
0010
0100
0001
1000
0100
0010
0001
1000
0010
0100
0010
1000
0001
,
0010
0100
2002
0000
3003
0000
2200
0000
3300
0022
0000
0033
0000
0000
0220
0000
,
0330
0000
1001
0000
0010
0000
0000
0000
2200
0000
0000
0000
0000
3300
0000
0000
,
0001
0010
0001
1000
0001
1000
0100
2200
,
3300
0000
1001
0000
0100
0000
0000
0000
0202
0000
0000
0000
0000
0303
0000
0000
,
0001
0000
1000
0110
2002
0000
0000
0000
,
0000
0000
0000
0000
0000
0000
0000
0000
0000
3003
0000
0000
0000
0000
0000
0000
;

//---------------dance-single - ----------------
#NOTES:
     dance-single:
     :
     Hard:
     14:
     0.584311,0.869805,0.200545,0.139915,0.450060,877.000000,834.000000,43.000000,30.000000,0.000000,1.000000,0.584311,0.869805,0.200545,0.139915,0.450060,877.000000,834.000000,43.000000,30.000000,0.000000,1.000000:
0000
1000
0001
0000
1000
0000
0000
0000
,
0001
0000
1000
0100
0000
0010
0001
0100
,
0000
0100
0010
0000
0110
0000
0000
0000
,
0010
0000
1000
0100
0000
0010
0100
1000
,
0000
0010
0100
0000
0110
0000
0000
0000
,
1000
0000
0100
0001
0000
0001
0010
1000
,
0000
0010
0100
0000
0110
0010
0001
1000
,
0001
0000
1000
0001
1000
0001
1000
0001
0010
0100
0010
0100
0010
0100
0010
0000
,
0000
0000
0100
0000
0000
1000
0000
0000
0001
0000
0100
0000
0000
0010
0000
0000
,
1000
0000
0100
0000
0000
0010
0000
0000
1000
0000
0010
0000
0000
0000
0100
0000
,
1000
0000
0010
0000
0000
0100
0000
0000
1000
0000
0100
0000
0000
0001
0000
0000
,
0010
0000
0001
0000
0000
0100
0000
0000
0010
0000
0001
0000
0000
0000
0010
0000
,
0001
0000
0100
0000
0000
0010
0000
0000
0001
0000
0100
0000
0000
0010
0000
0000
,
1000
0000
0100
0000
0000
1000
0000
0000
0001
0000
0100
0000
0000
0000
0100
0000
,
0100
0000
0110
0000
0000
1000
0000
0000
0001
0000
0000
0000
0000
0000
0000
0000
,
0000
0000
1000
0100
1000
0100
1000
0100
0010
0001
0010
0001
0010
0001
1001
0000
,
0000
0000
0010
0000
0000
1000
0000
0000
0100
0000
1000
0000
0000
0001
0000
0000
,
0100
0000
0001
0000
0000
1000
0000
0000
0010
0000
1000
0000
0000
0000
0010
0000
,
1000
0000
0100
0000
0000
0010
0000
0000
0100
0000
1000
0000
0000
0010
0000
0000
,
0100
0000
0010
0000
0000
0001
0000
0000
0010
0000
1000
0000
0000
0000
0100
0000
,
1000
0000
0100
0000
0000
0010
0000
0000
0001
0000
0010
0000
0000
0100
0000
0000
,
0010
0000
1000
0000
0000
0010
0000
0000
0100
0000
0000
0000
1000
0000
0001
0000
,
0100
0000
0010
0000
0000
1000
0000
0000
0001
0000
0000
0000
0001
0000
1000
0000
,
0001
0000
0001
0000
0000
0001
0000
0000
0010
0000
0000
0000
0100
1000
0100
1000
,
0001
0011
0000
0011
0000
1000
0000
1000
,
0000
0010
1000
0001
0100
0010
1000
0100
,
0010
0001
0001
0010
0000
0100
0000
1000
,
0000
0001
0001
1000
1000
0001
0100
0010
,
0000
0010
0010
0010
0000
1000
0000
1000
,
0000
0010
1000
0100
0000
0010
0001
0100
,
0000
0010
1000
0100
0010
0001
0100
0010
,
1000
0000
0100
0010
0001
1000
0100
0010
0001
1000
0200
0000
0000
0000
0310
0000
,
0010
0110
0000
1001
0000
0010
1000
0001
,
0000
0001
0010
0001
0010
0100
1000
0100
,
1000
0010
0000
0010
1000
0001
0000
1001
,
0000
0010
0001
0100
0000
0001
0001
1000
,
0000
0000
1000
0000
0000
0010
0000
0000
1000
0000
0000
0100
0000
0000
0010
0000
,
0001
0100
0010
1000
0010
0100
0001
0100
,
1000
0110
0000
0010
0000
0110
0000
0010
,
1000
0000
0001
1000
0010
0100
0001
1000
0010
0100
0001
1000
0010
0100
0002
0000
,
0000
0000
0103
0010
0100
0010
0100
0000
0001
0000
0000
0000
0001
0000
0000
0000
,
1000
0000
0001
1000
0001
1000
0001
0000
0100
0000
0000
0000
0100
0000
0000
0000
,
0100
0000
0010
0100
0010
0100
0010
0000
1000
0000
1000
0000
0010
0000
0010
0000
,
0100
0000
0010
1000
0010
1000
0010
0000
0100
0000
0001
0000
0001
0000
0100
0000
,
0000
0000
0001
1000
0001
1000
0001
0000
1000
0000
0000
0000
1000
0000
0000
0000
,
1000
0000
0001
1000
0001
1000
0001
0000
0100
0000
0000
0000
0100
0000
0000
0000
,
0100
0000
1000
0001
1000
0001
1000
0000
0001
0000
0010
0000
1000
0000
1000
0000
,
0010
0000
0200
0000
0000
0000
0311
0000
0000
1100
0000
0000
0000
0020
0000
0000
,
0000
0000
0031
0000
0000
0001
0000
0000
1000
0000
0000
0000
0100
0000
0000
0000
,
0010
0000
0000
0000
0000
0000
0001
0000
0000
0000
0010
0000
0000
0000
0100
0000
0000
0000
1000
0000
0000
0000
0100
0000
0000
0000
0010
0000
0000
0000
0001
0000
0000
0000
0000
0000
0001
0000
0000
0000
0000
0000
1000
0000
0000
0001
0000
0000
,
1000
0001
0100
0000
0000
0100
0000
0000
0100
0000
0010
0000
1000
0000
0100
0000
,
0010
0000
0001
0010
0000
0000
1000
0100
0000
0000
0110
0000
0000
0000
0001
1000
,
0010
0100
0010
0000
0000
1000
0000
0000
0001
0000
1000
0000
0000
0000
1000
0000
,
0000
0000
0000
0010
0000
0100
0000
0010
0000
1000
0000
0010
0000
0001
0000
0010
0000
0000
0100
0000
0000
0020
0000
0000
,
1030
0000
0000
0001
0000
0000
1000
0000
0000
0000
0000
0000
0000
0000
0000
0100
0000
0000
0000
0000
0000
0000
0000
0000
0100
0000
0000
0000
0000
0000
0100
0000
0000
0000
0010
0000
0000
0000
0100
0000
0000
0000
0001
0000
0000
0000
0100
0000
,
0000
0000
1000
0000
0000
0000
0100
0000
0000
0000
0000
0000
0000
0000
0000
0000
0000
0000
1000
0000
0000
0000
0000
0000
0000
0000
0000
0000
0000
0000
0100
0000
0000
0010
0000
0000
0100
0000
0000
0010
0000
0000
0001
0000
0000
0000
0000
0000
,
1001
0000
1000
0000
0000
0100
0000
0000
0001
0000
0100
0000
1000
0000
0100
0000
,
0001
0000
0000
0100
0000
1000
0000
0010
0000
0100
0000
0010
0000
0001
0000
0010
0000
0000
1000
0000
0000
1000
0000
0000
,
0001
0000
1000
0000
0000
0100
0000
0000
0010
0000
0000
0000
0001
0000
0001
0000
,
1000
0000
0100
0010
0000
0000
1000
0001
0000
0000
0110
0000
0100
0000
2000
0000
,
3000
0000
0100
0000
0000
0100
0000
0000
0010
0000
0001
0000
0001
0000
0010
0000
,
0100
0000
0000
0010
0000
0100
0000
0010
0000
0001
0000
0100
0000
1000
0000
0100
0000
0000
0001
0000
0000
0001
0000
0000
,
1000
0000
0200
0000
0300
0000
0010
0000
0001
0100
0010
0000
0010
0100
0001
0000
,
0001
1100
0000
2000
3020
0000
0230
0000
,
0300
0110
0010
0110
0000
1001
0000
1010
,
0000
1100
0100
0110
0010
0011
0001
1001
,
1000
1010
0010
0110
0000
0100
0020
0000
,
2030
0000
3100
0100
1000
0001
0100
0010
,
0100
0110
0010
0100
0001
0001
1000
1000
,
0001
1000
0001
0000
1000
0000
0001
0000
0010
0100
0010
0000
0001
0000
0001
0000
,
0100
0010
0100
0001
0100
0010
1000
0010
0100
0010
1000
0100
0001
0100
1000
0100
,
0001
1000
0010
0001
0010
1000
0010
0001
0010
1000
0100
0000
0000
0000
0010
0000
,
0001
0000
0100
0000
0000
0001
0000
0000
0010
0000
0000
0001
0000
0000
1001
0000
,
0000
0000
0100
1000
0010
0100
1000
0100
,
0010
2000
0000
0000
3002
0000
0000
0023
,
0000
0000
0130
0010
0000
0001
1000
0010
,
0000
0000
0100
0000
0000
0001
0000
0000
1000
0000
0000
0010
0000
0000
0100
0000
,
0000
0000
1000
0100
0001
0010
0001
0100
,
0010
0001
0000
0010
1000
0000
0010
0001
,
0000
0000
0010
1000
0100
0010
0100
0010
0001
1000
0001
1000
0100
0010
1001
0000
,
0000
0000
0100
1000
0100
1000
0100
0000
0010
0000
0000
0000
0010
0000
0000
0000
,
0010
0000
0001
0100
0001
0100
0001
0000
1000
0000
0000
0000
1000
0000
0000
0000
,
1000
0000
0010
1000
0100
0010
0100
0000
0010
0000
0000
0000
0010
0000
0000
0000
,
0010
0000
0001
0100
0010
0100
0001
0000
1000
0000
0000
0000
1000
0000
0000
0000
,
1000
0000
0010
0100
0001
0100
1000
0000
0100
0000
0000
0000
0010
0000
0000
0000
,
1000
0000
0100
0001
0100
1000
0010
0000
0100
0000
0000
0000
0010
0000
0000
0000
,
1000
0000
0001
0100
0010
1000
0001
0000
1000
0000
0001
0000
0010
0000
0100
0000
,
0110
0000
0000
0000
0000
0000
0011
0000
0000
1100
0000
0000
0000
0000
0200
0000
,
0000
0000
1300
0000
0000
0001
0000
0000
1000
0000
0000
0010
0000
0000
0100
0000
,
0000
0000
0000
0100
0000
0010
0000
1000
0000
0001
0000
0000
0000
0000
0000
1000
0000
0000
0000
0000
0000
0001
0000
0000
,
0000
0000
1000
0000
0000
0001
0000
0000
0010
0000
0100
0000
0000
1000
0000
0000
,
0010
0000
1000
0000
0000
0100
0000
0000
0010
0000
0001
0000
0000
0200
0000
0000
,
0000
0300
0001
0000
0100
0000
0010
0000
0100
0000
0001
0000
0100
0000
0010
0100
,
0010
0000
1000
0000
0100
0000
0010
0001
0010
0000
0100
0000
1000
0000
0001
1000
,
0001
0000
0000
1000
0000
0000
0001
0000
0000
1000
0000
0000
0001
0000
0000
1000
0000
0000
0001
0000
0010
0000
0100
0000
1000
0000
0000
0100
0000
0000
1000
0000
0000
0100
0000
0000
0010
0000
0000
0001
0000
0000
0010
0000
0000
0001
0000
0000
,
0100
0010
0100
0010
1000
0001
0100
0001
1000
0100
0020
0000
0000
0030
2002
0000
,
0000
0000
0000
0000
0000
0000
3003
0001
,
1000
0000
0001
0000
0000
0010
0000
0000
0100
0000
0000
1000
0000
0000
0100
0000
,
0000
0010
0001
0100
0001
1000
0010
1000
,
0001
0200
0000
0000
0320
0000
0000
2030
,
0000
0000
3001
0010
0000
0100
0010
0001
,
0000
0000
1000
0000
0000
0010
0000
0000
0100
0000
0000
1000
0000
0000
0100
0000
,
0000
0010
0100
0001
0010
0001
0100
0010
,
0001
0010
0000
1000
0100
0000
0010
0001
,
0000
0000
0010
0001
0010
1000
0010
0001
0100
1000
0100
0001
0100
1000
0002
0000
,
0013
0000
1000
0100
1000
0100
1000
0000
0100
0000
0000
0000
0100
0000
0000
0000
,
0100
0000
1000
0001
1000
0001
1000
0000
0001
0000
0000
0000
0001
0000
0000
0000
,
0001
0000
0010
0100
0010
0100
0010
0000
0100
0000
0000
0000
0100
0000
0000
0000
,
0100
0000
1000
0010
1000
0010
1000
0000
0010
0000
0000
0000
0010
0000
0000
0000
,
0010
0000
0001
0010
0001
0010
0001
0000
0010
0000
0000
0000
0010
0000
0000
0000
,
0010
0000
1000
0100
1000
0100
1000
0000
0100
0000
0000
0000
0100
0000
0000
0000
,
0100
0000
0001
0100
0001
0100
0001
0000
0100
0000
0010
0000
0100
0000
1000
0000
,
0020
0000
0000
0000
0000
0000
0130
0000
0000
0100
0000
0000
0020
0000
0230
0000
,
0300
1010
1000
0000
1010
0000
0000
0000
,
0001
0000
0100
0101
0000
0100
0001
0102
,
0000
0013
0110
0000
0110
0000
0000
0000
,
1001
0000
0000
0000
1000
0000
2002
0000
0000
3003
0000
0000
0000
0000
0000
0000
;

//---------------dance-single - ----------------
#NOTES:
     dance-single:
     :
     Edit:
     24:
     1.035370,1.170680,1.916835,0.466383,0.750877,1554.000000,1143.000000,411.000000,100.000000,0.000000,49.000000,1.035370,1.170680,1.916835,0.466383,0.750877,1554.000000,1143.000000,411.000000,100.000000,0.000000,49.000000:
// measure 0
0000
1001
1001
0000
0011
0000
0000
0000
,  // measure 1
0011
1000
0101
0101
0010
1100
1010
0210
,  // measure 2
0000
1310
0101
0010
1001
0000
0000
0000
,  // measure 3
0101
0010
0101
0101
1000
0011
0110
1100
,  // measure 4
0002
0000
0110
0000
0113
1000
0001
0000
1001
0000
0100
0000
2000
0001
0100
0000
,  // measure 5
3210
0000
0001
0000
0321
0100
1001
0000
2030
0100
0011
0000
3201
1000
0022
0000
,  // measure 6
0300
0000
1133
0000
0020
0001
0100
0000
2130
0000
0100
0000
3120
1000
0001
0000
,  // measure 7
0230
0000
0001
1000
0301
0010
0001
0100
0010
1000
0100
0001
1000
0010
2002
0000
,  // measure 8
0000
3003
0110
0000
0000
0011
0000
0000
1000
0000
1000
0000
0000
1100
0000
0000
,  // measure 9
0011
0000
0110
0000
0000
0110
0000
0000
0022
0000
2233
0000
3300
0000
0020
0000
,  // measure 10
0001
0000
1130
0000
0000
1100
0000
0000
0001
0000
0010
0000
0000
1010
0000
0000
,  // measure 11
0101
0000
0110
0000
0000
0110
0000
0000
0200
0000
2000
0000
0300
0000
3100
1000
,  // measure 12
0010
1000
0101
0000
0000
0101
0000
0000
1000
0000
1010
0000
0000
0100
0000
0000
,  // measure 13
0110
0000
1001
0000
0000
0011
0000
0000
2100
0000
0002
0000
3000
0000
2003
0000
,  // measure 14
0010
0000
3101
0000
0000
1010
0000
0000
1001
0100
0000
0000
0110
0000
0000
0110
,  // measure 15
0000
1000
0100
0010
0001
0100
1000
0010
0100
0001
0010
1000
0001
0100
2002
0000
,  // measure 16
0000
3003
0210
0000
1000
0001
1310
0000
0010
0000
0100
0000
0001
1000
0101
0000
,  // measure 17
0010
0000
1000
0000
0100
0001
1010
0000
0100
0000
0001
1000
0001
0010
1100
0000
,  // measure 18
0001
0010
0100
0000
1000
0100
0011
0000
0010
0000
0001
0000
0100
0010
1001
0000
,  // measure 19
0010
0000
0100
0000
0001
1000
0101
0000
0100
0000
0001
1000
0001
0100
1010
0000
,  // measure 20
0001
1000
0020
0000
1000
0230
0011
0000
1300
0000
0200
0000
0001
0320
1100
0000
,  // measure 21
0100
0030
0001
0000
0010
0100
1001
0000
0020
0000
1000
0001
0130
0001
1010
0000
,  // measure 22
0010
0000
0100
0000
1000
0001
0110
0000
1000
0000
0100
0000
1001
0000
1010
0000
,  // measure 23
0011
0000
0000
0000
0000
0000
0101
0000
0000
1000
0000
0000
0000
0000
0000
1100
0000
0000
0001
0000
0000
0000
0000
0000
0110
0000
1000
0000
0010
0000
0100
0000
0001
0000
1000
0000
0010
0000
0100
0000
0001
0000
1000
0000
0010
0000
0100
0000
,  // measure 24
0001
1000
0010
0110
0000
0000
0110
0000
0000
1100
0000
0000
0000
0000
0000
1100
0000
0000
0000
0000
0000
1100
0000
0000
,  // measure 25
0000
0000
1100
0000
1000
0000
1100
0001
0010
0001
1100
0000
0010
0000
1100
0010
,  // measure 26
0001
0010
1100
0000
0001
0000
1100
0000
0000
0000
1100
0000
0000
0000
1100
0000
,  // measure 27
0000
1100
1000
1100
0001
1100
0110
1100
,  // measure 28
0011
1100
1001
1100
0100
1100
0100
1100
,  // measure 29
0100
0010
1100
0000
0100
0000
1100
0000
0100
0010
1100
0000
0100
0000
1100
0000
,  // measure 30
0100
0000
0000
0010
0000
0000
1100
0000
0000
0001
0000
0000
0100
0000
0000
0010
0000
0000
1100
0000
0000
0001
0000
0000
0100
0000
0000
0010
0000
0000
1100
0000
0010
0000
0001
0000
0100
0000
0000
0001
0000
0000
1100
0000
0000
0010
0000
0000
,  // measure 31
0100
0001
1100
0010
0100
0001
1100
0010
0100
0001
1200
0000
0001
0300
1100
0000
,  // measure 32
0100
0000
0110
0000
0001
1000
0011
0000
0100
0000
0010
0000
1000
0000
0011
0000
,  // measure 33
0100
0010
2000
3022
0233
0320
2030
3022
,  // measure 34
0233
2300
0100
3011
2000
0010
3100
0011
,  // measure 35
2000
0001
3110
0011
0001
1100
1100
0011
,  // measure 36
1000
0000
0001
0000
1000
0100
0011
0000
0100
0000
0010
1000
0100
0000
0011
0000
,  // measure 37
1000
0000
0010
0000
0100
1000
0011
0000
1001
0000
1010
0000
1100
0000
0011
0000
,  // measure 38
1010
0000
0110
0000
1000
0100
0011
0000
1000
0000
0110
0000
1000
0000
0011
0000
,  // measure 39
0001
0000
1000
0001
0100
1000
0011
0100
0010
1000
0011
1000
0100
0010
0002
0000
,  // measure 40
0000
0000
1013
0100
0010
1100
0101
0000
1000
0000
0100
0000
1000
0000
0101
0000
,  // measure 41
0010
0000
1000
0001
1000
0010
0101
0000
0010
0000
1000
0000
0010
0000
0101
0000
,  // measure 42
0010
0000
1100
0010
1001
0010
0101
0000
1010
0000
0011
0000
0110
0000
0101
0000
,  // measure 43
1010
0000
0000
0000
0100
0000
0001
0000
0100
0000
1000
0000
0101
0000
0000
0000
0010
0000
0000
0000
0001
1000
0001
0000
1000
0001
1000
0000
0101
1000
0001
0000
,  // measure 44
0100
0000
1000
0001
1000
0001
0101
0000
0001
0000
1000
0000
0001
0000
0101
0000
,  // measure 45
0001
0000
1000
0001
1000
0010
0101
0000
0010
0000
1000
0000
0010
0000
0101
0000
,  // measure 46
0010
0000
0011
1000
0110
1000
0101
0000
1010
0000
1001
0000
0011
0000
0101
0000
,  // measure 47
1100
0000
0020
0000
0000
0000
0131
0000
0000
0011
0000
0000
0200
0000
0020
0000
,  // measure 48
0300
0000
0000
0000
0000
0000
1130
0000
0000
0000
0000
0000
0000
0000
0000
1100
0000
0000
0000
0000
0000
0000
0000
0000
0001
0000
0010
0000
0001
0000
0010
0000
0000
0000
0000
0000
0010
0000
0000
0000
0000
0000
0100
0000
1000
0000
0100
0000
,  // measure 49
1000
0000
0000
0000
0000
0000
1000
0000
0000
0000
0100
0000
0000
0000
0010
0000
0000
0000
0001
0000
0000
0000
0010
0000
0000
0000
0100
0000
0000
0000
1000
0000
0000
0000
0000
0000
1000
0000
0001
0000
1000
0000
0001
0000
0000
1000
0000
0000
,  // measure 50
0001
0000
0000
1000
0000
0000
0110
0000
0000
0000
0000
0000
0000
0000
0000
0110
0000
0000
0000
0000
0000
0000
0000
0000
0110
0000
1000
0000
0001
0000
2000
0000
0000
0000
0000
0000
3010
0000
0000
0001
0000
0000
0010
0000
0100
0000
0010
0000
,  // measure 51
0100
0000
0000
0000
0000
0000
1010
0000
0000
0011
0000
0000
0000
0000
0000
0000
0000
0000
0101
0000
0000
1100
0000
0000
0000
0000
0000
0000
0000
0000
0110
0000
0000
0000
0000
0000
1000
0000
0001
0000
1000
0000
0001
0000
0000
0010
0000
0000
,  // measure 52
1100
0000
0000
0101
0000
0000
1001
0000
0000
0000
0000
0000
0000
0000
0000
1001
0000
0000
0000
0000
0000
0000
0000
0000
1001
0000
0010
0000
0100
0000
0010
0000
0000
0000
0000
0000
1000
0000
0000
0000
0000
0000
0001
0000
1000
0000
0001
0000
,  // measure 53
1000
0000
0000
0100
0000
0010
0000
0100
0000
0001
0000
0100
0000
1000
0000
0100
0000
0000
0010
0001
0010
0200
0000
0000
,  // measure 54
1310
0000
0000
0011
0000
0000
1001
0000
0000
0000
0000
0000
0000
0000
0000
0000
0000
0000
0200
0000
0000
0000
0000
0000
0010
0000
0001
0000
1000
0000
0310
0000
0000
0000
1100
0000
0000
0000
1010
0000
0000
0000
0011
0000
0000
0000
0101
0000
,  // measure 55
0000
0000
0110
0000
0000
0000
2002
0000
0000
0000
0000
0000
3003
0000
0000
0000
0000
0000
0200
0000
0000
0000
0000
0000
0300
0000
0000
0000
0000
0000
0010
0000
0000
0100
0000
0000
0010
0000
0000
0100
0000
0000
0110
0000
0000
0000
0000
0000
,  // measure 56
1001
0000
0011
0000
1000
0011
1010
0000
1000
0000
0010
0000
0001
0000
1010
0000
,  // measure 57
1000
0000
0000
0000
0000
0000
0010
0000
0000
0000
0001
0000
0000
0000
0100
0000
0000
0000
1010
0000
0000
0000
0100
0000
0000
0000
1000
0000
0000
0000
0100
0000
0000
0010
0000
0000
0001
0000
0000
0100
0000
0000
1010
0000
0000
0000
0000
0000
,  // measure 58
1000
0000
0001
0000
0100
0001
1010
0000
0100
0000
0001
0000
1000
0000
1010
0000
,  // measure 59
0001
0000
0000
0000
1100
0000
0101
0000
0000
0000
0000
0000
1010
0000
0011
0000
0000
0000
0000
0000
0100
0001
0100
0000
0001
0100
0001
0000
1010
0100
0001
0000
,  // measure 60
1000
0000
0000
0000
0001
0100
0001
0000
0000
0000
0001
0100
1010
0000
0000
0000
0100
0000
0000
0000
1000
0000
0000
0000
1000
0000
0000
0000
1010
0000
0000
0000
,  // measure 61
0010
0000
0000
0000
0000
0000
0000
0000
0000
0000
0000
0000
0000
0000
0000
0000
0000
0000
0000
0000
0000
0000
0000
0000
0100
0000
0000
0000
0000
0000
0000
0000
0000
0000
0000
0000
0000
0000
0000
0000
0010
0000
0000
0000
0000
0000
0000
0000
0000
0000
0000
0000
0000
0000
0000
0000
0100
0000
0000
0000
0000
0000
0000
0000
0000
0000
0000
0000
0000
0000
0000
0000
1010
0000
0000
0000
0000
0000
0000
0000
0000
0000
0000
0000
0000
0000
0000
0000
0100
0000
0000
0000
0000
0000
0000
0000
0000
0000
0000
0000
0000
0000
0000
0000
0001
0000
0000
0000
0000
0000
0000
0000
0000
0000
0000
0000
0000
0000
0000
0000
0001
0000
0000
0000
0000
0000
1000
0000
0000
0000
0000
0000
0001
0000
0000
0000
0000
0000
0000
0000
0000
0000
0000
0000
1000
0000
0000
0000
0000
0000
0001
0000
0000
0000
0000
0000
1000
0000
0000
0000
0000
0000
0000
0000
0000
0000
0000
0000
1010
0000
0000
0000
0000
0000
0001
0000
0000
0000
0000
0000
1000
0000
0000
0000
0000
0000
0000
0000
0000
0000
0000
0000
,  // measure 62
0001
0000
0000
0000
0020
0001
1000
0000
0130
0000
0000
0000
1010
0000
0000
0000
1000
0000
0010
0000
0100
0000
0000
0000
0100
0000
0001
0000
1010
0000
0000
0000
,  // measure 63
1000
0000
0000
0011
0000
0000
0001
1000
0001
2010
0001
0010
3200
1000
0010
1000
0001
0010
1302
0010
0100
1010
0100
1000
,  // measure 64
0013
0100
0001
0110
0000
0000
0110
0000
0000
0011
0000
0000
1000
0000
0000
0011
0000
0000
0100
0000
0000
0011
0000
0000
,  // measure 65
1000
0000
0011
0000
1000
0000
0011
1000
0100
1000
0011
0000
0100
0000
0011
0100
,  // measure 66
1000
0100
0011
0000
1000
0000
0011
0000
0100
0000
0011
0000
1000
0000
0011
0000
,  // measure 67
0100
0011
0001
0011
1000
0011
0110
0011
,  // measure 68
1100
0011
1001
0011
0010
0011
0010
0011
,  // measure 69
0010
0100
0011
0000
0010
0000
0011
0000
0010
0100
0011
0000
0010
0000
0011
0000
,  // measure 70
0010
0000
0000
0100
0000
0000
0011
0000
0000
1000
0000
0000
0010
0000
0000
0100
0000
0000
0011
0000
0000
1000
0000
0000
0010
0000
0000
0100
0000
0000
0011
0000
0100
0000
1000
0000
0010
0000
0000
1000
0000
0000
0011
0000
0000
0100
0000
0000
,  // measure 71
0010
1000
0011
0100
0010
1000
0011
0100
0010
1000
0021
0000
1000
0030
0011
0000
,  // measure 72
0010
0000
0110
0000
1000
0001
1100
0000
0010
0000
0100
0000
0001
0000
1100
0000
,  // measure 73
0010
0100
0002
2203
3320
0230
0302
2203
,  // measure 74
3320
0032
0010
1103
0002
0100
0013
1100
,  // measure 75
0002
1000
0113
1100
1000
0011
0011
1100
,  // measure 76
0001
0000
1000
0000
0001
0010
1100
0000
0010
0000
0100
0001
0010
0000
1100
0000
,  // measure 77
0001
0000
0100
0000
0010
0001
1100
0000
1001
0000
0101
0000
0011
0000
1100
0000
,  // measure 78
0101
0000
0110
0000
0001
0010
1100
0000
0001
0000
0110
0000
0001
0000
1100
0000
,  // measure 79
1000
0000
0001
1000
0010
0001
1100
0010
0100
0001
1100
0001
0010
0100
2000
0000
,  // measure 80
0000
0000
3101
0010
0100
0011
1010
0000
0001
0000
0010
0000
0001
0000
1010
0000
,  // measure 81
0100
0000
0001
1000
0001
0100
1010
0000
0100
0000
0001
0000
0100
0000
1010
0000
,  // measure 82
0100
0000
0011
0100
1001
0100
1010
0000
0101
0000
1100
0000
0110
0000
1010
0000
,  // measure 83
0101
0000
0000
0000
0010
0000
1000
0000
0010
0000
0001
0000
1010
0000
0000
0000
0100
0000
0000
0000
1000
0001
1000
0000
0001
1000
0001
0000
1010
0001
1000
0000
,  // measure 84
0010
0000
0001
1000
0001
1000
1010
0000
1000
0000
0001
0000
1000
0000
1010
0000
,  // measure 85
1000
0000
0001
1000
0001
0100
1010
0000
0100
0000
0001
0000
0100
0000
1010
0000
,  // measure 86
0100
0000
1100
0001
0110
0001
1010
0000
0101
0000
1001
0000
1100
0000
1010
0000
,  // measure 87
0011
0000
0200
0000
0000
0000
1310
0000
0000
1100
0000
0000
0020
0000
0200
0000
,  // measure 88
0030
0000
0311
0000
0000
0011
0000
0000
0001
0000
0000
0100
0000
0000
0110
0000
,  // measure 89
0000
0000
0000
0010
0000
1000
0000
0001
0000
0110
0000
0000
0000
0000
0000
1000
0000
0000
0000
0000
0000
0110
0000
0000
,  // measure 90
0000
0001
0001
0110
0000
0100
0000
0110
,  // measure 91
0000
0000
0001
1000
0001
0000
0110
0000
1000
0000
0001
0000
1000
0000
0110
0000
,  // measure 92
1000
0000
0001
0000
1000
0001
0110
0000
0011
0000
1000
0011
1000
0000
0110
0001
,  // measure 93
1000
0000
0000
0000
0000
0000
0001
0000
0000
0000
0010
0000
0000
0000
1000
0000
0000
0000
0110
0000
0000
0001
0000
0000
1000
0000
0000
0001
0000
0000
0110
0000
0000
1000
0000
0000
0001
0000
0000
1000
0000
0000
0110
0000
0000
0001
0000
0000
,  // measure 94
0010
0000
0000
1000
0000
0000
0110
0000
0000
1000
0000
0000
0010
0000
0000
0001
0000
0000
0110
0000
0001
0000
1000
0000
0100
0000
0000
1000
0000
0000
0110
0000
0000
1000
0000
0000
0100
0000
0000
0001
0000
0000
0110
0000
0000
1000
0000
0000
,  // measure 95
0001
1000
0110
0001
1000
0001
0110
0001
1000
0001
0110
0000
0000
0000
2002
0000
,  // measure 96
0000
0000
0000
0000
0000
0000
3003
1100
,  // measure 97
0100
0000
0110
0000
0001
1000
0011
0000
0100
0000
0010
0000
1000
0000
0011
0000
,  // measure 98
0100
0010
2000
3022
0233
0320
2030
3022
,  // measure 99
0233
2300
0100
3011
2000
0010
3100
0011
,  // measure 100
2000
0001
3110
0011
0001
1100
1100
0011
,  // measure 101
1000
0000
0001
0000
1000
0100
0011
0000
0100
0000
0010
1000
0100
0000
0011
0000
,  // measure 102
1000
0000
0010
0000
0100
1000
0011
0000
1001
0000
1010
0000
1100
0000
0011
0000
,  // measure 103
1010
0000
0110
0000
1000
0100
0011
0000
1000
0000
0110
0000
1000
0000
0011
0000
,  // measure 104
0001
0000
1000
0001
0100
1000
0011
0100
0010
1000
0011
1000
0100
0010
0002
0000
,  // measure 105
0000
0000
1013
0100
0010
1100
0101
0000
1000
0000
0100
0000
1000
0000
0101
0000
,  // measure 106
0010
0000
1000
0001
1000
0010
0101
0000
0010
0000
1000
0000
0010
0000
0101
0000
,  // measure 107
0010
0000
1100
0010
1001
0010
0101
0000
1010
0000
0011
0000
0110
0000
0101
0000
,  // measure 108
1010
0000
0000
0000
0100
0000
0001
0000
0100
0000
1000
0000
0101
0000
0000
0000
0010
0000
0000
0000
0001
1000
0001
0000
1000
0001
1000
0000
0101
1000
0001
0000
,  // measure 109
0100
0000
1000
0001
1000
0001
0101
0000
0001
0000
1000
0000
0001
0000
0101
0000
,  // measure 110
0001
0000
1000
0001
1000
0010
0101
0000
0010
0000
1000
0000
0010
0000
0101
0000
,  // measure 111
0010
0000
0011
1000
0110
1000
0101
0000
1010
0000
1001
0000
0011
0000
0101
0000
,  // measure 112
1100
0000
0020
0000
0000
0000
0131
0000
0000
0011
0000
0000
0200
0000
0020
0000
,  // measure 113
0300
1130
0101
0000
0110
0000
0000
0000
,  // measure 114
1001
0101
1100
0101
1001
1100
0101
0012
,  // measure 115
1000
0003
0110
0000
0110
0000
0101
0000
1010
0000
0000
0000
0000
0000
0000
0000
,  // measure 116
1001
0010
0110
2002
0220
0000
3333
0000
;
