#VERSION:0.83;
#TITLE:Eternity;
#SUBTITLE:;
#ARTIST:Silaver feat. Nathan Brumley;
#TITLETRANSLIT:;
#SUBTITLETRANSLIT:;
#ARTISTTRANSLIT:;
#GENRE:;
#ORIGIN:;
#CREDIT:;
#BANNER:Eternity-bn.jpg;
#BACKGROUND:Background.jpg;
#PREVIEWVID:;
#JACKET:;
#CDIMAGE:;
#DISCIMAGE:;
#LYRICSPATH:;
#CDTITLE:cdtitle_ukiarrow.png;
#MUSIC:Eternity.mp3;
#OFFSET:-0.040000;
#SAMPLESTART:97.119980;
#SAMPLELENGTH:12.000000;
#SELECTABLE:YES;
#BPMS:0.000=140.000,
108.000=70.000,
140.000=140.000;
#STOPS:;
#DELAYS:;
#WARPS:;
#TIMESIGNATURES:0.000=4=4;
#TICKCOUNTS:0.000=4;
#COMBOS:0.000=1;
#SPEEDS:0.000=1.000=0.000=0;
#SCROLLS:0.000=1.000;
#FAKES:;
#LABELS:0.000=Song Start;
#BGCHANGES:;
#KEYSOUNDS:;
#ATTACKS:
;

//---------------dance-single - ----------------
#NOTEDATA:;
#CHARTNAME:;
#STEPSTYPE:dance-single;
#DESCRIPTION:;
#CHARTSTYLE:;
#DIFFICULTY:Easy;
#METER:12;
#RADARVALUES:0.529563,0.609852,0.276526,0.089684,0.164421,496.000000,459.000000,37.000000,12.000000,0.000000,0.000000,0.000000,0.000000,0.000000,0.529563,0.609852,0.276526,0.089684,0.164421,496.000000,459.000000,37.000000,12.000000,0.000000,0.000000,0.000000,0.000000,0.000000;
#CREDIT:;
#NOTES:
0000
0000
0000
0000
,
0000
0000
0000
0000
,
1000
0000
0000
0001
0000
0100
0000
0000
0001
0000
1000
0000
2001
0000
0000
0000
,
3001
0100
0010
1000
0001
0010
0100
1000
,
0001
0100
0010
1000
0001
0010
0100
1000
,
0010
0100
0001
0001
0010
0100
1000
1000
,
0010
0100
0001
1000
0010
0100
0001
1000
,
0001
1000
0100
0100
1000
0001
0100
0100
,
0010
0100
0001
0001
0010
0100
1000
1000
,
0100
0010
0100
0010
0001
1000
0001
1000
,
0010
0100
0000
0100
0000
0100
1001
0000
,
1000
0100
0010
0001
0010
0100
1000
0010
,
0011
1010
1002
0103
,
0001
0010
0100
1000
1000
0010
0100
0001
,
0101
1100
1010
0011
,
1000
0010
0100
0001
0001
0010
0100
1000
,
2001
3020
0001
1030
,
0001
0010
1000
0010
0001
0100
1000
0100
,
0001
0000
0010
0100
1100
0000
0010
0100
,
1100
0000
0000
0100
0010
0000
0001
0000
0100
0000
0000
0100
0001
0000
0010
0000
,
0100
0000
0000
0100
1000
0000
0010
0000
0100
0000
0001
1000
0001
0000
0000
0000
,
0101
0000
0000
0100
1000
0000
0100
0000
0010
0000
0000
0100
0001
0000
0010
0000
,
0100
0000
0000
0010
0100
0000
1000
0000
0001
0000
0100
0010
0100
0000
0000
0000
,
0101
0000
0000
1000
0010
0000
0100
0000
0001
0000
0000
0001
0010
0000
0100
0000
,
1000
0000
0000
1000
0001
0000
0100
0000
0010
0000
1000
0100
1000
0000
0000
0000
,
0010
0000
0100
0000
0001
0000
0010
0000
0100
0000
1000
0100
1000
0000
0100
1000
,
0000
0000
0001
1000
0000
0000
0010
1000
0000
0000
0001
1000
0002
0000
0000
0000
,
0103
0000
0000
0000
0010
1000
0001
0000
1010
0000
0100
0000
0001
0000
0002
0000
,
0000
0003
0000
0000
0000
0000
0000
0000
,
0011
0000
0000
0000
0001
0010
0100
0000
1100
0000
0010
0000
0002
0000
0000
0000
,
0003
0000
0000
0000
,
2000
0000
0000
0000
3000
0010
0100
0010
0000
1000
0100
0010
0000
0001
0000
2000
,
0000
3000
0000
0000
,
1000
0010
0000
0100
0000
0001
0100
0010
1000
0001
1000
0001
0000
0001
0000
0001
,
0000
1000
0000
1000
0000
0010
0100
0010
0000
0100
0000
0100
0000
0010
1000
0000
,
0100
1000
0000
1000
0000
1000
0100
1000
,
0000
1000
0000
1000
0000
1000
0100
0010
,
0100
0010
0000
0010
0000
0010
0001
1000
,
0000
1000
0000
1000
0000
1000
0010
0100
,
0010
0100
0000
0100
0000
0100
0001
0100
,
0000
0100
0000
0100
0000
0100
0010
1000
,
0001
1000
0000
1000
0000
1000
0100
0010
,
0000
0010
0000
0010
0000
0010
0100
1000
,
0001
0100
0010
0010
1000
0100
0010
0010
,
0001
0010
0100
1000
1000
0010
0100
0001
,
0001
0010
1000
0010
0001
0100
1000
0100
,
0001
0010
1000
0010
0001
0100
1000
0100
,
0001
1000
0001
1000
0010
0100
0010
0100
,
0001
0010
0100
1000
0010
0100
0001
1000
,
0010
0010
1000
1000
0001
0001
0010
0010
,
0100
0000
0000
0010
0000
0100
0000
0000
0010
0000
0100
0000
1001
0000
0000
0000
,
1000
0010
0001
0010
1000
0010
0100
0010
,
1000
0100
0001
0100
1000
0100
0010
0100
,
1000
0001
0100
1000
0100
0001
1000
0001
,
0010
0100
0010
1000
0010
0001
0110
0100
,
1100
1000
0100
1000
0001
0100
0010
0100
,
0001
1000
0100
1000
0001
0100
0110
0100
,
0101
1000
0100
1000
0001
0010
0100
0010
,
0001
1000
0010
1000
0001
0100
0110
0000
,
1010
0010
0010
0100
0100
0100
0001
0001
,
1100
1000
1000
0100
0100
0100
0010
0010
,
1001
0001
0001
0100
0100
0100
0010
1000
,
1000
0001
0001
0001
0010
0010
1001
0100
,
1001
0010
1000
0101
0100
0001
0011
0100
,
1100
0010
0001
0011
0100
1000
1010
0100
,
0101
0010
1000
0101
0010
1000
1001
0100
,
0020
0001
0000
1000
0000
0031
0010
1000
,
2002
0000
0000
0000
,
3003
0000
0000
0000
;

//---------------dance-single - ----------------
#NOTEDATA:;
#CHARTNAME:;
#STEPSTYPE:dance-single;
#DESCRIPTION:;
#CHARTSTYLE:;
#DIFFICULTY:Medium;
#METER:14;
#RADARVALUES:0.581879,0.762315,0.201789,0.089684,0.325105,545.000000,518.000000,27.000000,12.000000,0.000000,0.000000,0.000000,0.000000,0.000000,0.581879,0.762315,0.201789,0.089684,0.325105,545.000000,518.000000,27.000000,12.000000,0.000000,0.000000,0.000000,0.000000,0.000000;
#CREDIT:;
#NOTES:
0000
0000
0000
0000
,
0000
0000
0000
0000
,
1000
0000
0000
0001
0000
0100
0000
0000
0001
0000
1000
0100
0020
0000
0000
0000
,
0031
0100
0010
1000
0001
0010
0100
1000
,
0001
0100
0010
1000
0001
0010
0100
1000
,
0010
0010
0100
0001
0010
0010
0100
1000
,
0010
0100
0001
1000
0010
0100
0001
1000
,
0100
0010
0001
1000
0100
0010
0001
1000
,
0010
0100
1000
0001
0010
0100
1000
0001
,
0010
1000
0010
1000
0100
0001
0100
0001
,
0100
0000
0010
0001
0000
0000
0010
0001
0000
0000
0010
0001
1000
0000
0000
0000
,
1100
0100
1000
0100
0110
0010
0011
0001
,
2001
3100
1002
0103
,
0001
0010
0100
1000
1000
0010
0100
0001
,
1001
0100
0010
0000
0110
0010
1000
0000
,
0001
1000
0100
1000
0001
1000
0010
1000
,
1001
0000
0110
0000
0100
0010
1001
0000
,
1000
0001
0010
0001
1000
0001
0100
0001
,
0010
0100
1000
0010
0100
0001
1000
0000
,
1100
0000
0010
0100
0010
0000
0001
0000
0100
0000
0001
0100
0001
0000
0010
0000
,
0100
0000
1000
0100
1000
0000
0010
0000
0100
0000
0001
1000
0001
0000
0000
0000
,
0101
0000
1000
0100
1000
0000
0100
0000
0010
0000
0100
1000
0100
0000
0010
0000
,
0001
0000
0010
0001
0010
0000
0001
0000
0100
0000
0001
0100
0001
0000
0000
0000
,
0100
0000
0010
1000
0010
0000
0100
0000
0001
0000
0010
0001
0010
0000
0100
0000
,
1000
0000
0001
0100
0001
0000
0100
0000
0010
0000
1000
0100
1000
0000
0100
0000
,
0010
0000
0001
1000
0001
0000
0100
0000
0010
0000
0100
0010
0100
0000
0001
0000
,
0010
0000
0100
1000
0000
0000
0001
0010
0000
0000
0100
1000
0002
0000
0000
0000
,
0103
0000
0000
0000
0010
0010
1000
0000
1010
0000
0110
0000
0101
0000
0002
0000
,
0000
0003
0000
0000
0000
0000
0000
0000
,
0022
0000
0000
0033
0001
0010
0100
0100
1000
0000
0110
0000
0022
0000
0000
0000
,
0033
0000
0000
0000
,
0001
0000
0010
0000
0000
0010
0100
1000
0000
0001
0010
0100
0000
1000
0000
0002
,
0000
0003
0000
0000
,
1000
0010
0000
0010
0000
0010
0100
0001
1000
0100
0010
0100
0000
0100
0000
0100
,
0000
1000
0000
1000
0000
0001
0000
0001
0000
0100
0000
0100
0000
0010
1000
0010
,
0100
0001
0000
0001
0000
1000
0100
0001
,
0000
0001
0000
0001
0000
0001
0100
0010
,
0001
1000
0000
1000
0000
1000
0010
0100
,
0000
0100
0000
0100
0000
0100
0010
0100
,
0001
0010
0100
0010
0000
0010
0001
0010
,
0000
0010
0000
0010
0000
0010
0100
1000
,
0001
0010
1000
0010
0000
0010
0001
0010
,
0000
0010
0000
0010
0000
0010
0100
1000
,
0001
0100
0010
1000
0001
0100
0010
1000
,
0001
0010
0100
1000
0001
0100
0010
0100
,
0001
0010
0100
1000
0001
0010
0100
1000
,
0001
0100
0010
0100
0001
1000
0001
0100
,
0010
1000
0010
1000
0001
0100
0001
0100
,
0001
0010
0001
0010
0100
1000
0010
0100
,
0010
1000
0010
0000
1000
0010
1000
0000
0001
0010
0001
0000
0010
0001
0010
0000
,
0100
0000
0000
0010
0000
0010
0000
0000
0100
0000
0010
0100
0010
0000
0000
0000
,
0011
0001
0100
0010
0100
0001
0010
0100
,
0010
0001
0100
0010
1000
0001
0011
0100
,
1100
0010
0100
1000
0001
0100
0010
0100
,
0001
0010
0100
1000
0001
0100
0110
0100
,
0101
0010
1000
0100
1000
0001
0100
0010
,
0100
0001
0010
0100
1000
0010
0110
0001
,
0101
1000
0100
0010
0001
0010
0100
1000
,
0001
0100
0010
0100
0001
0010
0110
0000
,
0010
0100
0010
0000
0001
0000
0100
0010
0100
0000
0010
0000
1000
0001
1000
0000
,
0100
1000
0100
0000
0001
0000
0100
0010
0100
0000
0010
0000
0100
1000
0100
0000
,
1000
0001
1000
0000
0100
0000
0010
0100
0010
0000
0001
0000
0100
0001
0100
0000
,
0001
0010
0001
0000
0010
0000
0100
1000
0100
0000
0010
0000
0001
1000
0001
0000
,
1000
0010
1000
0000
0001
0010
0001
0000
0100
0001
0100
0000
0010
0100
0010
0000
,
0100
1000
0100
0000
0001
0010
0001
0000
1000
0001
1000
0000
0010
0100
0001
0010
,
0100
1000
0100
1000
0100
1000
0100
1000
0001
0010
0001
0010
0001
0010
0001
0010
,
0100
0000
1000
0100
0000
0000
1000
0100
0000
0000
1000
0100
0010
0000
0000
0000
,
2002
0000
0000
0000
,
3003
0000
0000
0000
;

//---------------dance-single - ----------------
#NOTEDATA:;
#CHARTNAME:;
#STEPSTYPE:dance-single;
#DESCRIPTION:;
#CHARTSTYLE:;
#DIFFICULTY:Hard;
#METER:15;
#RADARVALUES:0.734555,0.787725,0.209263,0.246631,0.795946,688.000000,660.000000,28.000000,33.000000,0.000000,0.000000,0.000000,0.000000,0.000000,0.734555,0.787725,0.209263,0.246631,0.795946,688.000000,660.000000,28.000000,33.000000,0.000000,0.000000,0.000000,0.000000,0.000000;
#CREDIT:;
#NOTES:
0000
0000
0000
0000
,
0000
0000
0000
0000
,
1000
0000
0000
0001
0000
0100
0000
0000
0001
0000
1000
0000
0120
0000
0000
0000
,
1030
0000
0001
0100
0010
0000
1000
0001
0010
0000
0001
1000
0100
0000
1000
0010
,
0100
0000
0010
0100
1000
0000
0100
0001
1000
0000
0001
0010
0100
0000
0010
0100
,
0001
0000
0100
1000
0100
0000
1000
0010
0100
0000
0010
0100
0001
0000
0100
0010
,
1000
0000
0100
0010
0001
0000
0010
0100
1000
0000
0010
0100
0001
0000
1000
0100
,
0010
0000
0100
0010
0001
0000
0010
0001
1000
0000
0001
1000
0100
0000
1000
0010
,
0100
0000
0001
0100
0010
0000
1000
0001
0010
0000
0001
1000
0100
0000
1000
0001
,
0010
0000
0100
1000
0001
0000
0010
0100
1000
0000
0001
0010
0100
0000
1000
0001
,
0020
1000
0000
0001
0000
1030
0101
0000
,
1010
0000
0100
1000
0001
0000
0100
0001
1000
0000
0010
0100
0001
0000
0010
0100
,
2000
0000
3100
1000
0002
0000
1003
0001
0020
0000
0130
1000
0020
0000
0130
0001
,
0010
0000
0010
0100
1000
0000
0010
0100
0001
0000
0001
0100
0010
0000
0010
1000
,
0002
0000
1003
0001
0200
0000
0310
1000
0002
0000
1003
0001
2000
0000
3001
0010
,
0100
0000
0100
1000
0001
0000
0001
0010
0100
0000
0010
0001
1000
0000
1000
0001
,
0200
0000
0310
0100
2000
0000
3100
0010
0200
0000
0310
1000
0002
0000
1003
0001
,
0010
0000
0100
0010
0001
0000
0010
0001
0100
0000
0001
1000
0010
0000
1000
0100
,
0002
0000
0103
0010
0002
0000
0013
0100
2000
0000
3100
1000
0002
0000
1003
0000
,
1100
0000
0010
0100
1000
0000
0100
0010
0001
0000
0010
0100
1000
0000
0100
0010
,
0001
0000
1000
0010
0100
0000
0001
0100
0010
0000
0010
1000
0001
0000
0100
0001
,
0100
0000
0010
1000
0100
0000
0010
0001
0100
0000
0010
1000
0100
0000
0100
0010
,
0001
0000
0010
0100
1000
0000
0010
0100
0001
0000
0100
0010
0100
0000
0010
1000
,
0010
0000
0100
0001
1000
0000
0100
1000
0001
0000
0010
0001
1000
0000
1000
0100
,
0010
0000
0100
1000
0001
0000
0010
0001
1000
0000
0100
1000
0100
0000
0010
0100
,
0001
0000
0100
0010
0100
0000
0010
0100
1000
0000
0001
1000
0010
0000
0020
0100
,
0030
0000
0200
1000
0300
0000
2000
0001
3000
0000
0001
0010
2100
0000
0000
0000
,
3001
0000
0000
0000
0010
0010
0010
0000
0110
0000
1001
0000
0101
0000
2020
0000
,
0000
3030
0000
0000
0000
0000
0000
0000
,
0201
0000
0000
0000
0301
0010
0100
1000
0010
0000
0110
0000
2010
0000
0000
0000
,
3002
0000
0000
0000
0000
0000
0000
0000
0003
0001
0000
0001
0000
0001
0000
0001
,
2001
0000
0000
0000
3000
0010
0100
0101
0000
0010
0100
1100
0000
0110
0000
1002
,
0000
0000
0000
0000
0003
0001
0100
0100
0000
0000
0000
0000
0000
0010
0000
0000
,
1000
0001
0000
0001
0000
0001
0100
0010
1000
0100
0010
0100
0000
0100
0001
0100
,
1000
0010
0001
0010
0000
0010
0100
0010
0000
0010
0000
0010
0000
0010
1000
0010
,
0100
0001
0000
0001
0000
1000
0100
0001
,
0000
0001
0000
0001
0000
0001
0110
0010
,
0001
1000
0000
1000
0000
1000
0010
0100
,
0000
0100
0000
0100
0000
0100
0110
0100
,
0101
0001
1000
0010
0000
0010
0001
0010
,
0000
0010
0000
0010
0000
0010
0110
1000
,
1001
0010
0100
0010
0000
0010
0001
0010
,
0000
0010
0000
0010
0000
0010
0100
0010
,
1000
0100
0010
0001
0001
0100
0010
1000
,
1000
0100
0010
0001
0001
0100
0010
0100
,
0001
0010
0100
1000
1000
0010
0100
0001
,
0001
1000
0010
0100
0001
1000
0001
0100
,
0010
1000
0010
0000
1000
0000
0001
0000
0100
0001
0100
0000
0001
0000
0100
0000
,
0001
0010
0001
0000
0010
0000
0100
0000
1000
0100
1000
0000
0010
0000
0100
0000
,
0010
0100
0010
0100
0001
1000
0001
1000
0100
0010
0100
0010
0001
0100
0001
0100
,
0010
0000
0000
1010
0000
1100
0000
0000
0110
0000
0010
0001
1000
0000
0000
0000
,
0011
0000
0001
0100
0010
0000
0010
0100
0001
0000
0001
0010
0100
0000
0100
0010
,
0001
0000
0001
0100
0010
0000
0010
1000
0001
0000
0001
0010
0100
0000
0100
1000
,
0100
0000
0010
0100
1000
0000
1000
0001
0100
0000
0100
0010
0100
0000
0100
0001
,
0010
0000
0010
0100
1000
0000
1000
0001
0100
0000
0100
0010
0100
0000
0100
0001
,
0100
0000
0010
1000
0100
0000
0100
1000
0001
0000
0001
0100
0010
0000
0010
0100
,
0001
0000
0001
0010
0100
0000
0100
1000
0010
0000
0010
0100
0001
0000
0001
1000
,
0001
0000
1000
0100
0010
0000
0010
0001
0010
0000
0010
0100
1000
0000
1000
0001
,
0100
0000
0100
0010
0100
0000
0100
0001
0010
0000
0100
0010
0100
0000
0000
0000
,
0010
0100
0010
0100
1000
0000
0100
0010
0100
0000
0010
0001
1000
0000
1000
0100
,
0010
0001
0010
0001
0100
0000
0010
0100
0010
0000
0100
0001
0100
0000
0010
1000
,
0100
0010
0100
0010
1000
0000
0010
0100
0010
0000
0100
1000
0100
0000
0010
0001
,
0100
0010
0100
0010
0001
0000
0010
1000
0010
0000
1000
0001
1000
0000
0100
1000
,
0100
0010
0001
0010
0001
0000
0100
0010
1000
0010
1000
0000
0001
0100
0010
0100
,
0001
1000
0001
0010
0100
0000
0100
1000
0001
1000
0010
0000
0100
0001
0010
0100
,
1000
0010
0100
0001
0010
0100
1000
0010
0100
0001
0010
0100
1000
0010
0100
0001
,
0100
0000
0020
1000
0030
0000
0002
0010
0003
0000
0100
1000
0110
0000
0000
0000
,
2002
0000
0000
0000
,
3003
0000
0000
0000
;

//---------------dance-single - KB----------------
#NOTEDATA:;
#CHARTNAME:;
#STEPSTYPE:dance-single;
#DESCRIPTION:KB;
#CHARTSTYLE:;
#DIFFICULTY:Challenge;
#METER:18;
#RADARVALUES:0.958766,0.838546,0.127052,0.149473,1.550787,898.000000,881.000000,17.000000,20.000000,0.000000,2.000000,0.000000,0.000000,0.000000,0.958766,0.838546,0.127052,0.149473,1.550787,898.000000,881.000000,17.000000,20.000000,0.000000,2.000000,0.000000,0.000000,0.000000;
#CREDIT:;
#NOTES:
// measure 0
0000
0000
0000
0000
,  // measure 1
0000
0000
0000
0000
,  // measure 2
1010
0000
0000
0000
0000
0000
0000
0000
0000
0101
0000
0000
0000
0000
0000
1001
0000
0000
0000
0000
0000
0000
0000
0000
0011
0000
0000
0000
0000
0000
0110
0000
0000
0000
0000
0000
1002
0000
0000
0000
0000
0000
0000
0000
0000
0000
0000
0003
,  // measure 3
1000
0100
0010
0100
1000
0100
0010
0100
1000
0001
0100
0001
1000
0001
0100
0001
,  // measure 4
1000
0100
0010
0001
1000
0100
0010
0001
1000
0010
0100
0001
1000
0010
0100
0001
,  // measure 5
1000
0010
0100
0010
1000
0010
0100
0010
1000
0001
0100
0001
1000
0001
0100
0001
,  // measure 6
1000
0100
1000
0100
0010
0001
0010
0001
0100
0010
0100
0010
1000
0100
1000
0100
,  // measure 7
1000
0100
0010
0100
1000
0001
0100
0001
1000
0100
0010
0100
1000
0001
0100
0001
,  // measure 8
1000
0010
0001
0010
0100
0010
0001
0010
1000
0100
0001
0100
0010
0100
0001
0100
,  // measure 9
1000
0010
1000
0010
0001
0010
0001
0010
1000
0100
1000
0100
0001
0100
0001
0100
,  // measure 10
0010
0000
0000
0000
0000
0000
0000
0000
0000
0000
0000
0000
0000
0000
0000
0000
0000
0000
0000
0000
0000
0000
0000
0000
0001
0000
0000
0000
0000
0000
0000
0000
0000
0000
0000
0000
0200
0000
0000
0000
0000
0000
0000
0000
0000
0000
0000
0000
0000
0000
0000
0000
0000
0000
0000
0000
0000
0000
0000
0000
0000
0000
0000
0000
0000
0000
0000
0000
0000
0000
0000
0000
1300
0000
0000
0000
0000
0000
0000
0000
0000
0000
0000
0000
0200
0000
0000
0000
0000
0000
0000
0000
0000
0000
0000
0000
0000
0000
0000
0000
0000
0000
0000
0000
0000
0000
0000
0000
0000
0000
0000
0000
0000
0000
0000
0000
0000
0000
0000
0000
0301
0000
0000
0000
0000
0000
0000
0000
0000
0000
0000
0000
0100
0000
0000
0000
0000
0000
0000
0000
0000
0000
0000
0000
0020
0000
0000
0000
0000
0000
0000
0000
0000
0000
0000
0000
0000
0000
0000
0000
0000
0000
0000
0000
0000
0000
0000
0000
0000
0000
0000
0000
0000
0000
0000
0000
0000
0000
0000
0000
0000
0000
0000
0000
0000
0000
0000
0000
0000
0000
0000
0030
,  // measure 11
0010
1000
0001
1000
0010
1000
0001
1000
0001
0010
0100
1000
0001
0010
0100
1000
,  // measure 12
0001
0100
0010
1000
0001
0100
0010
1000
0001
0010
0100
1000
0001
0100
0010
1000
,  // measure 13
0001
1000
0010
1000
0001
1000
0010
1000
0001
0100
0010
0100
0001
0100
0010
0100
,  // measure 14
0001
0010
0100
0010
0001
0010
0100
0010
0001
0100
1000
0100
0001
0100
1000
0100
,  // measure 15
0001
1000
0010
1000
0001
1000
0100
1000
0001
1000
0010
1000
0001
1000
0100
1000
,  // measure 16
0001
0010
0100
0010
1000
0010
0100
0010
0001
0100
0010
0100
1000
0100
0010
0100
,  // measure 17
0001
0010
0100
1000
0001
0010
0100
1000
0001
0100
0001
0100
0010
1000
0010
1000
,  // measure 18
0100
1000
0100
1000
0001
0010
0001
0010
0001
0100
0001
0100
0010
1000
0010
1000
,  // measure 19
0002
0000
1003
0010
0100
0001
0100
0010
1000
0100
0010
0001
0010
0100
1000
0010
,  // measure 20
1000
0010
0100
0001
0100
0010
1000
0010
1000
0100
0010
0001
0010
0100
1000
0100
,  // measure 21
1000
0010
0100
0001
0100
0010
1000
0001
1000
0010
0100
0001
0100
0010
1000
0001
,  // measure 22
1000
0100
0010
0001
0010
0100
1000
0001
1000
0100
0010
0001
0010
0100
1000
0001
,  // measure 23
1000
0100
0001
0100
1000
0100
0001
0100
1000
0010
0001
0010
1000
0010
0001
0010
,  // measure 24
1000
0001
0010
0001
1000
0001
0010
0001
1000
0100
0010
0100
1000
0100
0010
0100
,  // measure 25
1000
0010
1000
0010
1000
0100
1000
0100
0010
0001
0010
0001
0010
0100
0010
0100
,  // measure 26
0000
0000
1100
0001
0000
0000
0011
1000
0000
0000
1100
0001
0020
0000
0000
0000
,  // measure 27
1130
0000
0000
0000
0010
0100
0010
0000
0001
0000
0100
0000
0010
0000
2000
0020
,  // measure 28
0000
3030
0000
0000
0000
0000
0000
0000
,  // measure 29
0201
0000
0000
0000
0301
0010
0200
0300
0010
0000
0100
0000
0002
1000
0003
0000
,  // measure 30
0200
0000
0000
0000
0000
0000
0000
0000
0000
0000
0000
0000
0000
0000
0000
0000
0300
0000
0100
0010
0000
0000
0100
0010
0000
0000
0100
0010
0000
0000
0100
0010
,  // measure 31
0002
0000
0000
0000
0003
0010
0001
0100
0000
0010
1000
0100
0000
0110
0000
1002
,  // measure 32
0000
0100
0000
0100
0003
0010
0100
0010
0000
0010
0000
0010
0000
0010
0001
1000
,  // measure 33
0001
0100
0000
0100
0000
0100
0010
0100
1000
0100
0001
1000
0000
1000
0001
1000
,  // measure 34
0010
0100
0000
0100
0000
0100
0010
0100
0000
0100
0000
0100
0000
0100
0001
0100
,  // measure 35
0010
0000
1000
0100
1000
0000
0100
1000
0100
0000
0010
0100
0010
0000
0001
0010
,  // measure 36
0001
0000
0100
0001
0100
0000
0001
1000
0001
0000
0100
0001
0100
0000
0010
0100
,  // measure 37
0010
0000
1000
0010
1000
0000
0001
1000
0001
0000
1000
0010
1000
0000
0100
1000
,  // measure 38
0100
0000
0010
0100
0010
0000
0001
0010
0001
0000
0100
0001
0100
0000
0001
0010
,  // measure 39
0001
0000
0010
0100
0010
0000
0100
0010
0100
0000
1000
0100
1000
0000
0001
1000
,  // measure 40
0001
0000
1000
0100
1000
0000
0010
1000
0010
0000
0100
0010
0100
0000
0001
0100
,  // measure 41
0001
0000
1000
0001
1000
0000
0001
0100
0001
0000
0010
0001
0010
0000
0100
0010
,  // measure 42
0100
0000
1000
0100
1000
0000
0001
1000
0001
0000
1000
0100
1000
0000
0010
1000
,  // measure 43
0010
0000
0001
0010
0001
0000
0010
0100
0010
0000
1000
0010
1000
0000
0001
1000
,  // measure 44
0001
0000
1000
0001
1000
0000
0100
1000
0100
0000
0010
0001
0010
0000
0001
1000
,  // measure 45
0001
0000
0010
0100
0010
0000
0100
1000
0100
0000
0010
0001
0010
0000
0001
0100
,  // measure 46
0001
0000
1000
0010
1000
0000
0001
0100
0001
0000
1000
0001
1000
0000
0010
0100
,  // measure 47
0010
0000
1000
0010
1000
0000
0001
0100
0001
0000
0001
0010
0001
0000
0001
1000
,  // measure 48
0001
0000
1000
0010
1000
0000
1000
0001
1000
0000
1000
0100
1000
0000
1000
0100
,  // measure 49
0010
0100
1000
0100
0010
0100
1000
0100
0010
0001
1000
0001
0010
0001
1000
0001
,  // measure 50
0100
0000
0000
0110
0000
1001
0000
0000
1010
0000
0010
1000
0200
0000
0000
0000
,  // measure 51
0310
0001
0100
0010
0100
0001
0010
0100
0010
0001
0100
0010
0100
0001
0010
0001
,  // measure 52
0100
0010
1000
0001
0010
0100
1000
0100
0010
0100
0001
1000
0010
0100
0001
0100
,  // measure 53
1000
0001
0100
0010
0100
0001
0010
0100
1000
0001
0100
0010
0100
0001
0100
0010
,  // measure 54
1000
0100
1000
0001
0100
0010
0100
0001
0010
0100
1000
0010
0100
0001
1000
0001
,  // measure 55
1000
0100
0010
0001
0010
0100
1000
0001
0100
0010
0100
0001
0010
0100
0010
0100
,  // measure 56
1000
0100
0010
0001
0010
0100
1000
0001
0100
0010
0100
0001
0010
0100
1000
0100
,  // measure 57
0010
0100
0010
0100
1000
0100
0010
0100
0010
0001
1000
0100
0010
0001
0010
0001
,  // measure 58
0100
0010
0100
0010
0100
0001
0100
0010
1000
0100
0010
0100
0010
1000
0010
0100
,  // measure 59
0010
0100
1000
0100
0010
0001
0100
0010
0100
0010
0001
0010
1000
0010
1000
0001
,  // measure 60
1000
0100
1000
0100
0010
0001
0010
0001
0100
0010
1000
0010
1000
0001
0100
0010
,  // measure 61
0100
0001
1000
0001
0010
0100
1000
0001
1000
0010
0100
0001
0010
0100
1000
0010
,  // measure 62
0100
0001
0010
0100
1000
0010
0100
0001
0010
0100
1000
0010
0100
0001
0100
0001
,  // measure 63
0010
0100
0010
0100
1000
0001
0100
0010
0100
0010
1000
0001
0010
0100
1000
0001
,  // measure 64
0100
0010
0100
0010
1000
0001
0010
0100
0010
0100
1000
0001
0100
0010
1000
0001
,  // measure 65
0010
0100
0010
0100
1000
0010
0100
0001
0010
0001
0100
0010
1000
0100
0010
0001
,  // measure 66
0100
0000
0200
0001
0000
0000
0302
0010
0000
0000
0013
0001
0200
0000
0000
0000
,  // measure 67
0322
0000
0000
0000
,  // measure 68
0033
0000
0000
0000
;
