#TITLE:Don't Stop Movin;
#SUBTITLE:(Darts Remix);
#ARTIST:S Club 7;
#TITLETRANSLIT:;
#SUBTITLETRANSLIT:;
#ARTISTTRANSLIT:;
#CREDIT:;
#BANNER:Don't stop movin (Darts remix)-bn.png;
#BACKGROUND:Don't stop movin (Darts remix)-bg.png;
#LYRICSPATH:Don't Stop Movin (Darts Remix).lrc;
#CDTITLE:cdtitle.png;
#MUSIC:Don't Stop Movin' (Darts Remix).ogg;
#OFFSET:-5.687;
#SAMPLESTART:50.471;
#SAMPLELENGTH:12.000;
#SELECTABLE:YES;
#BPMS:0.000=170.014,169.000=85.007,181.000=170.014;
#STOPS:164.000=1.059
;
#BGCHANGES:;

//---------------dance-single - ----------------
#NOTES:
     dance-single:
     :
     Hard:
     9:
     0.625,0.580,0.352,0.342,0.090:
2000
0000
3001
0000
0001
1000
1001
0000
,
0020
0000
0130
0000
0100
0010
0110
0000
,
0002
0000
1003
0000
0010
1000
1010
0000
,
0200
0000
0301
0000
0100
0010
0110
0000
,
0010
0110
0001
1001
,
1001
0011
0101
0110
,
0010
0100
0010
0100
0010
0100
0010
0100
,
0010
0100
0001
1000
0001
1000
0001
1000
,
0002
0000
1003
0000
0010
1000
0001
0100
,
0010
0100
0001
0001
0001
0000
1001
0000
,
0002
0000
0013
0000
0100
1000
0010
1000
,
0001
0001
0001
1000
1000
0000
1010
0000
,
0200
0000
0301
0000
0100
0010
0100
0001
,
0010
0100
0010
0100
0010
0000
0110
0000
,
0002
0000
1003
0000
0010
1000
0010
0100
,
0002
0023
0230
1300
,
0001
1000
0100
0010
0002
0000
1003
0000
,
0010
0100
0001
0100
0010
0000
0110
0000
,
0010
1000
0100
1000
0100
0010
0001
0100
,
0010
0100
0001
0010
0100
1000
0001
0010
,
0002
0000
0013
0100
0010
0001
1000
0010
,
0000
1000
0001
0010
0000
0101
0000
1010
,
0000
0110
0000
1001
0000
0001
0010
0100
,
0000
0011
0000
1100
0000
0010
1000
0001
,
2000
0000
0010
0000
0001
0000
3001
0100
,
0010
0000
0010
0100
0001
0010
0001
0000
,
0001
1000
0010
1000
0001
0100
0010
0100
,
0002
0000
0023
0000
0230
0000
1300
0010
,
1020
0000
0100
0000
1030
0000
1000
0001
,
0020
0230
0310
0001
,
1001
0000
0010
0010
0010
0000
0010
0000
,
1000
0001
1000
0001
1000
0001
1000
0000
,
2001
0000
3001
0000
0001
0010
0100
0000
,
0100
0010
0001
1000
0010
0100
0010
0000
,
0010
1000
0001
0010
0100
1000
0001
1000
,
1002
1003
0120
1030
,
0010
1000
0100
0000
0010
0100
0010
0000
,
0100
1000
0010
0100
0010
0001
0010
0000
,
1000
0010
0100
0001
0100
0001
1000
0000
,
0100
0010
0001
1000
0010
0100
0001
0100
,
0100
0001
0100
1000
0100
0010
1000
0010
,
1000
2002
0000
0000
,
3003
0000
0000
0000
0001
0010
0001
0100
0001
0000
0100
0001
0000
0100
0000
0100
,
0000
0000
0000
0010
0000
0100
0001
0100
0001
1000
0001
1000
0000
1000
0000
1000
,
0000
0000
0001
0000
0100
0001
0000
0100
0000
0100
0000
0100
0000
0001
0000
1000
,
0000
0000
0000
0001
2000
0000
0000
0000
3000
0000
0000
0000
2002
0000
0000
0000
,
3003
1001
1001
2002
,
3003
0000
1001
0000
0100
0000
0001
0010
,
0001
0000
0010
0100
1000
0010
0100
0010
,
0100
0000
0100
0010
1000
0100
0010
0100
,
1000
0100
0010
0000
0010
0001
0100
0000
,
0100
0001
1000
0000
1001
0000
0010
1000
,
0010
0000
1000
0001
0010
0100
1000
0010
,
1000
0000
1000
0010
0100
0010
1000
0100
,
0010
0000
0100
0010
0100
0010
0100
1000
,
0001
0100
0010
1000
0100
0010
0001
0100
,
0010
0100
1002
0000
0103
0000
0001
0010
,
0001
0000
0120
0000
1030
0000
1000
0100
,
0010
0000
0120
0000
0130
0000
0100
1000
,
0010
0000
0102
0000
0013
0000
0010
0100
,
1000
0100
0020
0000
0130
0000
1000
0100
,
0010
0100
1000
0000
0100
0010
0001
0000
,
0100
0001
0100
0000
0010
1000
0010
0000
,
0100
0010
2000
0000
3001
0000
0100
0010
,
1000
0001
1001
0000
0000
0000
0000
0000
;

//---------------dance-single - ----------------
#NOTES:
     dance-single:
     :
     Medium:
     5:
     0.429,0.428,0.171,0.342,0.000:
2000
3010
0010
0010
,
2000
3010
0010
0010
,
0200
0301
0001
0001
,
0200
0000
0310
0000
0100
0010
0100
0000
,
0002
1003
0020
1030
,
0020
0130
0001
0001
,
0100
0010
0100
0000
0001
1000
0001
0000
,
0001
1000
0001
1000
0001
1000
0001
0000
,
0002
0000
0103
0000
0010
1000
0010
0000
,
0100
0100
1001
0000
,
0020
0000
0130
0000
0001
0100
0001
0000
,
0001
0001
0022
0033
,
0100
0000
1000
0000
0010
1000
0010
0000
,
0010
0100
0202
0303
,
0020
0000
1030
0000
0100
0010
0001
0000
,
0002
0023
0230
1300
,
0010
0000
1000
0010
0100
0000
0001
0000
,
0010
0001
0002
0000
,
1003
0000
0010
0000
1000
0010
1000
0000
,
0010
0100
0001
0010
,
0002
0000
2003
0000
,
3010
0010
0100
0010
,
0100
0110
0000
0001
,
0001
1000
0010
1000
,
2020
0000
0030
0000
,
3001
0001
1000
0001
,
0001
1000
0001
0000
0010
0100
0010
0000
,
0010
0100
0001
0010
,
2200
0000
0000
3300
,
0010
0010
0010
0010
,
2002
0000
0000
0000
,
3003
0000
0000
0000
,
1001
0010
0010
0000
,
0010
0100
0010
0100
0010
0100
0000
0000
,
0001
1000
0001
1000
0001
1000
0000
0000
,
0001
0001
1000
1000
,
0110
0000
1001
0000
0020
0000
0000
0030
,
0100
0010
0100
0010
0100
0010
0000
0000
,
0001
1000
0001
1000
0001
1000
0000
0000
,
0001
0001
1000
1000
,
0010
0100
0010
0000
0001
1000
0001
0000
,
1001
0000
0000
0000
,
0000
0000
1000
0000
0010
0000
1000
1000
,
0010
0000
1000
0000
0010
0000
0100
0001
,
0101
0002
2003
3020
,
0230
0300
1001
0000
0000
0000
0010
0000
,
0000
1001
0110
1001
,
0000
1001
0001
1000
,
0000
0000
0001
1000
0001
0000
0010
0000
,
0100
0000
0001
0010
0001
0000
0010
0000
,
0100
2000
0000
3020
,
0000
0000
0130
0000
0001
0000
1000
0001
,
1000
0010
0100
0010
,
1000
0000
0001
0010
0001
0000
0010
0000
,
0100
0000
1000
0010
1000
0000
0010
0000
,
0100
0000
0001
0010
0100
0000
1000
0010
,
1000
2000
3010
0100
,
0001
0020
0031
0100
,
0010
2000
3010
1000
,
0100
0000
0010
0000
0001
0000
0010
0001
,
0100
0010
0100
0000
0001
0000
0100
0000
,
0010
0100
0010
1000
,
0001
0010
0100
1000
,
0010
0000
1000
0000
0010
0000
0100
0010
,
0100
1001
0000
0000
;

//---------------dance-single - ----------------
#NOTES:
     dance-single:
     :
     Easy:
     3:
     0.265,0.275,0.038,0.190,0.000:
1000
0001
0000
0000
,
0010
0100
0000
0000
,
0100
0010
0000
0000
,
1000
0001
1000
0010
,
0100
0000
0001
0000
,
1000
0000
0010
0000
,
2002
0000
0000
3003
,
0001
0000
0001
0001
,
0001
1000
0010
0100
,
0001
1000
0001
0000
,
1000
0001
0010
0100
,
1000
0010
0100
0000
,
0010
0100
0001
0010
,
0100
1000
0001
0000
,
1000
1000
0001
1000
,
0020
0000
0130
0000
,
0010
0100
0010
1000
,
0001
0010
0100
0000
,
0100
1000
0010
0100
,
0001
0010
0001
0000
,
2000
0000
3000
0000
,
0002
0000
0003
0000
,
0200
0000
0300
0000
,
0010
0010
0010
0000
,
0020
0000
0000
0000
,
0100
0100
0100
0130
,
0010
0010
0100
0100
,
0020
0000
0230
0000
,
0302
0000
0000
0000
,
1000
1000
1000
1003
,
1001
0000
0000
0000
,
0000
0000
0000
0000
,
1001
0000
0010
0000
,
0100
0100
0010
0000
,
1000
0010
0100
0001
,
2000
0000
3002
0000
,
1003
0010
0100
0000
,
0010
1000
0001
0000
,
0001
0001
0002
0003
,
1000
1000
1000
0010
,
0100
0001
1000
0010
,
0100
0000
0000
0000
,
0000
1000
0000
0010
,
0000
0100
0000
0001
,
0000
2002
0000
3003
,
0000
0010
0000
0100
,
0000
0010
0100
0010
,
0000
1000
0001
1000
,
0000
0001
0010
0100
,
0000
1000
0010
0100
,
0001
2000
0000
3020
,
0000
0130
0001
0010
,
0000
0001
0100
0010
,
0000
1000
0010
0100
,
0000
0001
0001
1000
,
0001
1000
0010
0100
,
0001
1000
1000
0000
,
0000
0001
0001
0000
,
0000
1000
1000
0000
,
0000
0010
0010
0100
,
0010
1000
2000
3000
,
0000
0001
0002
0003
,
0000
0100
0200
0300
,
0000
0010
0010
1000
,
0001
1000
0000
0000
;
