#VERSION:0.83;
#TITLE:Cowboy;
#SUBTITLE:;
#ARTIST:Mad Max;
#TITLETRANSLIT:;
#SUBTITLETRANSLIT:;
#ARTISTTRANSLIT:;
#GENRE:;
#ORIGIN:;
#CREDIT:;
#BANNER:Cowboy-bn.png;
#BACKGROUND:Cowboy-bg.png;
#PREVIEWVID:;
#JACKET:;
#CDIMAGE:;
#DISCIMAGE:;
#LYRICSPATH:Cowboy.lrc;
#CDTITLE:cdtitle.png;
#MUSIC:Cowboy.mp3;
#OFFSET:-6.135000;
#SAMPLESTART:42.563999;
#SAMPLELENGTH:12.000000;
#SELECTABLE:YES;
#BPMS:0.000=158.000;
#STOPS:;
#DELAYS:;
#WARPS:;
#TIMESIGNATURES:0.000=4=4;
#TICKCOUNTS:0.000=4;
#COMBOS:0.000=1;
#SPEEDS:0.000=1.000=0.000=0;
#SCROLLS:0.000=1.000;
#FAKES:;
#LABELS:0.000=Song Start;
#BGCHANGES:;
#KEYSOUNDS:;
#ATTACKS:
;

//---------------dance-single - ----------------
#NOTEDATA:;
#CHARTNAME:;
#STEPSTYPE:dance-single;
#DESCRIPTION:;
#CHARTSTYLE:;
#DIFFICULTY:Medium;
#METER:9;
#RADARVALUES:0.557420,0.549665,0.517431,0.424124,0.067860,460.000000,399.000000,61.000000,50.000000,0.000000,0.000000,0.000000,0.000000,0.000000,0.557420,0.549665,0.517431,0.424124,0.067860,460.000000,399.000000,61.000000,50.000000,0.000000,0.000000,0.000000,0.000000,0.000000;
#CREDIT:;
#NOTES:
0010
1000
0000
0010
1000
0000
0010
0000
0000
0000
0100
0000
0001
0000
0100
0000
,
0001
0100
0000
0001
0100
0000
0010
0000
0000
0000
0100
0000
0001
0000
0100
0000
,
0001
0010
0000
0001
0010
0000
0001
0000
0000
0000
0010
0000
0100
0000
1000
0000
,
0100
1000
0000
0010
1000
0000
0010
0000
0000
0000
1000
0000
0010
0000
0100
0000
,
0001
0100
0020
0000
1030
0001
2000
0000
,
3020
0230
0302
2003
,
3010
1000
0010
0100
0001
0010
0001
0000
,
0010
0100
1000
0010
1000
0010
1000
0000
,
1001
0000
0000
0110
0000
0000
2002
0000
,
0000
0000
3003
0000
0100
1000
0100
1000
,
1010
0000
0000
0101
0000
0000
2002
0000
,
0003
0000
3010
0000
1000
0000
0100
1000
,
0011
0000
0000
1100
0000
0000
1001
0000
,
0000
1001
0000
0000
0200
0000
0310
0000
,
1000
0100
1000
0100
1000
0010
0000
0010
,
0000
0010
0100
0001
0100
0010
0000
0010
,
2000
3200
0320
0031
,
1001
0011
1100
0110
,
1002
0203
0320
1030
,
1001
0110
0011
1100
,
1001
2000
3200
0320
,
0030
0002
2003
3200
,
0300
0020
0230
1300
,
1001
1001
1001
1001
,
0001
1000
0010
1000
0010
0000
0100
0010
,
0000
2000
0000
0010
0000
3010
0100
0001
,
0100
0010
1000
0100
1000
0000
0010
2000
,
0000
0001
0000
0001
0000
3001
0010
0100
,
0010
0001
0100
0010
1000
0000
0010
0100
,
0001
1000
1000
0000
0001
0010
0001
0000
,
1001
1001
0011
1100
,
1010
1001
0110
0110
,
0001
1000
0010
1000
0010
0000
0010
0200
,
0000
0001
0000
0001
0000
0301
0010
0100
,
1000
0001
0100
0010
0100
0000
0010
0200
,
0000
0001
0000
0001
0000
0301
0100
0001
,
1000
0100
0010
0001
0001
0000
0100
0010
,
1000
0100
0010
0000
0001
0001
0001
0000
,
2000
3020
0230
0302
,
1003
0100
1000
0100
1000
0010
1000
0000
,
0001
0010
0000
0100
0010
0000
0001
0000
0000
0000
1000
0000
0010
0000
1000
0000
,
0001
0100
0000
0010
0100
0000
0001
0000
0000
0000
0100
0000
0010
0000
1000
0000
,
0001
0010
0000
0100
1000
0000
0100
0000
0000
0000
0010
0000
0100
0000
1000
0000
,
0010
1000
0000
0010
1000
0000
0010
0000
0000
0000
0100
0000
0010
0000
1000
0000
,
0001
1000
0002
0000
0103
0010
2000
0000
,
3001
1010
0001
1001
,
0010
0001
0010
0001
1000
0010
0100
0000
,
0001
1000
0001
1000
0010
1000
0001
0000
,
1001
0002
0203
0320
,
1030
0000
0010
1000
0010
0100
0001
0100
,
0010
0020
2030
3100
,
0010
0001
0010
0100
1000
0001
0010
0100
,
1000
0020
0130
0220
,
0330
0002
1003
2002
,
3003
0001
0001
1001
,
0110
1001
0110
1010
,
0010
1000
0010
1000
0010
0000
0100
0002
,
0000
1000
0000
1000
0000
1003
0010
1000
,
0010
0100
0001
0010
0100
0000
0100
2000
,
0000
0010
0000
0010
0000
3010
0100
0001
,
0100
0010
1000
0001
1001
0000
0010
0100
,
0010
0100
0110
0000
0001
0010
0110
0000
,
0011
0011
1100
1100
,
1001
0110
1001
0110
,
0010
1000
0001
1000
0001
0000
0001
2000
,
0000
0010
0000
0010
0000
3010
0100
0001
,
0100
0010
1000
0001
0010
0000
0100
0020
,
0000
0100
0000
0100
0000
0130
1000
0010
,
0100
0010
0100
0010
0110
0000
0001
1000
,
0001
1000
1001
0000
0001
0010
0011
0000
,
0011
0011
1100
1100
,
0010
1000
0010
0100
0001
0010
0100
0000
,
1001
0000
0000
0000
;

//---------------dance-single - ----------------
#NOTEDATA:;
#CHARTNAME:;
#STEPSTYPE:dance-single;
#DESCRIPTION:;
#CHARTSTYLE:;
#DIFFICULTY:Beginner;
#METER:3;
#RADARVALUES:0.327182,0.396980,0.229027,0.288404,0.000000,270.000000,243.000000,27.000000,34.000000,0.000000,0.000000,0.000000,0.000000,0.000000,0.327182,0.396980,0.229027,0.288404,0.000000,270.000000,243.000000,27.000000,34.000000,0.000000,0.000000,0.000000,0.000000,0.000000;
#CREDIT:;
#NOTES:
1000
1000
1000
0000
,
0001
0001
0001
0000
,
0010
0010
0010
0000
,
0100
0100
0100
0000
,
1000
0001
1000
0001
,
2000
3020
0230
0302
,
1003
1000
0001
0001
,
1000
0001
1000
0001
,
2000
0000
0000
3001
,
0000
0000
1000
0010
,
0200
0000
0000
0310
,
0000
0100
0010
0100
,
0020
0000
0000
0130
,
0000
0000
0001
1000
,
0001
1000
1001
0000
,
0010
0100
0110
0000
,
0010
0010
0010
0010
,
0100
0010
1000
0001
,
0010
0010
0010
0010
,
0001
0100
0010
1000
,
0000
2000
3020
0230
,
0300
0110
0110
0110
,
0000
0002
0023
0130
,
1001
0110
1001
0110
,
0001
0001
1000
0001
,
1000
0001
0000
1000
,
0010
0100
0001
0010
,
0001
0010
0100
1000
,
0010
0010
0010
0100
,
0010
0100
0010
0010
,
1001
0000
0110
0000
,
0011
0000
1100
0000
,
0001
1000
0001
1000
,
0010
1000
0000
0010
,
0100
0100
0010
1000
,
0001
0010
0001
1000
,
0001
1000
1001
0010
,
0100
0010
0100
0010
,
0200
0000
0000
0000
,
0010
0010
0010
0310
,
1000
1000
1000
0000
,
0010
0010
0010
0000
,
0100
0100
0100
0000
,
0010
0010
0010
0000
,
0100
0010
1000
0001
,
2000
3020
0230
0302
,
1003
1000
0001
1000
,
0001
0001
1000
0001
,
0100
0100
0100
0100
,
0010
0100
0001
1000
,
0100
0100
0100
0100
,
1000
0010
0100
0001
,
0000
0002
0203
0320
,
0030
1001
1001
1001
,
0000
2000
3200
0310
,
1001
0110
1001
0110
,
1000
1000
0001
1000
,
0001
2000
3000
0001
,
0100
0010
1000
0100
,
2000
3000
0010
0001
,
0100
0100
0100
0010
,
0100
0010
0100
0100
,
2002
3003
0220
0330
,
2200
3300
0022
0033
,
1000
0001
1000
0001
,
0100
0002
0003
0100
,
0010
0010
0100
0001
,
1000
0100
1000
0001
,
1000
0001
1001
0100
,
0010
0100
0010
0100
,
0020
0000
0000
0000
,
0100
0100
0100
0130
,
0110
0000
0000
0000
;

//---------------dance-single - ----------------
#NOTEDATA:;
#CHARTNAME:;
#STEPSTYPE:dance-single;
#DESCRIPTION:;
#CHARTSTYLE:;
#DIFFICULTY:Hard;
#METER:14;
#RADARVALUES:0.713740,0.916108,0.619221,0.534396,0.419883,589.000000,516.000000,73.000000,63.000000,0.000000,0.000000,0.000000,0.000000,0.000000,0.713740,0.916108,0.619221,0.534396,0.419883,589.000000,516.000000,73.000000,63.000000,0.000000,0.000000,0.000000,0.000000,0.000000;
#CREDIT:;
#NOTES:
// measure 0
0010
1000
0000
0010
1000
0000
0020
0000
0030
0100
0001
0000
0100
0000
0100
0000
,  // measure 1
0010
0100
0000
0010
0100
0000
0020
0000
0030
0100
0010
1000
0001
0100
0010
0000
,  // measure 2
1000
0001
0000
1000
0001
0000
1000
0001
0000
1000
0001
0000
0200
0000
0310
0000
,  // measure 3
1000
0100
0000
1000
0100
0000
1000
0000
0000
0000
0001
0100
0010
1000
0001
0000
,  // measure 4
0100
0010
1000
0001
0100
0010
0100
0001
0100
0010
1000
0100
1000
0010
0100
0001
,  // measure 5
2000
0000
0000
0000
3002
0000
0000
0000
0103
0010
1000
0100
0000
1001
0000
0010
,  // measure 6
0100
0001
0100
0001
1000
0010
1000
0010
0100
0010
0100
0001
1000
0001
0000
1000
,  // measure 7
0001
0100
0010
0200
0000
0310
0100
0001
1000
0010
0100
0001
1000
0000
0010
0000
,  // measure 8
0220
0000
0330
2002
0000
3003
0220
0000
,  // measure 9
0330
0200
0000
0310
1000
0010
0100
0001
,  // measure 10
2020
0000
3030
0202
0000
0303
2002
0000
,  // measure 11
3003
0000
0011
0000
0011
0000
0001
0100
,  // measure 12
2020
0000
3030
0202
0000
0303
2020
0000
,  // measure 13
3030
0002
0000
0000
1003
0000
1001
0000
,  // measure 14
0110
0110
0100
0010
0100
1001
0000
1001
,  // measure 15
0000
0000
0010
0000
0100
0000
0010
0000
0100
0000
1000
0001
0000
1000
0001
0000
,  // measure 16
2000
3010
0110
0110
,  // measure 17
0010
1000
0010
1000
0000
1010
0000
1010
,  // measure 18
0000
0010
0100
0001
0100
0001
0010
0100
,  // measure 19
0010
0001
0010
0100
0010
0001
0010
0002
,  // measure 20
0000
0023
0130
0220
,  // measure 21
0330
1001
1001
0220
,  // measure 22
0330
1010
1010
0101
,  // measure 23
2002
0000
0000
0000
3003
0000
0000
0000
0100
0001
0100
0001
1000
0010
1000
0010
,  // measure 24
1000
0001
0100
0010
0200
0000
0310
1000
,  // measure 25
0000
1010
0000
1010
0000
1000
0010
0100
,  // measure 26
0001
1000
0010
0100
0002
0000
1003
0010
,  // measure 27
0000
0110
0000
0110
0000
0110
0010
1000
,  // measure 28
0001
0001
0001
1000
1001
0000
0010
0010
,  // measure 29
0010
0100
0110
0000
0100
0010
0110
0000
,  // measure 30
1000
0010
0100
0001
0100
0010
1000
0010
,  // measure 31
0100
0001
1000
0010
0100
0001
1000
0000
,  // measure 32
0001
0100
0010
0100
0020
0000
0130
0010
,  // measure 33
0000
0110
0000
1001
0000
0001
0010
0100
,  // measure 34
0010
0001
1000
0010
0200
0000
0310
0100
,  // measure 35
0000
1010
0000
0101
0000
0010
0010
0100
,  // measure 36
0001
0100
0010
0100
0101
0000
0010
1000
,  // measure 37
0100
1000
0110
0000
0001
0010
0011
0000
,  // measure 38
0002
0000
2003
0000
3010
1000
0010
0100
,  // measure 39
0001
0000
0100
0000
0010
0000
0100
0000
0001
0000
1000
0000
0001
1000
0001
1000
,  // measure 40
0010
1000
0000
0010
1000
0000
0020
0000
0030
0100
0001
0000
0100
0000
0100
0000
,  // measure 41
0010
0100
0000
0010
0100
0000
0020
0000
0030
0100
0010
1000
0001
0100
0010
0000
,  // measure 42
1000
0001
0000
1000
0001
0000
1000
0001
0000
1000
0001
0000
0200
0000
0310
0000
,  // measure 43
1000
0100
0000
1000
0100
0000
0100
0000
0000
0000
1000
0100
0010
0001
1000
0000
,  // measure 44
0010
0100
0001
1000
0010
0100
0010
1000
0010
0100
0001
0010
0001
0100
0010
1000
,  // measure 45
0002
0000
0000
0000
2003
0000
0000
0000
3010
0100
0001
0010
0000
1001
0000
0100
,  // measure 46
0010
1000
0010
1000
0001
0100
0001
0100
0010
0100
0010
1000
0001
1000
0000
0001
,  // measure 47
1000
0010
0100
0020
0000
0130
0010
1000
0001
0100
0010
1000
0001
0000
0100
0000
,  // measure 48
0002
0103
0110
0110
,  // measure 49
0100
0001
0100
0001
0000
0101
0000
0101
,  // measure 50
0000
0100
0010
1000
0010
1000
0100
0010
,  // measure 51
0100
1000
0100
0010
0100
1000
0100
2000
,  // measure 52
0000
3200
0310
0220
,  // measure 53
0330
1001
1001
0220
,  // measure 54
0330
0101
0101
1010
,  // measure 55
2002
0000
0000
0000
3003
0000
0000
0000
0010
1000
0010
1000
0001
0100
0001
0100
,  // measure 56
0001
1000
0010
0100
0020
0000
0130
0001
,  // measure 57
0000
0101
0000
0101
0000
0001
0100
0010
,  // measure 58
1000
0001
0100
0010
2000
0000
3001
0100
,  // measure 59
0000
0110
0000
0110
0000
0110
0100
0001
,  // measure 60
1000
1000
1000
0001
1001
0000
0100
0100
,  // measure 61
0100
0010
0110
0000
0010
0100
0110
0000
,  // measure 62
0001
1000
0001
1000
0010
0100
0020
0000
0000
0000
0000
0000
1030
0000
0100
0000
,  // measure 63
0010
0001
1000
0100
1000
0010
0100
0000
,  // measure 64
0010
0100
0001
0100
0002
0000
0013
0100
,  // measure 65
0000
1100
0000
1010
0000
0010
0100
0001
,  // measure 66
0100
0010
1000
0100
0020
0000
0130
1000
,  // measure 67
0000
1100
0000
0011
0000
0100
0100
0001
,  // measure 68
0010
0001
0100
0001
0011
0000
0100
1000
,  // measure 69
0001
1000
0101
0000
0010
0100
0110
0000
,  // measure 70
0020
0000
2030
0000
3100
1000
0010
1000
,  // measure 71
0001
0100
0001
0100
0010
0100
0001
0000
,  // measure 72
1001
0000
0000
0000
;

//---------------dance-single - ----------------
#NOTEDATA:;
#CHARTNAME:;
#STEPSTYPE:dance-single;
#DESCRIPTION:;
#CHARTSTYLE:;
#DIFFICULTY:Easy;
#METER:5;
#RADARVALUES:0.432607,0.427517,0.135720,0.296887,0.000000,357.000000,341.000000,16.000000,35.000000,0.000000,0.000000,0.000000,0.000000,0.000000,0.432607,0.427517,0.135720,0.296887,0.000000,357.000000,341.000000,16.000000,35.000000,0.000000,0.000000,0.000000,0.000000,0.000000;
#CREDIT:;
#NOTES:
1000
0010
1000
0000
0100
0000
0001
0000
,
0001
1000
0001
0000
1000
0000
0010
0000
,
1000
0010
1000
0000
0010
0000
0100
0000
,
0001
0100
0001
0000
0100
0000
0010
0000
,
0010
1000
0010
0000
0010
0100
0010
0000
,
2000
3020
0230
0301
,
0001
2000
3010
2000
,
3010
1000
0010
0000
0100
0001
0100
0000
,
0020
0000
0000
0230
0000
0000
0320
0000
,
0000
0030
1000
0001
,
2000
0000
0000
3002
0000
0000
2003
0000
,
0000
3010
0100
0001
,
0011
0000
0000
1100
0000
0000
1001
0000
,
0000
0110
0000
0000
1001
0000
0001
0000
,
0001
0000
1000
0000
0010
1000
0000
0110
,
0000
0010
0100
0000
0001
0000
1000
0000
,
0002
1000
0100
1003
,
0010
0000
0100
0000
0001
0100
0010
0000
,
2000
0010
0001
3100
,
0100
1000
0010
1000
0010
1000
0010
0100
,
0010
0100
0001
0202
,
0303
0010
1000
2020
,
3030
1010
1010
0101
,
2002
0000
0000
3003
,
0001
1000
0001
1000
0001
0000
1000
0000
,
0010
0100
0001
1000
,
0100
0010
0100
0010
0100
0000
0010
0000
,
0001
1000
0010
0100
,
0010
1000
0010
1000
0010
0000
0100
0001
,
0100
0001
0100
0000
0010
1000
0010
0000
,
2000
0001
0010
3001
,
0002
1000
0100
1003
,
0010
0001
0100
0010
,
1000
0010
1000
0000
0010
0100
0010
0000
,
0001
1000
0001
0010
,
0001
0100
0001
0000
0100
0010
0100
0000
,
0010
1000
0010
1000
0010
0000
0100
0010
,
0100
0010
0100
0000
0010
1000
0010
0000
,
2000
0000
0001
0001
,
0001
0000
0001
0000
0001
0001
3001
0000
,
1000
0010
1000
0000
0010
0000
0100
0000
,
0001
0100
0001
0000
0100
0000
0010
0000
,
1000
0010
1000
0000
0001
0000
0010
0000
,
0100
0010
0001
0000
0010
0000
0001
0000
,
1000
0001
1000
0000
0010
0100
0010
0000
,
2000
3020
0230
0302
,
0013
0001
0010
0001
0010
0001
0010
0000
,
0100
1000
0100
0000
1000
0010
0100
0000
,
0010
1000
0001
1000
,
0001
1000
0001
1000
0000
0010
1000
0010
,
1000
0010
0100
0001
,
1000
0010
1000
0010
0000
0010
0100
0001
,
0010
0100
0010
0022
,
0033
0100
1000
2020
,
3030
0010
0010
0100
,
0220
0330
0010
0010
,
1000
0001
1000
0001
1000
0000
0001
0000
,
0100
0010
1000
0001
,
0010
0100
0010
0100
0010
0000
0100
0000
,
1000
0001
0100
0010
,
0100
0001
0100
0001
0100
0000
0010
1000
,
0010
1000
0010
0000
0100
0001
0100
0000
,
0002
1000
0100
1003
,
2000
0001
0010
3001
,
0100
1000
0010
0100
,
0001
0100
0001
0000
0100
0010
0100
0000
,
1000
0001
1000
0100
,
1000
0010
1000
0000
0010
0100
0010
0000
,
0100
0001
0100
0001
0100
0000
0010
0100
,
0010
0100
0010
0000
0100
0001
0100
0000
,
0002
0000
1000
1000
,
1000
0000
1000
0000
1000
1000
1003
0000
,
1001
0000
0000
0000
;
