#TITLE:Clear your Mind;
#SUBTITLE:(DDR VER.);
#ARTIST:TaQ;
#TITLETRANSLIT:;
#SUBTITLETRANSLIT:;
#ARTISTTRANSLIT:;
#GENRE:;
#CREDIT:;
#MENUCOLOR:;
#METERTYPE:DDR;
#BANNER:maroclearyourmindddr bn.png;
#BACKGROUND:maroclearyourmindddr bg.png;
#LYRICSPATH:;
#CDTITLE:cdtitle2.png;
#MUSIC:Clear your mind (original version).mp3;
#OFFSET:-0.162;
#SAMPLESTART:41.299;
#SAMPLELENGTH:12.000;
#SELECTABLE:YES;
#LISTSORT:;
#BPMS:0.000=72.495,48.000=144.990,272.000=72.495,280.000=144.990,340.000=72.495,341.000=289.980,345.000=144.990,473.000=144.990,474.000=126.868,475.000=108.745,476.000=90.622,477.000=72.495,478.000=50.492,479.000=36.245,495.000=72.485,518.000=144.990,653.000=289.980,655.000=144.990,686.000=289.980,688.000=144.990,780.000=72.495,782.000=144.990,850.000=129.728,854.000=110.185,858.000=91.482,862.000=72.495,932.000=67.275,933.000=59.655,934.000=49.635;
#STOPS:;
#BGCHANGES:;
#ATTACKS:;

//---------------dance-single - maro----------------
#NOTES:
     dance-single:
     maro:
     Easy:
     4:
     0.239,0.332,0.110,0.144,0.003:
0000
0000
0000
0000
,
0000
0000
0000
0000
,
0000
0000
0000
0000
,
0000
0000
0000
0000
,
0000
0000
0000
0000
,
0000
0000
0000
0000
,
0000
0000
0000
0000
,
2000
3000
0020
0030
,
0200
0300
0002
0003
,
2000
3000
0002
0003
,
0020
0030
0200
0300
,
2000
3000
0020
0030
,
0100
0100
0100
0000
,
0001
0001
0001
0000
,
1000
1000
1000
0000
,
0100
0100
0100
0000
,
0010
0010
0010
0000
,
0001
0001
0001
0000
,
0100
0100
0100
0000
,
0010
0010
0010
1010
,
1000
0010
1000
0010
,
0100
0100
0100
0100
,
0001
1000
0001
1000
,
0100
0100
0100
0100
,
0010
0001
0010
0001
,
0100
0100
0100
0100
,
0010
1000
0010
1000
,
0001
0001
0001
0001
,
1000
0010
1010
0000
,
0100
0001
0101
0000
,
0001
1000
1001
0000
,
1000
0010
1010
0000
,
0010
0100
0101
0000
,
0001
0010
0011
0000
,
0001
1000
1100
0000
,
0010
0001
0101
1000
,
1000
1000
1000
0000
0100
0000
0000
0000
,
0010
0010
0010
0000
0001
0000
0000
0000
,
0100
0100
0100
0000
0010
0000
0000
0000
,
1000
1000
1000
0000
0010
0000
0000
0000
,
0100
0100
0100
0000
0001
0000
0000
0000
,
1000
1000
1000
0000
0001
0000
0000
0000
,
0100
0100
0100
0000
0010
0000
0000
0000
,
0010
0010
0010
0000
1000
0000
0000
0000
,
0010
0010
0010
0000
2000
0000
0000
0000
,
3001
0001
0001
0000
0200
0000
0000
0000
,
0310
0010
0010
0000
2000
0000
0000
0000
,
3100
0100
0100
0000
0020
0000
0000
0000
,
0031
0001
0001
0000
0200
0000
0000
0000
,
0310
0010
0010
0000
2000
0000
0000
0000
,
3010
0010
0010
0000
0200
0000
0000
0000
,
0301
0001
0001
0000
2000
0000
0100
0000
,
3001
0100
0010
1000
,
0100
0010
0001
0100
,
0010
0100
0001
1000
,
0010
0100
0001
1000
,
0100
0010
0001
0100
,
0010
0100
0001
1000
,
0010
0100
0001
1000
,
0010
0100
0001
1000
,
0001
0000
0100
0000
0010
0010
0010
0000
,
1000
0000
0100
0000
0010
0010
0010
0000
,
0001
0000
0100
0000
0010
0010
0010
0000
,
0100
0000
0001
0000
1000
1000
1000
0000
,
0010
0000
0100
0000
0001
0001
0001
0000
,
1000
0000
0100
0000
0010
0010
0010
0000
,
0001
0000
0100
0000
0010
0010
0010
0000
,
1000
0010
0100
0001
,
0202
0000
0000
0000
,
0000
0000
0000
0303
,
0010
1000
0100
0010
,
0001
0100
0010
1000
,
0100
0010
0001
0100
,
0010
1000
0010
0100
,
0001
1000
0100
0010
,
0001
0100
0010
0100
,
0001
0010
0100
1000
,
0010
0100
0001
1000
,
0100
0100
0200
0000
,
0310
0010
0020
0000
,
0031
0001
0002
0000
,
0103
0100
0200
0000
,
0310
0010
0020
0000
,
1030
1000
2000
0000
,
3001
0001
0002
0000
,
0000
0000
0000
0000
,
0000
1003
0100
1000
,
0010
0101
0101
0101
,
0101
0001
1000
0100
,
0100
0110
0110
0110
,
0110
0010
0001
0100
,
0100
1010
1010
1010
,
1010
0100
0001
1000
,
1000
1100
1100
1100
,
1100
0000
0010
0001
0010
0000
0002
0000
,
0000
0000
1003
1000
1000
0000
1010
0000
,
0000
0000
0100
0001
1000
0000
0200
0000
,
0000
0000
0310
0010
0010
0000
0011
0000
,
0000
0000
0001
0100
0010
0000
2000
0000
,
0000
0000
3010
0010
0010
0000
0110
0000
,
0000
0000
0100
0001
1000
0000
0200
0000
,
0000
0000
0310
0010
0010
0000
1001
0000
,
0100
0001
0001
1000
,
0100
0010
0001
0100
,
0010
1000
1000
0010
,
0100
0001
1000
0100
,
0010
0001
0001
0100
,
0010
0100
0001
1000
,
0010
0100
0100
0001
,
1000
0010
0100
0001
,
1000
0200
0000
0320
,
0000
0032
0000
0203
,
0000
0320
0000
2030
,
0000
3002
0000
0203
,
0000
0320
0000
0230
,
0000
0302
0000
2003
,
0000
3200
0000
0320
,
0000
0032
0000
2003
,
0000
0020
0000
0000
,
0000
0000
0000
0000
,
0000
0000
0000
0000
,
0000
0000
0000
0000
,
0000
0000
0000
0000
,
0000
0000
0000
3030
,
0000
0000
0000
0000
0000
0000
0000
2000
,
0000
0000
0000
0000
0000
0000
0000
0000
0000
0000
0000
3000
0000
0000
0000
0000
0000
0000
0000
0000
0000
0000
0000
0000
0000
0000
0000
0000
0002
0000
0000
0000
,
0000
0000
0000
0000
0000
0000
0000
0000
0000
0000
0000
0003
0000
0000
0000
0000
0000
0000
0000
0000
0000
0000
0000
0000
0000
0000
0000
0000
0200
0000
0000
0000
,
0000
0000
0000
0000
0000
0000
0000
0000
0000
0000
0000
0300
0000
0000
0000
0000
0000
0000
0000
0000
0000
0000
0000
0000
0000
0000
0000
0000
0020
0000
0000
0000
,
0000
0000
0000
0000
0000
0000
0000
0000
0000
0000
0000
0030
0000
0000
0000
0000
0000
0000
0000
0000
0000
0000
0000
0000
0000
0000
0000
0000
2000
0000
0000
0000
,
0000
0000
0000
0000
0000
0000
0000
0000
0000
0000
0000
3000
0000
0000
0000
0000
0000
0000
0000
0000
0000
0000
0000
0000
0000
0000
0000
0000
0000
0000
0000
0000
,
0000
0000
0000
0000
,
0000
0000
1000
0010
,
0100
0001
1000
0100
,
0011
0011
0001
0100
,
0010
1000
0001
0100
,
0101
0101
0001
0100
,
0010
1000
0100
0010
,
0011
0011
0001
0100
,
0010
1000
0100
1000
,
1010
0000
1010
0000
0100
0100
0100
0000
,
0001
1000
0100
0010
,
0011
0000
0011
0000
0001
0001
0001
0000
,
0100
0010
1000
0010
,
0110
0000
0110
0000
0100
0100
0100
0000
,
0001
1000
0100
0010
,
0011
0000
0011
0000
0001
0001
0001
0000
,
0100
0010
2000
0000
,
0000
0000
3010
0010
,
0010
0100
0001
1000
,
0100
0010
0001
0001
,
0001
0100
0010
1000
,
0010
0100
0001
0001
,
0001
1000
0010
0100
,
0010
1000
0100
0100
,
0100
0010
0001
0100
,
0010
1000
0001
0100
,
0010
0000
1000
0100
,
0010
0000
0001
1000
,
0100
0000
1000
0001
,
0100
0000
0001
1000
,
0010
0000
1000
0001
,
0010
0000
0001
0100
,
0010
0000
2000
0000
,
0000
0000
0000
3010
,
0000
0100
0000
0001
,
0000
1000
0000
0100
,
0000
0010
0000
0001
,
0000
0100
0000
0010
,
0000
1000
0000
0010
,
0000
0100
0000
0001
,
0000
1000
0000
0100
,
0000
0020
0000
0000
,
0031
0000
0100
0000
,
0010
0000
1000
0000
,
0001
0000
0100
0000
,
0010
0000
0100
0000
,
0001
0000
1000
0000
,
0100
0000
1000
0000
,
0010
0000
0100
0000
,
0002
0000
0000
0000
,
1003
1000
1000
1000
,
0010
0100
0001
0100
,
0010
0010
0010
0010
,
0100
0001
1000
0100
,
0010
0010
0010
0010
,
0001
0100
0010
1000
,
0001
0001
0001
0001
,
0100
0010
1000
0001
,
0100
0010
1010
0000
,
1000
1000
1000
0000
1100
0000
0000
0000
,
0010
0001
0101
0000
,
0001
0001
0001
0000
0101
0000
0000
0000
,
0100
0010
1001
0000
,
0010
0010
0010
0000
1001
0000
0000
0000
,
1000
0100
0011
0000
,
1001
0000
1000
0010
,
0100
0000
0001
1000
,
0100
0000
0010
0001
,
0100
0000
0010
1000
,
0001
0000
0100
0001
,
1000
0000
0100
0010
,
0001
0000
0100
0010
,
1000
0000
0001
0100
,
0001
0000
1000
1000
,
1000
0010
0100
0100
,
0100
0000
0001
0001
,
0001
1000
0100
0100
,
0100
0000
0010
0010
,
0010
0001
0100
0100
,
0100
0000
0010
0010
,
0010
1000
0001
0001
,
0001
0000
0200
0000
,
0000
0000
0320
0000
,
0000
0000
0000
0000
0000
0000
0000
0000
0000
0000
0000
0000
0000
0000
0000
0000
0000
0000
0000
2030
0000
0000
0000
0000
0000
0000
0000
0000
0000
0000
0000
0000
0000
0000
0000
0000
0000
0000
0000
0000
0000
0000
0000
0000
0000
0000
0000
0000
,
0000
0000
0000
0000
0000
0000
0000
0000
3002
0000
0000
0000
0000
0000
0000
0000
0000
0000
0000
0000
0000
0000
0000
0000
0000
0000
0000
0000
0000
0000
0000
0000
0000
0000
0000
0000
0000
0000
0000
0000
0000
2003
0000
0000
0000
0000
0000
0000
,
0000
0000
3002
0000
,
2003
0000
3002
0000
,
2003
0000
3002
0000
,
2000
0000
0000
0000
,
0000
0000
0000
0000
,
0000
0000
0000
0000
,
0000
0000
0000
0000
,
0000
0000
0000
0000
,
0000
0000
0000
3003
;

//---------------dance-single - maro----------------
#NOTES:
     dance-single:
     maro:
     Medium:
     7:
     0.344,0.380,0.195,0.114,0.061:
0000
0000
0000
0000
,
0000
0000
0000
0000
,
0000
0000
0000
0000
,
0000
0000
0000
0000
,
0000
0000
0000
0000
,
1000
1000
1000
1000
,
0010
0010
0010
0010
,
0100
0100
0100
0100
,
0001
0001
0001
0001
,
1000
1000
1000
1000
,
0001
0001
0001
0001
,
0100
0010
0100
0010
,
0100
0001
0100
0001
,
1000
1000
1000
1000
,
0010
1000
0010
1000
,
0100
0100
0100
0100
,
0010
0001
0010
0001
,
1000
1000
1000
1000
,
0010
0100
0001
1000
,
0100
0000
0100
0000
0100
0000
0010
0010
,
0001
1000
0001
0000
0100
0000
0010
0000
,
1000
0010
1000
0000
0001
0000
0100
0000
,
0010
0100
0010
0000
0100
0000
0001
0000
,
1000
0100
1000
0000
0010
0000
0100
0000
,
0001
0010
0001
0000
1000
0000
0010
0000
,
0100
0001
0100
0000
0010
0000
1000
0000
,
0001
0100
0001
0000
1000
0000
0100
0000
,
0010
0001
0010
0000
0100
0000
1000
0000
,
0010
0100
0001
0000
0101
0000
0101
0000
,
0001
1000
0100
0000
1100
0000
1100
0000
,
0010
0001
1000
0000
1010
0000
1010
0000
,
1000
0001
0010
0000
0011
0000
0011
0000
,
0001
0100
0010
0000
1010
0000
0110
0000
,
0100
0001
0010
0000
0011
0000
0110
0000
,
0100
1000
0001
0000
1001
0000
1001
0000
,
0001
0100
0010
0000
1000
0010
0100
0001
,
1000
0000
1000
0000
0001
0000
0100
0010
0000
0000
0000
0000
0000
0000
0000
0000
,
0010
0000
0010
0000
1000
0000
0001
0100
0000
0000
0000
0000
0000
0000
0000
0000
,
0001
0000
0001
0000
1000
0000
0100
0010
0000
0000
0000
0000
0000
0000
0000
0000
,
0010
0000
0010
0000
0001
0000
1000
0010
0000
0000
0000
0000
0000
0000
0000
0000
,
0100
0000
0100
0000
0001
0000
1000
0100
0000
0000
0000
0000
0000
0000
0000
0000
,
0010
0000
0010
0000
0001
0000
0100
0010
0000
0000
0000
0000
0000
0000
0000
0000
,
1000
0000
0010
0000
0100
0000
0001
1000
0000
0000
0000
0000
0000
0000
0000
0000
,
0100
0000
0100
0000
0010
0000
0001
1000
0000
0000
0000
0000
0000
0000
1000
0000
,
0010
0000
0100
0000
0001
0000
1000
0020
0000
0000
0000
0000
0000
0000
0130
0000
,
0100
0000
0001
0000
1000
0000
0100
0020
0000
0000
0000
0000
0000
0000
0031
0000
,
0001
0000
0100
0000
0010
0000
1000
0020
0000
0000
0000
0000
0000
0000
0130
0000
,
0100
0000
0001
0000
1000
0000
0001
0200
0000
0000
0000
0000
0000
0000
0301
0000
,
0001
0000
1000
0000
0100
0000
0010
0002
0000
0000
0000
0000
0000
0000
1003
0000
,
1000
0000
0100
0000
1000
0000
0010
0200
0000
0000
0000
0000
0000
0000
0301
0000
,
0001
0000
0100
0000
0010
0000
1000
0020
0000
0000
0000
0000
0000
0000
0130
0000
,
0001
0000
1000
0000
0100
0000
0010
0002
0000
0000
0000
0000
0000
0000
0103
0000
,
0100
0001
1000
0000
0100
0010
0001
0000
,
0101
0000
1010
0000
0010
0100
0001
0000
,
1000
0100
0010
0000
0001
0100
0010
0000
,
1010
0000
0110
0000
0100
0001
1000
0000
,
0001
1000
0001
0000
1000
0001
1000
0000
,
0101
0000
1100
0000
0010
0001
0100
0000
,
0010
1000
0001
0000
1000
0001
0100
0000
,
1010
0000
0101
0000
0001
0100
0001
0100
,
0001
1000
0100
1000
0010
0000
0110
0000
,
1000
0100
0001
0000
0001
0100
1000
0000
,
0010
1000
0100
0010
0001
0000
0101
0000
,
0001
0010
1000
0000
1000
0010
0001
0000
,
0100
0010
1000
0001
0100
0000
0101
0000
,
0100
0010
1000
0000
0100
0010
0001
0000
,
0001
0100
0010
1000
0100
0000
1100
0000
,
1000
0100
0001
0000
0001
0100
1000
0010
,
0200
0000
0000
0000
0000
0000
0000
0000
0000
0000
0000
0000
0000
0000
0000
0002
0300
0000
0000
0000
0000
0000
0000
0000
0000
0000
0000
0000
0000
0000
0000
2000
,
0003
0000
0000
0000
0000
0000
0000
0000
0000
0000
0000
0000
0000
0000
0000
0200
3000
0000
0000
0000
0000
0000
0000
0000
0000
0000
0000
0000
0000
0000
0000
0000
,
0310
0001
1000
0001
0100
0001
1000
0000
,
1000
0000
1100
0000
0010
0001
0100
0000
,
1000
0010
1000
0001
1000
0100
1000
0000
,
0001
0000
0101
0000
0001
0100
0010
0000
,
1000
0010
0001
0010
1000
0100
0010
0000
,
0001
0000
0101
0000
0001
0100
0010
0000
,
1000
0100
0001
0100
1000
0010
0100
0000
,
0001
0000
0101
0000
0001
1000
0001
0000
,
0100
0010
0100
0010
0100
0010
0100
0000
,
0001
1000
0001
1000
0001
1000
0001
0000
,
1000
0100
1000
0100
1000
0100
1000
0000
,
0010
0100
0010
0100
0010
0100
0010
0000
,
0100
0001
0100
0001
0100
0001
0100
0000
,
0001
1000
0001
1000
0001
1000
0001
0000
,
1000
0010
1000
0010
1000
0010
1000
0010
,
0200
0000
0000
0000
,
0000
0000
0310
0010
0010
0000
1001
0000
,
0000
0000
0001
0100
0010
0000
1010
0000
,
0000
0000
1000
1000
1000
0000
1100
0000
,
0000
0000
0010
0001
0100
0000
0110
0000
,
0000
0000
0100
0100
0100
0000
1001
0000
,
0000
0000
1000
0100
0010
0000
0011
0000
,
0000
0000
0001
0001
0001
0000
0101
0000
,
0000
0000
0001
0100
0010
0000
1010
0000
,
0100
0001
1000
0000
0010
0000
0100
0000
,
0001
0100
0010
1000
,
0100
0001
0010
1000
,
0100
0001
0100
1000
,
0010
0001
0100
1000
,
0010
0001
0100
0010
,
1000
0001
0100
0010
,
1000
0001
0100
0010
,
1000
1001
0010
1001
,
0100
0000
0010
1000
0001
0000
0100
0000
,
0100
0101
1000
1010
,
0010
0000
0100
0001
1000
0000
0100
0000
,
0100
0011
1000
1010
,
0100
0000
0001
0100
0001
0000
1000
0000
,
0100
0011
1000
1100
,
0100
0000
0010
0001
1000
0000
0100
0000
,
0100
1000
1000
1000
,
1000
0001
0001
0001
,
0001
0100
0100
0100
,
0100
0010
0010
0010
,
0010
1000
1000
1000
,
1000
0010
0010
0010
,
0010
0100
0100
0100
,
0100
0001
0001
0001
,
0001
0202
0000
0000
,
0000
0000
0000
0000
,
0000
0000
0000
0000
,
0000
0000
0000
0000
,
0000
0000
0000
0000
,
0000
0000
0000
0303
,
0000
0000
0000
0000
0000
0000
0000
0002
,
0000
0000
0000
0000
0000
0000
0000
0100
0000
0000
0000
0103
0000
0000
0000
0000
0000
0000
0000
0000
0000
0000
0000
0000
0000
0000
0000
0000
2000
0000
0000
0000
,
0000
0000
0000
0000
0000
0000
0000
0010
0000
0000
0000
3010
0000
0000
0000
0000
0000
0000
0000
0000
0000
0000
0000
0000
0000
0000
0000
0000
0200
0000
0000
0000
,
0000
0000
0000
0000
0000
0000
0000
0001
0000
0000
0000
0301
0000
0000
0000
0000
0000
0000
0000
0000
0000
0000
0000
0000
0000
0000
0000
0000
0002
0000
0000
0000
,
0000
0000
0000
0000
0000
0000
0000
0010
0000
0000
0000
0013
0000
0000
0000
0000
0000
0000
0000
0000
0000
0000
0000
0000
0000
0000
0000
0000
0200
0000
0000
0000
,
0000
0000
0000
0000
0000
0000
0000
0010
0000
0000
0000
0020
0000
0000
0000
0000
0000
0000
0000
0000
0000
0000
0000
0000
0000
0000
0000
0000
0000
0000
0000
0000
,
0000
0000
0000
0000
,
0000
0000
0000
0330
0010
0000
0010
0000
,
0010
0000
0010
1000
0001
1000
0100
1000
,
0001
0100
0001
0001
,
0001
0000
0100
0010
1000
0010
0100
0001
,
1000
0100
0010
0010
,
0010
0000
0001
0100
0010
1000
0010
0100
,
0001
1000
0010
0010
,
0010
0000
0100
0001
0100
0010
1000
0001
,
1000
0000
1001
0000
0001
0100
0001
0000
,
0101
0000
0101
0000
1000
0010
1000
0000
,
1010
0000
1010
0000
0010
0100
0001
0000
,
0101
0000
0101
0000
0001
1000
0100
0000
,
1100
0000
1100
0000
0010
0001
0100
0000
,
0110
0000
0110
0000
0100
0001
1000
0000
,
1001
0000
1001
0000
1000
0010
0100
0000
,
0101
0101
2002
0000
,
0000
0000
0000
3003
0001
1000
0100
0000
,
0011
0000
0000
0000
0001
0100
0010
0000
,
1010
0000
0000
0000
1000
0001
0100
0000
,
0101
0000
0000
0000
0001
1000
0010
0000
,
0101
0000
0000
0000
0001
1000
0100
0000
,
1100
0000
0000
0000
0010
0001
1000
0000
,
0101
0000
0000
0000
1000
0010
0100
0000
,
0011
0000
0000
0000
0000
0000
0000
0000
0001
1000
0000
0000
0010
1000
0000
0000
,
0001
1000
0000
0000
0010
1000
0000
0000
0001
0000
0000
0000
0001
0000
0000
0000
,
0001
0000
0001
0000
0100
0010
1000
0100
,
0010
0001
0100
0000
0010
0000
0010
0000
,
0010
0000
0010
0000
0100
0001
1000
0100
,
0010
0001
0100
0000
0010
0000
0010
0000
,
0010
0000
0010
0000
0100
0001
1000
0010
,
0100
0001
1000
0000
0010
0000
0010
0000
,
0010
0000
0000
0000
0010
0000
0000
0000
0100
0000
0000
0100
0000
0000
0100
0000
,
0000
0200
0000
0000
0000
0000
0000
0000
0000
0000
0000
0000
0310
0000
1000
0000
,
0001
0000
0100
0002
0000
0000
0000
0000
0000
0000
1000
0000
1003
0000
0100
0000
,
1000
0000
0010
0200
0000
0000
0000
0000
0000
0000
0001
0000
0301
0000
1000
0000
,
0010
0000
0100
0002
0000
0000
0000
0000
0000
0000
0100
0000
0103
0000
0010
0000
,
1000
0000
0100
0020
0000
0000
0000
0000
0000
0000
0001
0000
0031
0000
1000
0000
,
0010
0000
0100
0002
0000
0000
0000
0000
0000
0000
0010
0000
0013
0000
0100
0000
,
1000
0000
0010
0200
0000
0000
0000
0000
0000
0000
0010
0000
0310
0000
1000
0000
,
0001
0000
0100
0020
0000
0000
0000
0000
0000
0000
1000
0000
1030
0000
0001
0000
,
1000
0000
0001
2000
0000
0000
0000
0000
0000
0000
0000
0000
0000
0000
0000
0000
,
3010
0100
0001
1000
0100
0000
0010
0000
,
0001
0101
1000
1100
,
0010
0001
0100
0010
1000
0000
0010
0000
,
0100
0101
0001
1001
,
1000
0100
0010
0001
0100
0000
0010
0000
,
1000
1010
0010
0110
,
0100
0001
1000
0100
0010
0000
0001
0000
,
0200
0000
0000
0000
,
0301
0101
1000
1100
,
0010
0001
0100
0010
1000
0100
0010
0001
,
0100
0110
0010
0110
,
0100
0001
1000
0100
0010
0001
0100
0010
,
1000
1010
0001
0011
,
0001
0100
0010
1000
0100
0010
0001
0100
,
0010
1010
0100
0101
,
0001
1000
0001
1000
0001
1000
0001
1000
,
0001
0101
1000
1100
,
0010
0001
0010
0000
0100
1000
0100
0000
,
0010
0011
0001
0101
,
0100
0010
1000
0000
0001
0100
0010
0000
,
1000
1010
0010
0110
,
0100
0001
0100
0000
0010
1000
0010
0000
,
0100
0101
0001
1001
,
2000
0000
3010
0100
,
0001
1000
0100
0001
,
0100
1000
0010
0100
,
0001
0010
1000
0010
,
0001
0100
0010
1000
,
0100
0001
0010
1000
,
0100
0001
0100
1000
,
0010
0100
0001
0100
,
0010
0000
0000
0000
1000
0000
0000
0000
0001
0000
0100
0000
0001
0000
0000
1000
,
0000
0000
0000
0000
0000
0000
0000
0000
1000
0000
0100
0000
0010
0000
0000
0001
,
0000
0000
0000
0000
0000
0000
0000
0000
0001
0000
0100
0000
0010
0000
0000
1000
,
0000
0000
0000
0000
0000
0000
0000
0000
1000
0000
0001
0000
0100
0000
0000
0010
,
0000
0000
0000
0000
0000
0000
0000
0000
1000
0000
0010
0000
0100
0000
0000
0001
,
0000
0000
0000
0000
0000
0000
0000
0000
0001
0000
1000
0000
0100
0000
0000
0010
,
0000
0000
0000
0000
0000
0000
0000
0000
0001
0000
0100
0000
0010
0000
0000
1000
,
0000
0000
0000
0000
0000
0000
0000
0000
0001
0000
0100
0000
0010
0000
0000
1000
,
0000
0000
0000
1000
0020
0000
0000
0000
,
0230
0000
0000
0000
0000
0000
0000
0000
0000
0000
0000
0000
0302
0000
0000
0000
0000
0000
0000
0000
0000
0000
0000
2003
,
0000
0000
0000
0000
0000
0000
0000
0000
0000
0000
0000
0000
0000
0000
0000
0000
0000
0000
0000
3020
0000
0000
0000
0000
0000
0000
0000
0000
0000
0000
0000
0000
0000
0000
0000
0000
0000
0000
0230
0000
0000
0000
0000
0000
0000
0000
0000
0000
,
0000
0000
0000
0000
0000
0000
0000
0000
0302
0000
0000
0000
0000
0000
0000
0000
0000
0000
0000
0000
0000
0000
0000
0000
0000
0000
2003
0000
0000
0000
0000
0000
0000
0000
0000
0000
0000
0000
0000
0000
0000
3020
0000
0000
0000
0000
0000
0000
,
0000
0000
0230
0000
0000
0000
0301
0000
0000
2000
0000
0000
,
3002
0203
0320
0230
,
0302
2003
3200
0320
,
0002
0000
0000
0000
,
0000
0000
0000
0000
,
0000
0000
0000
0000
,
0000
0000
0000
0000
,
0000
0000
0000
0000
,
0000
0000
0000
0000
,
0033
0000
0000
0000
;

//---------------dance-single - maro----------------
#NOTES:
     dance-single:
     maro:
     Hard:
     10:
     0.511,0.940,0.148,0.083,0.256: // measure 1
0000
0000
0000
0000
,  // measure 2
0000
0000
0000
0000
,  // measure 3
0000
0000
0000
0000
,  // measure 4
0000
0000
0000
0000
,  // measure 5
0000
0000
0000
0000
,  // measure 6
0100
0010
0100
0010
,  // measure 7
0001
1000
0001
1000
,  // measure 8
0001
1000
0001
1000
,  // measure 9
0001
1000
0001
1000
,  // measure 10
0001
1000
0001
1000
,  // measure 11
0010
0100
0010
0100
,  // measure 12
0010
0100
0010
0100
,  // measure 13
0001
0001
0100
0100
,  // measure 14
0010
1000
0100
0010
,  // measure 15
0001
0001
1000
1000
,  // measure 16
0100
0010
0001
0100
,  // measure 17
0010
0010
1000
1000
,  // measure 18
0100
0010
0001
0100
,  // measure 19
0010
0010
1000
1000
,  // measure 20
0001
0000
1000
0000
0001
0000
1000
1000
,  // measure 21
1000
0010
0100
0001
1000
0010
0100
0001
,  // measure 22
1000
0001
0100
0010
1000
0001
0100
0010
,  // measure 23
1000
0100
0010
0001
1000
0100
0010
0001
,  // measure 24
0100
0010
1000
0100
0010
0001
0100
0010
,  // measure 25
1000
0001
0100
0010
1000
0001
0100
0010
,  // measure 26
1000
0001
0100
0001
1000
0001
0100
0001
,  // measure 27
1000
0100
1000
0010
1000
0100
1000
0010
,  // measure 28
0100
0001
1000
0100
0010
0001
0100
0100
,  // measure 29
0100
0010
1000
0001
0100
0010
1010
0000
,  // measure 30
1000
0100
0010
0001
0100
0010
0110
0000
,  // measure 31
0100
0001
1000
0100
0010
0001
0011
0000
,  // measure 32
0001
1000
0010
0100
0001
1000
1010
0000
,  // measure 33
0010
0100
0001
1000
0100
0010
0101
0000
,  // measure 34
0010
0100
0001
1000
0010
0100
0011
0000
,  // measure 35
0100
0010
1000
0100
0010
0001
1100
0000
,  // measure 36
1000
0010
0101
0000
0001
0010
1100
1000
,  // measure 37
1000
0000
0010
0000
0100
0000
0001
0100
0000
0000
0100
0000
0000
0000
0100
0000
,  // measure 38
0001
0000
1000
0000
0100
0000
0010
0001
0000
0000
0001
0000
0000
0000
0001
0000
,  // measure 39
1000
0000
0010
0000
0100
0000
0001
1000
0000
0000
1000
0000
0000
0000
1000
0000
,  // measure 40
0010
0000
0100
0000
0001
0000
0100
0010
0000
0000
0010
0000
1000
0000
1000
0000
,  // measure 41
0001
0000
1000
0000
0010
0000
0100
0001
0000
0000
0001
0000
0000
0000
0001
0000
,  // measure 42
1000
0000
0100
0000
0010
0000
0001
0010
0000
0000
0010
0000
0000
0000
0010
0000
,  // measure 43
0001
0000
0100
0000
0010
0000
1000
0100
0000
0000
0100
0000
0000
0000
0100
0000
,  // measure 44
1000
0000
0010
0000
0100
0000
0001
1000
0000
0000
1000
0000
0000
0000
0000
1000
,  // measure 45
0010
0000
0100
0000
0001
0000
1000
0100
0000
0000
0100
0000
0000
0000
0100
0000
,  // measure 46
0010
0000
0001
0000
0100
0000
0010
1000
0000
0000
1000
0000
0000
0000
1000
0000
,  // measure 47
0010
0000
0100
0000
0001
0000
1000
0100
0000
0000
0100
0000
0000
0000
0100
0000
,  // measure 48
0010
0000
0001
0000
0010
0000
0100
1000
0000
0000
0010
0000
0000
0000
0010
0000
,  // measure 49
0100
0001
1000
0000
0100
1000
0001
0000
,  // measure 50
0010
0001
1000
0000
0010
1000
0001
0000
,  // measure 51
0100
0001
0010
0000
0100
1000
0010
0000
,  // measure 52
0100
0001
1000
0000
1000
0100
0010
0001
,  // measure 53
1000
0000
0010
0000
0100
0000
0001
0100
0000
0100
0001
0000
1000
0000
0000
0000
,  // measure 54
0100
0000
0010
0000
0001
0000
1000
0010
0000
0010
0100
0000
0001
0000
0000
0000
,  // measure 55
0100
0000
0010
0000
1000
0000
0001
1000
0000
1000
0100
0000
0010
0000
0000
0000
,  // measure 56
0001
0000
0100
0000
0010
0000
0100
0001
0000
0001
0100
0000
0010
0000
0010
0000
,  // measure 57
0010
0000
1000
0000
0001
0000
1000
0100
0000
0100
0010
0000
0001
0000
0000
0000
,  // measure 58
0100
0000
0010
0000
1000
0000
0010
0100
0000
0100
0010
0000
1000
0000
0000
0000
,  // measure 59
0001
0000
1000
0000
0100
0000
0010
0001
0000
0001
0010
0000
0100
0000
0000
0000
,  // measure 60
1000
0000
0010
0000
0100
0000
0001
0100
0000
0100
0010
0000
1000
0000
1000
0000
,  // measure 61
0010
0100
0001
1000
0100
0010
0001
0100
,  // measure 62
0010
0100
0001
1000
0010
0100
0001
0010
,  // measure 63
0001
0100
0010
1000
0100
1000
0010
0100
,  // measure 64
0001
0010
1000
0010
0001
0100
0010
1000
,  // measure 65
0100
0001
0010
1000
0100
0010
0001
0100
,  // measure 66
0010
1000
0100
0010
0001
0100
0010
1000
,  // measure 67
0010
0100
0001
1000
0100
0010
0001
0100
,  // measure 68
1000
0100
0001
1000
0010
0001
0010
1000
,  // measure 69
0001
1000
0100
1000
0000
0010
0100
0010
0000
0000
0000
0100
0000
0100
0000
0001
0000
1000
0100
1000
0000
0010
0100
0010
0000
0000
0000
0010
0000
0010
0000
1000
,  // measure 70
0000
0001
0100
0001
0000
1000
0100
1000
0000
0000
0000
0001
0000
0001
0000
1000
0000
0100
0010
0001
0000
1000
0010
0100
0000
0000
0000
0201
0000
0000
0000
0000
,  // measure 71
0310
0000
1000
0000
0001
0000
0100
0001
0100
0000
0000
0000
1010
0000
0000
0000
,  // measure 72
1000
0000
0100
0000
0010
0000
0001
0100
0001
0000
0000
0000
1010
0000
0000
0000
,  // measure 73
0100
0000
0001
0000
1000
0000
0010
0100
0010
0000
0000
0000
0110
0000
0000
0000
,  // measure 74
0100
0000
0001
0000
1000
0000
0100
0010
0100
0000
0000
0000
0011
0000
0000
0000
,  // measure 75
0001
0000
1000
0000
0100
0000
0010
0001
0010
0000
0000
0000
1100
0000
0000
0000
,  // measure 76
0001
0000
0100
0000
0010
0000
1000
0100
1000
0000
0000
0000
0101
0000
0000
0000
,  // measure 77
0001
0000
1000
0000
0010
0000
0100
0001
1000
0000
0000
0000
1001
0000
0000
0000
,  // measure 78
0001
0000
0010
0000
0100
0000
1000
0001
0100
0000
0000
0000
0110
0000
0100
0000
,  // measure 79
0100
0001
1000
0100
0010
0001
0100
0100
,  // measure 80
0010
1000
0010
0100
0001
0100
0010
0000
,  // measure 81
1000
0001
0100
0010
1000
0100
0010
0010
,  // measure 82
0001
0100
0010
1000
0010
0100
0001
0000
,  // measure 83
1000
0010
0100
0001
1000
0100
0010
0010
,  // measure 84
0001
0010
0100
1000
0100
0010
0001
0000
,  // measure 85
1000
0010
0100
0001
0100
0010
1000
1000
,  // measure 86
2010
0000
0000
0000
,  // measure 87
0000
0000
3010
0010
0010
0010
0010
0000
,  // measure 88
1010
0000
1000
0001
0100
0010
2000
0000
,  // measure 89
3100
0000
0010
0010
0010
0010
0010
0000
,  // measure 90
0011
0000
0001
0100
0010
1000
0002
0000
,  // measure 91
0103
0000
0010
0010
0010
0010
0010
0000
,  // measure 92
1001
0000
1000
0100
0010
0001
0200
0000
,  // measure 93
0310
0000
0100
0100
0100
0100
0100
0000
,  // measure 94
1010
0000
0100
0001
1000
0100
0010
0001
,  // measure 95
0100
0100
0100
0001
0100
0001
1000
0100
,  // measure 96
1000
0001
0100
0001
1000
0100
1000
0010
,  // measure 97
1000
0100
1000
0001
0010
0001
1000
0010
,  // measure 98
1000
0001
0010
0001
0100
1000
0100
0001
,  // measure 99
1000
0010
1000
0001
0010
0001
1000
0010
,  // measure 100
1000
0001
0100
0001
1000
0100
1000
0001
,  // measure 101
0010
0001
1000
0010
1000
0001
0010
0001
,  // measure 102
1000
0100
1000
0001
0100
0001
1000
0100
,  // measure 103
1000
0001
1001
0100
0010
1000
0100
0010
,  // measure 104
0011
0000
0001
0100
0010
1000
0010
0000
,  // measure 105
1010
0000
0100
0001
1000
0100
0010
0001
,  // measure 106
0101
0000
0001
0100
0010
1000
0001
0000
,  // measure 107
1010
0000
0100
0001
1000
0100
0010
0001
,  // measure 108
0101
0000
0001
0100
0010
0100
0001
0000
,  // measure 109
1010
0000
0100
0010
0001
0100
0010
1000
,  // measure 110
1100
0000
0010
0001
0100
0010
1000
1000
,  // measure 111
0001
0001
0100
0000
0001
0000
0100
0000
,  // measure 112
0010
1000
0100
1000
,  // measure 113
0010
0100
0001
0100
,  // measure 114
1000
0010
0001
0100
,  // measure 115
1000
0010
0001
0100
,  // measure 116
0010
1000
0100
0010
,  // measure 117
0001
0100
0010
1000
,  // measure 118
0010
0100
0001
1000
,  // measure 119
0001
0000
0000
0000
0000
0000
0000
0000
0000
0000
0000
0000
0000
0000
0000
0000
0100
0000
0000
0000
0000
0000
0000
0000
0000
0000
0000
0000
0000
0000
0000
0000
0001
0000
0000
0000
0000
0000
0000
0000
0000
0000
0000
0000
0000
0000
1000
0000
0000
0000
0000
0000
0000
0000
0000
0000
0000
0000
0000
0010
0000
0000
0000
0000
,  // measure 120
0000
0000
0000
0000
0000
0000
0000
0000
0000
0000
0000
0000
0000
0000
0000
0000
1000
0000
0000
0000
0000
0000
0000
0000
0000
0000
0000
0000
0000
0000
0000
0000
0000
0000
0000
0000
0000
0000
0000
0000
0000
0000
0000
0000
0000
0010
0000
0000
0000
0000
0000
0000
0000
0000
0000
0000
0000
0000
0000
0000
0000
0000
0000
0000
0000
0000
0000
0000
0000
0100
0000
0000
0000
0000
0000
0000
0000
0000
0000
0000
0000
0000
0000
0000
0000
0000
0000
0000
0000
0000
0000
0000
0000
0001
0000
0000
0000
0000
0000
0000
0000
0000
0000
0000
0000
0000
0000
0000
0000
0000
0000
0000
1000
0000
0000
0000
0000
0000
0000
0000
0000
0000
0000
0000
0000
0000
0000
0000
0000
0010
0000
0000
0000
0000
0000
0000
0000
0000
0000
0000
0000
0000
0000
0000
1000
0000
0000
0000
0000
0000
0000
0000
0000
0000
0000
0000
0010
0000
0000
0000
0000
0000
0000
0000
0000
0000
0000
0000
0100
0000
0000
0000
0000
0000
0000
0000
0000
0000
0000
0000
0001
0000
0000
0000
0000
0000
0000
0000
0000
0000
0000
0000
,  // measure 121
2000
0020
0000
0000
,  // measure 122
0000
0000
0000
0000
,  // measure 123
0000
0000
0000
0000
,  // measure 124
0000
0000
0000
3030
,  // measure 125
0000
0000
0000
0000
0000
0000
0000
0000
0000
0000
0000
0000
0000
0000
0000
0000
0000
0000
0000
0000
0000
0000
0000
0000
0000
0000
0000
0000
1000
0000
0000
0010
,  // measure 126
0000
0000
0000
0000
0000
0000
0000
0100
0000
0000
0000
0001
0000
0000
0000
0000
0000
0000
0000
0000
0000
0000
0000
0000
0000
0000
0000
0000
0001
0000
0000
0010
,  // measure 127
0000
0000
0000
0000
0000
0000
0000
0100
0000
0000
0000
1000
0000
0000
0000
0000
0000
0000
0000
0000
0000
0000
0000
0000
0000
0000
0000
0000
1000
0000
0000
0010
,  // measure 128
0000
0000
0000
0000
0000
0000
0000
0100
0000
0000
0000
0001
0000
0000
0000
0000
0000
0000
0000
0000
0000
0000
0000
0000
0000
0000
0000
0000
0001
0000
0000
1000
,  // measure 129
0000
0000
0000
0000
0000
0000
0000
0010
0000
0000
0000
0100
0000
0000
0000
0000
0000
0000
0000
0000
0000
0000
0000
0000
0000
0000
0000
0000
0100
0000
0000
0001
,  // measure 130
0000
0000
0000
0000
0000
0000
0000
2000
0000
0000
0000
0000
0000
0200
0000
0000
0000
0000
0000
0000
0000
0000
0000
0000
0000
0000
0000
0000
0000
0000
0000
0000
,  // measure 131
0000
0000
0000
0000
,  // measure 132
0000
0000
0000
3300
0001
0100
0010
1000
,  // measure 133
0100
0000
0010
0000
0001
0100
0000
0100
0001
0000
1000
0000
0010
0000
0100
0000
,  // measure 134
0001
1000
1010
0001
1010
0100
0001
1000
,  // measure 135
0010
0000
0100
0000
0001
0100
0000
0100
0001
0000
1000
0000
0010
0000
0100
0000
,  // measure 136
0001
1000
0101
1000
0101
0010
1000
0100
,  // measure 137
1000
0000
0010
0000
0100
0010
0000
0010
1000
0000
0001
0000
0100
0000
0010
0000
,  // measure 138
0100
0001
1100
0001
1100
0001
0100
0010
,  // measure 139
1000
0000
0100
0000
0010
0001
0000
0001
0010
0000
0100
0000
1000
0000
0010
0000
,  // measure 140
0100
0000
0001
0000
1000
0001
1000
0001
1000
0000
0010
0000
0100
0001
0000
0100
,  // measure 141
0001
0000
1000
0000
0010
0100
0000
0100
0010
0000
1000
0000
0100
0000
0010
0000
,  // measure 142
0001
0000
0100
0000
1010
0000
0100
0000
1010
0000
0100
0000
0001
1000
0000
0001
,  // measure 143
1000
0000
0100
0000
0010
0001
0000
0001
0010
0000
0100
0000
1000
0000
0010
0000
,  // measure 144
0100
0000
0001
0000
1010
0000
0001
0000
1010
0000
0100
0000
0001
1000
0000
0001
,  // measure 145
1000
0000
0010
0000
0100
0001
0000
0001
0100
0000
0010
0000
1000
0000
0100
0000
,  // measure 146
0010
0000
0001
0000
0101
0000
0010
0000
0101
0000
0010
0000
1000
0001
0000
1000
,  // measure 147
0001
0000
1000
0000
0010
0100
0000
0100
0010
0000
0010
0000
0100
0000
0100
0000
,  // measure 148
0010
0000
1000
0000
0010
0000
0010
0000
0100
0001
0100
0000
0010
0000
1000
0000
,  // measure 149
0100
0000
1100
0000
0100
0010
0001
0100
,  // measure 150
0010
0000
0000
0000
1010
0000
0000
0000
0100
0001
0100
0000
0010
0000
1000
0000
,  // measure 151
0100
0000
1100
0000
0010
0001
0100
0010
,  // measure 152
1000
0000
0000
0000
1001
0000
0000
0000
0001
0100
0001
0000
0100
0000
0010
0000
,  // measure 153
1000
0000
1100
0000
0100
0010
0001
0100
,  // measure 154
0010
0000
0000
0000
0101
0000
0000
0000
1000
0100
1000
0000
0010
0000
0100
0000
,  // measure 155
0001
0000
0000
0000
0101
0000
0000
0000
0001
0100
0001
0000
1000
0100
1000
0000
,  // measure 156
0001
0100
0001
0000
1000
0000
1000
0000
0001
0100
0001
0000
0100
0000
0010
0000
,  // measure 157
1000
0000
0100
0000
0010
0000
0001
0000
0100
0010
0100
0000
0001
0000
1000
0000
,  // measure 158
0010
0000
0001
0000
0010
0000
1000
0000
0100
0010
0100
0000
0010
0000
0001
0000
,  // measure 159
0100
0000
1000
0000
0100
0000
0001
0000
1000
0010
1000
0000
0001
0000
0100
0000
,  // measure 160
1000
0000
0100
0000
0001
0000
1000
0000
0100
0010
0100
0000
0010
0000
0001
0000
,  // measure 161
0100
0000
0010
0000
1000
0000
0100
0000
0010
0001
0010
0000
0001
0000
0100
0000
,  // measure 162
0010
0000
0100
0000
0001
0000
1000
0000
0010
0100
0010
0000
0100
0000
0001
0000
,  // measure 163
1000
0000
0010
0000
0100
0000
0001
0000
1001
0000
0000
1100
0000
0000
0110
0000
,  // measure 164
0000
0022
0000
0000
0000
0000
0000
0000
0000
0000
0033
0000
0001
0000
1000
0000
,  // measure 165
0010
0000
0100
0001
0100
0000
0101
0000
0000
0000
0001
0000
1000
0000
0100
0000
,  // measure 166
0010
0000
0001
0010
0001
0000
0011
0000
0000
0000
0001
0000
0100
0000
0010
0000
,  // measure 167
1000
0000
0100
1000
0100
0000
1100
0000
0000
0000
0010
0000
0001
0000
0100
0000
,  // measure 168
0010
0000
1000
0001
1000
0000
1001
0000
0000
0000
0001
0000
0100
0000
0010
0000
,  // measure 169
1000
0000
0001
0100
0001
0000
0101
0000
0000
0000
0001
0000
0100
0000
0010
0000
,  // measure 170
1000
0000
0100
1000
0100
0000
1100
0000
0000
0000
0010
0000
0001
0000
0100
0000
,  // measure 171
0010
0000
1000
0010
1000
0000
1010
0000
0000
0000
0010
0000
0100
0000
0001
0000
,  // measure 172
0100
0000
0010
1000
0001
0000
1001
0000
0200
0000
0000
0000
0000
0000
0000
0000
,  // measure 173
0301
1000
0010
0100
0001
1000
0010
0100
,  // measure 174
0001
0100
0010
1000
0010
0100
0001
1000
,  // measure 175
0100
0010
0001
0100
0010
1000
0100
0010
,  // measure 176
0001
0100
0010
1000
0001
0100
0010
1000
,  // measure 177
0001
0100
0010
0100
0001
1000
0100
1000
,  // measure 178
0001
0010
0001
0100
0010
1000
0100
1000
,  // measure 179
0010
0100
0001
0100
0010
0100
0001
0100
,  // measure 180
0010
0000
0010
0000
1000
0000
1000
0000
0001
0100
0001
0100
0001
0100
0001
0100
,  // measure 181
0001
0000
1000
0000
0100
0000
1000
0000
0010
0000
0100
0000
0001
0100
0000
0100
,  // measure 182
0001
1000
1000
0100
0100
1000
0010
0100
,  // measure 183
0001
0000
0100
0000
0010
0000
1000
0000
0100
0000
0010
0000
0001
0100
0000
0100
,  // measure 184
0001
1000
1000
0100
0100
1000
0010
0100
,  // measure 185
0010
0000
1000
0000
0010
0000
0100
0000
0001
0000
1000
0000
0010
0100
0000
0100
,  // measure 186
0001
0001
1000
1000
0100
0010
0001
1000
,  // measure 187
0010
0000
0100
0000
0001
0000
0100
0000
0010
0000
1000
0000
0001
1000
0000
1000
,  // measure 188
0001
1000
0100
0010
0001
1000
0100
0010
,  // measure 189
0001
1000
0001
1000
0001
0000
0100
0000
0010
0000
1000
0000
0100
0010
0000
0010
,  // measure 190
0100
1000
0001
0100
0010
0100
0001
1000
,  // measure 191
0010
0100
0010
0100
0010
0000
0100
0000
0001
0000
1000
0000
0001
0100
0000
0100
,  // measure 192
0001
1000
0100
0010
0001
0100
0010
1000
,  // measure 193
0001
0100
0001
0100
0001
0000
0100
0000
0010
0000
1000
0000
0100
0010
0000
0010
,  // measure 194
0100
1000
0010
0100
0001
0100
0010
1000
,  // measure 195
0001
1000
0001
1000
0001
0000
0100
0000
0010
0000
1000
0000
0100
0010
0000
0010
,  // measure 196
0002
0000
0000
0000
0000
0000
0000
0000
0103
0000
0010
0000
1000
0000
0100
0010
,  // measure 197
0000
0000
0110
0000
0000
0000
0010
0000
0010
0000
0001
0000
0100
0000
0010
1000
,  // measure 198
0000
0000
1010
0000
0000
0000
0100
0000
0100
0000
0001
0000
1000
0000
0001
0100
,  // measure 199
0000
0000
0101
0000
0000
0000
0001
0000
0001
0000
0100
0000
0010
0000
1000
0100
,  // measure 200
0000
0000
1100
0000
0000
0000
0010
0000
0010
0000
0001
0000
0100
0000
0010
1000
,  // measure 201
0000
0000
1010
0000
0000
0000
0010
0000
0010
0000
0100
0000
0001
0000
1000
0010
,  // measure 202
0000
0000
0110
0000
0000
0000
0100
0000
0100
0000
0001
0000
1000
0000
0100
0010
,  // measure 203
0000
0000
0011
0000
0000
0000
0001
0000
0001
0000
0100
0000
0010
0000
1000
0001
,  // measure 204
0000
1001
0100
0100
0001
0100
0010
1000
,  // measure 205
0001
0100
0010
1000
0001
1000
0010
0100
,  // measure 206
0001
1000
0010
0100
0001
1000
0010
0100
,  // measure 207
0001
1000
0010
0100
0001
0010
0100
1000
,  // measure 208
0001
0010
0100
1000
0001
0100
0010
1000
,  // measure 209
0001
0100
0010
1000
0001
0100
0010
1000
,  // measure 210
0001
0100
0010
1000
0001
1000
0010
0100
,  // measure 211
0001
1000
0010
0100
0001
1000
0100
0010
,  // measure 212
0001
0100
0010
1000
0001
0000
0100
0000
,  // measure 213
0010
0000
0000
0000
0000
0000
0000
0000
0000
0000
0000
0000
0000
0000
0000
0000
1000
0000
0000
0000
0000
0000
0000
0000
0000
0000
0000
0000
0000
0000
0000
0000
0100
0000
0000
0000
0000
0000
0000
0000
0000
0000
0000
0000
0000
0000
0010
0000
0000
0000
0000
0000
0000
0000
0000
0000
0000
0000
0000
0000
0000
0001
0000
0000
,  // measure 214
0000
0000
0000
0000
0000
0000
0000
0000
0000
0000
0000
0100
0000
0000
0000
0000
0000
0000
0000
0000
0000
0000
0000
0000
0000
0010
0000
0000
0000
0000
0000
0000
0000
0000
0000
0000
0000
0000
0000
1000
0000
0000
0000
0000
0000
0000
0000
0000
0000
0000
0000
0100
0000
0000
0000
0000
0000
0000
0000
0000
0000
0000
0000
0010
,  // measure 215
0000
0000
0000
0000
0000
0000
0000
0000
0000
0000
0000
0001
0000
0000
0000
0000
0000
0000
0000
0000
0000
0000
0000
0100
0000
0000
0000
0000
0000
0000
0000
0000
0000
0000
0000
0010
0000
0000
0000
0000
0000
0000
0000
0000
0000
1000
0000
0000
0000
0000
0000
0000
0000
0000
0000
0100
0000
0000
0000
0000
0000
0000
0000
0000
,  // measure 216
0000
0010
0000
0000
0000
0000
0000
0000
0000
0000
0000
0001
0000
0000
0000
0000
0000
0000
0000
0000
0000
0100
0000
0000
0000
0000
0000
0000
0000
0000
0000
0010
0000
0000
0000
0000
0000
0000
0000
0000
1000
0000
0000
0000
0000
0000
0000
0000
0100
0000
0000
0000
0000
0000
0000
0000
0010
0000
0000
0000
0000
0000
0000
0000
,  // measure 217
0001
0100
0010
1000
0002
0100
0203
0010
,  // measure 218
0302
0010
2003
0100
3020
0100
2030
0001
,  // measure 219
3002
0203
0320
2030
,  // measure 220
3200
0320
0032
0203
,  // measure 221
0020
0000
0000
0000
,  // measure 222
0000
0000
0000
0000
,  // measure 223
0000
0000
0000
0000
,  // measure 224
0000
0000
0330
1000
0002
0000
0200
0000
,  // measure 225
0000
0000
0000
0000
0000
0000
0000
0000
0000
0000
0000
0000
0000
0000
0000
0000
0000
0000
0303
0000
0000
0000
0000
0000
0000
0000
1000
0000
0010
0000
0000
0010
,  // measure 226
0000
0000
0010
0000
0100
0000
0000
0100
0000
0000
0100
0000
0001
0000
0000
0001
0000
0000
0001
0000
2000
0000
0000
0000
0000
0000
3010
0000
0100
0000
0000
0100
,  // measure 227
0000
0000
0100
0000
0001
0000
0000
0001
0000
0000
0001
0000
1000
0000
0000
1000
0000
0000
1000
0000
0200
0000
0000
0000
0000
0000
0310
0000
0001
0000
0000
0001
,  // measure 228
0000
0000
0001
0000
1000
0000
0000
1000
0000
0000
1000
0000
0010
0000
0000
0010
0000
0000
0010
0000
0200
0000
0000
0000
0000
0000
0301
0000
1000
0000
0000
1000
,  // measure 229
0000
0000
1000
0000
0100
0000
0000
0100
0000
0000
0100
0000
0010
0000
0000
0010
0000
0000
0010
0000
0002
0000
0000
0000
0000
0000
0103
0000
0010
0000
0000
0010
,  // measure 230
0000
0000
0010
0000
1000
0000
0000
1000
0000
0000
1000
0000
0001
0000
0000
0001
0000
0000
0001
0000
0100
0000
0000
0100
0000
0000
0010
0000
1000
0000
0000
1000
,  // measure 231
0000
0000
0001
0000
0100
0000
0000
0100
0000
0000
0010
0000
1000
0000
0000
0000
0002
0000
0000
0000
0000
0000
0000
0000
0000
0000
0000
0000
0000
0000
0000
0000
,  // measure 232
0000
0000
0000
0000
0000
0000
0000
0000
0000
0000
0000
0000
0000
0203
0000
0000
0000
0320
0000
0000
0000
0000
0000
0000
2000
0000
0000
0000
0000
0000
0000
0000
,  // measure 233
0000
0000
0000
0000
0000
0000
0000
0000
0000
0000
0000
0000
0000
0000
0000
0000
0030
0000
0000
0000
0000
0000
0000
0000
0000
0000
0000
0000
0000
0000
0000
0000
0000
0000
0000
0000
0000
0000
0000
0002
0000
0000
0000
0000
0000
0000
0000
0000
0000
0000
0000
0000
0000
0000
0000
0000
0000
0000
0000
0000
0000
0000
0000
0000
,  // measure 234
0000
0000
0000
0000
0000
0000
0000
3003
0000
0000
0000
0000
;

//---------------dance-single - maro----------------
#NOTES:
     dance-single:
     maro:
     Challenge:
     15:
     0.719,1.000,0.195,0.161,0.815:
0000
0000
0000
0000
,
0000
0000
0000
0000
,
0000
0000
0000
0000
,
0000
0000
0000
0000
,
0000
0000
0000
0000
,
2000
3020
0230
0302
,
0023
2030
3200
0302
,
0023
0032
0203
2300
,
3020
0032
2003
3002
,
0023
2030
3200
0320
,
0032
0203
2300
3020
,
0032
2003
3200
0302
,
1003
0100
0000
0000
0100
0010
0000
0000
0010
0001
0000
0000
0001
0010
0001
0000
,
0001
1000
0000
0000
1000
0010
0000
0000
0010
0100
0000
0000
0100
0001
0100
0000
,
0001
0010
0000
0000
0010
0100
0000
0000
0100
1000
0000
0000
1000
0010
1000
0000
,
0010
0100
0000
0000
0100
0001
0000
0000
0001
1000
0000
0000
1000
0001
1000
0000
,
0001
0100
0000
0000
0100
0010
0000
0000
0010
0100
0000
0000
0100
0001
0100
0000
,
0001
0010
0000
0000
0010
0100
0000
0000
0100
0010
0000
0000
0010
0001
0010
0000
,
0001
1000
0000
0000
1000
0001
0000
0000
0001
0100
0000
0000
0100
0010
0100
0000
,
0010
1000
0000
0000
1000
0010
0000
0000
0010
0100
0000
0000
0100
0000
0110
0000
,
0010
0000
1000
0000
0010
0000
0100
0000
0001
0000
0010
1000
0000
1000
0010
0000
,
0001
0000
0100
0000
0010
0000
1000
0000
0100
0000
0001
0100
0000
0100
1000
0000
,
0010
0000
0100
0000
0001
0000
0010
0000
0001
0000
0100
0010
0000
0010
1000
0000
,
0010
0100
0001
1000
0020
0100
0001
1030
,
1000
0000
0100
0000
0010
0000
0001
0000
0100
0000
0010
1000
0000
1000
0010
0000
,
0100
0000
0001
0000
0010
0000
1000
0000
0010
0000
0001
0100
0000
0100
0010
0000
,
0001
0000
0010
0000
1000
0000
0100
0000
0010
0000
0100
1000
0000
1000
0010
0000
,
0100
0000
0001
0000
1000
0000
0010
0000
0100
0010
0100
0000
0010
0000
0110
0000
,
0010
1000
0010
0000
0100
0001
0100
0000
0001
0000
1000
0100
0000
1000
0100
0000
,
0010
0001
0010
0000
0001
0100
0001
0000
0100
0000
0010
0100
0000
0010
0100
0000
,
0010
1000
0010
0000
1000
0100
1000
0000
0100
0000
0001
0100
0000
0001
0100
0000
,
1000
0010
1000
0000
0010
0100
0010
0000
0200
0000
0010
0000
1000
0000
0301
0000
,
0001
1000
0001
0000
1000
0100
1000
0000
0010
0000
0100
0001
0000
0100
0001
0000
,
0010
0100
0010
0000
0001
0100
0001
0000
0100
0000
0010
1000
0000
0010
1000
0000
,
0010
0100
0010
0000
0100
0001
0100
0000
0001
0000
1000
0001
0000
1000
0001
0000
,
0100
0010
0100
0000
0010
1000
0001
0000
0100
0000
0010
0000
1010
0000
0100
0000
,
0001
0000
0100
0000
0010
0000
1000
0100
0000
0000
1100
0000
0000
0000
1100
0000
,
0010
0000
0001
0000
1000
0000
0010
0100
0000
0000
0110
0000
0000
0000
0110
0000
,
0100
0000
0001
0000
1000
0000
0001
0100
0000
0000
0101
0000
0000
0000
0101
0000
,
0001
0000
0100
0000
0010
0000
1000
0100
0000
0000
0110
0000
0010
0000
0001
1000
,
0100
0000
1000
0000
0010
0000
0100
0010
0000
0000
0110
0000
0000
0000
0110
0000
,
0100
0000
0001
0000
1000
0000
0100
0010
0000
0000
0110
0000
0000
0000
0001
0010
,
0001
0000
1000
0000
0010
0000
0100
0001
0000
0000
0101
0000
0000
0000
1001
0000
,
0010
0000
0100
0000
0010
0000
0100
0010
0000
0000
0110
0000
0100
0000
0100
0010
,
0100
0000
0010
0000
1000
0000
0001
0100
0000
0100
0001
0000
0000
0000
0001
0000
,
1000
0000
0100
0000
0010
0000
0001
0100
0000
0100
0001
0000
0000
0000
0001
0100
,
0001
0000
0100
0000
0010
0000
1000
0100
0000
0100
1000
0000
0000
0000
1000
0000
,
0010
0000
0100
0000
0001
0000
1000
0100
0000
0100
1000
0000
0000
0000
1000
0010
,
1000
0000
0010
0000
0100
0000
0001
0010
0000
0010
0001
0000
0000
0000
0001
0000
,
0010
0000
0100
0000
1000
0000
0010
0100
0000
0100
0001
0000
0000
0000
0001
0100
,
0001
0000
0100
0000
0010
0000
1000
0100
0000
0100
1000
0000
0000
0000
1000
0000
,
0010
0100
0001
1000
1001
2000
0010
0001
,
3001
0000
0100
0000
0010
0000
1000
0100
1000
0000
1000
0100
1000
0000
1000
0100
,
0010
0000
0001
0000
0100
0000
0010
0100
0010
0000
0010
0100
0010
0000
0010
0100
,
0001
0000
1000
0000
0100
0000
0010
0001
0010
0000
0010
0001
0010
0000
0010
0001
,
1000
0000
0010
0000
0100
0000
0001
0100
0001
0000
0001
0100
0001
0000
0001
1000
,
0010
0000
0100
0000
0010
0000
1000
0100
1000
0000
1000
0100
1000
0000
1000
0100
,
0010
0000
0100
0000
1000
0000
0010
0001
0010
0000
0010
0001
0010
0000
0010
1000
,
0100
0000
0010
0000
0001
0000
0100
0010
0100
0000
0100
0010
0100
0000
0100
0001
,
1000
0000
0100
0000
0010
0000
0001
1000
0001
0000
0001
1000
0001
1000
0010
0100
,
0010
1000
0010
0000
1000
0010
1000
0000
0001
0100
0010
0100
0001
0000
1000
0000
,
0100
0010
0100
0000
0010
0100
0010
0000
0100
1000
0010
1000
0100
0000
0010
0000
,
0001
1000
0001
0000
1000
0001
1000
0000
0001
0100
0010
0100
0001
0000
1000
0000
,
0010
0100
0010
0000
0100
0010
0100
0000
0010
1000
0001
1000
0010
0000
0100
0000
,
0001
0010
0001
0000
0010
0001
0010
0000
0001
1000
0010
1000
0001
0000
1000
0000
,
0010
0100
0010
0000
1000
0010
1000
0000
0010
0100
0001
0100
0010
0000
1000
0000
,
0100
0010
0100
0000
0010
0100
0010
0000
0001
1000
0100
1000
0001
0000
0100
0000
,
0010
0100
0010
0000
0010
0100
0010
0000
0010
0100
0010
1000
0001
1000
0001
1000
,
0000
0010
0100
0010
0000
1000
0010
1000
0000
0000
0000
0010
0100
0010
0100
0001
0000
1000
0001
1000
0000
0001
0100
0001
0000
0000
0000
1000
0100
1000
0100
0010
,
0000
0001
0010
0001
0000
0100
0001
0100
0000
0000
0000
0010
1000
0010
1000
0010
0000
0100
0001
0100
0000
0001
1000
0001
0000
0000
0000
0100
0010
1000
0010
0100
,
0001
0000
0001
0000
0100
0000
0100
0000
0010
1000
0100
0010
0001
0100
0010
1000
,
0100
0000
0100
0000
0010
0000
0010
0000
0001
0010
0100
1000
0100
0010
0001
0100
,
0010
0000
0010
0000
1000
0000
1000
0000
0010
0100
0001
1000
0100
0010
0001
0100
,
0010
0000
0010
0000
0100
0000
0100
0000
0001
1000
0100
0010
0100
1000
0001
0100
,
0010
0000
0010
0000
0100
0000
0100
0000
0001
1000
0100
0010
0001
0100
0010
0100
,
0001
0000
0001
0000
1000
0000
1000
0000
0100
0010
0001
0100
0010
1000
0100
0010
,
0001
0000
0001
0000
0100
0000
0100
0000
0010
0100
0001
0010
0100
1000
0010
0100
,
0001
0000
0001
0000
1000
0000
1000
0000
0010
0100
0010
0100
0010
0100
0010
0100
,
0010
0000
1000
0000
0010
0000
0100
0001
0100
0000
0001
0000
1000
0001
1000
0001
,
1000
0000
0100
0000
0010
0000
0001
0100
0001
0000
0100
0000
0010
1000
0010
1000
,
0010
0000
0100
0000
0001
0000
0010
0001
0010
0000
0001
0000
0100
1000
0100
1000
,
0100
0000
0001
0000
1000
0000
0100
0010
0100
0000
0010
0000
0001
1000
0001
1000
,
0001
0000
1000
0000
0010
0000
0001
0010
0001
0000
0010
0000
1000
0100
1000
0100
,
0010
0000
0001
0000
0100
0000
0010
0100
0010
0000
0100
0000
0001
1000
0010
1000
,
0001
0000
0100
0000
0010
0000
0100
0010
0100
0000
0001
0000
1000
0010
1000
0010
,
0200
0020
0000
0000
,
0000
0000
0330
0000
0001
0100
0001
0100
0001
0100
0001
0100
0001
0000
0000
0000
,
1001
0000
1000
0000
0010
0000
0100
0000
0010
0000
0100
0010
0100
0000
0000
0000
,
0010
0000
1000
0010
1000
0010
1000
0010
1000
0010
0100
0010
0100
0000
0000
0000
,
0110
0000
0100
0000
0001
0000
1000
0000
0100
0000
0010
0001
0010
0000
0000
0000
,
0010
0000
0001
0100
0001
0100
0001
0100
0001
0100
0010
1000
0100
0000
0000
0000
,
0110
0000
0010
0000
0001
0000
1000
0000
0010
0000
0100
0010
0100
0000
0000
0000
,
0010
0000
1000
0010
1000
0010
1000
0010
1000
0010
0100
0001
0100
0000
0000
0000
,
0101
0000
0001
0000
1000
0000
0100
0000
0010
0000
0001
0100
0001
0000
2000
0000
,
0010
0000
0010
0000
3001
0100
0001
0100
0001
0100
0001
0100
0001
0000
1000
0000
,
0010
0100
0001
1000
0100
0010
0100
1000
,
0100
0000
0010
0001
1000
0010
1000
0010
1000
0010
1000
0010
1000
0000
0010
0000
,
0100
0001
1000
1000
0100
0010
0001
0001
,
0100
0000
0010
1000
0001
0100
0001
0100
0001
0100
0001
0100
0001
0000
0100
0000
,
0010
1000
0100
0100
0010
0100
1000
1000
,
0010
0000
0100
0001
1000
0010
1000
0010
1000
0010
1000
0010
1000
0000
0010
0000
,
0100
0001
0010
0010
0001
0100
0010
0020
,
1000
0000
0100
0000
0130
0001
1000
0100
0010
0001
0100
0010
1000
0000
0100
0000
,
1000
0010
0100
0100
0001
1000
0100
0100
,
0010
0000
0001
0010
0100
1000
0010
0100
0001
0010
0100
1000
0010
0000
0100
0000
,
0001
1000
0010
0010
0100
0001
1000
1000
,
0010
0000
0100
0001
0010
0100
1000
0100
0010
0001
0100
0010
1000
0000
0100
0000
,
0010
0001
1000
1000
0010
0100
0001
0001
,
0010
0000
0001
0010
0001
0100
0010
1000
0100
0010
0001
0100
0010
0000
1000
0000
,
0100
0000
0100
0000
1000
0000
0000
1000
0010
0000
0010
0000
0100
0000
0000
0100
,
0001
0000
0001
0000
1000
0000
0010
0000
0100
0000
0001
0100
0000
0000
0100
0000
,
0000
0000
0100
0000
0001
0000
1000
0000
0100
0000
0010
0001
0000
0000
0001
0000
,
0000
0000
0001
0000
1000
0000
0010
0000
0100
0000
0010
1000
0000
0000
1000
0000
,
0000
0000
1000
0000
0010
0000
0100
0000
0001
0000
1000
0100
0000
0000
0100
0000
,
0000
0000
0100
0000
0010
0000
0001
0000
0100
0000
0010
0100
0000
0000
0100
0000
,
0000
0000
0010
0000
1000
0000
0010
0000
0100
0000
0001
1000
0000
0000
1000
0000
,
0000
0000
1000
0000
0100
0000
0010
0000
0001
0000
0100
0010
0000
0000
0010
0000
,
0000
0000
1000
0000
0010
0000
0100
0000
0001
0000
1000
0001
0000
0000
0001
0000
,
0000
0000
0000
0000
0000
0000
0000
0000
0000
0000
0000
0000
0000
0000
0000
0000
0000
0000
0000
0000
0000
0000
0000
0000
0001
0000
0000
0000
0000
0000
0000
0000
0000
0000
0000
0000
0000
0000
0000
0000
0000
0000
0000
0000
0000
0000
0000
0000
1001
0000
0000
0000
0000
0000
0000
0000
0000
0000
0000
0000
0000
0000
0000
0000
0000
0000
0000
0000
0000
0000
0000
0000
0000
0000
0000
0000
0000
0000
0000
0000
0000
0000
0000
0000
0000
0000
0000
0000
0000
0000
0000
0000
0000
0000
0000
0000
1010
0000
0000
0000
0000
0000
0000
0000
0000
0000
0000
0000
0000
0000
0000
0000
0000
0000
0000
0000
0000
0000
0000
0000
0000
0000
0000
0000
0000
0000
0000
0000
0000
0000
0000
0000
0000
0000
0000
0000
0000
0000
0110
0000
0000
0000
0000
0000
0000
0000
0000
0000
0000
0000
0000
0000
0000
0000
0000
0000
0000
0000
0000
0000
0000
0000
0000
0000
0000
0000
0000
0000
0000
0000
0000
0000
0000
0000
0000
0000
0101
0000
0000
0000
0000
0000
0000
0000
0000
0000
0000
0000
0000
0000
0000
0000
,
0000
0000
0000
0000
0000
0000
0000
0000
0000
0000
0000
0000
0000
0000
0000
0000
0110
0000
0000
0000
0000
0000
0000
0000
0000
0000
0000
0000
0000
0000
0000
0000
0000
0000
0000
0000
0000
0000
0000
0000
0000
0000
0000
0000
0000
1100
0000
0000
0000
0000
0000
0000
0000
0000
0000
0000
0000
0000
0000
0000
0000
0000
0000
0000
0000
0000
0000
0000
0000
0110
0000
0000
0000
0000
0000
0000
0000
0000
0000
0000
0000
0000
0000
0000
0000
0000
0000
0000
0000
0000
0000
0000
0000
0011
0000
0000
0000
0000
0000
0000
0000
0000
0000
0000
0000
0000
0000
0000
0000
0000
0000
1100
0000
0000
0000
0000
0000
0000
0000
0000
0000
0000
0000
0000
0000
0000
0000
0000
0110
0000
0000
0000
0000
0000
0000
0000
0000
0000
0000
0000
0000
0000
0000
0000
0011
0000
0000
0000
0000
0000
0000
0000
0000
0000
0000
0000
1001
0000
0000
0000
0000
0000
0000
0000
0000
0000
0000
0000
1010
0000
0000
0000
0000
0000
0000
0000
0000
0000
0000
0000
0110
0000
0000
0000
0000
0000
0000
0000
0000
0000
0000
0000
,
0200
0020
0000
0000
,
0000
0000
0000
0000
,
0000
0000
0000
0000
,
0000
0000
0000
0330
,
0000
0000
0000
0000
0000
0000
0000
0000
0000
0000
0000
0000
0000
0000
0000
0000
0000
0000
0000
0000
0000
0000
0000
0000
0000
0000
0000
0000
1010
0000
0000
0101
,
0000
0000
0000
0000
0000
0000
0000
0001
0000
0000
0000
1000
0100
0000
0000
0000
0000
0000
0000
0000
0000
0000
0000
0000
0000
0000
0000
0000
0110
0000
0000
0011
,
0000
0000
0000
0000
0000
0000
0000
0001
0000
0000
0000
1000
0010
0000
0000
0000
0000
0000
0000
0000
0000
0000
0000
0000
0000
0000
0000
0000
0110
0000
0000
0101
,
0000
0000
0000
0000
0000
0000
0000
0001
0000
0000
0000
1000
0100
0000
0000
0000
0000
0000
0000
0000
0000
0000
0000
0000
0000
0000
0000
0000
0110
0000
0000
1100
,
0000
0000
0000
0000
0000
0000
0000
1000
0000
0000
0000
0010
0100
0000
0000
0000
0000
0000
0000
0000
0000
0000
0000
0000
0000
0000
0000
0000
0101
0000
0000
1001
,
0000
0000
0000
0000
0000
0000
0000
0010
0000
0000
0000
2000
0002
0000
0000
0000
0000
0000
0000
0000
0000
0000
0000
0000
0000
0000
0000
0000
0000
0000
0000
0000
,
0000
0000
0000
0000
,
0000
0000
0000
0000
0000
0000
3003
0000
0010
1000
0010
0100
0010
1000
0010
0100
,
0010
1000
0010
0100
0001
1000
0000
1000
0001
0000
0101
0000
0110
0000
1010
0000
,
1100
0000
0110
0000
0001
0000
1000
0010
0100
0001
0010
0001
0100
0001
0010
0001
,
0100
0001
0010
0001
0100
0010
0000
0010
0100
0000
0101
0000
0110
0000
1010
0000
,
1100
0000
0110
0000
0010
0000
0001
1000
0100
0010
0001
0010
0100
0010
0001
0010
,
0100
0010
0001
0010
0100
1000
0000
1000
0010
0000
0110
0000
0101
0000
1001
0000
,
1100
0000
0110
0000
0001
0000
0001
1000
0100
1000
0010
1000
0100
1000
0010
1000
,
0100
1000
0010
0100
0001
0100
0000
0100
0001
0000
1000
0000
0010
0100
0010
0000
,
0100
0010
0100
0000
0001
0000
1000
0010
0100
0001
0010
0100
1000
0010
0100
0001
,
1000
0100
0010
0001
0100
0010
0000
0010
0100
0000
0001
0000
1000
0000
0100
0000
,
0010
0000
0001
1000
0001
0000
1000
0010
0100
0001
0010
0100
1000
0100
0010
0001
,
1000
0100
0010
0001
0100
0010
0000
0010
0100
0000
0001
0000
1000
0000
0010
0100
,
0001
0100
0001
0100
0001
0100
0001
0100
0010
1000
0100
0010
0001
0100
0010
1000
,
0100
0010
0001
0010
0100
1000
0000
1000
0100
0000
1000
0000
0010
0000
0100
0000
,
0001
0100
0001
1000
0001
0000
1000
0000
0100
0010
0001
0100
0010
1000
0100
0010
,
0001
0010
0100
1000
0010
0100
0000
0100
0010
1000
0010
1000
0010
1000
0010
1000
,
0010
1000
0010
1000
0010
1000
0010
0100
0001
0100
0010
1000
0100
0010
0001
0100
,
0010
0000
1010
0000
1000
0010
0000
0010
0100
0001
0100
0001
1000
0010
1000
0010
,
0100
0010
0100
0010
0100
0001
0100
0001
1000
0100
0010
0001
0100
0010
1000
0100
,
0010
0000
0011
0000
0001
0100
0000
0100
0001
1000
0001
1000
0010
1000
0010
1000
,
0100
1000
0100
1000
0100
0010
0100
0010
0001
0100
0010
1000
0100
0010
0100
1000
,
0010
0000
0110
0000
0100
0001
0000
0001
0100
0010
0100
0010
1000
0010
1000
0010
,
0100
0001
0100
0001
0010
0001
0010
0001
0100
0010
1000
0100
0010
0001
0100
0010
,
0100
0000
0101
0000
0001
0100
0000
0100
0010
1000
0010
0000
0100
0001
0100
0000
,
0010
1000
0010
0000
0100
0001
0100
0000
0010
1000
0100
0010
0001
0100
0010
1000
,
0100
0010
0100
0010
0100
0010
0100
0010
0001
0100
0010
0100
1000
0100
0010
0100
,
0001
1000
0100
1000
0001
1000
0010
0100
0001
0010
0100
1000
0100
0010
0001
0100
,
0010
1000
0100
1000
0100
1000
0100
1000
0100
0010
0100
0001
0100
0010
0100
1000
,
0010
0100
0010
0001
0010
1000
0100
0010
0001
0100
0010
1000
0100
0010
0001
0100
,
0010
1000
0010
1000
0010
0100
0010
0100
0001
0100
0010
0100
0001
0100
1000
0100
,
0001
0010
0001
1000
0001
0010
0100
1000
0010
0100
0001
0010
0100
1000
0010
0100
,
0001
1000
0001
1000
0001
1000
0001
1000
0010
0000
0000
1010
0000
0000
0002
0000
,
0000
0200
0000
0000
0000
0000
0000
0000
0000
0000
0303
0000
0010
0000
1000
0000
,
0100
0000
0010
0001
0010
0000
0001
0000
0100
0000
0010
0100
0010
0000
0100
0000
,
0100
0000
0010
0100
0010
0000
1000
0000
0100
0000
0010
0001
0010
0000
0001
0000
,
0001
0000
0010
0001
0010
0000
0001
0000
1000
0000
0010
0100
0010
0000
0100
0000
,
0100
0000
0010
0100
0010
0000
1000
0000
0100
0000
0010
0100
0010
0000
0100
0000
,
0100
0000
0010
0100
0010
0000
0001
0000
1000
0000
0001
0100
0001
0000
0100
0000
,
0100
0000
0001
0100
0001
0000
1000
0000
0010
0000
0100
0010
0100
0000
0010
0000
,
0010
0000
0100
0010
0100
0000
0010
0000
1000
0000
0100
0010
0100
0000
0010
0000
,
0010
0000
0001
1000
0020
0000
0100
0000
1000
0000
0000
0000
0000
0000
0000
0000
,
0130
0010
1000
0000
1000
0010
0100
0000
0001
0000
0010
0000
1000
0000
0010
0000
,
0001
0100
0010
0000
0010
0100
0001
0000
1000
0000
0010
0000
0100
0000
0001
0000
,
1000
0010
0100
0000
0100
0010
1000
0000
0100
0000
0010
0000
0001
0000
1000
0000
,
0100
0010
0001
0000
0001
0010
0100
0000
1000
0000
0010
0000
0001
0000
0010
0000
,
1000
0001
0100
0000
0100
0001
1000
0000
0100
0000
0010
0000
0001
0000
0100
0000
,
0010
0100
0001
0000
0001
0100
0010
0000
1000
0000
0100
0000
0010
0000
0001
0000
,
1000
0100
0010
0000
0010
0100
1000
0000
0010
0000
0100
0000
0001
0000
1000
0000
,
0010
0100
0010
0100
0010
0100
0010
0100
0010
0100
0010
0100
0010
0100
0010
0100
,
0010
1000
0100
0010
0001
1000
0100
0010
0001
0000
0101
0000
0100
0010
0000
0010
,
0100
0001
0100
0001
1000
0001
1000
0001
1000
0010
1000
0010
0100
0010
0100
0010
,
0100
0001
0010
0100
1000
0001
0010
0100
1000
0000
1010
0000
0010
0100
0000
0100
,
0010
1000
0001
0100
0010
1000
0100
0010
0001
1000
0010
0100
0001
1000
0010
0100
,
0010
0100
0001
0010
0100
1000
0100
0010
0001
0000
1001
0000
1000
0010
0000
0010
,
0100
0001
0100
0001
0010
0001
0010
0001
0010
0100
0010
0100
1000
0100
1000
0100
,
0010
0001
1000
0100
0010
0001
1000
0100
0010
0000
0011
0000
0001
0100
0000
0100
,
0010
1000
0010
0100
0001
0100
0010
0100
0010
0100
0010
0100
0010
0100
0010
0100
,
0010
1000
0100
0010
0001
0100
0010
1000
0100
0010
0100
0010
0001
0100
0001
0100
,
0010
1000
0010
0001
0010
0100
0010
1000
0100
0010
0100
0001
0100
1000
0010
0100
,
0001
1000
0100
0010
0001
0100
0010
1000
0100
0010
0100
0010
0001
1000
0001
1000
,
0010
0100
0010
0001
0010
0100
0010
1000
0100
0010
0100
0001
0100
1000
0010
0100
,
0001
0010
0100
1000
0010
0100
0001
1000
0010
1000
0010
1000
0100
0010
0100
0010
,
0001
0100
0001
0010
0001
1000
0010
1000
0100
0010
0100
1000
0010
1000
0001
0100
,
0010
1000
0100
0010
0001
0100
0010
1000
0010
0100
0010
0100
0001
1000
0001
1000
,
0020
0000
0000
0000
0230
0000
0000
0000
0310
0000
1000
0000
0100
0000
0010
0001
,
0000
0000
0001
0000
0010
0000
0100
0000
1000
0000
0010
0000
0100
0000
0001
1000
,
0000
0000
1000
0000
0001
0000
0100
0000
0010
0000
1000
0000
0100
0000
0001
0100
,
0000
0000
0100
0000
1000
0000
0010
0000
0100
0000
0001
0000
0010
0000
0100
0010
,
0000
0000
0010
0000
0001
0000
0100
0000
0010
0000
1000
0000
0100
0000
0010
0100
,
0000
0000
0100
0000
1000
0000
0010
0000
0100
0000
0001
0000
0010
0000
0001
1000
,
0000
0000
1000
0000
0010
0000
0100
0000
0001
0000
0010
0000
0100
0000
0010
0001
,
0000
0000
0001
0000
0100
0000
0010
0000
1000
0000
0100
0000
0010
0000
0100
0010
,
0000
0000
0010
0000
0001
0000
1000
0000
1001
0000
0001
0000
0100
0000
0001
0100
,
0000
0000
0100
0000
0001
0000
0100
0000
0010
0000
0100
0000
0010
0000
1000
0010
,
0000
0000
0010
0000
1000
0000
0100
0000
1000
0000
0100
0000
0010
0000
0100
0010
,
0000
0000
0010
0000
0001
0000
0010
0000
0001
0000
0100
0000
0001
0000
0100
0001
,
0000
0000
0001
0000
0100
0000
0001
0000
0100
0000
0010
0000
0100
0000
0010
0100
,
0000
0000
0100
0000
0010
0000
0100
0000
0010
0000
1000
0000
0100
0000
1000
0100
,
0000
0000
0100
0000
0010
0000
0100
0000
1000
0000
0010
0000
1000
0000
0010
0100
,
0000
0000
0100
0000
0001
0000
0100
0000
0001
0000
0010
0000
0001
0000
0010
0001
,
0000
0001
0100
0010
0110
0000
1010
0000
,
0110
0000
0000
0000
0000
0000
0000
0000
0000
0000
0000
0000
0000
0000
0000
0000
0101
0000
0000
0000
0000
0000
0000
0000
0000
0000
0000
0000
0000
0000
0000
0000
1001
0000
0000
0000
0000
0000
0000
0000
0000
0000
0000
0000
0000
0000
1100
0000
0000
0000
0000
0000
0000
0000
0000
0000
0000
0000
0000
0000
0000
0110
0000
0000
,
0000
0000
0000
0000
0000
0000
0000
0000
0000
0000
0000
0000
0000
0000
0000
0000
0000
0000
0000
0000
0000
0000
0000
0000
0000
0000
0000
0000
0000
0000
0000
0000
0000
0011
0000
0000
0000
0000
0000
0000
0000
0000
0000
0000
0000
0000
0000
0000
0000
0000
0000
0000
0000
0000
0000
0000
0000
0000
0000
0000
0000
0000
0000
0000
0000
0000
0000
0000
0000
0000
0000
0000
0000
0000
0000
0000
1001
0000
0000
0000
0000
0000
0000
0000
0000
0000
0000
0000
0000
0000
0000
0000
0000
0000
0000
0000
0000
0000
0000
0000
0000
0000
0000
0000
0000
0000
0000
0000
0000
0000
0000
0000
0000
0000
0000
0000
1010
0000
0000
0000
0000
0000
0000
0000
0000
0000
0000
0000
0000
0000
0000
0000
0000
0000
0000
0000
0000
0000
0000
0000
0000
0000
0000
0000
0000
0000
0000
0000
0000
0000
0000
0000
0110
0000
0000
0000
0000
0000
0000
0000
0000
0000
0000
0000
0000
0000
0000
0000
0000
0000
0000
0000
0000
0000
0000
0000
0000
0000
0000
0000
0000
0000
0000
0000
0000
0000
0000
0000
0101
0000
0000
0000
,
0000
0000
0000
0000
0000
0000
0000
0000
0000
0000
0000
0000
0000
0000
0000
0000
0000
0000
0000
0000
0000
0000
0000
0000
0000
0000
0000
0000
0000
0000
0000
0000
1001
0000
0000
0000
0000
0000
0000
0000
0000
0000
0000
0000
0000
0000
0000
0000
0000
0000
0000
0000
0000
0000
0000
0000
0000
0000
0000
0000
0000
0000
0000
0000
0000
0000
0000
0000
1100
0000
0000
0000
0000
0000
0000
0000
0000
0000
0000
0000
0000
0000
0000
0000
0000
0000
0000
0000
0000
0000
0000
0000
0000
0000
0000
0000
0000
0000
0000
0000
0000
0000
0110
0000
0000
0000
0000
0000
0000
0000
0000
0000
0000
0000
0000
0000
0000
0000
0000
0000
0000
0000
0000
0000
0000
0000
0000
0000
0000
0000
0000
0000
0000
0000
0000
0011
0000
0000
0000
0000
0000
0000
0000
0000
0000
0000
0000
0000
0000
0000
0000
0000
0000
0000
0000
0000
0000
0000
0000
0000
0000
0000
0000
0000
0000
1001
0000
0000
0000
0000
0000
0000
0000
0000
0000
0000
0000
0000
0000
0000
0000
0000
0000
0000
0000
0000
0000
0000
0000
0000
0000
0000
,
0000
1010
0000
0000
0000
0000
0000
0000
0000
0000
0000
0110
0000
0000
0000
0000
0000
0000
0000
0000
0000
0000
0101
0000
0000
0000
0000
0000
0000
0000
0000
0000
2001
0000
0000
0000
0000
0000
0000
0000
0010
0000
0000
0000
0000
0000
0000
0000
3002
0000
0000
0000
0000
0000
0000
0000
0100
0000
0000
0000
0000
0000
0000
0000
,
0023
0100
0032
0100
0023
1000
0032
1000
,
0203
0010
0302
1000
2003
0010
3200
0010
,
2300
0000
0020
3000
0200
0030
0002
0300
2000
0003
0200
3000
0020
0300
0002
0030
,
2000
0000
0000
0000
,
0000
0000
0000
0000
,
0000
0000
0000
0000
,
0000
0000
0000
0000
,
3003
0000
0002
0000
0200
0003
0020
0000
,
0000
0000
0000
0000
0000
0000
0000
0000
0330
0000
0000
0000
0000
0000
0000
0000
2020
0000
0000
0000
0000
0000
0000
0000
3030
0000
0100
0000
0001
0000
0000
0001
,
0000
0000
0001
0000
1000
0000
0000
1000
0000
0000
1000
0000
0100
0000
0000
0020
0000
0000
0000
0000
0000
0000
0000
0000
0000
0000
0031
0000
0100
0000
0000
0010
,
0000
0000
1000
0000
0100
0000
0000
0010
0000
0000
0001
0000
1000
0000
0000
0010
0000
0000
0200
0000
0000
0000
0000
0000
0000
0000
0301
0000
1000
0000
0000
0100
,
0000
0000
1000
0000
0010
0000
0000
0100
0000
0000
0001
0000
0010
0000
0000
0001
0000
0000
2000
0000
0000
0000
0000
0000
0000
0000
3010
0000
0100
0000
0000
0001
,
0000
0000
0100
0000
0010
0000
0000
1000
0000
0000
0100
0000
0010
0000
0000
0001
0000
0000
1000
0000
0020
0000
0000
0000
0000
0030
0100
0000
0001
0000
0000
1000
,
0000
0000
0100
0000
1000
0000
0000
0010
0000
0000
0100
0000
0001
0000
0000
1000
0000
0000
0010
0000
0100
0000
0000
0010
0000
0000
0100
0000
0001
0000
0000
1000
,
0000
0000
0100
0000
1000
0000
0000
0010
0000
0000
0100
0000
0010
0000
0000
0200
0000
0000
0000
0000
0000
0000
0000
0000
0000
0000
0000
0000
0000
0000
0000
0000
,
0000
0000
0000
0000
0000
0000
0000
0302
0000
2000
0000
0000
0000
0000
0000
0000
,
0000
0000
0000
0000
0000
0000
0000
0000
0000
0003
0000
0000
0000
0000
0200
0000
0000
0000
0000
0000
0000
0000
0000
0000
,
0000
0000
0000
0000
0000
0000
0000
3300
0000
0000
0000
0000
;
