#TITLE:Chiquitita;
#SUBTITLE:(Ventura Mix);
#ARTIST:E-Rotic;
#TITLETRANSLIT:;
#SUBTITLETRANSLIT:;
#ARTISTTRANSLIT:;
#GENRE:;
#CREDIT:;
#BANNER:Chiquitita (Ventura Mix)-bn.png;
#BACKGROUND:Chiquitita (Ventura Mix)-bg.png;
#LYRICSPATH:Chiquitita.lrc;
#CDTITLE:Dancemania Happy Paradise 2.png;
#MUSIC:Chiquitita (Ventura Mix).mp3;
#OFFSET:-6.860000;
#SAMPLESTART:63.035000;
#SAMPLELENGTH:13.080000;
#SELECTABLE:YES;
#BPMS:0.000000=150.029999
;
#STOPS:
;
#BGCHANGES:;
#KEYSOUNDS:;
#ATTACKS:;

//---------------dance-single - ----------------
#NOTES:
     dance-single:
     :
     Hard:
     11:
     0.567798,0.548219,0.195792,0.186003,0.166424,406.000000,386.000000,20.000000,19.000000,0.000000,0.000000,0.567798,0.548219,0.195792,0.186003,0.166424,406.000000,386.000000,20.000000,19.000000,0.000000,0.000000:
// measure 0
1000
0100
1000
0100
2000
0000
0000
0000
3000
0000
1001
0000
0000
0000
0010
0000
,  // measure 1
1000
0000
0100
0010
0000
1000
0001
0000
,  // measure 2
1000
0100
1000
0100
2000
0000
0000
0000
3000
0000
0110
0000
0000
0000
1000
0000
,  // measure 3
0100
0000
1000
0100
1000
0000
0001
0000
0010
0100
0010
0000
0100
0000
1000
0000
,  // measure 4
0000
0010
0000
1000
0000
0100
0000
1000
,  // measure 5
0100
0010
0001
0000
0010
0000
0001
0010
,  // measure 6
0001
1000
0200
0000
0310
0000
2001
0000
,  // measure 7
3010
1002
0103
0001
,  // measure 8
1000
0000
0100
0010
0001
0000
0000
0000
0100
0000
0010
0000
0100
0000
0000
0000
,  // measure 9
0001
0100
0010
0000
1001
0000
0100
0001
,  // measure 10
0100
0001
0010
0000
2000
0000
3010
0000
,  // measure 11
1000
0000
0010
0100
0001
0000
0100
0000
0010
0100
0001
0000
1000
0000
0020
0000
,  // measure 12
0000
0230
0000
0302
0000
1003
0000
0010
,  // measure 13
0100
0001
1000
0000
0101
0000
0001
0010
,  // measure 14
0001
1000
0100
0000
0010
0000
0120
0000
,  // measure 15
0001
1000
0130
0102
,  // measure 16
0013
0021
1030
2001
,  // measure 17
3100
0000
0201
0000
0310
0000
0001
1000
,  // measure 18
0100
1000
0001
0000
1000
0000
0010
0000
,  // measure 19
1000
0000
0010
1000
0010
0000
0100
0000
0010
0100
0001
0000
0100
0000
0010
0000
,  // measure 20
0001
0010
1000
0100
1000
0100
0000
1000
,  // measure 21
1000
0000
0100
0010
0001
0000
1000
0000
0010
0000
0100
0000
0001
0000
0100
0000
,  // measure 22
0010
1000
0120
0000
1030
0000
1002
0000
,  // measure 23
0103
2001
3010
1000
,  // measure 24
0100
0000
1000
0100
1000
0000
0000
0000
0001
0000
0010
0000
1000
0000
0000
0000
,  // measure 25
0010
0001
0100
0000
0010
0000
1000
0010
,  // measure 26
1000
0100
1000
0000
0001
0000
0010
0000
,  // measure 27
0100
0000
0010
0100
0010
0000
1000
0000
0100
1000
0100
0000
1000
0000
0001
0000
,  // measure 28
0000
0001
0100
0010
1000
0020
0000
1030
,  // measure 29
0000
0000
0001
1000
0010
0000
0000
0000
1000
0000
0000
0000
0100
0000
1000
0100
,  // measure 30
1000
0001
0010
0001
0100
0010
0000
1000
,  // measure 31
0001
0000
0100
0000
0010
0000
0000
1000
0000
0000
0010
0000
1001
0000
0000
0000
,  // measure 32
0001
0000
1000
0100
0010
0000
0001
0000
0100
0000
0001
0100
0010
0000
0000
0000
,  // measure 33
1000
0010
0000
0010
0100
0001
1000
0100
,  // measure 34
1000
0010
1000
0100
1000
0010
0000
1000
,  // measure 35
0000
0000
1000
0010
0100
0000
0010
0000
0100
0001
0100
0000
0001
0000
0010
0000
,  // measure 36
0100
0010
0001
0010
0100
0010
0001
0010
,  // measure 37
0100
0000
1000
0010
1000
0000
0010
0000
0100
0010
0100
0000
0001
0000
0100
0000
,  // measure 38
0010
1000
0001
0010
0100
1000
0001
1000
,  // measure 39
0010
0000
0100
0000
0001
0000
0100
0010
0000
0000
0100
0000
0001
0000
0010
0000
,  // measure 40
0100
0000
0010
0000
0001
0000
0010
0001
0010
0000
0100
0000
1000
0000
0010
0000
,  // measure 41
1000
0000
0010
1000
0010
0000
0101
0000
,  // measure 42
0010
0010
1000
0100
0010
0001
1000
0010
,  // measure 43
0100
0000
0001
0000
0010
0000
0001
0100
0001
0000
0110
0000
0001
0010
0001
0000
,  // measure 44
1000
0010
0100
0001
0010
0100
1000
0001
,  // measure 45
1000
0000
0010
0000
1000
0000
0001
0010
0001
0000
0100
0000
0001
0100
0001
0000
,  // measure 46
0010
0001
0010
0001
0100
0001
0100
0001
,  // measure 47
0010
0000
0001
0000
0000
0000
0010
0000
0001
0000
0100
0010
0000
0000
1000
0000
,  // measure 48
0001
0000
0100
0000
0001
0000
1000
0000
0100
0000
0010
0100
1000
0000
0010
0000
,  // measure 49
0100
0001
0100
0000
0010
1000
0001
0000
,  // measure 50
0110
0000
0001
1000
0010
0100
0001
1000
,  // measure 51
0010
0010
1000
1000
0100
0100
1001
0000
,  // measure 52
1000
0000
0001
0000
0010
0000
0000
0000
0100
0000
1000
0001
1000
0000
0000
0000
,  // measure 53
0010
0100
0001
0000
0100
0010
2000
0000
,  // measure 54
3001
0000
1000
0100
1000
0100
0010
0001
,  // measure 55
0100
0000
0010
0000
1000
0000
0001
0000
0100
0000
0000
0000
0000
0010
0100
0000
,  // measure 56
1001
0000
0000
0000
;

//---------------dance-single - ----------------
#NOTES:
     dance-single:
     :
     Medium:
     6:
     0.352426,0.383753,0.088107,0.597167,0.000000,252.000000,243.000000,9.000000,61.000000,0.000000,0.000000,0.352426,0.383753,0.088107,0.597167,0.000000,252.000000,243.000000,9.000000,61.000000,0.000000,0.000000:
0010
1000
0010
0000
0000
0100
0000
0010
,
1000
0000
0010
1000
0000
0010
0000
0000
,
0100
0001
0100
0000
0000
0010
0000
1000
,
0010
0000
1000
0010
1000
0010
2000
0000
,
0000
0001
0001
0001
,
3001
0000
1000
0000
0010
0000
1000
0001
,
0010
0100
2000
0000
0000
0000
3020
0000
,
0000
0230
0000
0301
,
0000
1000
0001
0000
0000
0010
0200
0000
,
0300
0100
1000
0000
0010
0000
0010
1000
,
0010
1000
0001
0000
0001
0000
1000
0000
,
0010
0000
0010
1000
0001
0010
0100
0000
,
1000
0010
1000
0010
,
1000
0010
0100
0000
0001
0000
2000
0000
,
3020
0230
0301
0101
,
0101
1010
1010
0220
,
0330
0001
1000
0000
0000
0010
0200
0000
,
0000
0000
0001
0000
0301
0000
0001
1000
,
0010
0100
0010
1000
,
0010
0000
0010
0100
0010
0100
0001
0000
,
1000
0010
1000
0010
,
1000
0020
1030
0002
,
0103
0020
1030
2000
,
3100
0200
0310
2000
,
3010
0000
0020
0000
0030
0010
1000
0000
,
0000
0010
0100
0000
0001
0000
0001
1000
,
0001
1000
0002
0000
0023
0000
0230
0000
,
1300
0000
0001
1000
0001
1000
0020
0000
,
0230
0302
0023
0230
,
2300
0000
3020
0000
1030
0000
0010
1000
,
0010
1000
0020
0000
0130
0000
0002
0000
,
2003
3020
1030
2002
,
3003
0010
0002
0000
0003
1000
0200
0000
,
0300
1000
0001
0010
,
0100
1000
0001
2000
,
3000
0000
0010
1000
0010
1000
0020
0000
,
0001
0100
0001
0100
,
2030
0000
3001
0100
0001
0100
0001
0000
,
0200
0320
2030
3002
,
0103
0000
0001
0000
0100
0000
0010
0100
,
0020
0030
0200
0300
,
2002
0003
0100
0100
,
3010
1000
0001
0100
,
0001
0000
0100
0000
0010
0100
0010
0100
,
0220
0000
0000
0000
,
0000
0330
0100
0100
,
0010
0010
1000
0001
,
1000
0001
0100
0001
,
0100
0001
0200
0000
0300
0001
0020
0000
,
0030
0001
0020
0000
0030
0100
2000
0000
,
3020
0000
2030
0000
3100
0000
0010
0010
,
0001
0100
0001
0100
0001
0100
0020
0000
,
0030
0100
0010
0000
1000
0001
2000
0000
,
3000
0100
0020
0000
0030
0001
0200
0000
,
0301
0000
0002
0000
2003
0000
3100
0010
,
0000
0001
0000
1001
0000
0000
0000
0001
,
1000
0000
0000
0000
;

//---------------dance-single - ----------------
#NOTES:
     dance-single:
     :
     Easy:
     4:
     0.307674,0.274109,0.058738,0.283899,0.000000,220.000000,214.000000,6.000000,29.000000,0.000000,0.000000,0.307674,0.274109,0.058738,0.283899,0.000000,220.000000,214.000000,6.000000,29.000000,0.000000,0.000000:
1000
1010
0000
1000
,
0001
0010
1000
0100
,
1000
1100
0000
0100
,
1000
0001
1000
0020
,
1000
0001
0100
1000
,
0130
0100
1000
0001
,
0010
2000
3100
0200
,
0301
0020
0130
0100
,
1000
0001
0010
0100
,
0100
1000
0010
2000
,
0001
0010
3100
0001
,
0010
1000
0100
0002
,
0010
0100
1000
0103
,
1000
0010
0100
0100
,
0002
0010
1003
0200
,
1300
0210
1300
0200
,
0301
2000
3100
0020
,
0130
0002
0103
2000
,
3010
0200
0310
0002
,
0103
1000
0010
0200
,
0001
0010
1000
0001
,
0301
0010
1000
0100
,
1000
0020
0100
1000
,
0001
0100
1030
0100
,
1000
0001
0010
0100
,
0100
1000
0001
0001
,
0100
0100
0010
1000
,
0001
0010
1000
0200
,
1300
0020
1030
0002
,
0103
0020
1030
0100
,
1000
0001
0010
0200
,
0310
0002
0103
0001
,
0010
1000
0100
0001
,
0010
0100
0001
0100
,
1000
0001
0100
1000
,
0001
0010
0100
0200
,
0001
0001
0001
0001
,
0301
0010
1000
0100
,
1000
0020
1000
1000
,
1030
0100
1000
0001
,
0010
1000
0100
0010
,
0100
1000
0001
0010
,
0100
0001
0100
1000
,
0001
0010
0100
0100
,
0200
1000
0010
1000
,
0001
1300
0010
1000
,
0100
1000
0001
0010
,
0000
1000
0001
0010
,
1000
0100
0000
1001
,
0000
1001
0000
0010
,
0000
1000
0100
1000
,
0001
0010
1000
2000
,
0000
3001
0000
0020
,
0000
0130
0000
0100
,
1000
0001
0010
1000
,
0100
0001
0100
0010
,
1001
0000
0000
0000
;
