#TITLE:Catch Me If You Can;
#SUBTITLE:Mrlargus Steps;
#ARTIST:SNSD;
#TITLETRANSLIT:;
#SUBTITLETRANSLIT:;
#ARTISTTRANSLIT:;
#GENRE:;
#CREDIT:Serenade;
#BANNER:990.png;
#BACKGROUND:OI.png;
#LYRICSPATH:;
#CDTITLE:CDtitle.png;
#MUSIC:Girls' Generation Catch Me If You Can Full Audio.mp3;
#OFFSET:-0.186696;
#SAMPLESTART:99.123001;
#SAMPLELENGTH:22.455000;
#SELECTABLE:YES;
#BPMS:0.000000=134.020004
,12.000000=268.040009
,14.000000=134.199997
,26.000000=268.040009
,28.000000=134.199997
,40.000000=268.040009
,42.000000=134.199997
,54.000000=268.040009
,56.000000=134.199997
,68.000000=268.040009
,70.000000=134.020004
,134.000000=201.039993
,134.500000=100.519997
,135.000000=201.039993
,135.500000=100.519997
,136.000000=201.039993
,136.500000=100.519997
,137.000000=201.039993
,137.500000=100.519997
,138.000000=201.039993
,138.500000=100.519997
,139.000000=201.039993
,139.500000=100.519997
,140.000000=201.039993
,140.500000=100.519997
,141.000000=201.041000
,141.500000=100.519997
,142.000000=201.041000
,142.500000=100.519997
,143.000000=201.041000
,143.500000=100.519997
,144.000000=201.041000
,144.500000=100.521004
,145.000000=201.041000
,145.500000=100.521004
,146.000000=201.041000
,146.500000=100.519997
,147.000000=201.041000
,147.500000=100.519997
,148.000000=201.041000
,148.500000=100.519997
,149.000000=201.041000
,149.500000=100.519997
,150.000000=201.041000
,150.500000=100.519997
,151.000000=201.041000
,151.500000=100.521004
,152.000000=201.041000
,152.500000=100.521004
,153.000000=201.041000
,153.500000=100.521004
,154.000000=201.041000
,154.500000=100.521004
,155.000000=201.041000
,155.500000=100.519997
,156.000000=201.041000
,156.500000=100.519997
,157.000000=201.041000
,157.500000=100.519997
,158.000000=201.041000
,158.500000=100.521004
,159.000000=201.041000
,159.500000=100.521004
,160.000000=201.041000
,160.500000=100.521004
,161.000000=201.041000
,161.500000=100.521004
,162.000000=134.020996
,178.000000=268.040985
,180.000000=134.020004
,192.000000=268.040985
,194.000000=134.020004
,206.000000=268.040009
,208.000000=134.020004
,220.000000=268.040009
,222.000000=134.020004
,286.000000=201.039993
,286.500000=100.519997
,287.000000=201.039993
,287.500000=100.519997
,288.000000=201.039993
,288.500000=100.519997
,289.000000=201.039993
,289.500000=100.519997
,290.000000=201.039993
,290.500000=100.518997
,291.000000=201.039993
,291.500000=100.518997
,292.000000=201.039993
,292.500000=100.518997
,293.000000=201.039993
,293.500000=100.519997
,294.000000=201.039993
,294.500000=100.519997
,295.000000=201.039993
,295.500000=100.519997
,296.000000=201.039993
,296.500000=100.519997
,297.000000=201.039993
,297.500000=100.519997
,298.000000=201.039993
,298.500000=100.519997
,299.000000=201.039993
,299.500000=100.519997
,300.000000=201.039993
,300.500000=100.519997
,301.000000=201.039993
,301.500000=100.519997
,302.000000=201.039993
,302.500000=100.519997
,303.000000=201.039993
,303.500000=100.519997
,304.000000=201.039993
,304.500000=100.519997
,305.000000=201.039993
,305.500000=100.519997
,306.000000=201.039993
,306.500000=100.519997
,307.000000=201.039993
,307.500000=100.519997
,308.000000=201.039993
,308.500000=100.519997
,309.000000=201.039993
,309.500000=100.519997
,310.000000=201.039993
,310.500000=100.519997
,311.000000=201.039993
,311.500000=100.519997
,312.000000=201.039993
,312.500000=100.519997
,313.000000=201.039993
,313.500000=100.519997
,314.000000=201.039993
,314.500000=100.519997
,315.000000=201.020004
,315.500000=100.519997
,316.000000=201.039993
,316.500000=100.519997
,317.000000=201.039993
,317.500000=100.519997
,318.000000=201.039993
,318.500000=100.519997
,319.000000=201.039993
,319.500000=100.519997
,320.000000=201.039993
,320.500000=100.519997
,321.000000=201.039993
,321.500000=100.519997
,322.000000=201.039993
,322.500000=100.519997
,323.000000=201.039993
,323.500000=100.519997
,324.000000=201.039993
,324.500000=100.519997
,325.000000=201.039993
,325.500000=100.519997
,326.000000=201.039993
,326.500000=100.519997
,327.000000=201.039993
,327.500000=100.519997
,328.000000=201.039993
,328.500000=100.519997
,329.000000=201.039993
,329.500000=100.519997
,330.000000=201.039993
,330.500000=100.519997
,331.000000=201.039993
,331.500000=100.519997
,332.000000=201.039993
,332.500000=100.519997
,333.000000=201.039993
,333.500000=100.519997
,334.000000=201.039993
,334.500000=100.519997
,335.000000=201.039993
,335.500000=100.519997
,336.000000=201.039993
,336.500000=100.519997
,337.000000=201.039993
,337.500000=100.519997
,338.000000=201.039993
,338.500000=100.519997
,339.000000=201.039993
,339.500000=100.519997
,340.000000=201.039993
,340.500000=100.519997
,341.000000=201.039993
,341.500000=100.519997
,342.000000=201.039993
,342.500000=100.519997
,343.000000=201.039993
,343.500000=100.519997
,344.000000=201.039993
,344.500000=100.519997
,345.000000=201.039993
,345.500000=100.519997
,346.000000=201.039993
,346.500000=100.519997
,347.000000=201.039993
,347.500000=100.519997
,348.000000=201.039993
,348.500000=100.519997
,349.000000=201.039993
,349.500000=100.519997
,350.000000=134.020004
,414.000000=201.039993
,414.500000=100.519997
,415.000000=201.039993
,415.500000=100.519997
,416.000000=201.039993
,416.500000=100.519997
,417.000000=201.039993
,417.500000=100.519997
,418.000000=201.039993
,418.500000=100.519997
,419.000000=201.039993
,419.500000=100.519997
,420.000000=201.039993
,420.500000=100.519997
,421.000000=201.039993
,421.500000=100.519997
,422.000000=201.039993
,422.500000=100.519997
,423.000000=201.039993
,423.500000=100.519997
,424.000000=201.039993
,424.500000=100.519997
,425.000000=201.039993
,425.500000=100.519997
,426.000000=201.039993
,426.500000=100.519997
,427.000000=201.039993
,427.500000=100.519997
,428.000000=201.039993
,428.500000=100.519997
,429.000000=201.039993
,429.500000=100.519997
,430.000000=201.039993
,430.500000=100.519997
,431.000000=201.041000
,431.500000=100.519997
,432.000000=201.041000
,432.500000=100.519997
,433.000000=201.041000
,433.500000=100.519997
,434.000000=201.041000
,434.500000=100.519997
,435.000000=201.041000
,435.500000=100.519997
,436.000000=201.041000
,436.500000=100.519997
,437.000000=201.041000
,437.500000=100.519997
,438.000000=201.041000
,438.500000=100.519997
,439.000000=201.041000
,439.500000=100.519997
,440.000000=201.041000
,440.500000=100.519997
,441.000000=201.041000
,441.500000=100.519997
,442.000000=201.041000
,442.500000=100.519997
,443.000000=201.041000
,443.500000=100.519997
,444.000000=201.041000
,444.500000=100.519997
,445.000000=201.039993
,445.500000=100.519997
,446.000000=201.039993
,446.500000=100.519997
,447.000000=201.041000
,447.500000=100.519997
,448.000000=201.041000
,448.500000=100.519997
,449.000000=201.041000
,449.500000=100.519997
,450.000000=201.041000
,450.500000=100.519997
,451.000000=201.041000
,451.500000=100.519997
,452.000000=201.039993
,452.500000=100.519997
,453.000000=201.039993
,453.500000=100.519997
,454.000000=201.039993
,454.500000=100.519997
,455.000000=201.039993
,455.500000=100.519997
,456.000000=201.039993
,456.500000=100.519997
,457.000000=201.039993
,457.500000=100.519997
,458.000000=201.039993
,458.500000=100.519997
,459.000000=201.039993
,459.500000=100.519997
,460.000000=201.039993
,460.500000=100.519997
,461.000000=201.039993
,461.500000=100.519997
,462.000000=201.039993
,462.500000=100.519997
,463.000000=201.039993
,463.500000=100.518997
,464.000000=201.039993
,464.500000=100.518997
,465.000000=201.039993
,465.500000=100.519997
,466.000000=201.039993
,466.500000=100.519997
,467.000000=201.039993
,467.500000=100.519997
,468.000000=201.039993
,468.500000=100.519997
,469.000000=201.039993
,469.500000=100.519997
,470.000000=201.039993
,470.500000=100.519997
,471.000000=201.039993
,471.500000=100.518997
,472.000000=201.039993
,472.500000=100.518997
,473.000000=201.039993
,473.500000=100.518997
,474.000000=134.018997
;
#STOPS:12.000000=0.340000,
12.500000=0.340000,
13.000000=0.340000,
13.500000=0.340000,
26.000000=0.340000,
26.500000=0.340000,
27.000000=0.340000,
27.500000=0.340000,
40.000000=0.340000,
40.500000=0.340000,
41.000000=0.340000,
41.500000=0.340000,
54.000000=0.340000,
54.500000=0.340000,
55.000000=0.340000,
55.500000=0.320000,
68.000000=0.340000,
68.500000=0.340000,
69.000000=0.340000,
69.500000=0.300000,
178.000000=0.340000,
178.500000=0.340000,
179.000000=0.340000,
179.500000=0.340000,
192.000000=0.340000,
192.500000=0.340000,
193.000000=0.340000,
193.500000=0.340000,
206.000000=0.340000,
206.500000=0.340000,
207.000000=0.340000,
207.500000=0.300000,
220.000000=0.340000,
220.500000=0.340000,
221.000000=0.340000,
221.500000=0.320000
;
#BGCHANGES:;
#KEYSOUNDS:;
#ATTACKS:;

//---------------dance-single - Blank----------------
#NOTES:
     dance-single:
     Blank:
     Challenge:
     18:
     0.955289,0.962710,0.682987,0.758874,1.388294,1498.000000,1345.000000,153.000000,170.000000,0.000000,0.000000,0.955289,0.962710,0.682987,0.758874,1.388294,1498.000000,1345.000000,153.000000,170.000000,0.000000,0.000000:
2002
0000
3003
0000
0110
0000
0001
0100
0000
1001
0000
1000
0100
0000
0011
0000
,
2002
0000
3003
0000
1100
0000
0001
0010
0000
0011
0000
0100
1000
0000
1100
0000
,
0202
0000
0303
0000
1100
0000
0001
1000
0000
0101
0000
0001
1000
0000
1001
0000
,
2200
3300
0000
0000
0220
0330
0000
0000
0022
0033
0000
0000
2002
3003
0000
0000
0010
0000
1000
0000
0100
0000
0000
0000
0010
0000
0000
0000
0001
0000
0000
0000
,
1000
0000
0100
0000
1000
0000
0001
0000
0100
0001
1000
0000
0100
0000
0010
0000
,
0100
0000
1000
0000
0001
0000
0100
0000
0010
1000
0001
0000
1000
0000
0001
0000
,
0010
0000
0000
0000
0100
0000
0000
0000
1000
0000
0000
0000
0001
0000
0000
0000
0202
0303
0000
0000
0220
0330
0000
0000
2020
3030
0000
0000
2002
3003
0000
0000
,
0001
0010
0100
0000
1000
0000
0010
0000
1000
0000
0001
0000
0010
0000
0100
0000
,
1000
0100
1000
0000
0100
0000
0001
0000
0100
0000
1000
0000
0010
0000
0001
0000
,
0010
1000
0100
0000
0001
0000
0100
0000
1000
0000
0001
0000
1000
0000
0001
0000
,
0220
0330
0000
0000
2002
3003
0000
0000
2020
3030
0000
0000
0202
0303
0000
0000
1100
0000
0000
0000
0010
0000
0001
0000
0100
0000
0000
0000
0001
0000
0000
0000
,
0101
0000
0010
1000
0100
0000
0010
0000
0011
0000
1000
0001
0100
0000
0010
0000
,
2002
0000
0000
0000
3003
0000
0100
0000
1100
0000
0001
0010
0100
0000
1000
0000
,
0011
0000
0000
0000
1000
0000
0100
0000
0010
0000
0000
0000
0001
0000
0000
0000
2002
3003
0000
0000
0220
0330
0000
0000
0202
0303
0000
0000
2020
3030
0000
0000
,
1001
0000
1000
0100
1000
0000
0010
0000
0101
0000
0001
0100
0001
0000
0001
0000
,
1100
0000
1000
0010
1000
0000
0100
0000
2002
0000
0000
0000
3003
0000
0010
0000
,
1001
0000
0100
0010
0100
0000
0001
0000
0101
0000
1000
0100
0010
0000
0110
0000
,
2200
3300
0000
0000
0220
0330
0000
0000
0022
0033
0000
0000
2002
3003
0000
0000
0100
0000
0000
0000
1000
0000
0000
0000
0100
0000
0000
0000
0010
0000
0000
0000
,
0012
0010
0013
0001
0010
0100
1000
0001
,
0210
0010
0310
1000
0001
0010
0001
1000
,
0102
0100
0103
0010
2200
3300
0011
2002
,
3003
0220
0000
0330
1000
0100
0001
0100
,
2100
0100
3100
0010
0001
0010
0100
1000
,
0201
0001
0301
0100
0010
1000
0001
0010
,
1200
1000
1300
0001
2200
3300
0101
0220
,
0330
0000
2200
0000
0000
0000
3300
0000
1001
0000
0000
0001
0100
0000
0010
0000
,
1100
0000
0000
0010
0001
0000
0100
0000
1010
0000
0000
0001
1000
0000
0100
0000
,
0110
0000
0000
0001
0100
0000
0010
0000
1100
0000
0000
1000
0001
0000
0010
0000
,
1001
0000
0000
1000
0100
0000
0010
0000
0101
0000
0000
0001
1000
0000
0010
0000
,
1100
0000
0000
0010
0100
0000
1000
0000
1010
0000
0000
0100
0010
0000
1000
0000
,
0101
0000
0000
0001
1000
0000
0010
0000
1001
0000
0000
1000
0001
0000
0100
0000
,
0110
0000
0000
0001
0100
0000
0010
0000
1010
0000
0000
1000
0100
0000
0010
0000
,
0101
0000
0000
1000
0100
0000
0022
0000
0000
0000
0033
0000
1100
0000
0110
0000
,
0011
0000
0000
0000
0000
0000
0000
0000
0000
0000
0000
0000
1001
0000
0000
0000
0000
0000
0000
0000
0000
0000
0000
0000
0110
0000
0000
0000
0000
0000
0000
0000
1000
0000
0000
0000
0000
0000
0001
0000
0000
0000
0100
0000
0000
0010
0000
0000
1000
0000
0000
0000
0000
0000
0100
0000
0000
0000
0010
0000
0000
0100
0000
0000
,
1000
0000
0000
0000
0000
0000
0001
0000
0000
0000
0100
0000
0000
0010
0000
0000
0100
0000
0000
0000
0000
0000
0001
0000
0000
0000
1000
0000
0000
0100
0000
0000
1000
0000
0000
0000
0000
0000
0001
0000
0000
0000
0010
0000
0000
0001
0000
0000
1000
0000
0000
0000
0000
0000
0100
0000
0000
0000
1000
0000
0000
0100
0000
0000
,
0010
0000
0000
0000
0000
0000
0001
0000
0000
0000
0010
0000
0000
0100
0000
0000
1000
0000
0000
0000
0000
0000
0001
0000
0000
0000
1000
0000
0000
0001
0000
0000
0010
0000
0000
0000
0000
0000
0001
0000
0000
0000
0010
0000
0000
0100
0000
0000
1000
0000
0000
0000
0000
0000
0100
0000
0000
0000
0010
0000
0000
0100
0000
0000
,
1000
0000
0000
0000
0000
0000
0001
0000
0000
0000
0010
0000
0000
0100
0000
0000
1000
0000
0000
0000
0000
0000
0010
0000
0000
0000
0100
0000
0000
0010
0000
0000
1000
0000
0000
0000
0000
0000
0010
0000
0000
0000
0100
0000
0000
0001
0000
0000
1000
0000
0000
0000
0000
0000
0010
0000
0000
0000
0100
0000
0000
0010
0000
0000
,
1000
0000
0000
0000
0000
0000
0001
0000
0000
0000
0010
0000
0000
0100
0000
0000
1000
0000
0000
0000
0000
0000
0100
0000
0000
0000
0010
0000
0000
0100
0000
0000
1000
0000
0000
0000
0000
0000
0001
0000
0000
0000
0010
0000
0000
0100
0000
0000
1000
0000
0000
0000
0000
0000
0010
0000
0000
0000
0100
0000
0000
0010
0000
0000
,
1000
0000
0000
0000
0000
0000
0010
0000
0000
0000
0100
0000
0000
0001
0000
0000
1000
0000
0000
0000
0000
0000
0010
0000
0000
0000
1000
0000
0000
0001
0000
0000
0100
0000
0000
0000
0000
0000
0001
0000
0000
0000
1000
0000
0000
0100
0000
0000
1000
0000
0000
0000
0000
0000
0001
0000
0000
0000
0010
0000
0000
0001
0000
0000
,
0100
0000
0000
0000
0000
0000
0010
0000
0000
0000
0100
0000
0000
0001
0000
0000
1000
0000
0000
0000
0000
0000
0010
0000
0000
0000
0100
0000
0000
0001
0000
0000
0100
0000
0000
0000
0000
0000
0010
0000
0000
0000
1000
0000
0000
0100
0000
0000
1000
0000
0000
0000
0000
0000
0010
0000
0000
0000
0100
0000
0000
0001
0000
0000
,
0100
0000
0000
0000
0000
0000
0010
0000
0000
0000
1000
0000
0000
0010
0000
0000
1000
0000
0000
0000
0000
0000
0010
0000
0000
0000
0100
0000
0000
0010
0000
0000
2000
0000
0000
0000
0000
0000
0000
0000
3000
0000
0000
0000
0000
0000
0000
0000
0011
0000
0000
0000
0000
0000
0000
0000
0110
0000
0000
0000
0000
0000
0000
0000
,
1100
0000
0000
1001
0000
0000
0101
0000
0001
0000
1000
0000
0100
0000
0001
0000
,
0100
1000
0010
0202
0303
0001
1000
0010
,
0100
0001
0010
0220
0330
1000
0001
0010
,
0100
0000
0000
0000
1000
0000
0000
0000
0001
0000
0000
0000
1000
0000
0000
0000
0022
0033
0000
0000
2200
3300
0000
0000
2020
3030
0000
0000
0202
0303
0000
0000
,
1000
0000
0001
0000
0100
0000
0010
0000
2200
3300
0000
0022
0033
0000
2002
3003
,
0010
0000
0100
0000
0001
0000
1000
0000
0220
0330
0000
0202
0303
0000
2020
3030
,
0100
0000
0010
0000
1000
0000
0100
0000
0022
0033
0000
0220
0330
0000
2200
3300
,
2002
3003
0000
0000
0220
0330
0000
0000
0202
0303
0000
0000
2020
3030
0000
0000
1000
0000
0000
0000
0001
0000
0100
0000
0001
0000
0000
0000
0010
0000
0000
0000
,
0100
0000
1000
0010
1000
0000
0010
0000
0100
0000
0010
1000
0100
0000
1000
0000
,
0202
0000
0000
0000
0303
0000
0001
0000
1000
0000
0010
1000
0100
0000
1000
0000
,
0001
0000
0000
0000
0010
0000
0001
0000
0100
0000
0000
0000
0001
0000
0000
0000
2002
3003
0000
0000
0220
0330
0000
0000
2200
3300
0000
0000
0022
0033
0000
0000
,
0001
0000
1000
0100
1000
0000
0100
0000
0010
0000
0001
0010
0001
0000
0010
0000
,
0100
0000
1000
0010
1000
0000
0001
0000
2200
0000
0000
0000
3300
0000
1000
0000
,
0001
0000
1000
0100
0010
0000
0001
0000
0100
0000
0001
0010
0100
0000
1000
0000
,
0202
0303
0000
0000
2020
3030
0000
0000
2200
3300
0000
0000
0022
0033
0000
0000
0010
0000
0000
0000
0001
0000
0000
0000
0010
0000
0000
0000
1000
0000
0000
0000
,
0010
0001
0100
1000
0100
0001
1000
0010
,
0100
0001
1000
0100
0010
0100
0010
0001
,
1000
0100
0010
0001
0022
0033
1100
2002
,
3003
0000
0220
0000
0000
0000
0330
0000
0001
0000
1000
0100
1000
0000
0001
0010
,
0001
0000
1000
0100
0010
0000
0001
0010
0100
0000
0010
0001
0100
0000
0010
1000
,
0100
0000
1000
0010
1000
0000
0001
0100
0001
0000
0100
0001
1000
0000
0010
1000
,
0001
0000
0010
0100
0010
0000
0001
1000
0001
0000
0001
0010
0100
0000
1000
0100
,
1000
0000
0001
0010
0001
0000
1000
0000
1001
0000
0000
1000
0010
0000
0100
0000
,
0011
0000
0000
0100
1000
0000
0010
0000
0101
0000
0000
1000
0001
0000
0010
0000
,
0110
0000
0000
1000
0010
0000
0100
0000
0011
0000
0000
0001
1000
0000
0100
0000
,
1001
0000
0000
0001
0010
0000
0100
0000
1010
0000
0000
1000
0001
0000
0100
0000
,
0011
0000
0000
0100
0010
0000
0001
0000
0101
0000
0001
0010
0100
0000
1000
0000
,
1010
0000
1000
0100
0010
0000
0100
0000
1001
0000
0010
1000
0001
0000
0010
0000
,
0110
0000
0100
1000
0100
0000
0010
0000
0001
0010
0001
1000
0100
1000
0001
0010
,
0100
0010
0001
0010
0100
1000
0002
0000
0000
0000
0003
0000
0011
0000
0110
0000
,
1100
0000
0000
0000
0000
0000
0000
0000
0000
0000
0000
0000
1001
0000
0000
0000
0000
0000
0000
0000
0000
0000
0000
0000
0110
0000
0000
0000
0000
0000
0000
0000
0001
0000
0000
0000
0000
0000
1000
0000
0000
0000
0010
0000
0000
0100
0000
0000
0001
0000
0000
0000
0000
0000
0010
0000
0000
0000
0100
0000
0000
0010
0000
0000
,
0001
0000
0000
0000
0000
0000
1000
0000
0000
0000
0010
0000
0000
0100
0000
0000
0010
0000
0000
0000
0000
0000
1000
0000
0000
0000
0001
0000
0000
0010
0000
0000
0001
0000
0000
0000
0000
0000
1000
0000
0000
0000
0100
0000
0000
1000
0000
0000
0001
0000
0000
0000
0000
0000
0010
0000
0000
0000
0001
0000
0000
0010
0000
0000
,
0100
0000
0000
0000
0000
0000
1000
0000
0000
0000
0100
0000
0000
0010
0000
0000
0001
0000
0000
0000
0000
0000
1000
0000
0000
0000
0001
0000
0000
1000
0000
0000
0100
0000
0000
0000
0000
0000
1000
0000
0000
0000
0100
0000
0000
0010
0000
0000
0001
0000
0000
0000
0000
0000
0010
0000
0000
0000
0100
0000
0000
0010
0000
0000
,
0001
0000
0000
0000
0000
0000
1000
0000
0000
0000
0100
0000
0000
0010
0000
0000
0001
0000
0000
0000
0000
0000
0100
0000
0000
0000
0010
0000
0000
0100
0000
0000
0001
0000
0000
0000
0000
0000
0100
0000
0000
0000
0010
0000
0000
1000
0000
0000
0001
0000
0000
0000
0000
0000
0100
0000
0000
0000
0010
0000
0000
0100
0000
0000
,
0001
0000
0000
0000
0000
0000
1000
0000
0000
0000
0100
0000
0000
0010
0000
0000
0001
0000
0000
0000
0000
0000
0010
0000
0000
0000
0100
0000
0000
0010
0000
0000
0001
0000
0000
0000
0000
0000
1000
0000
0000
0000
0100
0000
0000
0010
0000
0000
0001
0000
0000
0000
0000
0000
0100
0000
0000
0000
0010
0000
0000
0100
0000
0000
,
0001
0000
0000
0000
0000
0000
0100
0000
0000
0000
0010
0000
0000
1000
0000
0000
0001
0000
0000
0000
0000
0000
0100
0000
0000
0000
0001
0000
0000
1000
0000
0000
0010
0000
0000
0000
0000
0000
1000
0000
0000
0000
0001
0000
0000
0010
0000
0000
0001
0000
0000
0000
0000
0000
1000
0000
0000
0000
0100
0000
0000
1000
0000
0000
,
0010
0000
0000
0000
0000
0000
0100
0000
0000
0000
0010
0000
0000
1000
0000
0000
0001
0000
0000
0000
0000
0000
0100
0000
0000
0000
0010
0000
0000
1000
0000
0000
0010
0000
0000
0000
0000
0000
0100
0000
0000
0000
0001
0000
0000
0010
0000
0000
0001
0000
0000
0000
0000
0000
0100
0000
0000
0000
0010
0000
0000
1000
0000
0000
,
0010
0000
0000
0000
0000
0000
0100
0000
0000
0000
0001
0000
0000
0100
0000
0000
0001
0000
0000
0000
0000
0000
0100
0000
0000
0000
0010
0000
0000
0100
0000
0000
0001
0000
0000
0000
0000
0000
1000
0000
0000
0000
0010
0000
0000
0100
0000
0000
0001
0000
0000
0000
0000
0000
0010
0000
0000
0000
0100
0000
0000
0010
0000
0000
,
0001
0000
0000
0000
0000
0000
1000
0000
0000
0000
0010
0000
0000
0100
0000
0000
0010
0000
0000
0000
0000
0000
1000
0000
0000
0000
0001
0000
0000
0010
0000
0000
0001
0000
0000
0000
0000
0000
1000
0000
0000
0000
0100
0000
0000
1000
0000
0000
0001
0000
0000
0000
0000
0000
0010
0000
0000
0000
0001
0000
0000
0010
0000
0000
,
0100
0000
0000
0000
0000
0000
1000
0000
0000
0000
0100
0000
0000
0010
0000
0000
0001
0000
0000
0000
0000
0000
1000
0000
0000
0000
0001
0000
0000
1000
0000
0000
0100
0000
0000
0000
0000
0000
1000
0000
0000
0000
0100
0000
0000
0010
0000
0000
0001
0000
0000
0000
0000
0000
0010
0000
0000
0000
0100
0000
0000
0010
0000
0000
,
0001
0000
0000
0000
0000
0000
1000
0000
0000
0000
0100
0000
0000
0010
0000
0000
0001
0000
0000
0000
0000
0000
0100
0000
0000
0000
0010
0000
0000
0100
0000
0000
0001
0000
0000
0000
0000
0000
0100
0000
0000
0000
0010
0000
0000
1000
0000
0000
0001
0000
0000
0000
0000
0000
0100
0000
0000
0000
0010
0000
0000
0100
0000
0000
,
0001
0000
0000
0000
0000
0000
1000
0000
0000
0000
0100
0000
0000
0010
0000
0000
0001
0000
0000
0000
0000
0000
0010
0000
0000
0000
0100
0000
0000
0010
0000
0000
0001
0000
0000
0000
0000
0000
1000
0000
0000
0000
0100
0000
0000
0010
0000
0000
0001
0000
0000
0000
0000
0000
0100
0000
0000
0000
0010
0000
0000
0100
0000
0000
,
0001
0000
0000
0000
0000
0000
0100
0000
0000
0000
0010
0000
0000
1000
0000
0000
0001
0000
0000
0000
0000
0000
0100
0000
0000
0000
0001
0000
0000
1000
0000
0000
0010
0000
0000
0000
0000
0000
1000
0000
0000
0000
0001
0000
0000
0010
0000
0000
0001
0000
0000
0000
0000
0000
1000
0000
0000
0000
0100
0000
0000
1000
0000
0000
,
0010
0000
0000
0000
0000
0000
0100
0000
0000
0000
0010
0000
0000
1000
0000
0000
0001
0000
0000
0000
0000
0000
0100
0000
0000
0000
0010
0000
0000
1000
0000
0000
0010
0000
0000
0000
0000
0000
0100
0000
0000
0000
0001
0000
0000
0010
0000
0000
0001
0000
0000
0000
0000
0000
0100
0000
0000
0000
0010
0000
0000
1000
0000
0000
,
0010
0000
0000
0000
0000
0000
0100
0000
0000
0000
0001
0000
0000
0100
0000
0000
0001
0000
0000
0000
0000
0000
0100
0000
0000
0000
0010
0000
0000
0100
0000
0000
0001
0000
0000
0000
0000
0000
1000
0000
0000
0000
0010
0000
0000
0100
0000
0000
0001
0000
0000
0000
0000
0000
0010
0000
0000
0000
0100
0000
0000
0010
0000
0000
,
0001
0000
0000
0000
0000
0000
1000
0000
0000
0000
0010
0000
0000
0100
0000
0000
0010
0000
0000
0000
0000
0000
1000
0000
0000
0000
0001
0000
0000
0010
0000
0000
0001
0000
0000
0000
0000
0000
1000
0000
0000
0000
0100
0000
0000
1000
0000
0000
0001
0000
0000
0000
0000
0000
0010
0000
0000
0000
0001
0000
0000
0010
0000
0000
,
0100
0000
0000
0000
0000
0000
1000
0000
0000
0000
0100
0000
0000
0010
0000
0000
0001
0000
0000
0000
0000
0000
1000
0000
0000
0000
0001
0000
0000
1000
0000
0000
0100
0000
0000
0000
0000
0000
0000
0000
1000
0000
0000
0000
0000
0000
0000
0000
0001
0000
0000
0000
0000
0000
0000
0000
0010
0000
0000
0000
0000
0000
0000
0000
,
2100
0100
3100
0010
0001
1000
0010
1000
,
0102
0100
0103
0010
1000
0001
0100
0010
,
2001
0000
0001
0000
3001
0000
1000
0000
0220
0000
0330
0000
0022
0033
2002
0000
,
3003
0000
2200
0000
0000
0000
3300
0000
0011
0000
1000
0100
1000
0000
0001
0010
,
0001
0000
1000
0010
1000
0000
0001
0100
0001
0000
1000
0001
1000
0000
0010
0100
,
0010
0000
1000
0100
0010
0000
0001
0010
0100
0000
0010
0001
0100
0000
0010
1000
,
0100
0000
0010
0001
1000
0000
0100
1000
0001
0000
1000
0010
1000
0000
0001
0100
,
0001
0000
1000
0100
1000
0000
0011
0000
1000
0001
0100
0010
1000
0100
0010
0100
,
1000
0001
0010
0100
0010
0001
1000
0100
1000
0001
0100
0001
1000
0010
1000
0001
,
0010
0001
1000
0100
0010
0001
0010
0100
1000
0010
0100
0001
0010
0100
0010
0001
,
1000
0100
0010
0100
1000
0001
1000
0001
0100
0010
0100
0001
1000
0100
0010
0100
,
1000
0001
0010
0100
0010
0001
0010
0100
2000
3100
0010
0100
1000
0100
1000
0001
,
0010
0001
1000
0010
1000
0001
0100
0010
1000
0010
0100
0001
0010
0100
0010
0001
,
1000
0100
0010
0100
1000
0001
0010
0100
2000
3200
2300
3002
0023
0032
2003
3200
,
0310
0100
1000
0001
0010
0100
0010
0001
1000
0100
1000
0002
0000
0000
0000
0000
0003
0000
1100
0000
0000
0110
0000
0000
,
0022
0000
0000
0000
0000
0000
0000
0000
0033
0000
0000
0000
2002
0000
0000
0000
0000
0000
0000
0000
3003
0000
0000
0000
0220
0000
0000
0000
0330
0000
0000
0000
1000
0000
0000
0000
0000
0000
0001
0000
0000
0000
0100
0000
0000
0010
0000
0000
1000
0000
0000
0000
0000
0000
0100
0000
0000
0000
0010
0000
0000
0100
0000
0000
,
1000
0000
0000
0000
0000
0000
0001
0000
0000
0000
0100
0000
0000
0010
0000
0000
0100
0000
0000
0000
0000
0000
0001
0000
0000
0000
1000
0000
0000
0100
0000
0000
1000
0000
0000
0000
0000
0000
0001
0000
0000
0000
0010
0000
0000
0001
0000
0000
1000
0000
0000
0000
0000
0000
0100
0000
0000
0000
1000
0000
0000
0100
0000
0000
,
0010
0000
0000
0000
0000
0000
0001
0000
0000
0000
0010
0000
0000
0100
0000
0000
1000
0000
0000
0000
0000
0000
0001
0000
0000
0000
1000
0000
0000
0001
0000
0000
0010
0000
0000
0000
0000
0000
0001
0000
0000
0000
0010
0000
0000
0100
0000
0000
1000
0000
0000
0000
0000
0000
0100
0000
0000
0000
0010
0000
0000
0100
0000
0000
,
1000
0000
0000
0000
0000
0000
0001
0000
0000
0000
0010
0000
0000
0100
0000
0000
1000
0000
0000
0000
0000
0000
0010
0000
0000
0000
0100
0000
0000
0010
0000
0000
1000
0000
0000
0000
0000
0000
0010
0000
0000
0000
0100
0000
0000
0001
0000
0000
1000
0000
0000
0000
0000
0000
0010
0000
0000
0000
0100
0000
0000
0010
0000
0000
,
1000
0000
0000
0000
0000
0000
0001
0000
0000
0000
0010
0000
0000
0100
0000
0000
1000
0000
0000
0000
0000
0000
0100
0000
0000
0000
0010
0000
0000
0100
0000
0000
1000
0000
0000
0000
0000
0000
0001
0000
0000
0000
0010
0000
0000
0100
0000
0000
1000
0000
0000
0000
0000
0000
0010
0000
0000
0000
0100
0000
0000
0010
0000
0000
,
1000
0000
0000
0000
0000
0000
0010
0000
0000
0000
0100
0000
0000
0001
0000
0000
1000
0000
0000
0000
0000
0000
0010
0000
0000
0000
1000
0000
0000
0001
0000
0000
0100
0000
0000
0000
0000
0000
0001
0000
0000
0000
1000
0000
0000
0100
0000
0000
1000
0000
0000
0000
0000
0000
0001
0000
0000
0000
0010
0000
0000
0001
0000
0000
,
0100
0000
0000
0000
0000
0000
0010
0000
0000
0000
0100
0000
0000
0001
0000
0000
1000
0000
0000
0000
0000
0000
0010
0000
0000
0000
0100
0000
0000
0001
0000
0000
0100
0000
0000
0000
0000
0000
0010
0000
0000
0000
1000
0000
0000
0100
0000
0000
1000
0000
0000
0000
0000
0000
0010
0000
0000
0000
0100
0000
0000
0001
0000
0000
,
0100
0000
0000
0000
0000
0000
0010
0000
0000
0000
1000
0000
0000
0010
0000
0000
1000
0000
0000
0000
0000
0000
0010
0000
0000
0000
0100
0000
0000
0010
0000
0000
1000
0000
0000
0000
0000
0000
0001
0000
0000
0000
0100
0000
0000
0010
0000
0000
1000
0000
0000
0000
0000
0000
0100
0000
0000
0000
0010
0000
0000
0100
0000
0000
,
1000
0000
0000
0000
0000
0000
0001
0000
0000
0000
0100
0000
0000
0010
0000
0000
0100
0000
0000
0000
0000
0000
0001
0000
0000
0000
1000
0000
0000
0100
0000
0000
1000
0000
0000
0000
0000
0000
0001
0000
0000
0000
0010
0000
0000
0001
0000
0000
1000
0000
0000
0000
0000
0000
0100
0000
0000
0000
1000
0000
0000
0100
0000
0000
,
0010
0000
0000
0000
0000
0000
0001
0000
0000
0000
0010
0000
0000
0100
0000
0000
1000
0000
0000
0000
0000
0000
0001
0000
0000
0000
1000
0000
0000
0001
0000
0000
0010
0000
0000
0000
0000
0000
0001
0000
0000
0000
0010
0000
0000
0100
0000
0000
1000
0000
0000
0000
0000
0000
0100
0000
0000
0000
0010
0000
0000
0100
0000
0000
,
1000
0000
0000
0000
0000
0000
0001
0000
0000
0000
0010
0000
0000
0100
0000
0000
1000
0000
0000
0000
0000
0000
0010
0000
0000
0000
0100
0000
0000
0010
0000
0000
1000
0000
0000
0000
0000
0000
0010
0000
0000
0000
0100
0000
0000
0001
0000
0000
1000
0000
0000
0000
0000
0000
0010
0000
0000
0000
0100
0000
0000
0010
0000
0000
,
1000
0000
0000
0000
0000
0000
0001
0000
0000
0000
0010
0000
0000
0100
0000
0000
1000
0000
0000
0000
0000
0000
0100
0000
0000
0000
0010
0000
0000
0100
0000
0000
1000
0000
0000
0000
0000
0000
0001
0000
0000
0000
0010
0000
0000
0100
0000
0000
1000
0000
0000
0000
0000
0000
0010
0000
0000
0000
0100
0000
0000
0010
0000
0000
,
1000
0000
0000
0000
0000
0000
0010
0000
0000
0000
0100
0000
0000
0001
0000
0000
1000
0000
0000
0000
0000
0000
0010
0000
0000
0000
1000
0000
0000
0001
0000
0000
0100
0000
0000
0000
0000
0000
0001
0000
0000
0000
1000
0000
0000
0100
0000
0000
1000
0000
0000
0000
0000
0000
0001
0000
0000
0000
0010
0000
0000
0001
0000
0000
,
0100
0000
0000
0000
0000
0000
0010
0000
0000
0000
0100
0000
0000
0001
0000
0000
1000
0000
0000
0000
0000
0000
0010
0000
0000
0000
0100
0000
0000
0001
0000
0000
0100
0000
0000
0000
0000
0000
0010
0000
0000
0000
1000
0000
0000
0100
0000
0000
1000
0000
0000
0000
0000
0000
0010
0000
0000
0000
0100
0000
0000
0001
0000
0000
,
0100
0000
0000
0000
0000
0000
0010
0000
0000
0000
1000
0000
0000
0010
0000
0000
1000
0000
0000
0000
0000
0000
0010
0000
0000
0000
0100
0000
0000
0010
0000
0000
1000
0000
0000
0000
0000
0000
0001
0000
0000
0000
0100
0000
0000
0010
0000
0000
1000
0000
0000
0000
0000
0000
0100
0000
0000
0000
0010
0000
0000
0100
0000
0000
,
1000
0000
0000
0000
0000
0000
0001
0000
0000
0000
0100
0000
0000
0010
0000
0000
0100
0000
0000
0000
0000
0000
0001
0000
0000
0000
1000
0000
0000
0100
0000
0000
2000
0000
0000
0000
0000
0000
0000
0000
3000
0000
0000
0000
0000
0000
0000
0000
0011
0000
0000
0000
0000
0000
0000
0000
0110
0000
0000
0000
0000
0000
0000
0000
,
2200
3300
0000
0220
0330
0000
2002
0000
0000
0000
0000
0000
0000
3003
0000
0000
;

//---------------dance-single - Blank----------------
#NOTES:
     dance-single:
     Blank:
     Hard:
     13:
     0.623042,0.642811,0.508892,1.142776,0.370509,977.000000,863.000000,114.000000,256.000000,0.000000,0.000000,0.623042,0.642811,0.508892,1.142776,0.370509,977.000000,863.000000,114.000000,256.000000,0.000000,0.000000:
// measure 0
2002
0000
3003
0000
0110
0000
0001
0100
0000
0002
0000
0003
1000
0000
0010
0000
,  // measure 1
2002
0000
3003
0000
0101
0000
0100
0010
0000
2000
0000
3000
0001
0000
1000
0000
,  // measure 2
0220
0000
0330
0000
1100
0000
1000
0100
0000
0020
0000
0030
0001
0000
0100
0000
,  // measure 3
0022
0033
0000
0000
0220
0330
0000
0000
2200
3300
0000
0000
2002
3003
0000
0000
2000
0000
0000
0000
3002
0000
0000
0000
0000
0000
0003
0000
1000
0000
0000
0000
,  // measure 4
0010
0000
1000
0000
0001
0000
0100
0000
0020
0000
2030
0000
0000
3000
0001
0000
,  // measure 5
0100
0000
0010
0000
1000
0000
0001
0000
0200
0000
0320
0000
0000
0030
1000
0000
,  // measure 6
0001
0000
0000
0000
0010
0000
0000
0000
0100
0000
0000
0000
1000
0000
0000
0000
0202
0303
0000
0000
0220
0330
0000
0000
2020
3030
0000
0000
2200
3300
0000
0000
,  // measure 7
0002
0000
2003
0000
0000
3000
0001
0000
0100
0000
0010
0000
1000
0000
0001
0000
,  // measure 8
2000
0000
3200
0000
0000
0300
0001
0000
0100
0000
1000
0000
0001
0000
0100
0000
,  // measure 9
2000
0000
3200
0000
0000
0300
0010
0000
1000
0000
0100
0000
0010
0000
0100
0000
,  // measure 10
0022
0033
0000
0000
0220
0330
0000
0000
2200
3300
0000
0000
2020
3030
0000
0000
1000
0000
0000
0000
0100
0000
0000
0000
0010
0000
0000
0000
0100
0000
0000
0000
,  // measure 11
1000
0001
0010
0100
0010
0001
1000
0001
,  // measure 12
0220
0000
0330
0010
1000
0001
0010
0001
,  // measure 13
1000
0000
0000
0000
0010
0000
0000
0000
0100
0000
0000
0000
0001
0000
0000
0000
2200
3300
0000
0000
0220
0330
0000
0000
2002
3003
0000
0000
0202
0303
0000
0000
,  // measure 14
0100
0010
1000
0001
0010
0001
1000
0100
,  // measure 15
0010
0100
0001
0100
2200
0000
3300
0010
,  // measure 16
1000
0100
1000
0010
0100
0001
0100
0001
,  // measure 17
0022
0033
0000
0000
0202
0303
0000
0000
2020
3030
0000
0000
2200
3300
0000
0000
0100
0000
0000
0000
1000
0000
0000
0000
0100
0000
0000
0000
0010
0000
0000
0000
,  // measure 18
0012
0010
0013
0001
0010
0100
1000
0001
,  // measure 19
0210
0010
0310
1000
0001
0010
0001
1000
,  // measure 20
0102
0100
0103
0010
2200
3300
0011
2002
,  // measure 21
3003
0220
0000
0330
1000
0100
0001
0100
,  // measure 22
2100
0100
3100
0010
0001
0010
0100
1000
,  // measure 23
0201
0001
0301
0100
0010
1000
0001
0010
,  // measure 24
1200
1000
1300
0001
2200
3300
0101
0220
,  // measure 25
0330
2200
0000
3300
1000
0100
0020
0030
,  // measure 26
0001
0010
0200
0300
1000
0001
0200
0300
,  // measure 27
0001
1000
0020
0030
0010
1000
0200
0300
,  // measure 28
0010
0001
0200
0300
1000
0100
2000
3000
,  // measure 29
0001
0010
0002
0003
1000
0010
2000
3000
,  // measure 30
0001
0100
0002
0003
1000
0001
2000
3000
,  // measure 31
0001
1000
0002
0003
0100
0010
1000
0001
,  // measure 32
0100
0000
0010
0000
1000
0000
0022
0000
0000
0000
0033
0000
2200
3300
0220
0330
,  // measure 33
0022
0000
0000
0000
0033
0000
2002
0000
3003
0000
0000
0000
0220
0000
0330
0000
1000
0000
0000
0000
0000
0010
0000
0000
1000
0000
0000
0000
0000
0001
0000
0000
,  // measure 34
0100
0000
0000
0000
0000
0001
0000
0000
1000
0000
0000
0000
0000
0100
0000
0000
0010
0000
0000
0000
0000
0100
0000
0000
1000
0000
0000
0000
0000
0001
0000
0000
,  // measure 35
0010
0000
0000
0000
0000
0100
0000
0000
0010
0000
0000
0000
0000
0001
0000
0000
1000
0000
0000
0000
0000
0100
0000
0000
0001
0000
0000
0000
0000
0100
0000
0000
,  // measure 36
1000
0000
0000
0000
0000
0010
0000
0000
0001
0000
0000
0000
0000
0010
0000
0000
1000
0000
0000
0000
0000
0100
0000
0000
0010
0000
0000
0000
0000
0001
0000
0000
,  // measure 37
0010
0000
0000
0000
0000
0100
0000
0000
1000
0000
0000
0000
0000
0010
0000
0000
0100
0000
0000
0000
0000
0001
0000
0000
1000
0000
0000
0000
0000
0010
0000
0000
,  // measure 38
0100
0000
0000
0000
0000
0010
0000
0000
1000
0000
0000
0000
0000
0001
0000
0000
1000
0000
0000
0000
0000
0010
0000
0000
0100
0000
0000
0000
0000
0001
0000
0000
,  // measure 39
0010
0000
0000
0000
0000
0100
0000
0000
0010
0000
0000
0000
0000
1000
0000
0000
0001
0000
0000
0000
0000
0100
0000
0000
1000
0000
0000
0000
0000
0010
0000
0000
,  // measure 40
0100
0000
0000
0000
0000
0001
0000
0000
0010
0000
0000
0000
0000
0100
0000
0000
2000
0000
0000
0000
0000
0000
3000
0000
0022
0000
0033
0000
0220
0000
0330
0000
,  // measure 41
2200
3300
0000
2002
3003
0000
0202
0000
0303
0000
0001
0000
1000
0000
0010
0000
,  // measure 42
0100
0001
0010
2200
3300
0010
1000
0001
,  // measure 43
0100
0001
0010
0202
0303
0001
0010
0001
,  // measure 44
1000
0000
0000
0000
0100
0000
0000
0000
1000
0000
0000
0000
0010
0000
0000
0000
2200
3300
0000
0000
2002
3003
0000
0000
0202
0303
0000
0000
2020
3030
0000
0000
,  // measure 45
1000
0000
0100
0000
0010
0000
0001
0000
0202
0303
0000
2200
3300
0000
0220
0000
,  // measure 46
0330
0000
0001
0000
0010
0000
0100
0000
0022
0033
0000
2002
3003
0000
2200
0000
,  // measure 47
3300
0000
1000
0000
0100
0000
0010
0000
0220
0330
0000
2002
3003
0000
0220
0330
,  // measure 48
2020
3030
0000
0000
0202
0303
0000
0000
0220
0330
0000
0000
2002
3003
0000
0000
1000
0000
0000
0000
0001
0000
0000
0000
0010
0000
0000
0000
0001
0000
0000
0000
,  // measure 49
1000
0100
1000
0010
1000
0001
0010
0001
,  // measure 50
2200
0000
3300
0010
1000
0001
0010
0100
,  // measure 51
1000
0000
0000
0000
0100
0000
0000
0000
0010
0000
0000
0000
0001
0000
0000
0000
2200
3300
0000
0000
0220
0330
0000
0000
0022
0033
0000
0000
2002
3003
0000
0000
,  // measure 52
0100
0010
1000
0010
0100
0001
1000
0001
,  // measure 53
1000
0010
0100
0001
2020
0000
3030
1000
,  // measure 54
0100
0010
0100
1000
0010
0001
0010
1000
,  // measure 55
2002
3003
0000
0000
0220
0330
0000
0000
2020
3030
0000
0000
0202
0303
0000
0000
1000
0000
0000
0000
0001
0000
0000
0000
0100
0000
0000
0000
0010
0000
0000
0000
,  // measure 56
1000
0100
0010
0100
1000
0001
0010
0100
,  // measure 57
0010
0001
1000
0001
0100
0010
1000
0100
,  // measure 58
0010
0001
0010
1000
0020
0030
0002
2003
,  // measure 59
3000
0220
0000
0330
0001
0010
0001
1000
,  // measure 60
0100
1000
0010
1000
0001
0100
0001
1000
,  // measure 61
0010
0100
0001
0010
0100
0010
0001
1000
,  // measure 62
0100
0010
0100
1000
0022
0033
1000
0100
,  // measure 63
0000
0220
0000
0330
0001
1000
0020
0030
,  // measure 64
1000
0001
0200
0300
0001
0010
0200
0300
,  // measure 65
1000
0100
0020
0030
0001
0100
0002
0003
,  // measure 66
1000
0010
2000
3000
0010
0100
0020
0030
,  // measure 67
1000
0100
2000
3000
0010
0100
0020
0030
,  // measure 68
0001
0100
0002
0003
1000
0100
2000
3000
,  // measure 69
0001
0100
0020
0030
1000
0001
0010
0001
,  // measure 70
1000
0000
0100
0000
1000
0000
0220
0000
0000
0000
0330
0000
2200
3300
0220
0330
,  // measure 71
0022
0000
0033
0000
0000
0000
2002
0000
0000
0000
3003
0000
0220
0000
0330
0000
0001
0000
0000
0000
0000
0100
0000
0000
0010
0000
0000
0000
0000
0100
0000
0000
,  // measure 72
0001
0000
0000
0000
0000
1000
0000
0000
0010
0000
0000
0000
0000
0100
0000
0000
0010
0000
0000
0000
0000
1000
0000
0000
0001
0000
0000
0000
0000
0010
0000
0000
,  // measure 73
0100
0000
0000
0000
0000
1000
0000
0000
0010
0000
0000
0000
0000
1000
0000
0000
0001
0000
0000
0000
0000
0100
0000
0000
0001
0000
0000
0000
0000
0010
0000
0000
,  // measure 74
0001
0000
0000
0000
0000
1000
0000
0000
0100
0000
0000
0000
0000
1000
0000
0000
0010
0000
0000
0000
0000
1000
0000
0000
0001
0000
0000
0000
0000
0100
0000
0000
,  // measure 75
0001
0000
0000
0000
0000
0010
0000
0000
0001
0000
0000
0000
0000
1000
0000
0000
0001
0000
0000
0000
0000
0100
0000
0000
1000
0000
0000
0000
0000
0100
0000
0000
,  // measure 76
0001
0000
0000
0000
0000
1000
0000
0000
0100
0000
0000
0000
0000
0001
0000
0000
0100
0000
0000
0000
0000
1000
0000
0000
0010
0000
0000
0000
0000
0100
0000
0000
,  // measure 77
0001
0000
0000
0000
0000
0010
0000
0000
1000
0000
0000
0000
0000
0010
0000
0000
0001
0000
0000
0000
0000
1000
0000
0000
0010
0000
0000
0000
0000
0001
0000
0000
,  // measure 78
0010
0000
0000
0000
0000
1000
0000
0000
0100
0000
0000
0000
0000
0010
0000
0000
0001
0000
0000
0000
0000
0010
0000
0000
0100
0000
0000
0000
0000
1000
0000
0000
,  // measure 79
0001
0000
0000
0000
0000
1000
0000
0000
0010
0000
0000
0000
0000
0100
0000
0000
0001
0000
0000
0000
0000
0010
0000
0000
0100
0000
0000
0000
0000
0010
0000
0000
,  // measure 80
0001
0000
0000
0000
0000
1000
0000
0000
0100
0000
0000
0000
0000
0010
0000
0000
0100
0000
0000
0000
0000
1000
0000
0000
0001
0000
0000
0000
0000
0100
0000
0000
,  // measure 81
0001
0000
0000
0000
0000
1000
0000
0000
0010
0000
0000
0000
0000
1000
0000
0000
0001
0000
0000
0000
0000
0010
0000
0000
0001
0000
0000
0000
0000
1000
0000
0000
,  // measure 82
0100
0000
0000
0000
0000
1000
0000
0000
0010
0000
0000
0000
0000
0100
0000
0000
0001
0000
0000
0000
0000
0010
0000
0000
0100
0000
0000
0000
0000
0010
0000
0000
,  // measure 83
1000
0000
0000
0000
0000
0001
0000
0000
0100
0000
0000
0000
0000
1000
0000
0000
0010
0000
0000
0000
0000
1000
0000
0000
0010
0000
0000
0000
0000
0100
0000
0000
,  // measure 84
0001
0000
0000
0000
0000
0100
0000
0000
0001
0000
0000
0000
0000
0010
0000
0000
0100
0000
0000
0000
0000
1000
0000
0000
0100
0000
0000
0000
0000
0010
0000
0000
,  // measure 85
0100
0000
0000
0000
0000
1000
0000
0000
0001
0000
0000
0000
0000
0010
0000
0000
0100
0000
0000
0000
0000
0010
0000
0000
0001
0000
0000
0000
0000
1000
0000
0000
,  // measure 86
0001
0000
0000
0000
0000
0100
0000
0000
0010
0000
0000
0000
0000
1000
0000
0000
0001
0000
0000
0000
0000
0010
0000
0000
0001
0000
0000
0000
0000
1000
0000
0000
,  // measure 87
0010
0000
0000
0000
0000
1000
0000
0000
0100
0000
0000
0000
0000
1000
0000
0000
0010
0000
0000
0000
1000
0000
0000
0000
0001
0000
0000
0000
0010
0000
0000
0000
,  // measure 88
2100
0100
3100
1000
0100
0010
0001
1000
,  // measure 89
0120
0100
0130
0001
1000
0100
1000
0001
,  // measure 90
2010
0010
3010
0100
0022
0033
1100
2002
,  // measure 91
3003
0220
0000
0330
0001
1000
0010
1000
,  // measure 92
0001
0100
0001
0010
0001
1000
0100
1000
,  // measure 93
0010
0100
0001
1000
0100
0010
0001
0010
,  // measure 94
0100
0010
0001
1000
0220
0330
1100
0202
,  // measure 95
0303
2002
0000
3003
1000
0100
0020
0030
,  // measure 96
0001
0010
0200
0300
1000
0001
0020
0030
,  // measure 97
0001
1000
0200
0300
1000
0100
2000
3000
,  // measure 98
0001
0010
0002
0003
0010
0001
0200
0300
,  // measure 99
0010
1000
0200
0300
0010
0001
1000
0010
,  // measure 100
0100
0001
0010
0100
0010
0001
1000
0100
,  // measure 101
0010
0100
1000
0001
0100
0010
1000
0100
,  // measure 102
0010
0000
0100
0000
0010
0000
0001
0000
2200
0000
3300
0000
2200
3300
0220
0330
,  // measure 103
0022
0000
0000
0000
0033
0000
2002
0000
0000
0000
3003
0000
0220
0000
0330
0000
1000
0000
0000
0000
0000
0001
0000
0000
1000
0000
0000
0000
0000
0010
0000
0000
,  // measure 104
0100
0000
0000
0000
0000
0010
0000
0000
1000
0000
0000
0000
0000
0001
0000
0000
0010
0000
0000
0000
0000
0100
0000
0000
0010
0000
0000
0000
0000
0100
0000
0000
,  // measure 105
1000
0000
0000
0000
0000
0001
0000
0000
0010
0000
0000
0000
0000
0001
0000
0000
1000
0000
0000
0000
0000
0100
0000
0000
1000
0000
0000
0000
0000
0001
0000
0000
,  // measure 106
0100
0000
0000
0000
0000
0010
0000
0000
0100
0000
0000
0000
0000
0001
0000
0000
1000
0000
0000
0000
0000
0100
0000
0000
0010
0000
0000
0000
0000
0100
0000
0000
,  // measure 107
1000
0000
0000
0000
0000
0001
0000
0000
0010
0000
0000
0000
0000
0100
0000
0000
0010
0000
0000
0000
0000
0001
0000
0000
0100
0000
0000
0000
0000
0010
0000
0000
,  // measure 108
1000
0000
0000
0000
0000
0001
0000
0000
1000
0000
0000
0000
0000
0100
0000
0000
0001
0000
0000
0000
0000
0100
0000
0000
1000
0000
0000
0000
0000
0010
0000
0000
,  // measure 109
0001
0000
0000
0000
0000
0010
0000
0000
1000
0000
0000
0000
0000
0001
0000
0000
1000
0000
0000
0000
0000
0100
0000
0000
0010
0000
0000
0000
0000
0100
0000
0000
,  // measure 110
0010
0000
0000
0000
0000
0001
0000
0000
0100
0000
0000
0000
0000
0010
0000
0000
1000
0000
0000
0000
0000
0001
0000
0000
0100
0000
0000
0000
0000
0001
0000
0000
,  // measure 111
1000
0000
0000
0000
0000
0100
0000
0000
1000
0000
0000
0000
0000
0010
0000
0000
0001
0000
0000
0000
0000
0010
0000
0000
0001
0000
0000
0000
0000
0010
0000
0000
,  // measure 112
1000
0000
0000
0000
0000
0010
0000
0000
1000
0000
0000
0000
0000
0100
0000
0000
0010
0000
0000
0000
0000
0100
0000
0000
0010
0000
0000
0000
0000
0001
0000
0000
,  // measure 113
1000
0000
0000
0000
0000
0001
0000
0000
1000
0000
0000
0000
0000
0010
0000
0000
0100
0000
0000
0000
0000
0010
0000
0000
0100
0000
0000
0000
0000
0001
0000
0000
,  // measure 114
0010
0000
0000
0000
0000
0001
0000
0000
0010
0000
0000
0000
0000
1000
0000
0000
0010
0000
0000
0000
0000
1000
0000
0000
0010
0000
0000
0000
0000
0100
0000
0000
,  // measure 115
0010
0000
0000
0000
0000
0001
0000
0000
0010
0000
0000
0000
0000
0001
0000
0000
0010
0000
0000
0000
0000
0100
0000
0000
1000
0000
0000
0000
0000
0100
0000
0000
,  // measure 116
0010
0000
0000
0000
0000
0001
0000
0000
1000
0000
0000
0000
0000
0001
0000
0000
1000
0000
0000
0000
0000
0010
0000
0000
0100
0000
0000
0000
0000
0001
0000
0000
,  // measure 117
1000
0000
0000
0000
0000
0010
0000
0000
1000
0000
0000
0000
0000
0001
0000
0000
0100
0000
0000
0000
0000
0001
0000
0000
1000
0000
0000
0000
0000
0100
0000
0000
,  // measure 118
1000
0000
0000
0000
0000
0001
0000
0000
0010
0000
0000
0000
0000
0001
0000
0000
2200
0000
0000
0000
3300
0000
0000
0000
0220
0000
0330
0000
0022
0000
0033
0000
,  // measure 119
2002
0000
3003
0220
0000
0330
2002
0000
0000
0000
0000
0000
0000
0000
0000
0000
,  // measure 120
3003
0000
0000
0000
;

//---------------dance-single - Blank----------------
#NOTES:
     dance-single:
     Blank:
     Edit:
     25:
     1.284347,1.335005,2.865867,1.629348,1.310174,2014.000000,1327.000000,642.000000,365.000000,0.000000,226.000000,1.284347,1.335005,2.865867,1.629348,1.310174,2014.000000,1327.000000,642.000000,365.000000,0.000000,226.000000:
2022
0000
3033
0000
0111
0000
1000
0011
0000
1110
0000
0001
0110
0000
1001
0000
,
2202
0000
3303
0000
1110
0000
1000
0110
0000
1011
0000
0001
1100
0000
0101
0000
,
0222
0000
0333
0000
1101
0000
0010
0101
0000
1011
0000
0100
1001
0000
0110
0000
,
2220
3330
0000
0000
2022
3033
0000
0000
0222
0333
0000
0000
2202
3303
0000
0000
1100
0000
0010
0000
1002
0000
0000
0000
0100
0000
0000
0000
1103
0000
0000
0000
,
0110
0000
0011
0000
1001
0000
0110
0000
1001
0010
0201
0000
1000
0000
1301
0000
,
0110
0000
1100
0000
0011
0000
1001
0000
0110
1000
0120
0000
0001
0000
1130
0000
,
0110
0000
0000
0000
0011
0000
0000
0000
1001
0000
0000
0000
0110
0000
0000
0000
0222
0333
0000
0000
2220
3330
0000
0000
2022
3033
0000
0000
2202
3303
0000
0000
,
0101
1000
0120
0000
0001
0000
0131
0000
1001
0000
1010
0000
0110
0000
1001
0000
,
0110
1000
0012
0000
0100
0000
0113
0000
1001
0000
0101
0000
1010
0000
0110
0000
,
1001
0100
2001
0000
0010
0000
3101
0000
1001
0000
1010
0000
0110
0000
1001
0000
,
2220
3330
0000
0000
2202
3303
0000
0000
2022
3033
0000
0000
0222
0333
0000
0000
1100
0000
0000
0000
0011
0000
1000
0000
0210
0000
0000
0000
0001
0000
0000
0000
,
1301
0000
1010
0100
1002
0000
0010
0000
1103
0000
0011
0100
2010
0000
0100
0000
,
3012
0000
0100
0000
1023
0000
0100
0000
1031
0000
1010
0100
1002
0000
0010
0000
,
0113
0000
0000
0000
1100
0000
0001
0000
0120
0000
0000
0000
1030
0000
0000
0000
2202
3303
0000
0000
0222
0333
0000
0000
2220
3330
0000
0000
2022
3033
0000
0000
,
0011
0000
1100
0001
0120
0000
1000
0000
1031
0000
0101
0010
2001
0000
0100
0000
,
3011
0000
1100
0010
0102
0000
0010
0000
2103
0000
0010
0000
3201
0000
0010
0000
,
1301
0000
0101
0010
2001
0000
0100
0000
3110
0000
0011
1000
0210
0000
0301
0000
,
2022
3033
0000
0000
2220
3330
0000
0000
0222
0333
0000
0000
2202
3303
0000
0000
0110
0000
0000
0000
0011
0000
0000
0000
0110
0000
0000
0000
1100
0000
0000
0000
,
2001
0001
3001
0101
0110
1010
1100
1001
,
0120
0100
0130
1010
1001
0110
0101
1100
,
0012
0010
0013
2100
3012
0103
2010
3210
,
0001
1320
1000
1030
1001
0101
1001
1010
,
0120
0100
0130
1100
1001
0011
1010
0110
,
1002
1000
1003
0011
0110
1001
1100
1010
,
0201
0001
0301
1020
0231
1300
0021
2031
,
0100
0000
3012
0000
0010
0000
0013
0000
2100
0000
0000
0010
0101
0000
0100
0000
,
3012
0000
0000
0100
1010
0000
2000
0000
3213
0000
0000
1000
0011
0000
0001
0000
,
1320
0000
0000
0001
1100
0000
0002
0000
2133
0000
0000
0010
0101
0000
0100
0000
,
3012
0000
0000
0100
1010
0000
0020
0000
2133
0000
0000
0010
0102
0000
0203
0000
,
3312
0000
0000
0010
0200
0000
1300
0000
0213
0000
0000
0010
1001
0000
0001
0000
,
2310
0000
0000
0100
0011
0000
0002
0000
3123
0000
0000
0001
1100
0000
1000
0000
,
0132
0000
0000
1000
0110
0000
0200
0000
2313
0000
0000
0010
0101
0000
0001
0000
,
3102
0000
0000
0010
1103
0000
2002
0000
0000
0000
3003
0000
1100
0000
0110
0000
,
0022
0000
0000
0000
0000
0000
0000
0000
0033
0000
0000
0000
0220
0000
0000
0000
0000
0000
0000
0000
0330
0000
0000
0000
2002
0000
0000
0000
3003
0000
0000
0000
1100
0000
0000
0000
0000
0000
0001
0000
0000
0000
0100
0000
0000
1000
0000
0000
0011
0000
0000
0000
0000
0000
0100
0000
0000
0000
0001
0000
0000
0100
0000
0000
,
1010
0000
0000
0000
0000
0000
0100
0000
0000
0000
0001
0000
0000
0010
0000
0000
1001
0000
0000
0000
0000
0000
0100
0000
0000
0000
0010
0000
0000
0001
0000
0000
1100
0000
0000
0000
0000
0000
0001
0000
0000
0000
1000
0000
0000
0001
0000
0000
0110
0000
0000
0000
0000
0000
1000
0000
0000
0000
0001
0000
0000
0100
0000
0000
,
0011
0000
0000
0000
0000
0000
0100
0000
0000
0000
0001
0000
0000
0010
0000
0000
1100
0000
0000
0000
0000
0000
0011
0000
0000
0000
1100
0000
0000
0011
0000
0000
1100
0000
0000
0000
0000
0000
0001
0000
0000
0000
1000
0000
0000
0010
0000
0000
0101
0000
0000
0000
0000
0000
1000
0000
0000
0000
0001
0000
0000
0100
0000
0000
,
1010
0000
0000
0000
0000
0000
0100
0000
0000
0000
0010
0000
0000
0100
0000
0000
1001
0000
0000
0000
0000
0000
0010
0000
0000
0000
0001
0000
0000
0010
0000
0000
1100
0000
0000
0000
0000
0000
0001
0000
0000
0000
1000
0000
0000
0001
0000
0000
0110
0000
0000
0000
0000
0000
0001
0000
0000
0000
1100
0000
0000
0010
0000
0000
,
1001
0000
0000
0000
0000
0000
0100
0000
0000
0000
0010
0000
0000
1100
0000
0000
0001
0000
0000
0000
0000
0000
0100
0000
0000
0000
0011
0000
0000
0100
0000
0000
1001
0000
0000
0000
0000
0000
0100
0000
0000
0000
0001
0000
0000
0010
0000
0000
1100
0000
0000
0000
0000
0000
0010
0000
0000
0000
0001
0000
0000
1000
0000
0000
,
0110
0000
0000
0000
0000
0000
0001
0000
0000
0000
1000
0000
0000
0100
0000
0000
0011
0000
0000
0000
0000
0000
1000
0000
0000
0000
0010
0000
0000
0100
0000
0000
1001
0000
0000
0000
0000
0000
0010
0000
0000
0000
1000
0000
0000
0001
0000
0000
0110
0000
0000
0000
0000
0000
0001
0000
0000
0000
1000
0000
0000
0100
0000
0000
,
1001
0000
0000
0000
0000
0000
0010
0000
0000
0000
0001
0000
0000
0010
0000
0000
1100
0000
0000
0000
0000
0000
0011
0000
0000
0000
1100
0000
0000
0011
0000
0000
1100
0000
0000
0000
0000
0000
0001
0000
0000
0000
1000
0000
0000
0001
0000
0000
0110
0000
0000
0000
0000
0000
0001
0000
0000
0000
1000
0000
0000
0010
0000
0000
,
1001
0000
0000
0000
0000
0000
0100
0000
0000
0000
1000
0000
0000
0100
0000
0000
0011
0000
0000
0000
0000
0000
0100
0000
0000
0000
0001
0000
0000
0010
0000
0000
2002
0000
0000
0000
0000
0000
0000
0000
3003
0000
0000
0000
0000
0000
0000
0000
1100
0000
0000
0000
0000
0000
0000
0000
0110
0000
0000
0000
0000
0000
0000
0000
,
0022
0000
0033
2002
0000
3003
2020
0000
3030
0000
0210
0000
0321
0000
1032
0000
,
0123
1230
2301
3120
1000
2031
3210
0321
,
0231
1302
2013
3102
1000
1023
2130
3210
,
0321
0000
0000
0000
1032
0000
0000
0000
0123
0000
0000
0000
0131
0000
0000
0000
2202
3303
0000
0000
2022
3033
0000
0000
2220
3330
0000
0000
0222
0333
0000
0000
,
1002
0000
0213
0000
0321
0000
1032
0000
0123
0000
0030
2001
0000
0000
3120
0000
,
1000
0000
2031
0000
3210
0000
0321
0000
0231
0000
0300
2010
0000
0000
3102
0000
,
1000
0000
1023
0000
2130
0000
3210
0000
0321
0000
0030
2001
0000
0000
3101
0000
,
2220
3330
0000
0000
2022
3033
0000
0000
0222
0333
0000
0000
2202
3303
0000
0000
0011
0000
0000
0000
1100
0000
0001
0000
0120
0000
0000
0000
1000
0000
0000
0000
,
1031
0000
0101
0010
2001
0000
0100
0000
3011
0000
1100
0010
0102
0000
0010
0000
,
2103
0000
0010
0000
3201
0000
0010
0000
1301
0000
0101
0010
2001
0000
0100
0000
,
3110
0000
0000
0000
0011
0000
1000
0000
0210
0000
0000
0000
0301
0000
0000
0000
2022
3033
0000
0000
2220
3330
0000
0000
0222
0333
0000
0000
2202
3303
0000
0000
,
1100
0000
0011
1000
0210
0000
0001
0000
1301
0000
1010
0100
1002
0000
0010
0000
,
1103
0000
0011
0100
2010
0000
0100
0000
3012
0000
0100
0000
1023
0000
0100
0000
,
1031
0000
1010
0100
1002
0000
0010
0000
0113
0000
1100
0001
0120
0000
1030
0000
,
2202
3303
0000
0000
0222
0333
0000
0000
2220
3330
0000
0000
2022
3033
0000
0000
0110
0000
0000
0000
1100
0000
0000
0000
0220
0000
0330
0000
0011
0000
0000
0000
,
1002
0000
1003
0000
2010
3000
0101
0000
0220
0330
0101
0000
0022
0033
1001
0000
,
0210
0000
0310
0000
1020
0030
0101
0000
2002
3003
0110
0000
2020
3030
0011
0000
,
2100
0000
3100
0000
0201
0300
0012
0000
2103
0000
3010
0000
0102
0000
0123
0000
,
2000
3000
0231
0000
0002
0003
0301
0000
1001
0000
0001
0010
1100
0000
1000
0100
,
0011
0000
0010
0100
1001
0000
1000
0001
1100
0000
0001
1000
0101
0000
0010
0100
,
1010
0000
0100
0010
0101
0000
0010
0001
0110
0000
1000
0100
1001
0000
0010
0100
,
1001
0000
0100
0010
1100
0000
1000
0100
0011
0000
0001
0010
1100
0000
0010
0100
,
1001
0000
0010
0100
1001
0000
1000
0000
0012
0000
0000
0100
1010
0000
0010
0000
,
2103
0000
0000
0010
0101
0000
0002
0000
3123
0000
0000
0001
1100
0000
1000
0000
,
0231
0000
0000
1000
0011
0000
2000
0000
3312
0000
0000
0100
1010
0000
0010
0000
,
2103
0000
0000
0010
0101
0000
0200
0000
3312
0000
0000
0100
2010
0000
3020
0000
,
2133
0000
0000
0100
0020
0000
0031
0000
3120
0000
0001
0100
1001
0000
1000
0000
,
0132
0000
1000
0010
1100
0000
2000
0000
3213
0000
0010
1000
0011
0000
0001
0000
,
2310
0000
0100
0001
0110
0000
0010
0000
3001
1000
0010
0100
0001
0010
0001
1000
,
0100
0010
0001
1000
0100
0010
0001
0010
0100
1000
0001
2000
0000
0000
0000
3000
0000
0000
0011
0000
0000
0110
0000
0000
,
2200
0000
0000
0000
0000
0000
0000
0000
3300
0000
0000
0000
0220
0000
0000
0000
0000
0000
0000
0000
0330
0000
0000
0000
2002
0000
0000
0000
3003
0000
0000
0000
0011
0000
0000
0000
0000
0000
1000
0000
0000
0000
0010
0000
0000
0001
0000
0000
1100
0000
0000
0000
0000
0000
0010
0000
0000
0000
1000
0000
0000
0010
0000
0000
,
0101
0000
0000
0000
0000
0000
0010
0000
0000
0000
1000
0000
0000
0100
0000
0000
1001
0000
0000
0000
0000
0000
0010
0000
0000
0000
0100
0000
0000
1000
0000
0000
0011
0000
0000
0000
0000
0000
1000
0000
0000
0000
0001
0000
0000
1000
0000
0000
0110
0000
0000
0000
0000
0000
0001
0000
0000
0000
1000
0000
0000
0010
0000
0000
,
1100
0000
0000
0000
0000
0000
0010
0000
0000
0000
1000
0000
0000
0100
0000
0000
0011
0000
0000
0000
0000
0000
1100
0000
0000
0000
0011
0000
0000
1100
0000
0000
0011
0000
0000
0000
0000
0000
1000
0000
0000
0000
0001
0000
0000
0100
0000
0000
1010
0000
0000
0000
0000
0000
0001
0000
0000
0000
1000
0000
0000
0010
0000
0000
,
0101
0000
0000
0000
0000
0000
0010
0000
0000
0000
0100
0000
0000
0010
0000
0000
1001
0000
0000
0000
0000
0000
0100
0000
0000
0000
1000
0000
0000
0100
0000
0000
0011
0000
0000
0000
0000
0000
1000
0000
0000
0000
0001
0000
0000
1000
0000
0000
0110
0000
0000
0000
0000
0000
1000
0000
0000
0000
0011
0000
0000
0100
0000
0000
,
1001
0000
0000
0000
0000
0000
0010
0000
0000
0000
0100
0000
0000
0011
0000
0000
1000
0000
0000
0000
0000
0000
0010
0000
0000
0000
1100
0000
0000
0010
0000
0000
1001
0000
0000
0000
0000
0000
0010
0000
0000
0000
1000
0000
0000
0100
0000
0000
0011
0000
0000
0000
0000
0000
0100
0000
0000
0000
1000
0000
0000
0001
0000
0000
,
0110
0000
0000
0000
0000
0000
1000
0000
0000
0000
0001
0000
0000
0010
0000
0000
1100
0000
0000
0000
0000
0000
0001
0000
0000
0000
0100
0000
0000
0010
0000
0000
1001
0000
0000
0000
0000
0000
0100
0000
0000
0000
0001
0000
0000
1000
0000
0000
0110
0000
0000
0000
0000
0000
1000
0000
0000
0000
0001
0000
0000
0010
0000
0000
,
1001
0000
0000
0000
0000
0000
0100
0000
0000
0000
1000
0000
0000
0100
0000
0000
0011
0000
0000
0000
0000
0000
1100
0000
0000
0000
0011
0000
0000
1100
0000
0000
0011
0000
0000
0000
0000
0000
1000
0000
0000
0000
0001
0000
0000
1000
0000
0000
0110
0000
0000
0000
0000
0000
1000
0000
0000
0000
0001
0000
0000
0100
0000
0000
,
1001
0000
0000
0000
0000
0000
0010
0000
0000
0000
0001
0000
0000
0010
0000
0000
1100
0000
0000
0000
0000
0000
0010
0000
0000
0000
1000
0000
0000
0100
0000
0000
1001
0000
0000
0000
0000
0000
0010
0000
0000
0000
1000
0000
0000
0001
0000
0000
0110
0000
0000
0000
0000
0000
0001
0000
0000
0000
1100
0000
0000
0010
0000
0000
,
0101
0000
0000
0000
0000
0000
1000
0000
0000
0000
0100
0000
0000
1010
0000
0000
0001
0000
0000
0000
0000
0000
0100
0000
0000
0000
0011
0000
0000
0100
0000
0000
2001
0000
0000
0000
0000
0000
0100
0000
0000
0000
0010
0000
0000
0100
0000
0000
3012
0000
0000
0000
0000
0000
1000
0000
0000
0000
0100
0000
0000
1000
0000
0000
,
0213
0000
0000
0000
0000
0000
0001
0000
0000
0000
0010
0000
0000
0001
0000
0000
2310
0000
0000
0000
0000
0000
0100
0000
0000
0000
0010
0000
0000
0100
0000
0000
3012
0000
0000
0000
0000
0000
1000
0000
0000
0000
0010
0000
0000
1000
0000
0000
0123
0000
0000
0000
0000
0000
1000
0000
0000
0000
0132
0000
0000
1000
0000
0000
,
0113
0000
0000
0000
0000
0000
0001
0000
0000
0000
1000
0000
0000
0010
0000
0000
1100
0000
0000
0000
0000
0000
0010
0000
0000
0000
1000
0000
0000
0100
0000
0000
0012
0000
0000
0000
0000
0000
1000
0000
0000
0000
0213
0000
0000
0001
0000
0000
1320
0000
0000
0000
0000
0000
0100
0000
0000
0000
1032
0000
0000
0010
0000
0000
,
2103
0000
0000
0000
0000
0000
0001
0000
0000
0000
0010
0000
0000
0001
0000
0000
3120
0000
0000
0000
0000
0000
1000
0000
0000
0000
0132
0000
0000
1000
0000
0000
0113
0000
0000
0000
0000
0000
0001
0000
0000
0000
1000
0000
0000
0010
0000
0000
1100
0000
0000
0000
0000
0000
0001
0000
0000
0000
0010
0000
0000
0001
0000
0000
,
0110
0000
0000
0000
0000
0000
1000
0000
0000
0000
0001
0000
0000
0100
0000
0000
0011
0000
0000
0000
0000
0000
1000
0000
0000
0000
0001
0000
0000
0010
0000
0000
1002
0000
0000
0000
0000
0000
0010
0000
0000
0000
0100
0000
0000
0010
0000
0000
2103
0000
0000
0000
0000
0000
0001
0000
0000
0000
0010
0000
0000
0001
0000
0000
,
3120
0000
0000
0000
0000
0000
1000
0000
0000
0000
0100
0000
0000
1000
0000
0000
0132
0000
0000
0000
0000
0000
0010
0000
0000
0000
0100
0000
0000
0010
0000
0000
2103
0000
0000
0000
0000
0000
0001
0000
0000
0000
0100
0000
0000
0001
0000
0000
3210
0000
0000
0000
0000
0000
0001
0000
0000
0000
2310
0000
0000
0001
0000
0000
,
3110
0000
0000
0000
0000
0000
1000
0000
0000
0000
0001
0000
0000
0100
0000
0000
0011
0000
0000
0000
0000
0000
0100
0000
0000
0000
0001
0000
0000
0010
0000
0000
2100
0000
0000
0000
0000
0000
0001
0000
0000
0000
3120
0000
0000
1000
0000
0000
0231
0000
0000
0000
0000
0000
0010
0000
0000
0000
2301
0000
0000
0100
0000
0000
,
3012
0000
0000
0000
0000
0000
1000
0000
0000
0000
0100
0000
0000
1000
0000
0000
0213
0000
0000
0000
0000
0000
0001
0000
0000
0000
2310
0000
0000
0001
0000
0000
3110
0000
0000
0000
0000
0000
1000
0000
0000
0000
0001
0000
0000
0100
0000
0000
0011
0000
0000
0000
0000
0000
1000
0000
0000
0000
0100
0000
0000
1000
0000
0000
,
0110
0000
0000
0000
0000
0000
0001
0000
0000
0000
1000
0000
0000
0010
0000
0000
1100
0000
0000
0000
0000
0000
0001
0000
0000
0000
1000
0000
0000
0100
0000
0000
2020
0000
0000
0000
3030
0000
0000
0000
0101
0000
0000
0000
0000
0000
0000
0000
1001
0000
0000
0000
0000
0000
0000
0000
1010
0000
0000
0000
0000
0000
0000
0000
,
0120
0100
0130
0011
0101
1010
0110
0101
,
1002
1000
1003
0011
0110
1001
1100
1010
,
0201
0001
0301
1020
0231
1300
0021
2031
,
0200
0300
3012
0000
0010
0000
0013
0000
0110
0000
0010
1000
0101
0000
0100
0001
,
1010
0000
1000
0001
0110
0000
0100
0010
0101
0000
0010
0100
0011
0000
1000
0001
,
1100
0000
0001
1000
0011
0000
1000
0010
1001
0000
0100
0001
0110
0000
1000
0001
,
0110
0000
0001
1000
0101
0000
0100
0001
1010
0000
0010
1000
0101
0000
1000
0001
,
0110
0000
1000
0001
0110
0000
0100
0000
1020
0000
0000
0001
1100
0000
1000
0000
,
0231
0000
0000
1000
0011
0000
0020
0000
2331
0000
0000
0010
0101
0000
0100
0000
,
3012
0000
0000
0100
1010
0000
0200
0000
1323
0000
0000
0001
1100
0000
1000
0000
,
0231
0000
0000
1000
0011
0000
0002
0000
1323
0000
0000
0001
1200
0000
2300
0000
,
3231
0000
0000
0001
2000
0000
3010
0000
2301
0000
0010
0001
0110
0000
0100
0000
,
3021
0000
0100
1000
0101
0000
0200
0000
1332
0000
1000
0100
1010
0000
0010
0000
,
1203
0000
0001
0010
1001
0000
1000
0000
0310
0100
1000
0001
0010
1000
0010
0100
,
0001
0100
0010
1000
0010
0001
1000
0200
0000
0000
0300
0000
1010
0000
1001
0000
,
0202
0000
0000
0000
0000
0000
0000
0000
0303
0000
0000
0000
2002
0000
0000
0000
0000
0000
0000
0000
3003
0000
0000
0000
0220
0000
0000
0000
0330
0000
0000
0000
1100
0000
0000
0000
0000
0000
0001
0000
0000
0000
0100
0000
0000
1000
0000
0000
0011
0000
0000
0000
0000
0000
0100
0000
0000
0000
0001
0000
0000
0100
0000
0000
,
1010
0000
0000
0000
0000
0000
0100
0000
0000
0000
0001
0000
0000
0010
0000
0000
1001
0000
0000
0000
0000
0000
0100
0000
0000
0000
0010
0000
0000
0001
0000
0000
1100
0000
0000
0000
0000
0000
0001
0000
0000
0000
1000
0000
0000
0001
0000
0000
0110
0000
0000
0000
0000
0000
1000
0000
0000
0000
0001
0000
0000
0100
0000
0000
,
0011
0000
0000
0000
0000
0000
0100
0000
0000
0000
0001
0000
0000
0010
0000
0000
1100
0000
0000
0000
0000
0000
0011
0000
0000
0000
1100
0000
0000
0011
0000
0000
1100
0000
0000
0000
0000
0000
0001
0000
0000
0000
1000
0000
0000
0010
0000
0000
0101
0000
0000
0000
0000
0000
1000
0000
0000
0000
0001
0000
0000
0100
0000
0000
,
1010
0000
0000
0000
0000
0000
0100
0000
0000
0000
0010
0000
0000
0100
0000
0000
1001
0000
0000
0000
0000
0000
0010
0000
0000
0000
0001
0000
0000
0010
0000
0000
1100
0000
0000
0000
0000
0000
0001
0000
0000
0000
1000
0000
0000
0001
0000
0000
0110
0000
0000
0000
0000
0000
0001
0000
0000
0000
1100
0000
0000
0010
0000
0000
,
1001
0000
0000
0000
0000
0000
0100
0000
0000
0000
0010
0000
0000
1100
0000
0000
0001
0000
0000
0000
0000
0000
0100
0000
0000
0000
0011
0000
0000
0100
0000
0000
1001
0000
0000
0000
0000
0000
0100
0000
0000
0000
0001
0000
0000
0010
0000
0000
1100
0000
0000
0000
0000
0000
0010
0000
0000
0000
0001
0000
0000
1000
0000
0000
,
0110
0000
0000
0000
0000
0000
0001
0000
0000
0000
1000
0000
0000
0100
0000
0000
0011
0000
0000
0000
0000
0000
1000
0000
0000
0000
0010
0000
0000
0100
0000
0000
1001
0000
0000
0000
0000
0000
0010
0000
0000
0000
1000
0000
0000
0001
0000
0000
0110
0000
0000
0000
0000
0000
0001
0000
0000
0000
1000
0000
0000
0100
0000
0000
,
1001
0000
0000
0000
0000
0000
0010
0000
0000
0000
0001
0000
0000
0010
0000
0000
1100
0000
0000
0000
0000
0000
0011
0000
0000
0000
1100
0000
0000
0011
0000
0000
1100
0000
0000
0000
0000
0000
0001
0000
0000
0000
1000
0000
0000
0001
0000
0000
0110
0000
0000
0000
0000
0000
0001
0000
0000
0000
1000
0000
0000
0010
0000
0000
,
1001
0000
0000
0000
0000
0000
0100
0000
0000
0000
1000
0000
0000
0100
0000
0000
0011
0000
0000
0000
0000
0000
0100
0000
0000
0000
0001
0000
0000
0010
0000
0000
1001
0000
0000
0000
0000
0000
0100
0000
0000
0000
0001
0000
0000
1000
0000
0000
0110
0000
0000
0000
0000
0000
0001
0000
0000
0000
0110
0000
0000
0001
0000
0000
,
1100
0000
0000
0000
0000
0000
0010
0000
0000
0000
0100
0000
0000
0011
0000
0000
1000
0000
0000
0000
0000
0000
0010
0000
0000
0000
1001
0000
0000
0100
0000
0000
0011
0000
0000
0000
0000
0000
0100
0000
0000
0000
0001
0000
0000
0010
0000
0000
1100
0000
0000
0000
0000
0000
0001
0000
0000
0000
1100
0000
0000
0011
0000
0000
,
1100
0000
0000
0000
0000
0000
0010
0000
0000
0000
1000
0000
0000
0001
0000
0000
0110
0000
0000
0000
0000
0000
1000
0000
0000
0000
0011
0000
0000
1100
0000
0000
0011
0000
0000
0000
0000
0000
1000
0000
0000
0000
0100
0000
0000
1000
0000
0000
0110
0000
0000
0000
0000
0000
1000
0000
0000
0000
0110
0000
0000
1001
0000
0000
,
0110
0000
0000
0000
0000
0000
1000
0000
0000
0000
0010
0000
0000
1000
0000
0000
0101
0000
0000
0000
0000
0000
0010
0000
0000
0000
1001
0000
0000
0110
0000
0000
1001
0000
0000
0000
0000
0000
0100
0000
0000
0000
0010
0000
0000
0001
0000
0000
1100
0000
0000
0000
0000
0000
0001
0000
0000
0000
1100
0000
0000
0011
0000
0000
,
1100
0000
0000
0000
0000
0000
0010
0000
0000
0000
1000
0000
0000
0010
0000
0000
0101
0000
0000
0000
0000
0000
1000
0000
0000
0000
0110
0000
0000
1001
0000
0000
0110
0000
0000
0000
0000
0000
0001
0000
0000
0000
1000
0000
0000
0100
0000
0000
0011
0000
0000
0000
0000
0000
1000
0000
0000
0000
0110
0000
0000
0001
0000
0000
,
1100
0000
0000
0000
0000
0000
0010
0000
0000
0000
0100
0000
0000
1001
0000
0000
0100
0000
0000
0000
0000
0000
0010
0000
0000
0000
1001
0000
0000
0100
0000
0000
0011
0000
0000
0000
0000
0000
0100
0000
0000
0000
0010
0000
0000
1000
0000
0000
0101
0000
0000
0000
0000
0000
0010
0000
0000
0000
1100
0000
0000
0011
0000
0000
,
1100
0000
0000
0000
0000
0000
0010
0000
0000
0000
0001
0000
0000
1000
0000
0000
0011
0000
0000
0000
0000
0000
1000
0000
0000
0000
0011
0000
0000
1100
0000
0000
0011
0000
0000
0000
0000
0000
1000
0000
0000
0000
0001
0000
0000
0100
0000
0000
1001
0000
0000
0000
0000
0000
0010
0000
0000
0000
0101
0000
0000
1010
0000
0000
,
0101
0000
0000
0000
0000
0000
0010
0000
0000
0000
1000
0000
0000
0100
0000
0000
1001
0000
0000
0000
0000
0000
0100
0000
0000
0000
0011
0000
0000
1100
0000
0000
0011
0000
0000
0000
0000
0000
0100
0000
0000
0000
0010
0000
0000
1000
0000
0000
0101
0000
0000
0000
0000
0000
1000
0000
0000
0000
0110
0000
0000
1001
0000
0000
,
0110
0000
0000
0000
0000
0000
0001
0000
0000
0000
0010
0000
0000
0100
0000
0000
1010
0000
0000
0000
0000
0000
0100
0000
0000
0000
0011
0000
0000
1100
0000
0000
0022
0000
0000
0000
0000
0000
0000
0000
0033
0000
0000
0000
0000
0000
0000
0000
1100
0000
0000
0000
0000
0000
0000
0000
0110
0000
0000
0000
0000
0000
0000
0000
,
2002
0000
3003
0220
0000
0330
2002
0000
0000
0000
3003
0000
0000
0000
0000
0000
;
