#TITLE:Boom Daka;
#SUBTITLE:;
#ARTIST:United In Dance;
#TITLETRANSLIT:;
#SUBTITLETRANSLIT:;
#ARTISTTRANSLIT:;
#GENRE:;
#CREDIT:RLZ!;
#BANNER:Boom Daka BN.png;
#BACKGROUND:Boom Daka BG.png;
#LYRICSPATH:;
#CDTITLE:RLZ.png;
#MUSIC:15 - Boom Daka.mp3;
#OFFSET:-0.043333;
#SAMPLESTART:104.599998;
#SAMPLELENGTH:12.000000;
#SELECTABLE:YES;
#DISPLAYBPM:87.500000:350.000000;
#BPMS:0.000000=175.000000
,13.000000=87.500000
,14.000000=175.000000
,27.000000=87.500000
,28.000000=175.000000
,228.000000=350.000000
,230.000000=175.000000
,290.000000=350.000000
,292.000000=175.000000
,307.000000=350.000000
,308.000000=175.000000
,323.000000=350.000000
,325.000000=175.000000
,340.000000=350.000000
,341.000000=175.000000
,356.000000=350.000000
,358.000000=175.000000
;
#STOPS:14.000000=0.240000,
14.250000=0.100000,
28.000000=0.240000,
28.250000=0.100000,
111.000000=0.345000,
118.000000=0.345000,
125.000000=0.345000,
132.000000=0.345000,
139.000000=0.345000,
146.000000=0.345000,
153.000000=0.345000,
160.000000=0.345000,
290.000000=0.180000,
290.250000=0.180000,
290.500000=0.180000,
290.750000=0.080000,
291.000000=0.160000,
291.250000=0.080000,
291.500000=0.080000,
291.750000=0.080000,
307.000000=0.090000,
307.500000=0.090000,
340.000000=0.090000,
340.500000=0.090000
;
#BGCHANGES:;
#KEYSOUNDS:;
#ATTACKS:;

//---------------dance-single - Keyboard----------------
#NOTES:
     dance-single:
     Keyboard:
     Edit:
     20:
     0.673342,0.945708,1.779259,0.187785,0.697150,1004.000000,621.000000,379.000000,40.000000,209.000000,4.000000,0.673342,0.945708,1.779259,0.187785,0.697150,1004.000000,621.000000,379.000000,40.000000,209.000000,4.000000:
1001
1001
0100
0001
0011
0100
0010
0001
,
1010
0010
0100
0001
1100
0010
1000
0001
,
1010
0100
0010
0001
0011
0100
1000
0010
,
1001
0000
0000
0000
0001
0000
0000
0000
1001
0000
0000
1010
0000
1100
1010
0000
0101
0000
0011
0000
0011
0000
0000
0000
0001
0000
0000
0000
0100
0000
0000
0000
,
1010
1000
0001
0010
0110
0010
0001
0100
,
1010
1000
0001
0100
0011
0100
0001
0010
,
0101
0000
0000
0000
0010
0000
0000
0000
0001
0000
0000
0000
0100
0000
0000
0000
1010
0000
0000
0000
1000
0000
0000
0000
1001
0000
0000
0011
0000
1100
0011
0000
,
0101
1100
1100
0000
0010
0000
0100
0000
1001
0000
0100
0000
0010
0000
1000
0000
,
0101
0010
0001
0010
0101
0010
0001
1000
,
1010
0100
0001
0100
0011
1000
0001
0100
,
1010
0000
1000
0000
1001
0000
0101
1100
0101
0000
1010
0011
1010
0000
0101
1100
,
0101
0000
0011
1010
1M22
M000
0M00
M000
0M00
M000
0M00
M000
0M00
M000
0M00
M000
,
0M00
M000
0M00
M000
0M00
M000
0M00
M000
0M00
M000
0M00
M000
0M00
M000
0M00
M000
,
0M00
M000
0M00
M000
0M00
M000
0M00
M000
0M00
M000
0M00
M000
0M00
M000
0M00
M000
,
0M00
M000
0M00
M000
0M33
00MM
0000
0000
0000
0000
0000
0000
0000
0000
0000
0000
,
0000
0000
0000
0000
2M12
00M0
0M00
00M0
0M00
00M0
0M00
00M0
0M00
00M0
0M00
00M0
,
0M00
00M0
0M00
00M0
0M00
00M0
0M00
00M0
0M00
00M0
0M00
00M0
0M00
00M0
0M00
00M0
,
0M00
00M0
0M00
00M0
0M00
00M0
0M00
00M0
0M00
00M0
0M00
00M0
0M00
00M0
0M00
00M0
,
0M00
00M0
0M00
00M0
3M03
M00M
0000
0000
0000
0000
0000
0000
0000
0000
0000
0000
,
0000
0000
0000
0000
M221
000M
M000
000M
M000
000M
M000
000M
M000
000M
M000
000M
,
M000
000M
M000
000M
M000
000M
M000
000M
M000
000M
M000
000M
M000
000M
M000
000M
,
M000
000M
M000
000M
M000
000M
M000
000M
M000
000M
M000
000M
M000
000M
M000
000M
,
M000
000M
M000
000M
0330
0MM0
0000
0000
0000
0000
0000
0000
0000
0000
0000
0000
,
0000
0000
0000
0000
21M2
0M00
00M0
0M00
00M0
0M00
00M0
0M00
00M0
0M00
00M0
0M00
,
00M0
0M00
00M0
0M00
00M0
0M00
00M0
0M00
00M0
0M00
00M0
0M00
00M0
0M00
00M0
0M00
,
00M0
0M00
00M0
0M00
00M0
0M00
00M0
0M00
00M0
0M00
00M0
0M00
00M0
0M00
00M0
0M00
,
00M0
0M00
00M0
0M00
30M3
M00M
0000
0000
0000
0000
0000
0000
0000
0000
0000
0000
,
0000
0000
0000
0000
1001
0000
0000
0010
0000
0100
0010
0000
1001
0000
0010
0000
,
1001
0000
0000
0100
0000
0010
0100
0000
1001
0000
0001
0000
0010
0100
0001
0010
,
1100
0000
0000
0010
0000
0001
0010
0000
1100
0000
0010
0000
1100
0000
0000
0001
,
0000
0010
0001
0000
1100
0000
1000
0000
0010
0001
1000
0010
0011
0000
0000
0100
,
0000
1000
0100
0000
0011
0000
0100
0000
0011
0000
0000
1000
0000
0100
1000
0000
,
0011
0000
0010
0000
0100
1000
0010
0100
1100
0000
0000
0010
0000
0001
0010
0000
,
1100
0000
0010
0000
1100
0000
0000
0001
0000
0010
0001
0000
1100
0000
0100
0000
,
0010
0001
0100
0010
1001
0000
0000
0011
0000
1100
0011
0000
0101
0000
2010
3000
,
1100
0000
0000
0011
0000
1100
0011
0000
0101
0000
0010
0000
0001
0010
0100
1000
,
0110
0000
0000
0101
0000
1010
0101
0000
1100
0000
0012
0003
1010
0000
0000
0101
,
0000
1010
0101
0000
1100
0000
0001
0000
0100
0001
1000
0010
0110
0000
0000
1010
,
0000
0101
1010
0000
0011
0000
2100
3000
0101
0000
0000
1010
0000
0101
1010
0000
,
0011
0000
1000
0000
0010
1000
0001
0100
1001
0000
0000
1100
0000
0011
1100
0000
,
1010
0000
0102
0003
0011
0000
0000
1100
0000
0011
1100
0000
1010
0000
0100
0000
,
1000
0100
0010
0001
1001
0000
0000
0011
0000
1100
0011
0000
0101
0000
0000
0000
,
0000
0000
2010
3000
1100
0000
0000
0011
0000
1100
0011
0000
0101
0000
0000
0000
,
0000
0000
2010
3000
1001
0000
0000
0011
0000
1100
0011
0000
0101
0000
0000
0000
,
0000
0000
2010
3000
1100
0000
0000
0011
0000
1100
0011
0000
0101
0000
0010
0000
,
0001
1000
0100
0010
1001
0000
0000
0011
0000
1100
0011
0000
0101
0000
0000
0000
,
0000
0000
2010
3000
1100
0000
0000
0011
0000
1100
0011
0000
0101
0000
0000
0000
,
0000
0000
2010
3000
1001
0000
0000
0011
0000
1100
0011
0000
0101
0000
0000
0000
,
0000
0000
2010
3000
1100
0000
0000
0011
0000
1100
0011
0000
0101
0000
0010
0000
,
0001
1000
0100
0010
1001
0000
0010
0000
0001
1000
0100
0010
1001
0000
0010
0000
,
0001
1000
0100
0010
1001
0000
0010
0000
0001
1000
0100
0010
1001
0000
0010
0000
,
0001
1000
0100
0010
1001
0000
0010
0000
0001
1000
0100
0010
1001
0000
0010
0000
,
0001
1000
0100
0010
1001
0000
0010
0000
0001
1000
0100
0010
1001
0000
0010
0000
,
0001
1000
0100
0010
1001
0000
0010
0000
1001
0000
0010
0000
1001
0000
0010
0000
,
1001
0010
1001
0010
1001
0010
1001
0010
,
1001
0010
1001
1001
1001
1001
1001
1001
,
1001
0000
1001
0000
1001
1001
1001
1001
1001
1001
1001
1001
1001
1001
1001
1001
,
2002
0000
0000
0000
0000
0000
0000
0000
0000
0000
0000
0000
3003
M00M
0000
0000
1001
0000
0000
0000
0000
0000
0011
0000
0000
0000
1100
0000
0011
0000
0000
0000
,
0101
0000
0000
0000
0000
0000
2010
3000
1100
0000
0000
0011
0000
1100
0011
0000
,
0101
0000
0010
0000
0001
1000
0100
0010
1001
0000
0000
1100
0000
0011
1100
0000
,
1010
0000
0000
0000
0000
0000
0102
0003
0011
0000
0000
1100
0000
0011
1100
0000
,
1010
0000
0100
0000
1000
0001
0010
0100
1001
0000
0000
0011
0000
1100
0011
0000
,
0101
0000
0000
0000
0000
0000
2010
3000
1100
0000
0000
0011
0000
1100
0011
0000
,
0101
0000
0010
0000
0001
1000
0100
0010
0110
0000
0000
0101
0000
1010
0101
0000
,
1100
0000
0000
0000
0000
0000
0012
0003
1010
0000
0000
0101
0000
1010
0101
0000
,
1100
0001
0010
0100
1000
0001
0010
0100
1001
0000
0000
0011
0000
1100
0011
0000
,
0101
0000
0000
0000
0000
0000
2010
3000
1100
0000
0000
0011
0000
1100
0011
0000
,
0101
0000
0010
0000
0001
1000
0100
0010
1001
0000
0000
1100
0000
0011
1100
0000
,
1010
0000
0000
0000
0000
0000
0102
0003
0011
0000
0000
1100
0000
0011
1100
0000
,
1010
0000
0100
0000
1000
0001
0010
0100
1001
0000
0000
0011
0000
1100
0011
0000
,
0101
0000
0000
0000
0000
0000
2010
3000
1100
0000
0000
0011
0000
1100
0011
0000
,
0101
0000
0010
0000
0001
1000
0100
0010
0110
0000
0000
0101
0000
1010
0101
0000
,
1100
0000
0000
0000
0000
0000
0012
0003
1010
0011
0011
1100
1001
0011
0101
1010
,
1001
0000
0000
0011
0000
1100
0011
0000
0101
0000
0000
0000
0000
0000
2010
3000
,
1100
0000
0000
0011
0000
1100
0011
0000
0101
0000
0010
0000
0001
1000
0100
0010
,
1001
0000
0000
1100
0000
0011
1100
0000
1010
0000
0000
0000
0000
0000
0102
0003
,
0011
0000
0000
1100
0000
0011
1100
0000
1010
0000
0100
0000
1001
0000
1001
0000
,
0110
0000
0000
0011
0000
1100
0011
0000
0101
0000
0000
0000
0000
0000
2010
3000
,
1100
0000
0000
0011
0000
1100
0011
0000
0101
0000
0010
0000
0001
1000
0100
0010
,
0110
0000
0000
0101
0000
1010
0101
0000
1100
0000
0000
0000
0000
0000
0012
0003
,
1010
0000
0000
0101
0000
1010
0101
0000
1100
0001
0010
0100
2002
0000
0000
0000
,
0000
0000
0000
0000
0000
0000
3003
M00M
0110
0000
0000
0000
0000
0000
0011
0000
0000
0000
1100
0000
0011
0000
0000
0000
0101
0000
0000
0000
0000
0000
0000
0000
,
0000
0000
2010
3000
1100
0000
0000
0011
0000
1100
0011
0000
0101
0000
0010
0000
,
0001
1000
0100
0010
1001
0000
0000
1001
0000
0011
1001
0000
1100
0000
0000
0000
,
0000
0000
1002
0003
0011
0000
0000
1001
0000
0011
1001
0000
1010
0000
0100
0000
,
1001
0000
1001
0000
0110
0000
0000
0011
0000
1100
0011
0000
0101
0000
0000
0000
,
0000
0000
2010
3000
1100
0000
0000
0011
0000
1100
0011
0000
0101
0000
0010
0000
,
0001
1000
0100
0010
0110
0000
0000
0101
0000
1010
0101
0000
1100
0000
0000
0000
,
0000
0000
0012
0003
1010
0000
0000
0011
1010
0000
0000
0011
1010
0000
1010
0000
,
2002
0000
0000
0000
0000
0000
0000
0000
0000
0000
0000
0000
0000
0000
0000
0000
3003
M00M
0000
0000
0000
0000
0000
0000
0000
0000
0000
0000
0000
0000
0000
0000
;

//---------------dance-single - ----------------
#NOTES:
     dance-single:
     :
     Hard:
     11:
     0.316551,0.378283,0.122060,0.075114,0.154922,472.000000,446.000000,26.000000,16.000000,58.000000,0.000000,0.316551,0.378283,0.122060,0.075114,0.154922,472.000000,446.000000,26.000000,16.000000,58.000000,0.000000:
0010
0010
0100
0000
1010
0000
0100
0000
,
1010
0100
0011
0100
,
0011
0100
1001
0100
,
1001
0000
0000
0000
0000
0000
0000
0000
0100
0000
0000
1000
0000
0000
0001
0000
0100
0000
0010
0000
0010
0000
0000
0000
1000
0000
0000
0000
0000
0000
0000
0000
,
0011
1000
0011
0001
,
1010
0001
1010
0100
,
1001
0000
0000
0000
0000
0000
0000
0000
0100
0000
0000
0000
0000
0000
0000
0000
1001
0000
0000
0000
0000
0000
0000
0000
0100
0000
0000
1000
0000
0000
0001
0000
,
0100
0010
0010
0000
0100
0000
0000
0000
1010
0000
0000
0000
0100
0000
0000
0000
,
1010
0100
0011
0100
,
0011
0100
1001
0100
,
1001
0000
0001
1000
1000
0001
0001
0100
,
0100
0010
20M2
0000
0M00
0000
00M0
0000
,
0M00
00M0
0M00
00M0
,
0M00
00M0
0M00
00M0
,
0M00
0000
0000
0000
0000
0000
0000
3000
M000
0000
0000
0000
0000
0000
0000
0000
0003
000M
0000
0000
0000
0000
0000
0000
0000
0000
0000
0000
0000
0000
0000
0000
,
0000
2M02
00M0
0M00
,
00M0
0M00
00M0
0M00
,
00M0
0M00
00M0
0M00
,
00M0
0000
0000
0000
0000
0000
0000
0003
000M
0000
0000
0000
0000
0000
0000
0000
3000
M000
0000
0000
0000
0000
0000
0000
0000
0000
0000
0000
0000
0000
0000
0000
,
0000
20M2
0M00
00M0
,
0M00
00M0
0M00
00M0
,
0M00
00M0
0M00
00M0
,
0M00
0000
0000
0000
0000
0000
0000
3000
M000
0000
0000
0000
0000
0000
0000
0000
0003
000M
0000
0000
0000
0000
0000
0000
0000
0000
0000
0000
0000
0000
0000
0000
,
0000
20M2
0M00
00M0
,
0M00
00M0
0M00
00M0
,
0M00
00M0
0M00
00M0
,
0M00
0000
0000
0000
0000
0000
0000
3003
M00M
0000
0000
0000
0000
0000
0000
0000
0000
0000
0000
0000
0000
0000
0000
0000
0000
0000
0000
0000
0000
0000
0000
0000
,
0000
0000
0000
0000
0100
0000
0000
0001
0000
0000
0010
0000
0100
0000
1000
0000
,
0100
0000
0000
0010
0000
0000
0001
0000
0100
0000
0000
0000
0010
0000
1000
0000
,
0100
0000
0000
0010
0000
0000
0001
0000
0100
0000
0010
0000
0100
0000
0000
0001
,
0000
0000
0010
0000
0100
0000
1000
0000
0001
0000
0100
0000
0010
0000
0000
1000
,
0000
0000
0010
0000
0100
0000
1000
0000
0100
0000
0000
0010
0000
0000
0001
0000
,
0100
0000
0000
0000
0010
0000
1000
0000
0100
0000
0000
0010
0000
0000
0001
0000
,
0100
0000
0010
0000
0100
0000
0000
0001
0000
0000
0010
0000
0100
0000
1000
0000
,
0001
0000
0100
0000
0001
0000
0000
1000
0000
0000
0100
0000
0010
0000
0001
0000
,
0010
0000
0000
0100
0000
0000
1000
0000
0010
0000
0000
0000
0100
0000
0001
0000
,
0010
0000
0000
0100
0000
0000
1000
0000
0010
0000
0100
0000
0010
0000
0000
1000
,
0000
0000
0100
0000
0010
0000
0001
0000
1000
0000
0010
0000
0100
0000
0000
0001
,
0000
0000
0100
0000
0010
0000
0001
0000
0010
0000
0000
0100
0000
0000
1000
0000
,
0010
0000
0000
0000
0100
0000
0001
0000
0010
0000
0000
0100
0000
0000
1000
0000
,
0010
0000
0100
0000
0010
0000
0000
1000
0000
0000
0100
0000
0010
0000
0001
0000
,
0100
0000
0010
0000
1000
0000
0000
0001
0000
0000
0010
0000
0100
0000
0000
0000
,
0000
0000
0010
0000
1000
0000
0000
0001
0000
0000
0010
0000
0100
0000
0000
0000
,
0000
0000
0010
0000
1000
0000
0000
0001
0000
0000
0010
0000
0100
0000
0000
0000
,
0000
0000
0010
0000
1000
0000
0000
0001
0000
0000
0010
0000
0100
0000
0001
0000
,
1000
0000
0010
0000
1000
0000
0000
0001
0000
0000
0010
0000
0100
0000
0000
0000
,
0000
0000
0010
0000
1000
0000
0000
0001
0000
0000
0010
0000
0100
0000
0000
0000
,
0000
0000
0010
0000
1000
0000
0000
0001
0000
0000
0010
0000
0100
0000
0000
0000
,
0000
0000
0010
0000
1000
0000
0000
0001
0000
0000
0010
0000
0100
0000
1000
0000
,
0010
0100
0001
1000
0010
0100
0001
1000
,
0010
0100
0001
1000
0010
0100
0001
1000
,
0010
0100
0001
1000
0010
0100
0001
1000
,
0010
0100
0001
1000
0010
0100
0001
1000
,
0010
0100
0001
0100
0001
0100
0001
0100
,
0001
0100
0001
0100
0001
0100
0001
0100
,
0001
0100
0001
0001
0001
0001
0001
0001
,
0001
0001
0001
1000
0001
1000
0001
1000
,
2002
0000
0000
0000
0000
0000
3003
0000
0100
0000
0000
0001
0000
0000
0010
0000
,
0100
0000
0000
0000
0000
0000
1000
0000
0100
0000
0000
0010
0000
0000
0001
0000
,
0100
0000
0001
0000
1000
0000
0010
0000
0100
0000
0000
0001
0000
0000
0010
0000
,
0100
0000
0000
0000
0000
0000
1000
0000
0100
0000
0000
0010
0000
0000
0001
0000
,
0100
0000
0001
0000
1000
0000
0010
0000
0100
0000
0000
0001
0000
0000
0010
0000
,
0100
0000
0000
0000
0000
0000
1000
0000
0100
0000
0000
0010
0000
0000
0001
0000
,
0100
0000
0001
0000
1000
0000
0010
0000
0100
0000
0000
0001
0000
0000
0010
0000
,
0100
0000
0000
0000
0000
0000
1000
0000
0100
0000
0000
0010
0000
0000
0001
0000
,
0100
0000
0001
0000
1000
0000
0010
0000
0100
0000
0000
0001
0000
0000
0010
0000
,
0100
0000
0000
0000
0000
0000
1000
0000
0100
0000
0000
0010
0000
0000
0001
0000
,
0100
0000
0001
0000
1000
0000
0010
0000
0100
0000
0000
0001
0000
0000
0010
0000
,
0100
0000
0000
0000
0000
0000
1000
0000
0100
0000
0000
0010
0000
0000
0001
0000
,
0100
0000
0001
0000
1000
0000
0010
0000
0100
0000
0000
0001
0000
0000
0010
0000
,
0100
0000
0000
0000
0000
0000
1000
0000
0100
0000
0000
0010
0000
0000
0001
0000
,
0100
0000
0001
0000
1000
0000
0010
0000
0100
0000
0000
0001
0000
0000
0010
0000
,
0100
0000
0000
0000
0000
0000
1000
0000
2002
0000
0000
0000
0000
0000
0000
3003
,
0100
0000
0000
0001
0000
0000
0010
0000
0100
0000
0000
0000
0000
0000
1000
0000
,
0100
0000
0000
0010
0000
0000
0001
0000
0100
0000
0001
0000
1000
0000
0010
0000
,
0100
0000
0000
0001
0000
0000
0010
0000
0100
0000
0000
0000
0000
0000
1000
0000
,
0100
0000
0000
0010
0000
0000
0001
0000
0100
0000
0001
0000
1000
0000
1000
0000
,
0100
0000
0000
0001
0000
0000
0010
0000
0100
0000
0000
0000
0000
0000
1000
0000
,
0100
0000
0000
0010
0000
0000
0001
0000
0100
0000
0001
0000
1000
0000
0010
0000
,
0100
0000
0000
0001
0000
0000
0010
0000
0100
0000
0000
0000
0000
0000
1000
0000
,
0100
0000
0000
0010
0000
0000
0001
0000
0100
0000
0001
0000
2002
0000
0000
0000
,
0000
0000
0000
0000
0000
0000
0000
3003
0100
0000
0000
0000
0000
0000
0001
0000
0000
0000
0000
0000
0010
0000
0000
0000
0100
0000
0000
0000
0000
0000
0000
0000
,
0000
0000
1000
0000
0100
0000
0000
0010
0000
0000
0001
0000
0100
0000
0001
0000
,
1000
0000
0010
0000
0100
0000
0000
0001
0000
0000
0010
0000
0100
0000
0000
0000
,
0000
0000
1000
0000
0100
0000
0000
0010
0000
0000
0001
0000
0100
0000
0001
0000
,
1000
0000
1000
0000
0100
0000
0000
0001
0000
0000
0010
0000
0100
0000
0000
0000
,
0000
0000
1000
0000
0100
0000
0000
0010
0000
0000
0001
0000
0100
0000
0001
0000
,
1000
0000
0010
0000
0100
0000
0000
0001
0000
0000
0010
0000
0100
0000
0000
0000
,
0000
0000
1000
0000
0001
0000
0000
0100
0001
0000
0000
0100
0001
0000
0001
0000
,
2002
0000
0000
0000
0000
0000
0000
0000
0000
0000
0000
0000
0000
0000
0000
0000
3003
M00M
0000
0000
0000
0000
0000
0000
0000
0000
0000
0000
0000
0000
0000
0000
;

//---------------dance-single - ----------------
#NOTES:
     dance-single:
     :
     Challenge:
     16:
     0.454036,0.525210,0.262898,0.154922,0.718276,677.000000,621.000000,56.000000,33.000000,225.000000,0.000000,0.454036,0.525210,0.262898,0.154922,0.718276,677.000000,621.000000,56.000000,33.000000,225.000000,0.000000:
0001
0001
0100
0001
0011
0100
0010
0001
,
1010
0010
0100
0001
1100
0010
1000
0001
,
1010
0100
0010
0001
0011
0100
1000
0010
,
1001
0000
0000
0000
0001
0000
0000
0000
1000
0000
0000
0010
0000
1000
0010
0000
0100
0000
0001
0000
0001
0000
0000
0000
1000
0000
0000
0000
0100
0000
0000
0000
,
1010
1000
0001
0010
0110
0010
0001
0100
,
1010
1000
0001
0100
0011
0100
0001
0010
,
0101
0000
0000
0000
0010
0000
0000
0000
0001
0000
0000
0000
0100
0000
0000
0000
1010
0000
0000
0000
0001
0000
0000
0000
0100
0000
0000
0010
0000
0100
0010
0000
,
0100
0001
0001
0000
0010
0000
0100
0000
1001
0000
0100
0000
0010
0000
1000
0000
,
0101
0010
0001
0010
0101
0010
0001
1000
,
1010
0100
0001
0100
0011
1000
0001
0100
,
1010
0000
1000
0000
1001
0000
0001
0100
0001
0000
1000
0010
1000
0000
0001
0100
,
0001
0000
0010
1000
1020
M000
M000
M000
M000
M000
M000
M000
M000
M000
M000
M000
,
M000
M000
M000
M000
M000
M000
M000
M000
M000
M000
M000
M000
M000
M000
M000
M000
,
M000
M000
M000
M000
M000
M000
M000
M000
M000
M000
M000
M000
M000
M000
M000
M000
,
M000
M000
M000
M000
M030
M0M0
0000
0000
0000
0000
0000
0000
0000
0000
0000
0000
,
0000
0000
0000
0000
1002
M000
M000
M000
M000
M000
M000
M000
M000
M000
M000
M000
,
M000
M000
M000
M000
M000
M000
M000
M000
M000
M000
M000
M000
M000
M000
M000
M000
,
M000
M000
M000
M000
M000
M000
M000
M000
M000
M000
M000
M000
M000
M000
M000
M000
,
M000
M000
M000
M000
M003
M00M
0000
0000
0000
0000
0000
0000
0000
0000
0000
0000
,
0000
0000
0000
0000
0210
00M0
00M0
00M0
00M0
00M0
00M0
00M0
00M0
00M0
00M0
00M0
,
00M0
00M0
00M0
00M0
00M0
00M0
00M0
00M0
00M0
00M0
00M0
00M0
00M0
00M0
00M0
00M0
,
00M0
00M0
00M0
00M0
00M0
00M0
00M0
00M0
00M0
00M0
00M0
00M0
00M0
00M0
00M0
00M0
,
00M0
00M0
00M0
00M0
03M0
0MM0
0000
0000
0000
0000
0000
0000
0000
0000
0000
0000
,
0000
0000
0000
0000
2001
000M
000M
000M
000M
000M
000M
000M
000M
000M
000M
000M
,
000M
000M
000M
000M
000M
000M
000M
000M
000M
000M
000M
000M
000M
000M
000M
000M
,
000M
000M
000M
000M
000M
000M
000M
000M
000M
000M
000M
000M
000M
000M
000M
000M
,
000M
000M
000M
000M
300M
M00M
0000
0000
0000
0000
0000
0000
0000
0000
0000
0000
,
0000
0000
0000
0000
1000
0000
0000
0010
0000
0100
0010
0000
1000
0000
0010
0000
,
1000
0000
0000
0100
0000
0010
0100
0000
1000
0000
0001
0000
0010
0100
0001
0100
,
0010
0000
0000
0001
0000
0010
0001
0000
0100
0000
0010
0000
0100
0000
0000
0001
,
0000
0010
0001
0000
0100
0000
1000
0000
0100
0001
0100
1000
0100
0000
0000
0010
,
0000
1000
0010
0000
0100
0000
0001
0000
0100
0000
0000
0001
0000
0100
0010
0000
,
0100
0000
0010
0000
0100
1000
0100
0010
0100
0000
0000
0010
0000
0001
0010
0000
,
1000
0000
0010
0000
1000
0000
0000
0001
0000
1000
0001
0000
1000
0000
0100
0000
,
0010
0001
0100
0010
1000
0000
0000
0010
0000
1000
0010
0000
0100
0000
1020
0030
,
0100
0000
0000
0001
0000
0100
0001
0000
0100
0000
0010
0000
0001
0010
0100
1000
,
0010
0000
0000
1000
0000
0010
1000
0000
0001
0000
1020
0030
0001
0000
0000
1000
,
0000
0010
1000
0000
0100
0000
0001
0000
0100
1000
0010
0100
0001
0000
0000
0010
,
0000
0001
0010
0000
0001
0000
2010
3000
0001
0000
0000
0010
0000
0001
0010
0000
,
0100
0000
1000
0000
0010
1000
0001
0100
0001
0000
0000
1000
0000
0001
1000
0000
,
0100
0000
2010
3000
0001
0000
0000
1000
0000
0100
1000
0000
0001
0000
0100
0000
,
1000
0100
0010
0001
1000
0000
0000
0010
0000
1000
0010
0000
0100
0000
0000
0000
,
0000
0000
0012
0003
1000
0000
0000
0010
0000
1000
0010
0000
0100
0000
0000
0000
,
0000
0000
0012
0003
1000
0000
0000
0010
0000
1000
0010
0000
0100
0000
0000
0000
,
0000
0000
0012
0003
1000
0000
0000
0010
0000
1000
0010
0000
0100
0000
0010
0000
,
0001
1000
0100
0010
0001
0000
0000
0010
0000
1000
0010
0000
0100
0000
0000
0000
,
0000
0000
0012
0003
1000
0000
0000
0010
0000
1000
0010
0000
0100
0000
0000
0000
,
0000
0000
0012
0003
1000
0000
0000
0010
0000
1000
0010
0000
0100
0000
0000
0000
,
0000
0000
0012
0003
1000
0000
0000
0010
0000
1000
0010
0000
0100
0000
0010
0000
,
0001
1000
0100
0010
0001
0000
0010
0000
0001
1000
0100
0010
0001
0000
0010
0000
,
0001
1000
0100
0010
0001
0000
0010
0000
0001
1000
0100
0010
0001
0000
0010
0000
,
0001
1000
0100
0010
0001
0000
0010
0000
0001
1000
0100
0010
0001
0000
0010
0000
,
0001
1000
0100
0010
0001
0000
0010
0000
0001
1000
0100
0010
0001
0000
0010
0000
,
0001
1000
0100
0010
0001
0000
0010
0000
0001
0000
0010
0000
0001
0000
0010
0000
,
0001
0010
0001
0010
0001
0010
0001
0010
,
0001
0010
0001
0001
0001
0001
0001
0001
,
0001
0000
0001
0000
0001
1000
0001
1000
0001
1000
0001
1000
0001
1000
0001
1000
,
1002
M000
M000
M000
M000
M000
M003
M00M
1000
0000
0000
0010
0000
1000
0010
0000
,
0100
0000
0000
0000
0000
0000
2010
3000
0100
0000
0000
0010
0000
0100
0010
0000
,
0001
0000
0010
0000
0001
1000
0100
0010
0001
0000
0000
1000
0000
0010
1000
0000
,
0100
0000
0000
0000
0000
0000
0012
0003
0010
0000
0000
0100
0000
0010
0100
0000
,
0010
0000
0100
0000
1000
0001
0010
0100
1000
0000
0000
0010
0000
1000
0010
0000
,
0100
0000
0000
0000
0000
0000
2010
3000
0100
0000
0000
0010
0000
0100
0010
0000
,
0001
0000
0010
0000
0001
1000
0100
0010
0001
0000
0000
1000
0000
0010
1000
0000
,
0100
0000
0000
0000
0000
0000
0012
0003
0010
0000
0000
0100
0000
0010
0100
0000
,
0010
0001
0010
0100
1000
0001
0010
0100
1000
0000
0000
0010
0000
1000
0010
0000
,
0100
0000
0000
0000
0000
0000
2010
3000
0100
0000
0000
0010
0000
0100
0010
0000
,
0001
0000
0010
0000
0001
1000
0100
0010
0001
0000
0000
1000
0000
0010
1000
0000
,
0100
0000
0000
0000
0000
0000
0012
0003
0010
0000
0000
0100
0000
0010
0100
0000
,
0010
0000
0100
0000
1000
0001
0010
0100
1000
0000
0000
0010
0000
1000
0010
0000
,
0100
0000
0000
0000
0000
0000
2010
3000
0100
0000
0000
0010
0000
0100
0010
0000
,
0001
0000
0010
0000
0001
1000
0100
0010
0001
0000
0000
0010
0000
0001
0010
0000
,
0100
0000
0000
0000
0000
0000
0012
0003
1000
0001
0001
1000
1000
0010
0100
0010
,
1000
0000
0000
0001
0000
1000
0001
0000
0100
0000
0000
0000
0000
0000
0012
0003
,
0100
0000
0000
0001
0000
0010
0001
0000
0100
0000
0010
0000
1000
0001
0100
0010
,
0100
0000
0000
0001
0000
0010
0001
0000
0100
0000
0000
0000
0000
0000
0012
0003
,
0010
0000
0000
0100
0000
0010
0001
0000
0100
0000
0010
0000
1001
0000
1001
0000
,
0001
0000
0000
1000
0000
0010
1000
0000
0100
0000
0000
0000
0000
0000
2010
3000
,
0100
0000
0000
1000
0000
0001
0100
0000
0010
0000
1000
0000
0100
0010
0001
0010
,
0100
0000
0000
0010
0000
0001
0010
0000
0100
0000
0000
0000
0000
0000
2010
3000
,
0001
0000
0000
0010
0000
0001
1000
0000
0001
1000
0010
1000
1002
M000
M000
M000
,
M000
M000
M000
M003
100M
0000
0000
0010
0000
1000
0001
0000
0100
0000
0000
0000
,
0000
0000
1020
0030
1000
0000
0000
0010
0000
0100
0001
0000
0100
0000
0001
0000
,
0010
0100
0010
0001
0010
0000
0000
0100
0000
0010
0001
0000
1000
0000
0000
0000
,
0000
0000
0012
0003
0100
0000
0000
0010
0000
1000
0001
0000
0100
0000
0010
0000
,
1001
0000
1001
0000
1000
0000
0000
0010
0000
0100
0001
0000
0100
0000
0000
0000
,
0000
0000
1020
0030
1000
0000
0000
0100
0000
0010
0001
0000
0010
0000
0100
0000
,
1000
0001
0100
0010
0100
0000
0000
0001
0000
1000
0001
0000
0100
0000
0000
0000
,
0000
0000
0012
0003
1000
0000
0000
0010
1000
0000
0000
0010
1000
0000
1000
0000
,
2001
000M
000M
000M
000M
000M
000M
300M
M00M
0000
0000
0000
0000
0000
0000
0000
;

//---------------dance-single - ----------------
#NOTES:
     dance-single:
     :
     Medium:
     4:
     0.112000,0.210084,0.028168,0.070419,0.000000,167.000000,161.000000,6.000000,15.000000,0.000000,1.000000,0.112000,0.210084,0.028168,0.070419,0.000000,167.000000,161.000000,6.000000,15.000000,0.000000,1.000000:
0000
0000
1000
0000
,
1000
0000
0001
0000
,
0001
0000
0010
0000
,
0010
2000
3000
0000
,
1000
0000
1000
0000
,
0001
0000
0001
0000
,
0100
0000
0100
0002
,
0003
0000
1000
0000
,
1000
0000
0010
0000
,
0010
0000
0100
0000
,
0100
0001
0001
1000
,
1000
2002
0000
0000
,
0000
0000
0000
0000
,
0000
0000
0000
0000
,
0000
3003
0000
0000
,
0000
2200
0000
0000
,
0000
0000
0000
0000
,
0000
0000
0000
0000
,
3300
0000
0000
0000
,
0000
0022
0000
0000
,
0000
0000
0000
0000
,
0000
0000
0000
0000
,
0033
0000
0000
0000
,
0000
2002
0000
0000
,
0000
0000
0000
0000
,
0000
0000
0000
0000
,
3003
0000
0000
0000
,
0000
1000
0000
1000
,
0001
0000
0001
0000
,
1000
0000
1000
0001
,
0000
0001
0000
0010
,
0000
0010
0100
0000
,
0100
0000
0010
0000
,
0010
1000
0000
1000
,
0000
0001
0000
1000
,
0001
0000
1000
0000
,
0010
0000
0100
0001
,
0000
1000
0000
0010
,
0000
0100
0001
0000
,
1000
0000
0010
0000
,
0100
0001
0000
1000
,
0000
0001
0000
0100
,
0000
0001
0000
0100
,
0000
0001
0000
0100
,
0000
0001
0000
1000
,
0000
0010
0000
0100
,
0000
0010
0000
0100
,
0000
0010
0000
0100
,
0000
0010
0000
0100
,
0000
0001
0000
1000
,
0000
0001
0000
1000
,
0000
0001
0000
1000
,
0000
0001
0000
1000
,
0000
0001
1000
0001
,
1000
0001
1000
0001
,
1000
2002
0000
0000
,
0000
0000
0000
0000
,
0000
0000
3013
0000
,
0001
0000
1000
0000
,
0001
0000
1000
0000
,
0010
0000
0100
0000
,
0001
0000
1000
0000
,
0010
0000
0100
0000
,
0010
0000
0001
0000
,
1000
0000
0010
0000
,
0100
0000
0001
0000
,
1000
0000
0100
0000
,
0010
0000
0001
0000
,
0100
0000
0001
0000
,
1000
0000
0010
0000
,
0100
0000
0001
0000
,
0010
0000
0100
0000
,
1000
0000
0020
0000
,
1030
0000
0001
0000
,
1000
0000
0010
0000
,
0100
0000
0001
0000
,
1000
0000
0100
0010
,
0001
0000
0010
0000
,
1000
0000
0001
0000
,
1000
0000
0100
0000
,
0001
0000
0100
0010
,
0000
1000
0000
0001
,
0000
0010
0000
0100
,
0000
1000
0000
0010
,
0000
0100
0000
0001
,
1000
0001
0000
1000
,
0000
0010
0000
0100
,
0000
0001
0000
1000
,
0000
0010
1000
0010
,
2020
0000
3030
0000
;

//---------------dance-single - ----------------
#NOTES:
     dance-single:
     :
     Easy:
     2:
     0.080479,0.125346,0.037557,0.065725,0.000000,120.000000,112.000000,8.000000,14.000000,0.000000,0.000000,0.080479,0.125346,0.037557,0.065725,0.000000,120.000000,112.000000,8.000000,14.000000,0.000000,0.000000:
// measure 0
0000
0000
1000
0000
,  // measure 1
0000
0000
0001
0000
,  // measure 2
0000
0000
1000
0000
,  // measure 3
0000
2002
3003
0000
,  // measure 4
1000
0000
0000
0000
,  // measure 5
0001
0000
0000
0000
,  // measure 6
1000
0000
0000
2002
,  // measure 7
3003
0000
0010
0000
,  // measure 8
0000
0000
0100
0000
,  // measure 9
0000
0000
0001
0000
,  // measure 10
0000
2000
0000
0002
,  // measure 11
3003
2002
0000
0000
,  // measure 12
0000
0000
0000
0000
,  // measure 13
0000
0000
0000
0000
,  // measure 14
0000
3003
0000
0000
,  // measure 15
0000
2002
0000
0000
,  // measure 16
0000
0000
0000
0000
,  // measure 17
0000
0000
0000
0000
,  // measure 18
0000
3003
0000
0000
,  // measure 19
0000
2002
0000
0000
,  // measure 20
0000
0000
0000
0000
,  // measure 21
0000
0000
0000
0000
,  // measure 22
0000
3003
0000
0000
,  // measure 23
0000
2002
0000
0000
,  // measure 24
0000
0000
0000
0000
,  // measure 25
0000
0000
0000
0000
,  // measure 26
0000
3003
0000
0000
,  // measure 27
0000
1000
0000
1000
,  // measure 28
0001
0000
0001
0000
,  // measure 29
0010
0000
0010
0100
,  // measure 30
0000
0100
0000
1000
,  // measure 31
0000
1000
0001
0000
,  // measure 32
0001
0000
0010
0000
,  // measure 33
0010
0100
0000
0100
,  // measure 34
0000
1000
0000
0100
,  // measure 35
0010
0000
0001
0000
,  // measure 36
1000
0000
0010
0100
,  // measure 37
0000
0001
0000
0010
,  // measure 38
0000
0001
1000
0000
,  // measure 39
0100
0000
1000
0000
,  // measure 40
0010
0100
0000
0001
,  // measure 41
0000
1000
0000
0001
,  // measure 42
0000
1000
0000
0001
,  // measure 43
0000
1000
0000
0001
,  // measure 44
0000
1000
0000
0001
,  // measure 45
0000
0010
0000
0100
,  // measure 46
0000
0010
0000
0100
,  // measure 47
0000
0010
0000
0100
,  // measure 48
0000
0010
0000
0100
,  // measure 49
0000
1000
0000
0000
,  // measure 50
0000
0001
0000
0000
,  // measure 51
0000
1000
0000
0000
,  // measure 52
0000
0001
0000
0000
,  // measure 53
0000
0010
0000
1000
,  // measure 54
0000
0001
0000
0100
,  // measure 55
0000
0001
0000
1000
,  // measure 56
0000
0001
0000
1000
,  // measure 57
0000
0000
1001
0000
,  // measure 58
0000
0000
0001
0000
,  // measure 59
0000
0000
1000
0000
,  // measure 60
0000
0000
0010
0000
,  // measure 61
0000
0000
0100
0000
,  // measure 62
0000
0000
0001
0000
,  // measure 63
0000
0000
1000
0000
,  // measure 64
0000
0000
0001
0000
,  // measure 65
0000
0000
0010
0000
,  // measure 66
0000
0000
0100
0000
,  // measure 67
0000
0000
1000
0000
,  // measure 68
0000
0000
0010
0000
,  // measure 69
0000
0000
0100
0000
,  // measure 70
0000
0000
0001
0000
,  // measure 71
0000
0000
0010
0000
,  // measure 72
0000
0000
0100
0000
,  // measure 73
1000
0000
0000
0000
,  // measure 74
0001
0000
0000
0000
,  // measure 75
0100
0000
0000
0000
,  // measure 76
0010
0000
0000
0000
,  // measure 77
1000
0000
0000
0000
,  // measure 78
0001
0000
0000
0000
,  // measure 79
0010
0000
0000
0000
,  // measure 80
0100
0000
0000
0000
,  // measure 81
0000
1000
0000
0000
,  // measure 82
0000
0001
0000
0000
,  // measure 83
0000
0100
0000
0000
,  // measure 84
0000
0010
0000
0000
,  // measure 85
0000
1000
0000
0000
,  // measure 86
0000
0001
0000
0000
,  // measure 87
0000
0010
0000
0000
,  // measure 88
0000
0100
0100
0100
,  // measure 89
1001
0000
0000
0000
;
