#VERSION:0.83;
#TITLE:Astronomia;
#SUBTITLE:Coffin Dance;
#ARTIST:Tony Igy;
#TITLETRANSLIT:;
#SUBTITLETRANSLIT:;
#ARTISTTRANSLIT:;
#GENRE:;
#ORIGIN:;
#CREDIT:RLZ!;
#BANNER:Astronomia BN.png;
#BACKGROUND:Astronomia BG.png;
#PREVIEWVID:;
#JACKET:;
#CDIMAGE:Astronomia CD.png;
#DISCIMAGE:Astronomia CD.png;
#LYRICSPATH:;
#CDTITLE:RLZ.png;
#MUSIC:Astronomia.ogg;
#OFFSET:-0.032853;
#SAMPLESTART:31.220001;
#SAMPLELENGTH:12.000000;
#SELECTABLE:YES;
#DISPLAYBPM:126.000000;
#BPMS:0.000=126.000,
227.000=63.000,
243.000=126.000;
#STOPS:;
#DELAYS:;
#WARPS:76.500=2.000,
82.500=2.000,
96.500=2.000,
102.500=2.000,
116.500=3.000,
123.500=3.000,
154.500=3.000,
161.500=3.000,
176.500=3.000,
183.500=3.000,
198.500=3.000,
205.500=3.000,
284.500=2.000,
290.500=2.000,
304.500=2.000,
310.500=2.000,
324.500=3.000,
331.500=3.000;
#TIMESIGNATURES:0.000=4=4;
#TICKCOUNTS:0.000=4;
#COMBOS:0.000=1;
#SPEEDS:0.000=1.000=0.000=0;
#SCROLLS:0.000=1.000;
#FAKES:;
#LABELS:0.000=Song Start;
#BGCHANGES:0.000=Astronomia.mp4=1.000=0=0=1=====,
351.938=flash=1.000=0=0=1=====,
352.000=Astronomia BG.png=1.000=0=0=1=====,
99999=-nosongbg-=1.000=0=0=0 // don't automatically add -songbackground-
;
#KEYSOUNDS:;
#ATTACKS:
;

//---------------dance-single - ----------------
#NOTEDATA:;
#CHARTNAME:;
#STEPSTYPE:dance-single;
#DESCRIPTION:;
#CHARTSTYLE:;
#DIFFICULTY:Challenge;
#METER:17;
#RADARVALUES:0.861672,0.968150,2.223225,3.002964,0.547751,936.000000,591.000000,345.000000,466.000000,342.000000,0.000000,0.000000,0.000000,164.000000,0.861672,0.968150,2.223225,3.002964,0.547751,936.000000,591.000000,345.000000,466.000000,342.000000,0.000000,0.000000,0.000000,164.000000;
#CREDIT:RLZ!;
#DISPLAYBPM:126.000000;
#NOTES:
0000
0000
0000
0000
0000
0000
2002
3003
,
0000
000M
00M0
0000
0000
0M00
2020
303M
,
0000
0M00
0000
0000
M000
0000
0M22
0033
,
0000
00M0
0000
M000
0000
0000
0M00
0000
,
0000
0000
00M0
0000
0000
0M00
2002
3003
,
0000
000M
0000
0000
M000
0000
0022
0M33
,
0000
0000
0000
000M
0000
M000
0220
0330
,
0000
00M0
0000
0000
M000
0000
0000
0M00
,
0000
00M0
0000
0000
0M00
0000
10M1
1000
,
1000
1M01
1000
1000
10M1
1000
1010
100M
,
1000
1M10
1000
100M
1010
001M
0110
M100
,
0100
011M
0100
M100
0110
010M
0110
M100
,
0100
0000
011M
0000
0100
0000
M100
0000
0110
0000
010M
0000
0001
1000
00M1
1000
,
0001
1000
0M01
1000
0001
0010
M001
0010
0001
0010
0M01
0010
0100
0010
M100
0010
,
0100
0010
010M
0010
1000
0010
1M00
0010
1000
0010
100M
0010
1000
0001
1M00
0001
,
1000
0001
10M0
0001
1000
0001
1M00
0001
1000
0001
10M0
0001
1001
0000
00M0
0000
,
1M01
0000
00M0
0000
1M01
0000
0010
0000
1001
0100
0010
0000
1001
0000
0000
0001
,
1001
0000
0001
0000
0101
0000
0100
0000
0110
0000
0000
0000
0110
0000
0000
0010
,
0110
0000
0010
0000
1010
0000
1000
0000
1001
0001
0000
0000
1001
0000
0000
0001
,
1001
0000
1001
0000
0110
0000
1001
0000
0110
0000
20M2
3M03
022M
M330
2M02
30M3
,
M220
033M
2M02
3003
1001
0000
0000
0001
1001
0000
1001
0000
0110
0000
1001
0000
,
0110
0000
20M2
3M03
022M
M330
2M02
30M3
M220
033M
2M02
3003
1001
0000
0000
0001
,
0101
0000
0001
0000
0011
0000
0010
0000
1010
0000
0000
0000
1010
0000
0000
1000
,
1010
0000
1000
0000
1100
0000
0100
0000
0101
0001
0000
0000
0101
0000
0000
0001
,
0101
0000
0101
0000
1010
0000
0101
0000
1010
0000
M202
03M3
202M
3M30
02M2
M303
,
2M20
303M
02M2
0303
1001
0000
0000
0001
0101
0000
0101
0000
1010
0000
0101
0000
,
1010
0000
M202
03M3
202M
3M30
02M2
M303
2M20
303M
02M2
0303
2002
0000
0000
3003
,
2002
3003
2200
3300
2002
0000
3003
0000
2002
0000
0000
3003
2002
0000
0000
3003
,
2020
3030
2002
3003
2020
0000
0000
3030
2002
3003
0202
0303
2002
0000
0000
3003
,
2002
3003
0011
0000
1100
0000
0011
0000
1100
0000
0011
0000
0000
0000
0M22
M033
,
22M0
330M
0M22
M033
220M
33M0
M022
0M33
2002
0000
0000
3003
2002
3003
0022
0033
,
2200
3300
0022
0033
2200
3300
0022
0033
0000
0000
0M22
M033
22M0
330M
0M22
M033
,
220M
33M0
M022
0M33
20M2
3003
2M02
3003
20M2
3003
2M02
3003
22M0
3300
220M
3300
,
22M0
3300
220M
3300
20M2
3003
2M02
3003
20M2
3003
2M02
3003
02M2
0303
M202
0303
,
02M2
0303
M202
0303
202M
3030
2M20
3030
202M
3030
2M20
3030
202M
3030
2M20
3030
,
202M
3030
2M20
3030
202M
3030
2M20
3030
202M
3030
2M20
3030
20M2
3003
2200
3300
,
2002
0000
0000
3003
0000
0000
0202
0000
0000
0303
0000
0000
2002
0000
0000
3003
0000
0000
0010
0000
0000
0000
0100
0000
0101
0000
0000
0000
0000
0000
0001
0000
0000
0000
0000
0000
0101
0000
0000
0000
0000
0000
0010
0000
0000
0000
0000
0000
,
0110
0000
0000
0000
0010
0000
0000
0000
0000
0000
0000
0000
0220
0000
0000
0330
0000
0000
0001
0000
0000
0000
1000
0000
1100
0000
0000
0000
0000
0000
0100
0000
0000
0000
0000
0000
1100
0000
0000
0000
0000
0000
0001
0000
0000
0000
0000
0000
,
1001
0000
0001
0000
0000
0000
1001
0000
0000
0001
0000
0100
0110
0000
0000
1001
0000
0000
0110
0000
0000
1001
0000
0000
,
0110
0000
1001
0000
0000
0000
20M2
3M03
022M
M330
2M02
30M3
M220
033M
20M2
3M03
,
1001
0000
0000
0001
0000
0100
0110
0000
0000
1001
0000
0000
0110
0000
0000
1001
0000
0000
0110
0000
0000
1001
0000
0000
,
0000
0000
0000
0000
0000
0000
20M2
0000
0000
3M03
0000
0000
022M
0000
0000
M330
0000
0000
2M02
0000
0000
30M3
0000
0000
M220
0000
0000
033M
0000
0000
20M2
0000
0000
3M03
0000
0000
1001
0000
0000
0000
0000
0000
0100
0000
0000
0000
0001
0000
,
0011
0000
0000
0000
0000
0000
0010
0000
0000
0000
0000
0000
0011
0000
0000
0000
0000
0000
0001
0000
0000
0000
0000
0000
1001
0000
0000
0000
1000
0000
0000
0000
0000
0000
0000
0000
2002
0000
0000
3003
0000
0000
0010
0000
0000
0000
0100
0000
,
0101
0000
0000
0001
0000
0000
0101
0000
0000
0010
0000
0000
0110
0000
0010
0000
0000
0000
0110
0000
0000
0010
0000
1000
,
1001
0000
0110
0000
1001
0000
0110
0000
1001
0000
0110
0000
0000
0000
M220
033M
,
20M2
0000
0000
3M03
0000
0000
022M
0000
0000
M330
0000
0000
2M02
0000
0000
30M3
0000
0000
M220
0000
0000
033M
0000
0000
1001
0000
0000
0000
0000
0000
0010
0000
0000
0000
1000
0000
1001
0000
0000
0000
0000
0000
0110
0000
0000
0000
0000
0000
,
1001
0000
0110
0000
1001
0000
0110
0000
0000
0000
M220
033M
20M2
3M03
022M
M330
,
2M02
0000
0000
30M3
0000
0000
M220
0000
0000
033M
0000
0000
1001
0000
0000
0000
0000
0000
1000
0000
0000
0000
0100
0000
0011
0000
0000
0000
0000
0000
0001
0000
0000
0000
0000
0000
0011
0000
0000
0000
0000
0000
1000
0000
0000
0000
0000
0000
,
1010
0000
0000
0000
1000
0000
0000
0000
0000
0000
0000
0000
2020
0000
0000
3030
0000
0000
0001
0000
0000
0000
0100
0000
0110
0000
0000
0000
0000
0000
0010
0000
0000
0000
0000
0000
0110
0000
0000
0000
0000
0000
0001
0000
0000
0000
0000
0000
,
0101
0000
0001
0000
0000
0000
0101
0000
0000
0001
0000
1000
1010
0000
0000
0101
0000
0000
1010
0000
0000
0101
0000
0000
,
1010
0000
0101
0000
0000
0000
M202
03M3
202M
3M30
02M2
M303
2M20
303M
M202
03M3
,
1001
0000
0000
0001
0000
1000
1010
0000
0000
0101
0000
0000
1010
0000
0000
0101
0000
0000
1010
0000
0000
0101
0000
0000
,
0000
0000
M202
03M3
202M
3M30
02M2
M303
2M20
303M
M202
03M3
2M02
3003
20M2
3003
,
2M02
3003
20M2
3003
220M
3300
22M0
3300
220M
3300
22M0
3300
2M02
3003
20M2
3003
,
2M02
3003
20M2
3003
M202
0303
02M2
0303
M202
0303
02M2
0303
2M20
3030
202M
3030
,
2M20
3030
202M
3030
2M20
3030
202M
3030
2M20
3030
202M
3030
2M20
3030
202M
3030
,
2M20
3030
202M
3030
2M02
3003
22M0
3300
2M02
3003
02M2
0303
2002
3003
1000
0000
,
1M00
0000
1000
0000
202M
3030
0010
0000
M010
0000
0010
0000
0022
0033
0M01
0000
,
0001
0000
0001
0000
00M1
0000
0001
0000
0001
0000
0M01
0000
2002
3003
0100
0000
,
010M
0000
0100
0000
0022
0033
1M00
0000
1000
0000
1000
0000
0220
0330
010M
0000
,
0100
0100
010M
0100
0100
0100
10M1
1000
,
1M00
1001
1000
10M0
1001
1000
1010
1M00
,
1000
1010
100M
1000
1010
001M
0110
0100
,
M100
0110
0100
010M
0110
0100
M110
0100
,
0100
0000
011M
0000
0100
0000
0100
0000
M110
0000
0100
0000
0001
1000
0001
1000
,
0001
1000
0001
1000
0001
0010
0001
0010
0001
0010
0001
0010
0100
0010
0100
0010
,
0100
0010
0100
0010
1000
0010
1000
0010
1000
0010
1000
0010
1000
0001
1000
0001
,
1000
0001
1000
0001
1000
0001
1000
0001
1000
0001
1000
0001
1001
0000
0000
0000
,
1001
0000
0000
0000
1001
0000
0010
0000
1001
0100
0010
0000
1001
0000
0000
0001
,
1001
0000
0001
0000
0101
0000
0100
0000
0110
0000
0000
0000
0110
0000
0000
0010
,
0110
0000
0010
0000
1010
0000
1000
0000
1001
0001
0000
0000
1001
0000
0000
0001
,
1001
0000
1001
0000
0110
0000
1001
0000
0110
0000
20M2
3M03
022M
M330
2M02
30M3
,
M220
033M
2M02
3003
1001
0000
0000
0001
1001
0000
1001
0000
0110
0000
1001
0000
,
0110
0000
20M2
3M03
022M
M330
2M02
30M3
M220
033M
2M02
3003
1001
0000
0000
0001
,
0101
0000
0001
0000
0011
0000
0010
0000
1010
0000
0000
0000
1010
0000
0000
1000
,
1010
0000
1000
0000
1100
0000
0100
0000
0101
0001
0000
0000
0101
0000
0000
0001
,
0101
0000
0101
0000
1010
0000
0101
0000
1010
0000
M202
03M3
202M
3M30
02M2
M303
,
2M20
303M
02M2
0303
1001
0000
0000
0001
0101
0000
0101
0000
1010
0000
0101
0000
,
1010
0000
M202
03M3
202M
3M30
02M2
M303
2M20
303M
02M2
0303
2002
0000
0000
3003
,
2002
3003
2200
3300
2002
0000
3003
0000
2002
0000
0000
3003
2002
0000
0000
3003
,
2020
3030
2002
3003
2020
0000
0000
3030
2002
3003
0202
0303
2002
0000
0000
3003
,
2002
3003
0011
0000
1100
0000
0011
0000
1100
0000
0011
0000
0000
0000
0M22
M033
,
22M0
330M
0M22
M033
220M
33M0
M022
0M33
2002
0000
0000
3003
2002
3003
0011
0000
,
1100
0000
0011
0000
1100
0000
0011
0000
0000
0000
0M22
M033
22M0
330M
0M22
M033
,
220M
33M0
M022
0M33
20M2
3003
2M02
3003
20M2
3003
2M02
3003
220M
3300
22M0
3300
,
220M
3300
22M0
3300
2M02
3003
20M2
3003
2M02
3003
20M2
3003
M202
0303
02M2
0303
,
M202
0303
02M2
0303
2M20
3030
202M
3030
2M20
3030
202M
3030
2M20
3030
202M
3030
,
2M20
3030
202M
3030
2M20
3030
202M
3030
2M20
3030
202M
3030
2M02
3003
22M0
3300
,
2M02
3003
02M2
0303
2M02
3003
M00M
0000
0000
0000
0000
0000
0000
0000
0000
0000
;

//---------------dance-single - ----------------
#NOTEDATA:;
#CHARTNAME:;
#STEPSTYPE:dance-single;
#DESCRIPTION:;
#CHARTSTYLE:;
#DIFFICULTY:Hard;
#METER:13;
#RADARVALUES:0.431757,0.512187,0.032221,1.591700,0.235211,469.000000,464.000000,5.000000,247.000000,201.000000,0.000000,0.000000,0.000000,72.000000,0.431757,0.512187,0.032221,1.591700,0.235211,469.000000,464.000000,5.000000,247.000000,201.000000,0.000000,0.000000,0.000000,72.000000;
#CREDIT:RLZ!;
#DISPLAYBPM:126.000000;
#NOTES:
0000
0000
0000
0000
0000
0000
2000
3000
,
0000
0001
0100
0000
0010
0000
2000
3000
,
0100
0010
0001
0000
1000
0010
0200
0300
,
0100
0000
0000
0000
0002
0000
0000
0003
200M
0000
0000
3000
M002
0000
0000
0003
200M
0000
0000
3000
M002
0000
0000
0003
010M
0000
0000
0000
0000
0000
0000
0000
,
0100
0000
0000
0000
0002
0000
0000
0003
200M
0000
0000
3000
M002
0000
0000
0003
200M
0000
0000
3000
M002
0000
0000
0003
020M
0000
0000
0000
0300
0000
0000
0000
,
0100
0001
0100
0000
0010
0000
2000
3000
,
0100
0010
0001
0000
1000
0010
0200
0300
,
0100
0000
0000
0000
0002
0000
0000
0003
200M
0000
0000
3000
M002
0000
0000
0003
200M
0000
0000
3000
M002
0000
0000
0003
010M
0000
0000
0000
0000
0000
0000
0000
,
0100
0000
0000
0000
0002
0000
0000
0003
200M
0000
0000
3000
M002
0000
0000
0003
200M
0000
0000
3000
M002
0000
0000
0003
010M
0000
0M00
0000
0000
0000
000M
0000
,
0000
0000
M100
0M00
0000
000M
0000
M000
0100
0M00
0000
000M
1000
M000
0000
0M00
,
0000
000M
1000
M000
0000
0M00
0000
00M0
1000
M000
0000
00M0
0001
000M
0000
0M00
,
0000
M000
0001
000M
0000
M000
0000
00M0
0001
000M
0000
M000
0001
000M
0000
0M00
,
0000
M000
0001
000M
0000
0M00
0000
00M0
0001
000M
0000
0000
1000
0000
1000
0000
,
1000
1000
0010
0010
0010
0010
0100
0100
,
0100
0100
0001
0001
0001
0001
1000
0001
,
1000
0001
1000
0001
1000
0001
1001
0000
,
1001
0000
1000
0010
0100
0001
1000
0000
,
0001
0010
0100
0000
1000
0000
1000
0000
,
0100
0010
0001
0000
1000
0010
0100
0000
,
0100
0000
0000
0000
0001
0000
0000
0000
1000
0000
0000
0000
0001
0000
0000
0000
1000
0000
0000
0000
0002
0000
0000
0003
200M
0000
0000
3000
M002
0000
0000
0003
,
200M
0000
0000
3000
M002
0000
0000
0003
010M
0000
0000
0000
0000
0000
0000
0000
0100
0000
0000
0000
0001
0000
0000
0000
1000
0000
0000
0000
0001
0000
0000
0000
,
1000
0000
0000
0000
0002
0000
0000
0003
200M
0000
0000
3000
M002
0000
0000
0003
200M
0000
0000
3000
M002
0000
0000
0003
010M
0000
0000
0000
0000
0000
0000
0000
,
0001
0010
0100
0000
1000
0000
1000
0000
,
0100
0010
0001
0000
1000
0010
0100
0000
,
0100
0000
0000
0000
0001
0000
0000
0000
1000
0000
0000
0000
0001
0000
0000
0000
1000
0000
0000
0000
0002
0000
0000
0003
200M
0000
0000
3000
M002
0000
0000
0003
,
200M
0000
0000
3000
M002
0000
0000
0003
0100
0000
0000
0000
0000
0000
0000
0000
0100
0000
0000
0000
0001
0000
0000
0000
1000
0000
0000
0000
0001
0000
0000
0000
,
1000
0000
0000
0000
0002
0000
0000
0003
200M
0000
0000
3000
M002
0000
0000
0003
200M
0000
0000
3000
M002
0000
0000
0003
200M
0000
3000
0000
0000
0000
0000
0000
,
0002
0003
0020
0030
0200
0300
0000
0000
2000
3000
0000
0000
2000
3000
0000
0000
,
0200
0300
0020
0030
0002
0003
0000
0000
2000
3000
0020
0030
0200
0300
0000
0000
,
0200
0000
0300
0000
0001
0000
0000
0000
1000
0000
0000
0000
0001
0000
0000
0000
1000
0000
0000
0000
0000
0000
0000
0000
0000
0000
0000
0000
0002
0000
0000
0003
,
200M
0000
0000
3000
M002
0000
0000
0003
200M
0000
0000
3000
M002
0000
0000
0003
010M
0000
0000
0000
0000
0000
0000
0000
0100
0000
0000
0000
0001
0000
0000
0000
,
1000
0000
0000
0000
0001
0000
0000
0000
1000
0000
0000
0000
0000
0000
0000
0000
0000
0000
0000
0000
0002
0000
0000
0003
200M
0000
0000
3000
M002
0000
0000
0003
,
200M
0000
0000
3000
M002
0000
0000
0003
020M
0000
0300
0000
0200
0000
0300
0000
0200
0000
0300
0000
0200
0000
0300
0000
0020
0000
0030
0000
0020
0000
0030
0000
,
0020
0030
0020
0030
2000
3000
2000
3000
2000
3000
2000
3000
0002
0003
0002
0003
,
0002
0003
0002
0003
2000
3000
0002
0003
2000
3000
0002
0003
2000
3000
0002
0003
,
2000
3000
0002
0003
2000
3000
0002
0003
2000
3000
0002
0003
2000
3000
0020
0030
,
0200
0000
0000
0300
0000
0000
0002
0000
0000
0003
0000
0000
2000
0000
0000
3000
0000
0000
0000
0000
0000
0000
0001
0000
0100
0000
0000
0000
0000
0000
0001
0000
0000
0000
0000
0000
0000
0000
0000
0000
0000
0000
0001
0000
0000
0000
0000
0000
,
0000
0000
0000
0000
0000
0000
0010
0000
0000
0000
0000
0010
0001
0000
0000
0010
0000
0000
0000
0000
0000
0010
0000
0000
,
0000
0000
0000
0000
0000
0000
0100
0000
0000
0000
0000
0100
0001
0000
0000
0001
0000
0000
1000
0000
0000
0001
0000
0000
,
1000
0000
0000
0000
0000
0000
0000
0000
0000
0000
0000
0000
0002
0000
0000
0003
200M
0000
0000
3000
M002
0000
0000
0003
200M
0000
0000
3000
M002
0000
0000
0003
,
010M
0000
0000
0000
0000
0100
0001
0000
0000
0001
0000
0000
1000
0000
0000
0001
0000
0000
1000
0000
0000
0000
0000
0000
,
0000
0000
0000
0000
0000
0000
0000
0000
0000
0000
0000
0000
0000
0000
0000
0000
0000
0000
0000
0000
0000
0000
0000
0000
0002
0000
0000
0000
0000
0000
0000
0000
0000
0000
0000
0000
0000
0000
0000
0000
0000
0000
0003
0000
0000
0000
0000
0000
200M
0000
0000
0000
0000
0000
0000
0000
0000
0000
0000
0000
0000
0000
0000
0000
0000
0000
3000
0000
0000
0000
0000
0000
M002
0000
0000
0000
0000
0000
0000
0000
0000
0000
0000
0000
0000
0000
0000
0000
0000
0000
0003
0000
0000
0000
0000
0000
200M
0000
0000
0000
0000
0000
0000
0000
0000
0000
0000
0000
0000
0000
0000
0000
0000
0000
3000
0000
0000
0000
0000
0000
M002
0000
0000
0000
0000
0000
0000
0000
0000
0000
0000
0000
0000
0000
0000
0000
0000
0000
0003
0000
0000
0000
0000
0000
010M
0000
0000
0000
0000
0000
0000
0000
0000
0000
0000
0000
0000
0000
0000
0000
0000
0000
0000
0000
0000
0000
0000
0000
0000
0000
0000
0000
0000
0000
0000
0000
0000
0000
0000
0000
0000
0000
0000
0000
0100
0000
0000
0000
0000
0000
0000
0000
,
0001
0000
0000
0100
0000
0000
0000
0000
0000
0100
0000
0000
0000
0000
0000
0000
0000
0000
0010
0000
0000
0000
0000
0010
,
0001
0000
0000
0010
0000
0000
0000
0000
0000
0010
0000
0000
0000
0000
0000
0000
0000
0000
0100
0000
0000
0000
0000
0100
,
0001
0000
0000
0000
0001
0000
0000
0000
1000
0000
0000
0000
0001
0000
0000
0000
1000
0000
0000
0000
0000
0000
0000
0000
0000
0000
0000
0000
0002
0000
0000
0003
,
200M
0000
0000
0000
0000
0000
0000
0000
0000
0000
0000
0000
0000
0000
0000
0000
0000
0000
3000
0000
0000
0000
0000
0000
M002
0000
0000
0000
0000
0000
0000
0000
0000
0000
0000
0000
0000
0000
0000
0000
0000
0000
0003
0000
0000
0000
0000
0000
200M
0000
0000
0000
0000
0000
0000
0000
0000
0000
0000
0000
0000
0000
0000
0000
0000
0000
3000
0000
0000
0000
0000
0000
M002
0000
0000
0000
0000
0000
0000
0000
0000
0000
0000
0000
0000
0000
0000
0000
0000
0000
0003
0000
0000
0000
0000
0000
010M
0000
0000
0000
0000
0000
0000
0000
0000
0000
0000
0000
0000
0000
0000
0000
0000
0000
0000
0000
0000
0000
0000
0000
0000
0000
0000
0000
0000
0000
0000
0000
0000
0000
0000
0000
0000
0000
0000
0000
0100
0000
0000
0000
0000
0000
0000
0000
0001
0000
0000
0000
0000
0000
0000
0000
0000
0000
0000
0000
0000
0000
0000
0000
0000
0000
0000
0000
0000
0000
0000
0000
0001
0000
0000
0000
0000
0000
0000
0000
0000
0000
0000
0000
0000
0000
0000
0000
0000
0000
0000
0000
0000
0000
0000
0000
,
1000
0000
0000
0000
0001
0000
0000
0000
1000
0000
0000
0000
0000
0000
0000
0000
0000
0000
0000
0000
0002
0000
0000
0003
200M
0000
0000
3000
M002
0000
0000
0003
,
200M
0000
0000
0000
0000
0000
0000
0000
0000
0000
0000
0000
0000
0000
0000
0000
0000
0000
3000
0000
0000
0000
0000
0000
M002
0000
0000
0000
0000
0000
0000
0000
0000
0000
0000
0000
0000
0000
0000
0000
0000
0000
0003
0000
0000
0000
0000
0000
010M
0000
0000
0000
0000
0000
0000
0000
0000
0000
0000
0000
0000
0000
0000
0000
0000
0000
0000
0000
0000
0000
0000
0000
0000
0000
0000
0000
0000
0000
0000
0000
0000
0000
0000
0000
0000
0000
0000
0000
0100
0000
0000
0000
0000
0000
0000
0000
0001
0000
0000
0000
0000
0000
0000
0000
0000
0000
0000
0000
0000
0000
0000
0000
0000
0000
0000
0000
0000
0000
0000
0000
0100
0000
0000
0000
0000
0000
0000
0000
0000
0000
0000
0000
0000
0000
0000
0000
0000
0000
0000
0000
0000
0000
0000
0000
0000
0000
0000
0000
0000
0000
0000
0000
0000
0000
0000
0000
0000
0000
0000
0000
0000
0000
0000
0000
0000
0000
0000
0000
0100
0000
0000
0000
0000
0000
0000
0000
0000
0000
0000
0000
0000
0000
0000
0000
0000
0000
0000
0000
0000
0000
0000
0000
,
0000
0000
0000
0000
0000
0000
0010
0000
0000
0000
0000
0010
0001
0000
0000
0010
0000
0000
0000
0000
0000
0010
0000
0000
,
0000
0000
0000
0000
0000
0000
0100
0000
0000
0000
0000
0100
0001
0000
0000
0001
0000
0000
1000
0000
0000
0001
0000
0000
,
1000
0000
0000
0000
0000
0000
0000
0000
0000
0000
0000
0000
0002
0000
0000
0003
200M
0000
0000
3000
M002
0000
0000
0003
200M
0000
0000
3000
M002
0000
0000
0003
,
010M
0000
0000
0000
0000
0100
0001
0000
0000
0001
0000
0000
1000
0000
0000
0001
0000
0000
1000
0000
0000
0000
0000
0000
,
0000
0000
0000
0000
0002
0000
0000
0003
200M
0000
0000
3000
M002
0000
0000
0003
200M
0000
0000
3000
M002
0000
0000
0003
020M
0000
0300
0000
0200
0000
0300
0000
,
0200
0300
0200
0300
0020
0030
0020
0030
0020
0030
0020
0030
2000
3000
2000
3000
,
2000
3000
2000
3000
0002
0003
0002
0003
0002
0003
0002
0003
2000
3000
0002
0003
,
2000
3000
0002
0003
2000
3000
0002
0003
2000
3000
0002
0003
2000
3000
0002
0003
,
2000
3000
0002
0003
2000
3000
0020
0030
0200
0300
0002
0003
2000
3000
M000
0000
,
00M0
0000
0M00
0000
00M2
0003
000M
0000
00M0
0000
M000
0000
020M
0300
0M00
0000
,
000M
0000
M000
0000
00M0
0000
0M00
0000
00M0
0000
M000
0000
0M02
0003
000M
0000
,
00M0
0000
0M00
0000
20M0
3000
M000
0000
000M
0000
M000
0000
0M20
0030
00M0
0000
,
000M
0000
M000
0000
0M00
0000
00M0
0000
M000
0000
000M
0000
0100
0M00
0000
000M
,
0000
M000
0100
0M00
0000
00M0
0000
000M
0100
0M00
0000
00M0
1000
M000
0000
000M
,
0000
00M0
1000
M000
0000
0M00
0000
00M0
1000
M000
0000
00M0
0001
000M
0000
0M00
,
0000
M000
0001
000M
0000
00M0
0000
M000
0001
000M
0000
0M00
0001
000M
0000
M000
,
0000
00M0
0001
000M
0000
0M00
0000
M000
0001
000M
0000
0000
1000
0000
1000
0000
,
1000
1000
0010
0010
0010
0010
0100
0100
,
0100
0100
0001
0001
0001
0001
1000
0001
,
1000
0001
1000
0001
1000
0001
1001
0000
,
1001
0000
1000
0010
0100
0001
1000
0000
,
0001
0010
0100
0000
1000
0000
1000
0000
,
0100
0010
0001
0000
1000
0010
0100
0000
,
0100
0000
0000
0000
0001
0000
0000
0000
1000
0000
0000
0000
0001
0000
0000
0000
1000
0000
0000
0000
0002
0000
0000
0003
200M
0000
0000
3000
M002
0000
0000
0003
,
200M
0000
0000
3000
M002
0000
0000
0003
010M
0000
0000
0000
0000
0000
0000
0000
0100
0000
0000
0000
0001
0000
0000
0000
1000
0000
0000
0000
0001
0000
0000
0000
,
1000
0000
0000
0000
0002
0000
0000
0003
200M
0000
0000
3000
M002
0000
0000
0003
200M
0000
0000
3000
M002
0000
0000
0003
010M
0000
0000
0000
0000
0000
0000
0000
,
0001
0010
0100
0000
1000
0000
1000
0000
,
0100
0010
0001
0000
1000
0010
0100
0000
,
0100
0000
0000
0000
0001
0000
0000
0000
1000
0000
0000
0000
0001
0000
0000
0000
1000
0000
0000
0000
0002
0000
0000
0003
200M
0000
0000
3000
M002
0000
0000
0003
,
200M
0000
0000
3000
M002
0000
0000
0003
0100
0000
0000
0000
0000
0000
0000
0000
0100
0000
0000
0000
0001
0000
0000
0000
1000
0000
0000
0000
0001
0000
0000
0000
,
1000
0000
0000
0000
0002
0000
0000
0003
200M
0000
0000
3000
M002
0000
0000
0003
200M
0000
0000
3000
M002
0000
0000
0003
200M
0000
3000
0000
0000
0000
0000
0000
,
0002
0003
0020
0030
0200
0300
0000
0000
2000
3000
0000
0000
2000
3000
0000
0000
,
0200
0300
0020
0030
0002
0003
0000
0000
2000
3000
0020
0030
0200
0300
0000
0000
,
0200
0000
0300
0000
0001
0000
0000
0000
1000
0000
0000
0000
0001
0000
0000
0000
1000
0000
0000
0000
0000
0000
0000
0000
0000
0000
0000
0000
0002
0000
0000
0003
,
200M
0000
0000
3000
M002
0000
0000
0003
200M
0000
0000
3000
M002
0000
0000
0003
010M
0000
0000
0000
0000
0000
0000
0000
0100
0000
0000
0000
0001
0000
0000
0000
,
1000
0000
0000
0000
0001
0000
0000
0000
1000
0000
0000
0000
0000
0000
0000
0000
0000
0000
0000
0000
0002
0000
0000
0003
200M
0000
0000
3000
M002
0000
0000
0003
,
200M
0000
0000
3000
M002
0000
0000
0003
020M
0000
0300
0000
0200
0000
0300
0000
0200
0000
0300
0000
0200
0000
0300
0000
0020
0000
0030
0000
0020
0000
0030
0000
,
0020
0030
0020
0030
2000
3000
2000
3000
2000
3000
2000
3000
0002
0003
0002
0003
,
0002
0003
0002
0003
2000
3000
0002
0003
2000
3000
0002
0003
2000
3000
0002
0003
,
2000
3000
0002
0003
2000
3000
0002
0003
2000
3000
0002
0003
2000
3000
0020
0030
,
0200
0300
0002
0003
2002
3003
0000
0000
0000
0000
0000
0000
0000
0000
0000
0000
;

//---------------dance-single - Keyboard----------------
#NOTEDATA:;
#CHARTNAME:;
#STEPSTYPE:dance-single;
#DESCRIPTION:Keyboard;
#CHARTSTYLE:;
#DIFFICULTY:Edit;
#METER:18;
#RADARVALUES:0.891131,1.423750,2.223225,3.002964,0.650857,968.000000,623.000000,345.000000,466.000000,342.000000,0.000000,0.000000,0.000000,164.000000,0.891131,1.423750,2.223225,3.002964,0.650857,968.000000,623.000000,345.000000,466.000000,342.000000,0.000000,0.000000,0.000000,164.000000;
#CREDIT:RLZ!;
#ATTACKS:TIME=31.930000:LEN=121.900002:MODS=*30 150% Beat, Overhead:TIME=24.309999:LEN=5.710000:MODS=*.2 150% Boost, *.2 120% Mini, *.2 95% Hidden, Overhead:TIME=30.020000:LEN=1.900000:MODS=*.5 120% Boost, *.5 0% Mini, *.5 0% Hidden, Overhead:TIME=36.450001:LEN=0.950000:MODS=*10 70% Tornado, *10 100% Tipsy, *10 100% Bumpy, *10 150% Beat, Overhead:TIME=37.520000:LEN=0.830000:MODS=*10 0% Tornado, *10 0% Tipsy, *10 0% Bumpy, Overhead:TIME=38.360001:LEN=1.190000:MODS=*10 70% Tornado, *10 100% Tipsy, *10 100% Bumpy, *10 150% Beat, Overhead:TIME=39.430000:LEN=0.830000:MODS=*10 0% Tornado, *10 0% Tipsy, *10 0% Bumpy, Overhead:TIME=92.879997:LEN=22.860001:MODS=*50 0% Beat, *.1 -50% Mini, Overhead:TIME=115.739998:LEN=5.710000:MODS=*.2 150% Boost, *.2 120% Mini, *.2 95% Hidden, Overhead:TIME=121.449997:LEN=1.900000:MODS=*.5 120% Boost, *.5 0% Mini, *.5 0% Hidden, Overhead:TIME=44.070000:LEN=1.190000:MODS=*10 70% Tornado, *10 100% Tipsy, *10 100% Bumpy, *10 150% Beat, Overhead:TIME=45.259998:LEN=0.710000:MODS=*10 0% Tornado, *10 0% Tipsy, *10 0% Bumpy, Overhead:TIME=45.980000:LEN=1.190000:MODS=*10 70% Tornado, *10 100% Tipsy, *10 100% Bumpy, *10 150% Beat, Overhead:TIME=47.169998:LEN=0.950000:MODS=*10 0% Tornado, *10 0% Tipsy, *10 0% Bumpy, Overhead:TIME=51.689999:LEN=1.190000:MODS=*10 70% Tornado, *10 100% Tipsy, *10 100% Bumpy, *10 150% Beat, Overhead:TIME=52.880001:LEN=0.710000:MODS=*10 0% Tornado, *10 0% Tipsy, *10 0% Bumpy, Overhead:TIME=53.599998:LEN=1.190000:MODS=*10 70% Tornado, *10 100% Tipsy, *10 100% Bumpy, *10 150% Beat, Overhead:TIME=54.790001:LEN=6.670000:MODS=*.2 150% Boost, *.15 90% Mini, *.15 90% Hidden, *50 0% Tornado, *50 0% Tipsy, *50 0% Bumpy, Overhead:TIME=61.450001:LEN=0.950000:MODS=*.5 120% Boost, *.5 0% Mini, *.5 0% Hidden, Overhead:TIME=66.930000:LEN=1.190000:MODS=*10 70% Tornado, *10 100% Tipsy, *10 100% Bumpy, *10 150% Beat, Overhead:TIME=68.120003:LEN=0.710000:MODS=*10 0% Tornado, *10 0% Tipsy, *10 0% Bumpy, Overhead:TIME=68.830002:LEN=1.190000:MODS=*10 70% Tornado, *10 100% Tipsy, *10 100% Bumpy, *10 150% Beat, Overhead:TIME=70.019997:LEN=0.480000:MODS=*10 0% Tornado, *10 0% Tipsy, *10 0% Bumpy, Overhead:TIME=74.550003:LEN=1.190000:MODS=*10 70% Tornado, *10 100% Tipsy, *10 100% Bumpy, *10 150% Beat, Overhead:TIME=75.739998:LEN=0.710000:MODS=*10 0% Tornado, *10 0% Tipsy, *10 0% Bumpy, Overhead:TIME=76.449997:LEN=1.190000:MODS=*10 70% Tornado, *10 100% Tipsy, *10 100% Bumpy, *10 150% Beat, Overhead:TIME=77.639999:LEN=0.480000:MODS=*10 0% Tornado, *10 0% Tipsy, *10 0% Bumpy, Overhead:TIME=82.169998:LEN=1.190000:MODS=*10 70% Tornado, *10 100% Tipsy, *10 100% Bumpy, *10 150% Beat, Overhead:TIME=83.360001:LEN=0.710000:MODS=*10 0% Tornado, *10 0% Tipsy, *10 0% Bumpy, Overhead:TIME=84.070000:LEN=1.190000:MODS=*10 70% Tornado, *10 100% Tipsy, *10 100% Bumpy, *10 150% Beat, Overhead:TIME=85.260002:LEN=6.670000:MODS=*.2 150% Boost, *.15 90% Mini, *.15 90% Hidden, *50 0% Tornado, *50 0% Tipsy, *50 0% Bumpy, Overhead:TIME=91.930000:LEN=0.950000:MODS=*.5 120% Boost, *.5 0% Mini, *.5 0% Hidden, Overhead:TIME=127.879997:LEN=1.190000:MODS=*10 70% Tornado, *10 100% Tipsy, *10 100% Bumpy, *10 150% Beat, Overhead:TIME=129.070007:LEN=0.710000:MODS=*10 0% Tornado, *10 0% Tipsy, *10 0% Bumpy, Overhead:TIME=129.789993:LEN=1.190000:MODS=*10 70% Tornado, *10 100% Tipsy, *10 100% Bumpy, *10 150% Beat, Overhead:TIME=130.979996:LEN=0.480000:MODS=*10 0% Tornado, *10 0% Tipsy, *10 0% Bumpy, Overhead:TIME=135.500000:LEN=1.190000:MODS=*10 70% Tornado, *10 100% Tipsy, *10 100% Bumpy, *10 150% Beat, Overhead:TIME=136.690002:LEN=0.710000:MODS=*10 0% Tornado, *10 0% Tipsy, *10 0% Bumpy, Overhead:TIME=137.410004:LEN=1.190000:MODS=*10 70% Tornado, *10 100% Tipsy, *10 100% Bumpy, *10 150% Beat, Overhead:TIME=138.600006:LEN=0.480000:MODS=*10 0% Tornado, *10 0% Tipsy, *10 0% Bumpy, Overhead:TIME=143.119995:LEN=1.190000:MODS=*10 70% Tornado, *10 100% Tipsy, *10 100% Bumpy, *10 150% Beat, Overhead:TIME=144.309998:LEN=0.710000:MODS=*10 0% Tornado, *10 0% Tipsy, *10 0% Bumpy, Overhead:TIME=145.020004:LEN=1.190000:MODS=*10 70% Tornado, *10 100% Tipsy, *10 100% Bumpy, *10 150% Beat, Overhead:TIME=146.220001:LEN=6.670000:MODS=*.2 150% Boost, *.15 90% Mini, *.15 90% Hidden, *50 0% Tornado, *50 0% Tipsy, *50 0% Bumpy, Overhead:TIME=152.880005:LEN=0.950000:MODS=*.5 120% Boost, *.5 0% Mini, *.5 0% Hidden, Overhead:TIME=153.830002:LEN=0.480000:MODS=*20 0% Boost, *20 0% Mini, *20 0% Hidden, *50 0% Beat, Overhead;
#DISPLAYBPM:126.000000;
#NOTES:
0000
0000
0000
0000
0000
0000
2002
3003
,
0000
000M
00M0
0000
0000
0M00
2020
303M
,
0000
0M00
0000
0000
M000
0000
0M22
0033
,
0000
00M0
0000
M000
0000
0000
0M00
0000
,
0000
0000
00M0
0000
0000
0M00
2002
3003
,
0000
000M
0000
0000
M000
0000
0022
0M33
,
0000
0000
0000
000M
0000
M000
0220
0330
,
0000
00M0
0000
0000
M000
0000
0000
0M00
,
0000
00M0
0000
0000
0M00
0000
10M1
1000
,
1000
1M01
1000
1000
10M1
1000
1010
100M
,
1000
1M10
1000
100M
1010
001M
0110
M100
,
0100
011M
0100
M100
0110
010M
0110
M100
,
0100
0000
011M
0000
0100
0000
M100
0000
0110
0000
010M
0000
0001
1000
00M1
1000
,
0001
1000
0M01
1000
0001
0010
M001
0010
0001
0010
0M01
0010
0100
0010
M100
0010
,
0100
0000
0010
0000
010M
0000
0010
0000
1000
0000
0010
0000
1M00
0000
0010
0000
1000
0000
0010
0000
100M
0000
0010
0000
1000
0001
1000
0001
1M00
0001
1000
0001
,
1000
0001
1000
0001
10M0
0001
1000
0001
1000
0001
1000
0001
1M00
0001
1000
0001
1000
0001
1000
0001
10M0
0001
1000
0001
1001
0000
0000
0000
00M0
0000
0000
0000
,
1M01
0000
00M0
0000
1M01
0000
0010
0000
1001
0100
0010
0000
1001
0000
0000
0001
,
1001
0000
0001
0000
0101
0000
0100
0000
0110
0000
0000
0000
0110
0000
0000
0010
,
0110
0000
0010
0000
1010
0000
1000
0000
1001
0001
0000
0000
1001
0000
0000
0001
,
1001
0000
1001
0000
0110
0000
1001
0000
0110
0000
20M2
3M03
022M
M330
2M02
30M3
,
M220
033M
2M02
3003
1001
0000
0000
0001
1001
0000
1001
0000
0110
0000
1001
0000
,
0110
0000
20M2
3M03
022M
M330
2M02
30M3
M220
033M
2M02
3003
1001
0000
0000
0001
,
0101
0000
0001
0000
0011
0000
0010
0000
1010
0000
0000
0000
1010
0000
0000
1000
,
1010
0000
1000
0000
1100
0000
0100
0000
0101
0001
0000
0000
0101
0000
0000
0001
,
0101
0000
0101
0000
1010
0000
0101
0000
1010
0000
M202
03M3
202M
3M30
02M2
M303
,
2M20
303M
02M2
0303
1001
0000
0000
0001
0101
0000
0101
0000
1010
0000
0101
0000
,
1010
0000
M202
03M3
202M
3M30
02M2
M303
2M20
303M
02M2
0303
2002
0000
0000
3003
,
2002
3003
2200
3300
2002
0000
3003
0000
2002
0000
0000
3003
2002
0000
0000
3003
,
2020
3030
2002
3003
2020
0000
0000
3030
2002
3003
0202
0303
2002
0000
0000
3003
,
2002
3003
0011
0000
1100
0000
0011
0000
1100
0000
0011
0000
0000
0000
0M22
M033
,
22M0
330M
0M22
M033
220M
33M0
M022
0M33
2002
0000
0000
3003
2002
3003
0022
0033
,
2200
3300
0022
0033
2200
3300
0022
0033
0000
0000
0M22
M033
22M0
330M
0M22
M033
,
220M
33M0
M022
0M33
20M2
3003
2M02
3003
20M2
3003
2M02
3003
22M0
3300
220M
3300
,
22M0
3300
220M
3300
20M2
3003
2M02
3003
20M2
3003
2M02
3003
02M2
0303
M202
0303
,
02M2
0303
M202
0303
202M
3030
2M20
3030
202M
3030
2M20
3030
202M
3030
2M20
3030
,
202M
3030
2M20
3030
202M
3030
2M20
3030
202M
3030
2M20
3030
20M2
3003
2200
3300
,
2002
0000
0000
3003
0000
0000
0202
0000
0000
0303
0000
0000
2002
0000
0000
3003
0000
0000
0010
0000
0000
0000
0100
0000
0101
0000
0000
0000
0000
0000
0001
0000
0000
0000
0000
0000
0101
0000
0000
0000
0000
0000
0010
0000
0000
0000
0000
0000
,
0110
0000
0000
0000
0010
0000
0000
0000
0000
0000
0000
0000
0220
0000
0000
0330
0000
0000
0001
0000
0000
0000
1000
0000
1100
0000
0000
0000
0000
0000
0100
0000
0000
0000
0000
0000
1100
0000
0000
0000
0000
0000
0001
0000
0000
0000
0000
0000
,
1001
0000
0001
0000
0000
0000
1001
0000
0000
0001
0000
0100
0110
0000
0000
1001
0000
0000
0110
0000
0000
1001
0000
0000
,
0110
0000
1001
0000
0000
0000
20M2
3M03
022M
M330
2M02
30M3
M220
033M
20M2
3M03
,
1001
0000
0000
0001
0000
0100
0110
0000
0000
1001
0000
0000
0110
0000
0000
1001
0000
0000
0110
0000
0000
1001
0000
0000
,
0000
0000
0000
0000
0000
0000
20M2
0000
0000
3M03
0000
0000
022M
0000
0000
M330
0000
0000
2M02
0000
0000
30M3
0000
0000
M220
0000
0000
033M
0000
0000
20M2
0000
0000
3M03
0000
0000
1001
0000
0000
0000
0000
0000
0100
0000
0000
0000
0001
0000
,
0011
0000
0000
0000
0000
0000
0010
0000
0000
0000
0000
0000
0011
0000
0000
0000
0000
0000
0001
0000
0000
0000
0000
0000
1001
0000
0000
0000
1000
0000
0000
0000
0000
0000
0000
0000
2002
0000
0000
3003
0000
0000
0010
0000
0000
0000
0100
0000
,
0101
0000
0000
0001
0000
0000
0101
0000
0000
0010
0000
0000
0110
0000
0010
0000
0000
0000
0110
0000
0000
0010
0000
1000
,
1001
0000
0110
0000
1001
0000
0110
0000
1001
0000
0110
0000
0000
0000
M220
033M
,
20M2
0000
0000
3M03
0000
0000
022M
0000
0000
M330
0000
0000
2M02
0000
0000
30M3
0000
0000
M220
0000
0000
033M
0000
0000
1001
0000
0000
0000
0000
0000
0010
0000
0000
0000
1000
0000
1001
0000
0000
0000
0000
0000
0110
0000
0000
0000
0000
0000
,
1001
0000
0110
0000
1001
0000
0110
0000
0000
0000
M220
033M
20M2
3M03
022M
M330
,
2M02
0000
0000
30M3
0000
0000
M220
0000
0000
033M
0000
0000
1001
0000
0000
0000
0000
0000
1000
0000
0000
0000
0100
0000
0011
0000
0000
0000
0000
0000
0001
0000
0000
0000
0000
0000
0011
0000
0000
0000
0000
0000
1000
0000
0000
0000
0000
0000
,
1010
0000
0000
0000
1000
0000
0000
0000
0000
0000
0000
0000
2020
0000
0000
3030
0000
0000
0001
0000
0000
0000
0100
0000
0110
0000
0000
0000
0000
0000
0010
0000
0000
0000
0000
0000
0110
0000
0000
0000
0000
0000
0001
0000
0000
0000
0000
0000
,
0101
0000
0001
0000
0000
0000
0101
0000
0000
0001
0000
1000
1010
0000
0000
0101
0000
0000
1010
0000
0000
0101
0000
0000
,
1010
0000
0101
0000
0000
0000
M202
03M3
202M
3M30
02M2
M303
2M20
303M
M202
03M3
,
1001
0000
0000
0001
0000
1000
1010
0000
0000
0101
0000
0000
1010
0000
0000
0101
0000
0000
1010
0000
0000
0101
0000
0000
,
0000
0000
M202
03M3
202M
3M30
02M2
M303
2M20
303M
M202
03M3
2M02
3003
20M2
3003
,
2M02
3003
20M2
3003
220M
3300
22M0
3300
220M
3300
22M0
3300
2M02
3003
20M2
3003
,
2M02
3003
20M2
3003
M202
0303
02M2
0303
M202
0303
02M2
0303
2M20
3030
202M
3030
,
2M20
3030
202M
3030
2M20
3030
202M
3030
2M20
3030
202M
3030
2M20
3030
202M
3030
,
2M20
3030
202M
3030
2M02
3003
22M0
3300
2M02
3003
02M2
0303
2002
3003
1000
0000
,
1M00
0000
1000
0000
202M
3030
0010
0000
M010
0000
0010
0000
0022
0033
0M01
0000
,
0001
0000
0001
0000
00M1
0000
0001
0000
0001
0000
0M01
0000
2002
3003
0100
0000
,
010M
0000
0100
0000
0022
0033
1M00
0000
1000
0000
1000
0000
0220
0330
010M
0000
,
0100
0100
010M
0100
0100
0100
10M1
1000
,
1M00
1001
1000
10M0
1001
1000
1010
1M00
,
1000
1010
100M
1000
1010
001M
0110
0100
,
M100
0110
0100
010M
0110
0100
M110
0100
,
0100
0000
011M
0000
0100
0000
0100
0000
M110
0000
0100
0000
0001
1000
0001
1000
,
0001
1000
0001
1000
0001
0010
0001
0010
0001
0010
0001
0010
0100
0010
0100
0010
,
0100
0000
0010
0000
0100
0000
0010
0000
1000
0000
0010
0000
1000
0000
0010
0000
1000
0000
0010
0000
1000
0000
0010
0000
1000
0001
1000
0001
1000
0001
1000
0001
,
1000
0001
1000
0001
1000
0001
1000
0001
1000
0001
1000
0001
1000
0001
1000
0001
1000
0001
1000
0001
1000
0001
1000
0001
1001
0000
0000
0000
0000
0000
0000
0000
,
1001
0000
0000
0000
1001
0000
0010
0000
1001
0100
0010
0000
1001
0000
0000
0001
,
1001
0000
0001
0000
0101
0000
0100
0000
0110
0000
0000
0000
0110
0000
0000
0010
,
0110
0000
0010
0000
1010
0000
1000
0000
1001
0001
0000
0000
1001
0000
0000
0001
,
1001
0000
1001
0000
0110
0000
1001
0000
0110
0000
20M2
3M03
022M
M330
2M02
30M3
,
M220
033M
2M02
3003
1001
0000
0000
0001
1001
0000
1001
0000
0110
0000
1001
0000
,
0110
0000
20M2
3M03
022M
M330
2M02
30M3
M220
033M
2M02
3003
1001
0000
0000
0001
,
0101
0000
0001
0000
0011
0000
0010
0000
1010
0000
0000
0000
1010
0000
0000
1000
,
1010
0000
1000
0000
1100
0000
0100
0000
0101
0001
0000
0000
0101
0000
0000
0001
,
0101
0000
0101
0000
1010
0000
0101
0000
1010
0000
M202
03M3
202M
3M30
02M2
M303
,
2M20
303M
02M2
0303
1001
0000
0000
0001
0101
0000
0101
0000
1010
0000
0101
0000
,
1010
0000
M202
03M3
202M
3M30
02M2
M303
2M20
303M
02M2
0303
2002
0000
0000
3003
,
2002
3003
2200
3300
2002
0000
3003
0000
2002
0000
0000
3003
2002
0000
0000
3003
,
2020
3030
2002
3003
2020
0000
0000
3030
2002
3003
0202
0303
2002
0000
0000
3003
,
2002
3003
0011
0000
1100
0000
0011
0000
1100
0000
0011
0000
0000
0000
0M22
M033
,
22M0
330M
0M22
M033
220M
33M0
M022
0M33
2002
0000
0000
3003
2002
3003
0011
0000
,
1100
0000
0011
0000
1100
0000
0011
0000
0000
0000
0M22
M033
22M0
330M
0M22
M033
,
220M
33M0
M022
0M33
20M2
3003
2M02
3003
20M2
3003
2M02
3003
220M
3300
22M0
3300
,
220M
3300
22M0
3300
2M02
3003
20M2
3003
2M02
3003
20M2
3003
M202
0303
02M2
0303
,
M202
0303
02M2
0303
2M20
3030
202M
3030
2M20
3030
202M
3030
2M20
3030
202M
3030
,
2M20
3030
202M
3030
2M20
3030
202M
3030
2M20
3030
202M
3030
2M02
3003
22M0
3300
,
2M02
3003
02M2
0303
2M02
3003
M00M
0000
0000
0000
0000
0000
0000
0000
0000
0000
;

//---------------dance-single - ----------------
#NOTEDATA:;
#CHARTNAME:;
#STEPSTYPE:dance-single;
#DESCRIPTION:;
#CHARTSTYLE:;
#DIFFICULTY:Medium;
#METER:7;
#RADARVALUES:0.212656,0.256275,0.000000,0.869958,0.000000,231.000000,231.000000,0.000000,135.000000,0.000000,0.000000,0.000000,0.000000,46.000000,0.212656,0.256275,0.000000,0.869958,0.000000,231.000000,231.000000,0.000000,135.000000,0.000000,0.000000,0.000000,0.000000,46.000000;
#CREDIT:RLZ!;
#DISPLAYBPM:126.000000;
#NOTES:
0000
0000
0000
0000
0000
0000
0200
0300
,
0000
0000
0000
0000
0000
0000
0002
0003
,
0000
0000
0000
0000
0000
0000
2000
3000
,
0000
0000
0000
0000
,
0000
0000
0000
0000
0000
0000
0200
0300
,
0000
0000
0000
0000
0000
0000
0020
0030
,
0000
0000
0000
0000
0000
0000
2000
3000
,
0000
0000
0000
0000
,
0000
0000
0000
0000
0000
0000
0002
0003
,
0000
0000
0000
0000
0000
0000
2000
3000
,
0000
0000
0000
0000
0000
0000
0020
0030
,
0000
0000
0000
0000
,
0000
0000
0000
0001
,
0001
1000
1000
0010
,
0010
0100
0100
0001
,
1000
0001
1000
0001
,
1000
0001
0100
0010
,
1000
0100
1000
0010
,
0100
0001
0100
0001
,
0001
M000
M000
1000
,
1000
0001
0001
M000
,
M000
1000
1000
0010
,
1000
0100
1000
0010
,
0100
0001
0100
0001
,
0001
M000
M000
1000
,
1000
0001
0001
M000
,
M000
0000
1000
0000
1000
0000
0020
0030
,
2000
3000
0200
0300
2000
3000
0020
0030
,
0200
0300
0002
0003
0200
0300
0002
0003
,
0002
0003
M000
0000
M000
0000
M000
0000
,
2000
3000
2000
3000
0002
0003
0002
0003
,
M000
0000
M000
0000
M000
0000
2000
3000
,
2000
3000
0002
0003
0002
0003
0020
0030
,
0020
0030
0200
0300
0200
0300
2000
3000
,
2000
3000
0002
0003
2000
3000
0002
0003
,
2000
3000
0002
0003
2000
3000
0002
0003
,
0200
0300
0020
0030
0020
0030
0000
0000
,
0000
0000
2000
3000
2000
3000
0000
0000
,
0000
0000
0002
0003
0002
0003
M000
0000
,
M000
0000
M000
0000
2000
3000
2000
3000
,
0002
0003
0002
0003
M000
0000
M000
0000
,
M000
0000
2000
3000
2000
3000
0020
0030
,
0020
0030
0000
0000
0000
0000
2000
3000
,
2000
3000
0000
0000
0000
0000
0002
0003
,
0002
0003
M000
0000
M000
0000
M000
0000
,
2000
3000
2000
3000
0002
0003
0002
0003
,
M000
0000
M000
0000
M000
0000
2000
3000
,
2000
3000
0200
0300
0200
0300
0000
0000
,
0000
0000
0020
0030
0020
0030
0000
0000
,
0000
0000
0002
0003
0002
0003
00M0
0000
,
00M0
0000
00M0
0000
0020
0030
0020
0030
,
0002
0003
0002
0003
00M0
0000
00M0
0000
,
00M0
0000
0020
0030
0020
0030
0002
0003
,
0002
0003
2000
3000
2000
3000
0020
0030
,
0020
0030
0200
0300
0200
0300
0002
0003
,
2000
3000
0002
0003
2000
3000
0002
0003
,
2000
3000
0002
0003
0200
0300
0020
0030
,
0000
0000
2000
3000
0000
0000
0002
0003
,
0000
0000
0000
0000
0000
0000
2000
3000
,
0000
0000
0200
0300
0000
0000
0020
0030
,
0000
0000
0000
0000
0000
0000
0002
0003
,
0000
0000
0000
0000
0000
0000
2000
3000
,
0000
0000
0000
0000
0000
0000
0020
0030
,
0000
0000
0000
0000
,
0000
0000
0000
0001
,
0001
1000
1000
0010
,
0010
0100
0100
0001
,
1000
0001
1000
0001
,
1000
0001
0100
0010
,
1000
0100
1000
0010
,
0100
0001
0100
0001
,
0001
M000
M000
1000
,
1000
0001
0001
M000
,
M000
1000
1000
0010
,
1000
0100
1000
0010
,
0100
0001
0100
0001
,
0001
M000
M000
1000
,
1000
0001
0001
M000
,
M000
0000
1000
0000
1000
0000
0020
0030
,
2000
3000
0200
0300
2000
3000
0020
0030
,
0200
0300
0002
0003
0200
0300
0002
0003
,
0002
0003
M000
0000
M000
0000
M000
0000
,
2000
3000
2000
3000
0002
0003
0002
0003
,
M000
0000
M000
0000
M000
0000
2000
3000
,
2000
3000
0002
0003
0002
0003
0020
0030
,
0020
0030
0200
0300
0200
0300
2000
3000
,
2000
3000
0002
0003
2000
3000
0002
0003
,
2000
3000
0002
0003
2000
3000
0002
0003
,
0200
0300
0020
0030
0000
0000
0000
0000
;
