#TITLE:Ali Baba;
#SUBTITLE:;
#ARTIST:Axe Bahia;
#TITLETRANSLIT:;
#SUBTITLETRANSLIT:;
#ARTISTTRANSLIT:;
#GENRE:;
#CREDIT:;
#BANNER:Ali Baba-bn.png;
#BACKGROUND:Ali Baba-bg.png;
#LYRICSPATH:Ali Baba.lrc;
#CDTITLE:cdtitle.png;
#MUSIC:Ali Baba.ogg;
#OFFSET:-7.740000;
#SAMPLESTART:50.090000;
#SAMPLELENGTH:12.000000;
#SELECTABLE:YES;
#BPMS:0.000000=123.993004
;
#STOPS:28.000000=0.484000,
29.000000=0.484000
;
#BGCHANGES:;
#KEYSOUNDS:;
#ATTACKS:;

//---------------dance-single - ----------------
#NOTES:
     dance-single:
     :
     Medium:
     7:
     0.422096,0.420454,0.176106,0.450049,0.009784,302.000000,284.000000,18.000000,46.000000,0.000000,0.000000,0.422096,0.420454,0.176106,0.450049,0.009784,302.000000,284.000000,18.000000,46.000000,0.000000,0.000000:
1001
0000
0001
1000
0001
0000
0001
1000
,
0001
0000
0001
1000
0010
0100
0100
0010
,
1001
0000
0001
0010
0100
0000
0100
1000
,
0010
0000
0010
0100
0001
1000
0001
0010
,
0011
0000
0010
0100
2000
0000
3001
0001
,
0002
0000
1003
0010
1000
0010
1000
0010
,
1010
0000
0010
0010
0020
0000
0130
0100
,
0110
1001
0110
1001
,
0110
0000
1001
0000
1000
0000
0000
0010
,
0100
0000
0010
0100
0001
0010
0100
0010
,
0001
0000
1000
0001
1000
0000
0000
0010
,
0100
0000
0000
0010
1000
0001
0010
0100
,
0020
0000
0032
0000
2003
0000
3000
0001
,
2000
0000
3000
0010
0100
0001
0010
0100
,
0020
0000
0230
0000
2300
0000
0000
3001
,
2000
0000
0000
3010
1000
0010
0100
0010
,
0100
0001
1010
1010
,
0101
0000
0001
0001
0002
0000
1003
1000
,
2000
0000
3010
1000
0010
1000
0010
0100
,
0002
0000
0013
0010
0200
0000
0300
1000
,
2000
0000
3000
0010
1000
0010
0100
0010
,
1000
0010
1000
0100
0020
0000
0030
0001
,
0002
0000
0003
0010
0001
0010
0100
1000
,
0020
0000
1030
0010
2000
0000
3000
0010
,
0200
0000
0300
0001
0010
0001
0010
0001
,
0020
0000
0031
0001
0002
0000
1003
1000
,
2000
0000
3010
0010
0100
0010
0100
0100
,
0100
0000
0001
0001
0002
0000
1003
1000
,
2000
0000
3001
0001
1000
0001
1000
1000
,
1000
0000
0001
0100
0020
0000
0030
0100
,
0002
0000
0003
1000
0010
1000
0010
0100
,
0002
0000
1003
0010
2000
0000
3000
0010
,
0200
0000
0300
0001
0100
0001
0010
0001
,
0200
0000
0301
0010
0002
0000
0003
1000
,
0020
0000
0030
1000
0010
1000
0010
0100
,
0100
0100
0000
0010
0010
0020
0000
0130
,
0100
0200
0000
0310
0100
0010
0100
0010
,
0100
0000
0010
0000
1000
1000
0001
0001
,
1000
0001
1000
0001
1001
0000
0010
0010
,
0020
0000
0130
0100
0200
0000
0310
0100
,
0010
0100
0010
1000
0020
0000
1030
1000
,
2000
0000
3001
0001
0002
0000
1003
0001
,
1000
0001
0010
0001
0100
0000
0001
0100
,
0101
0000
0001
0100
1001
0000
1000
0001
,
0100
0010
0100
0001
1001
0000
1000
0010
,
1010
0000
1000
0001
2000
0000
3002
0000
,
0203
0000
0320
0000
1030
0001
1000
0001
,
0100
0000
0010
0000
0100
0010
0100
0010
0200
0000
0000
0000
0300
0000
0000
0000
;

//---------------dance-single - ----------------
#NOTES:
     dance-single:
     :
     Hard:
     11:
     0.613577,0.677398,0.469617,0.450049,0.454941,439.000000,391.000000,48.000000,46.000000,0.000000,0.000000,0.613577,0.677398,0.469617,0.450049,0.454941,439.000000,391.000000,48.000000,46.000000,0.000000,0.000000:
// measure 0
1001
0000
0000
0001
1000
0010
1000
0010
0200
0000
0300
0010
0100
0010
0100
0010
,  // measure 1
0200
0000
0300
0001
1000
0001
1000
0001
0000
0101
0000
0100
0001
0000
1000
0000
,  // measure 2
2001
0000
3000
0001
0010
0100
0010
0001
0020
0000
0030
0001
0010
0100
0010
0001
,  // measure 3
2000
0000
3000
0001
1000
0010
1000
0010
0000
1010
0000
0010
1000
0000
0010
0000
,  // measure 4
0210
0000
0300
0010
0100
0010
0100
0010
0200
0000
0300
0010
1000
0001
1000
0001
,  // measure 5
1000
0000
0001
0000
1000
0000
0010
0000
1000
0000
0010
1000
0010
0000
1000
0000
,  // measure 6
2010
0000
3000
0001
0100
0010
0100
0010
0200
0000
0300
0001
1000
0010
0100
0010
,  // measure 7
0220
0330
0000
0000
2002
3003
0000
0000
1001
0000
0000
1001
0000
0000
1001
0000
,  // measure 8
0110
0000
0000
0110
0000
0000
0110
0000
2000
0000
0000
0000
0000
3000
0010
0000
,  // measure 9
0100
0000
0001
0100
0010
1000
0010
0100
,  // measure 10
0001
0000
1001
0000
2010
0000
0000
3010
,  // measure 11
0100
0000
0000
0001
0010
0100
0010
0001
,  // measure 12
1000
0000
0010
1000
0010
0000
1000
0000
0020
0000
0000
0000
0000
0000
0130
0000
,  // measure 13
0001
0000
0000
1000
0010
1000
0010
0010
,  // measure 14
0100
0000
0010
0100
0010
0000
1000
0000
0002
0000
0000
0000
0000
0000
0013
0000
,  // measure 15
0100
0000
0000
0100
1000
0010
1000
0010
,  // measure 16
0010
0000
0000
1010
0000
0000
0110
0000
1001
0000
0001
1000
0001
0000
1000
0001
,  // measure 17
1000
0000
0010
0100
0010
0000
0100
0010
0200
0000
0000
0000
0310
0000
0010
0000
,  // measure 18
0010
0000
0100
0010
0100
0001
1000
0010
,  // measure 19
1000
0000
0010
1000
0020
0000
0130
0001
,  // measure 20
0200
0000
0310
1000
0001
0010
0100
0010
,  // measure 21
0200
0000
0310
0001
0002
0000
1003
1000
,  // measure 22
2000
0000
3010
0100
0010
1000
0010
0100
,  // measure 23
0020
0000
0130
0010
0200
0000
0301
0001
,  // measure 24
0002
0000
1003
0010
1000
0010
1000
0010
,  // measure 25
0100
0000
0010
0100
1001
0000
0010
0100
,  // measure 26
0101
0000
0010
0010
0100
0010
0100
0110
,  // measure 27
0110
0000
1000
1000
2010
0000
3001
0001
,  // measure 28
0102
0000
0103
0100
0010
1000
0001
1001
,  // measure 29
1001
0000
0001
0001
0002
0000
1003
0010
,  // measure 30
2000
0000
3010
0010
0100
0010
0100
0010
,  // measure 31
0110
0010
0010
0010
0020
0000
0130
0010
,  // measure 32
0200
0000
0310
0010
1000
0100
1000
0010
,  // measure 33
1010
1000
1000
1000
0002
0000
1003
0001
,  // measure 34
0020
0000
0031
0001
1000
0010
1000
0010
,  // measure 35
0010
0010
0000
0110
0110
0110
0000
1001
,  // measure 36
1001
1001
0000
0001
1000
0001
1000
0001
,  // measure 37
1000
0001
1000
0001
0001
0001
1000
1000
,  // measure 38
0001
1000
0001
1000
0001
1000
0001
1000
1001
0000
0000
1000
0001
0100
0001
0100
,  // measure 39
0020
0000
0030
0100
0010
0100
0010
0100
0020
0000
0030
1000
0001
1000
0001
1000
,  // measure 40
0000
1010
0000
0010
1000
0000
0001
0000
1002
0000
0003
1000
0100
0010
0100
1000
,  // measure 41
0200
0000
0300
1000
0100
0010
0100
1000
0002
0000
0003
1000
0001
0100
0001
0100
,  // measure 42
0000
0101
0000
0100
0001
0000
0100
0000
0120
0000
0030
0100
0010
0100
0010
0100
,  // measure 43
0020
0000
0030
0100
0001
1000
0001
1000
0002
0000
0003
1000
0001
1000
0001
1000
,  // measure 44
0000
1001
0000
1000
0001
0000
0100
0000
0102
0000
0003
0100
0010
0100
0010
0100
,  // measure 45
0020
0000
0030
0100
0001
0100
0001
0100
0001
0000
1000
0100
1000
0000
0010
1000
,  // measure 46
0010
0000
1000
0010
1000
0000
0010
1000
0010
0000
1010
0000
1010
0000
1001
0000
,  // measure 47
0011
0000
1010
0000
0010
1000
0010
1000
2002
0000
0000
0000
3003
0000
0000
0000
;

//---------------dance-single - ----------------
#NOTES:
     dance-single:
     :
     Beginner:
     3:
     0.234808,0.327020,0.322862,0.283727,0.000000,168.000000,135.000000,33.000000,29.000000,0.000000,0.000000,0.234808,0.327020,0.322862,0.283727,0.000000,168.000000,135.000000,33.000000,29.000000,0.000000,0.000000:
1000
0000
0001
0000
,
1000
0000
0001
1000
,
0001
0000
1000
0000
,
0001
0000
1000
0010
,
2000
0000
3020
0000
,
0230
0000
0301
0001
,
0002
0000
2003
3000
,
1001
1001
2000
0000
,
3002
0000
1003
0000
,
0010
0000
0100
0100
,
0010
0000
0110
0000
,
1001
0000
1000
1000
,
0001
0000
0011
0000
,
1100
0000
0010
0010
,
0100
0000
0020
0000
,
0230
0000
0310
0100
,
0010
0100
0010
0010
,
0100
0100
1001
0000
,
1001
0000
0001
1000
,
0001
0000
0110
0000
,
0110
0000
0010
0100
,
0010
0000
1010
0000
,
1010
0000
1000
0001
,
0100
0000
0101
0000
,
0101
0000
0100
0010
,
1000
1000
1000
0001
,
0001
1000
0001
1000
,
0001
1000
0010
0100
,
0010
0100
0100
0010
,
0010
0100
0200
0000
,
0320
0000
1030
1000
,
0001
0000
2000
0000
,
3020
0000
0130
0001
,
0010
0000
0020
0000
,
0032
0000
1003
0001
,
1000
0000
1001
0000
,
1001
0000
0001
0001
,
1000
1000
1001
1001
,
1001
1001
2002
3003
,
2002
3003
2002
3003
,
0000
0000
0220
0330
,
0220
0330
0220
0330
,
0000
0000
0110
0100
,
0100
0100
0010
0010
,
0100
0010
0110
0100
,
0100
0100
0010
0010
,
0100
0100
0110
0110
,
1001
0110
2002
3003
;

//---------------dance-single - ----------------
#NOTES:
     dance-single:
     :
     Easy:
     5:
     0.299101,0.303661,0.058702,0.342429,0.000000,214.000000,208.000000,6.000000,35.000000,0.000000,0.000000,0.299101,0.303661,0.058702,0.342429,0.000000,214.000000,208.000000,6.000000,35.000000,0.000000,0.000000:
1000
0001
1000
0010
,
1000
0000
0001
1000
0001
0000
0010
0000
,
1000
0001
1000
0010
,
1000
0001
0010
0100
,
1000
0000
0010
1000
0010
0000
0100
0001
,
0100
0010
1000
0001
,
1001
0000
0010
1000
0010
0000
0100
0001
,
0200
0300
0002
0003
1000
0000
0001
0000
,
1000
0000
1001
0000
0001
0000
0000
1000
,
0001
0000
1000
0000
0010
0000
1000
0010
,
2000
0000
3010
0000
0100
0000
0000
0010
,
0200
0000
0300
0001
1000
0000
0001
0000
,
2000
0000
3010
0000
2000
0000
3000
0100
,
0010
0000
0000
0001
1000
0000
0010
0000
,
2000
0000
3000
0010
0100
0000
0000
0001
,
1000
0000
0001
1000
,
0001
1000
2000
3020
,
0230
0301
2002
3003
,
0110
0000
0000
0000
0010
1000
0010
1000
,
0010
0100
0002
0003
,
2000
0000
3000
0000
0001
1000
0001
1000
,
0001
1000
0020
0030
,
0200
0000
0300
0000
0010
0100
0010
0100
,
0010
1000
0002
0003
,
2000
0000
3000
0000
0010
1000
0010
1000
,
0001
0000
0001
0000
1000
0000
0001
1000
,
0001
0000
0010
0000
0010
0000
0001
1000
,
0002
1003
0010
1000
,
0010
0000
1000
0010
2000
0000
3010
0000
,
0100
0000
0001
0000
1000
0000
0000
0001
,
1000
0000
0001
0000
0100
0000
0001
0100
,
0002
0000
0103
0000
0010
0000
0000
0100
,
0020
0000
0030
1000
0001
0000
1000
0000
,
0002
0000
0103
0000
0002
0000
0003
0010
,
0100
0000
0000
1000
0001
0000
0100
0000
,
0002
0000
0003
0100
0010
0000
0000
1000
,
0001
0000
1000
0001
,
1000
0000
0001
0000
0001
0001
0001
0001
,
1000
1000
1000
1000
0100
0000
0010
0000
,
0100
0000
1000
0000
0100
0000
0010
0100
,
0010
1000
0100
0010
,
0100
1000
0100
0010
,
1000
0000
0001
0000
0100
0000
1000
0100
,
1000
0000
0001
0010
0001
0000
1000
0000
,
0200
0000
0310
0000
0110
0000
1000
0100
,
1000
0000
0001
0010
0002
0000
2003
0000
,
3002
2003
3020
0230
,
0320
0130
2002
3003
;
