#TITLE:A Beautiful Song;
#SUBTITLE:Opera Boss Battle;
#ARTIST:Nier Automata;
#TITLETRANSLIT:;
#SUBTITLETRANSLIT:;
#ARTISTTRANSLIT:;
#GENRE:;
#CREDIT:Magna Trick;
#BANNER:abs-bn.jpg;
#BACKGROUND:Abs-bg.jpg;
#LYRICSPATH:;
#CDTITLE:Magna Trick title!.png;
#MUSIC:NieR Automata OST - A Beautiful Song (Opera Boss Theme).mp3;
#OFFSET:-2.350719;
#SAMPLESTART:33.000000;
#SAMPLELENGTH:16.000000;
#SELECTABLE:YES;
#DISPLAYBPM:74.000000:148.000000;
#BPMS:0.000000=148.000000
,233.000000=74.000000
,265.000000=148.000000
,497.000000=74.000000
,529.000000=148.000000
;
#STOPS:32.000000=2.840000,
560.520813=1.020000
;
#BGCHANGES:0.083=niervideo.mp4=1.000=0=0=1=====,
99999=-nosongbg-=1.000=0=0=0 // don't automatically add -songbackground-
;
#KEYSOUNDS:;
#ATTACKS:;

//---------------dance-single - ----------------
#NOTES:
     dance-single:
     :
     Edit:
     20:
     0.939632,1.138022,1.453915,0.502684,0.626421,1701.000000,1325.000000,376.000000,130.000000,0.000000,188.000000,0.939632,1.138022,1.453915,0.502684,0.626421,1701.000000,1325.000000,376.000000,130.000000,0.000000,188.000000:
1001
0010
1000
0010
0101
1000
0010
1000
0101
0010
1000
0010
0101
1000
0010
1000
,
0101
0010
1000
0001
1000
0100
0010
0001
1010
0100
0001
0100
1010
0001
0110
0001
,
1010
0100
0001
0010
0100
1000
0010
0100
1001
0100
1000
0010
0100
0010
0100
0001
,
1000
0001
1000
0100
0010
0001
0010
0001
1000
0100
1000
0100
0010
0001
0010
1001
,
1001
0100
1000
0100
0011
1000
0100
1000
0011
0100
1000
0100
0011
1000
0100
1000
,
0011
0100
1000
0001
1000
0001
0010
0100
1010
0001
0100
0010
1100
0001
1010
0001
,
1100
0010
0100
0010
0100
1000
0001
1000
0110
0001
1000
0001
0010
0100
1000
0001
,
2000
3100
0010
0001
0010
0100
1000
0010
1001
0100
1000
0100
0010
0001
1000
0110
,
2002
3003
1001
0000
0010
1010
0000
1000
,
0010
0100
0001
0010
0100
0000
0000
0000
0001
0000
0011
0000
0000
0000
0001
0000
,
1010
0100
1001
0010
0101
0000
0000
0000
0010
0000
0110
0000
0000
0000
0100
0000
,
1001
1001
1001
1001
1001
0000
0000
0000
0100
0000
1100
0000
0011
0000
0000
0000
,
0110
0110
0110
0110
0110
0000
0000
0000
0100
0000
1100
0000
0000
0000
0000
0000
,
0011
0011
0011
0011
0011
0000
0000
0000
0001
0000
0010
0000
0100
0000
1000
0000
,
1000
0000
0010
0000
0200
0000
0000
0000
0010
0000
0011
0000
0000
0000
0000
0300
,
1100
1100
1100
1100
1200
0000
0000
0000
0000
0000
0010
0000
0301
0000
1000
0010
,
0100
0001
0010
0100
1001
0000
0000
0000
0010
0000
1010
0000
0000
0000
0000
0000
,
1010
1010
1010
1010
1010
0000
0000
0000
0010
0000
0110
0000
0000
0000
0000
0000
,
0101
0110
1010
0000
0001
0101
0000
0000
,
0101
0101
0101
0101
0101
0000
0000
0000
0000
0000
0100
0000
0100
0000
0100
0010
,
1000
0001
0010
0100
1001
0000
0000
0000
0010
0000
0110
0000
0000
0000
0000
0000
,
1100
1100
1100
1100
1100
0000
0000
0000
0001
0000
1001
0000
0000
0000
0000
0000
,
1100
0110
0011
0000
0010
0011
0000
0000
,
0110
0110
0110
0110
0110
0000
0000
0000
0001
0000
1001
0000
0110
0000
0001
0010
,
0100
1000
0001
0010
0100
1000
0011
0000
0000
0100
0000
0000
1010
0000
0000
0001
0000
0000
1100
0000
0000
0010
0000
0000
,
1001
0000
0000
0100
0000
0000
0011
0000
0000
0100
0000
0000
1000
0000
0000
0100
0000
0000
0001
0010
0100
1000
0000
0000
,
0100
0010
0100
0001
1100
0001
0110
1000
,
0101
0010
1001
0010
0100
0001
0010
0100
,
1000
0000
0000
0100
0010
0001
1000
0000
0000
0010
0000
0000
1001
0000
0000
1000
0000
0000
0110
0000
0000
0001
0000
0000
,
0101
0010
1000
0001
1100
0000
0010
0000
1000
0000
0001
0100
0011
0000
0100
0000
,
0001
0100
1000
0100
1010
0000
0100
0000
0010
0000
0001
0010
2001
0000
0100
0000
,
0100
0010
0010
0100
3100
0010
0001
0100
,
0010
1000
0001
0100
1010
0000
0001
0000
1100
0000
0100
0000
0110
0000
0010
0000
,
0011
0000
0000
0001
0000
0000
1001
0000
0000
0010
0000
0000
0100
0000
0000
1000
0000
0000
0100
0010
0001
0100
0010
1000
,
0100
0010
0001
0100
0010
1000
0100
0000
0000
0010
0000
0000
0011
0000
0000
0001
0000
0000
0101
0000
0000
0100
0000
0000
,
0110
0010
1010
1000
0100
0010
0001
0100
,
0010
0000
0000
0100
0000
0000
0010
0000
0100
0000
0001
0000
2000
0000
0000
0000
0000
0000
0100
0000
0000
0000
0000
0000
3110
0000
0000
0000
0000
0000
0010
0000
0000
0000
0000
0000
0011
0000
0000
0000
0000
0000
0001
0000
0000
0000
0000
0000
,
1001
1000
1100
0001
1000
0100
0011
0001
,
1000
0010
2010
0001
0001
0010
0010
0100
,
0010
3001
1001
0100
1000
0010
0100
0001
,
1000
0100
0010
0001
2001
0000
0001
0000
0001
0000
0101
0000
0100
0000
0100
0000
,
0110
0001
3200
0011
0010
0010
0321
0001
,
1001
0001
0132
0100
0100
1100
1000
1000
,
1010
0100
0010
1003
0020
0000
1100
0000
0100
0000
0100
0000
1100
0001
1000
0100
,
1001
0100
0001
0100
1032
0000
1000
0000
1000
0000
1100
0000
0100
0000
0100
0000
,
0110
1000
0010
0100
0023
0000
0100
0000
0100
0000
0100
0000
0230
0000
0001
0000
,
0001
1000
0001
0300
1020
0000
1000
0000
1000
0000
1100
0000
0100
0000
0100
0000
,
1100
0001
0100
1000
0230
0000
0011
0000
0010
0000
0010
0000
1010
0001
0010
1000
,
0011
1000
0010
0001
2310
0000
0100
0000
0100
0000
0110
0000
0020
3000
0100
0000
,
1100
0001
1000
0031
0200
0000
1010
0000
1000
0000
0001
0000
0312
0000
0010
0000
,
0110
1000
0100
0003
1200
0000
1000
0000
1000
0000
1301
0000
0002
0000
1000
0000
,
1010
0100
0010
1000
0023
0000
1100
0000
0100
0000
0130
0000
1200
0000
1000
0001
,
1000
0000
1000
0001
2301
0000
0001
0000
0001
0000
0011
0000
0010
0000
0010
0000
,
0010
0100
0010
0001
3200
0000
0010
0000
0010
0000
0010
0000
0302
0000
0100
0000
,
0100
1000
0100
0000
1023
0000
1000
0000
1000
0000
1000
0000
1000
0000
1000
0000
,
1000
0100
1000
0001
0230
0000
0010
0000
0010
0000
0010
0000
0011
1000
0010
0001
,
1010
0001
0010
1000
2302
0000
0010
0000
0010
0000
0010
0000
0010
0000
0010
0000
,
0010
0010
0010
0010
0010
0010
0010
0010
,
0010
0000
0100
0000
3013
0000
0000
0000
0220
0000
0000
0000
0000
0000
0000
0000
0000
0000
0000
0000
0000
0000
0330
1100
0000
0000
0110
0000
0000
0011
0000
0000
,
0101
0000
0101
0000
1020
0000
2000
0000
0000
0000
0000
0000
0000
0000
0000
3230
0000
0000
0000
0000
0000
0000
0000
0000
,
0010
0000
0010
0000
0010
0001
0010
0000
0012
0000
0000
0000
0000
0000
0000
0000
0000
0000
0300
0000
0000
0000
0003
2100
0000
0000
0011
0000
0000
0110
0000
0000
,
0101
0000
0000
0110
0000
0000
3012
0000
0000
0000
0000
0000
0000
0000
0000
0000
0000
0000
0000
0000
2003
0000
0000
0000
0000
0000
0000
0000
0000
0000
0000
0000
,
0010
0000
3010
0000
0010
1000
0010
1000
2020
0000
0000
0000
0000
0000
0000
0000
3030
0000
0000
0000
0000
0000
0000
0000
0201
0000
0000
0011
0000
0000
1010
0000
,
0000
1001
0000
0000
1010
0000
0011
0000
2300
0000
0000
0000
0000
0000
0000
0000
0000
0000
0000
0000
3020
0000
0000
0000
0000
0000
0000
0000
0000
0000
0000
0000
,
1030
0000
1000
0000
1000
0001
1000
0000
2002
0000
0000
0000
0000
0000
0000
0000
0000
0000
0000
0000
0000
0000
0000
0000
3203
0000
0000
0000
0000
0000
0000
0000
,
0000
0000
0000
0000
0000
0000
0000
0000
0320
0000
0000
0000
0000
0000
0000
0000
0000
0000
0000
0000
0000
0000
1030
0100
0001
0000
0000
0000
0000
0000
0000
0000
,
0011
0000
0000
1100
0000
0000
0110
0000
2001
0000
0000
0000
0001
0000
0000
0000
0001
0000
0000
0000
0110
0000
0000
0000
0100
0000
0000
0000
0100
0000
0000
0000
,
0011
0010
0010
0101
0001
0001
0110
0100
,
0010
0100
0010
0000
3101
0000
0100
0000
0100
0000
1001
0000
0001
0000
0001
0000
,
1100
0001
1000
0001
0100
0000
0110
0000
0100
0000
0100
0000
0011
1000
0010
0000
,
0101
1000
0100
0010
1001
0000
1000
0000
1000
0000
1010
0000
0010
0000
0010
0000
,
0110
0001
0100
1000
0100
0000
0101
0000
0001
0000
0001
0000
0011
0000
0010
0000
,
1010
0100
1000
0001
0110
0000
0010
0000
0010
0000
1010
0000
1000
0000
1000
0000
,
1100
0001
0100
1000
0100
0000
0110
0000
0010
0000
0011
0000
0011
0000
0001
0000
,
1100
0010
1000
0000
1002
0000
1000
0000
1000
0000
1010
0000
0023
0000
0100
0000
,
1100
0001
1000
0001
1000
0000
0031
0000
0002
0000
0010
0000
0023
0000
0100
0000
,
0231
1010
1302
1000
2003
0011
3200
0001
,
0011
1000
0001
0010
1001
0000
1000
0000
1000
0000
1010
0000
1010
0001
0010
1000
,
0310
0001
0010
1000
1020
0000
1000
0000
1000
0000
1100
0000
0032
0000
0100
0000
,
1100
0010
1000
0100
1013
0000
0010
0000
0200
0000
1001
0000
0320
0000
0100
0000
,
2031
0100
0010
0000
3201
0000
0001
0000
0001
0000
1010
0000
1000
0000
1000
0000
,
0011
1000
0010
0001
1320
0000
0100
0000
0100
0000
1001
0000
1032
0000
0010
0100
,
0010
0100
0010
0100
1203
0000
1000
0000
1000
0000
1001
0000
0320
0000
1000
0000
,
1001
0100
0001
1000
0101
0000
0130
0000
2000
0000
0101
0000
3020
0000
0100
0000
,
1230
0001
0010
0000
1302
0000
1000
0000
1000
0000
1010
0000
0023
0000
0100
0000
,
1100
0001
1000
0100
1001
0000
0100
0000
1000
0000
0101
0000
2031
0000
0010
0001
,
3210
0000
0010
1000
0321
0000
0100
0000
0100
0000
1100
0000
1000
0000
1000
0000
,
0101
1000
0001
0100
1001
0000
1000
0000
1030
0000
0110
0000
0002
0000
0100
0000
,
1010
0100
0010
0000
1203
0000
1000
0000
1000
0000
1010
0000
0010
0000
0010
0000
,
0011
1000
0010
0001
1320
0000
1000
0000
1000
0000
0101
0000
1100
0000
0100
1000
,
0001
1000
0001
1000
0001
1000
2031
0000
0000
0001
0000
0000
0101
0000
0000
0001
0000
0000
0101
0000
0000
0001
0000
0000
,
0101
0000
0000
0001
0000
0000
3010
0000
0000
0010
0000
0000
0001
0000
0000
0010
0000
0000
1000
0100
0010
0001
0000
0000
,
0010
0100
0010
1000
0011
1000
0110
0001
,
1010
0100
1001
0100
0010
1000
0100
0010
,
0001
0000
0000
0010
0100
1000
0001
0000
0000
0100
0000
0000
1001
0000
0000
0001
0000
0000
0110
0000
0000
1000
0000
0000
,
1010
0100
0001
1000
0011
0000
0100
0000
0001
0000
1000
0010
1100
0000
0010
0000
,
1000
0010
0001
0010
0101
0000
0010
0000
0100
0000
1000
0100
1002
0000
0010
0000
,
0010
0100
0100
0010
0013
0100
1000
0010
,
0100
0001
1000
0010
0101
0000
1000
0000
0011
0000
0010
0000
0110
0000
0100
0000
,
1100
0000
0000
1000
0000
0000
1001
0000
0000
0100
0000
0000
0010
0000
0000
0001
0000
0000
0010
0100
1000
0010
0100
0001
,
0010
0100
1000
0010
0100
0001
0010
0000
0000
0100
0000
0000
1100
0000
0000
1000
0000
0000
1010
0000
0000
0010
0000
0000
,
0110
0100
0101
0001
0010
0100
1000
0010
,
0100
0000
0000
0010
0000
0000
0100
0000
0010
0000
1000
0000
0002
0000
0000
0000
0000
0000
0010
0000
0000
0000
0000
0000
0113
0000
0000
0000
0000
0000
0100
0000
0000
0000
0000
0000
1100
0000
0000
0000
0000
0000
1000
0000
0000
0000
0000
0000
,
1001
0001
0011
1000
0001
0010
1100
1000
,
0001
0100
0102
1000
1000
0100
0100
0010
,
0100
1003
1001
0010
0001
0100
0010
1000
,
0001
0010
0100
1000
1002
0000
1000
0000
1000
0000
1010
0000
0010
0000
0010
0000
,
0110
1000
0023
1100
0100
0100
1230
1000
,
1001
1000
2310
0010
0010
0011
0001
0001
,
0101
0010
0100
3001
0200
0000
0011
0000
0010
0000
0010
0000
0011
1000
0001
0010
,
1001
0010
1000
0010
2301
0000
0001
0000
0001
0000
0011
0000
0010
0000
0010
0000
,
0110
0001
0100
0010
3200
0000
0010
0000
0010
0000
0010
0000
0320
0000
1000
0000
,
1000
0001
1000
0030
0201
0000
0001
0000
0001
0000
0011
0000
0010
0000
0010
0000
,
0011
1000
0010
0001
0320
0000
1100
0000
0100
0000
0100
0000
0101
1000
0100
0001
,
1100
0001
0100
1000
0132
0000
0010
0000
0010
0000
0110
0000
0200
0003
0010
0000
,
0011
1000
0001
1300
0020
0000
0101
0000
0001
0000
1000
0000
2130
0000
0100
0000
,
0110
0001
0010
3000
0021
0000
0001
0000
0001
0000
1031
0000
2000
0000
0001
0000
,
0101
0010
0100
0001
3200
0000
0011
0000
0010
0000
0310
0000
0021
0000
0001
1000
,
0001
0000
0001
1000
1032
0000
1000
0000
1000
0000
1100
0000
0100
0000
0100
0000
,
0100
0010
0100
1000
0023
0000
0100
0000
0100
0000
0100
0000
2030
0000
0010
0000
,
0010
0001
0010
0000
3201
0000
0001
0000
0001
0000
0001
0000
0001
0000
0001
0000
,
0001
0010
0001
1000
0320
0000
0100
0000
0100
0000
0100
0000
1100
0001
0100
1000
,
0101
1000
0100
0001
2032
0000
0100
0000
0100
0000
0100
0000
0100
0000
0100
0000
,
0100
0100
0100
0100
0100
0100
0100
0100
,
0100
0000
0010
0000
3103
0000
0000
0000
0220
0000
0000
0000
0000
0000
0000
0000
0000
0000
0000
0000
0000
0000
0330
0011
0000
0000
0110
0000
0000
1100
0000
0000
,
1010
0000
1010
0000
0201
0000
0002
0000
0000
0000
0000
0000
0000
0000
0000
0323
0000
0000
0000
0000
0000
0000
0000
0000
,
0100
0000
0100
0000
0100
1000
0100
0000
2100
0000
0000
0000
0000
0000
0000
0000
0000
0000
0030
0000
0000
0000
3000
0012
0000
0000
1100
0000
0000
0110
0000
0000
,
1010
0000
0000
0110
0000
0000
2103
0000
0000
0000
0000
0000
0000
0000
0000
0000
0000
0000
0000
0000
3002
0000
0000
0000
0000
0000
0000
0000
0000
0000
0000
0000
,
0100
0000
0103
0000
0100
0001
0100
0001
0202
0000
0000
0000
0000
0000
0000
0000
0303
0000
0000
0000
0000
0000
0000
0000
1020
0000
0000
1100
0000
0000
0101
0000
,
0000
1001
0000
0000
0101
0000
1100
0000
0032
0000
0000
0000
0000
0000
0000
0000
0000
0000
0000
0000
0203
0000
0000
0000
0000
0000
0000
0000
0000
0000
0000
0000
,
0301
0000
0001
0000
0001
1000
0001
0000
2002
0000
0000
0000
0000
0000
0000
0000
0000
0000
0000
0000
0000
0000
0000
0000
3023
0000
0000
0000
0000
0000
0000
0000
,
0000
0000
0000
0000
0000
0000
0000
0000
0230
0000
0000
0000
0000
0000
0000
0000
0000
0000
0000
0000
0000
0000
0301
0010
1000
0000
0000
0000
0000
0000
0000
0000
,
1100
0000
0000
0011
0000
0000
0110
0000
1002
0000
0000
0000
1000
0000
0000
0000
1000
0000
0000
0000
0110
0000
0000
0000
0010
0000
0000
0000
0010
0000
0000
0000
,
1100
0100
0100
1010
1000
1000
0110
0010
,
0100
0010
0100
0000
1013
0000
0010
0000
0010
0000
1001
0000
1000
0000
1000
0000
,
0011
1000
0001
1000
0010
0000
0110
0000
0010
0000
0010
0000
1100
0001
0100
0000
,
1010
0001
0010
0100
1001
0000
0001
0000
0001
0000
0101
0000
0100
0000
0100
0000
,
0110
1000
0010
0001
0010
0000
1010
0000
1000
0000
1000
0000
1100
0000
0100
0000
,
0101
0010
0001
1000
0110
0000
0100
0000
0100
0000
0101
0000
0001
0000
0001
0000
,
0011
1000
0010
0001
0010
0000
0110
0000
0100
0000
1100
0000
1100
0000
1000
0000
,
0011
0000
0000
0100
0000
0000
0002
0003
0000
0000
0000
0000
0000
0000
0000
0000
0000
0000
0000
0000
0000
0000
0000
0000
0000
0000
0000
0000
0000
0000
0000
0000
0000
0000
0000
0000
0000
0000
0000
0000
0000
0000
0000
0000
0000
0000
0000
0000
;

//---------------dance-single - ----------------
#NOTES:
     dance-single:
     :
     Challenge:
     18:
     0.813132,0.948352,0.572286,0.537485,0.624488,1472.000000,1324.000000,148.000000,139.000000,0.000000,30.000000,0.813132,0.948352,0.572286,0.537485,0.624488,1472.000000,1324.000000,148.000000,139.000000,0.000000,30.000000:
0001
0010
0100
1000
0001
0010
0100
1000
0001
0010
0100
1000
0001
0010
0100
1000
,
0001
0010
0100
1000
0001
0010
0100
1000
0001
0010
0100
1000
0001
0010
0100
1000
,
0010
0100
0001
1000
0010
0100
0001
1000
0010
0100
0001
1000
0010
0100
0001
1000
,
0010
0100
0001
1000
0010
0100
0001
1000
0010
0100
0001
1000
0010
0100
0001
0100
,
0010
1000
0100
1000
0010
0100
0001
0100
0010
1000
0100
1000
0010
0100
0001
0100
,
0010
1000
0100
1000
0010
0100
0001
0100
0010
1000
0100
1000
0010
0100
0001
0010
,
0100
0010
0001
0100
0010
0100
0001
0010
0100
0010
0001
0100
0010
0100
0001
0010
,
0100
1000
0010
0100
0010
1000
0100
0010
0100
1000
0010
0100
0010
1000
0001
0110
,
2002
3003
1001
0000
0100
0101
0000
0001
,
0100
0010
1000
0100
0011
0000
0000
0000
1000
0000
1100
0000
0000
0000
1000
0000
,
0001
0010
0001
0100
1010
0000
0000
0000
0100
0000
0110
0000
0000
0000
0010
0000
,
1000
0100
0010
0001
1100
0000
0000
0000
0010
0000
0011
0000
1100
0000
0000
0000
,
0100
0010
0001
1000
0110
0000
0000
0000
0010
0000
0011
0000
0000
0000
0000
0000
,
1000
0001
0100
0010
1001
0000
0000
0000
1000
0000
0100
0000
0010
0000
0001
0000
,
0001
0000
0100
0000
0020
0000
0000
0000
0100
0000
0100
0000
0000
0000
0000
0030
,
0010
0001
1000
0100
0021
0000
0000
0000
0000
0000
0100
0000
1030
0000
0001
0100
,
0010
1000
0100
0010
1001
0000
0000
0000
0100
0000
0101
0000
0000
0000
0000
0000
,
0001
0100
0010
1000
0101
0000
0000
0000
0100
0000
0110
0000
0000
0000
0000
0000
,
1010
0110
0101
0000
1000
1010
0000
0000
,
0010
1000
0100
0001
0110
0000
0000
0000
0000
0000
0010
0000
0010
0000
0010
0100
,
0001
1000
0100
0010
1001
0000
0000
0000
0100
0000
0110
0000
0000
0000
0000
0000
,
0001
0010
0100
1000
0011
0000
0000
0000
1000
0000
1001
0000
0000
0000
0000
0000
,
0011
0110
1100
0000
0100
1100
0000
0000
,
1000
0100
0010
0001
0110
0000
0000
0000
1000
0000
1001
0000
0110
0000
1000
0100
,
0010
0001
1000
0100
0010
0001
2000
0000
0000
0001
0000
0000
3002
0000
0000
0010
0000
0000
0023
0000
0000
0100
0000
0000
,
0230
0000
0000
1000
0000
0000
2300
0000
0000
0100
0000
0000
3010
0000
0000
0010
0000
0000
1000
0100
0010
0001
0000
0000
,
0010
0100
1000
0010
0020
1000
2030
0001
,
3002
0100
0203
0010
0310
1000
0100
0010
,
0001
0000
0000
0010
0100
1000
0001
0000
0000
0100
0000
0000
0200
0000
0000
0010
0000
0000
0320
0000
0000
1000
0000
0000
,
2030
0100
0010
0001
3100
0000
0010
0000
1000
0000
1000
0000
0101
0000
0010
0000
,
1000
0010
0001
0010
1001
0000
0010
0000
0100
0000
1000
0100
1002
0000
0010
0000
,
0010
0100
0100
0010
0013
0100
1000
0010
,
0100
0001
1000
0010
0101
0000
1000
0000
0011
0000
0010
0000
0110
0000
0100
0000
,
1100
0000
0000
1000
0000
0000
1001
0000
0000
0100
0000
0000
0010
0000
0000
0001
0000
0000
0010
0100
1000
0010
0100
0001
,
0010
0100
1000
0010
0100
0001
0010
0000
0000
0100
0000
0000
1100
0000
0000
1000
0000
0000
1010
0000
0000
0010
0000
0000
,
0110
0100
0101
0001
0010
0100
1000
0010
,
0100
0000
0000
0010
0000
0000
0100
0000
0010
0000
1000
0000
0002
0000
0000
0000
0000
0000
0010
0000
0000
0000
0000
0000
0113
0000
0000
0000
0000
0000
0100
0000
0000
0000
0000
0000
1100
0000
0000
0000
0000
0000
1000
0000
0000
0000
0000
0000
,
1001
0001
0011
1000
0001
0010
1100
1000
,
0001
0100
0102
1000
1000
0100
0100
0010
,
0100
1003
1001
0010
0001
0100
0010
1000
,
0001
0010
0100
1000
1002
0000
1000
0000
1000
0000
0010
0000
0010
0000
0010
0000
,
0100
0100
0203
1000
1000
1300
0002
0100
,
1003
0100
2010
0010
0010
0001
0001
0001
,
0100
0010
0100
3001
0200
0000
0010
0000
0010
0000
0010
0000
1000
0001
1000
0001
,
1000
0001
1000
0001
2300
0000
0001
0000
0001
0000
0010
0000
0010
0000
0010
0000
,
0100
0001
0100
0010
3200
0000
0010
0000
0010
0000
0010
0000
0320
0000
1000
0000
,
1000
0001
1000
0030
0200
0000
0001
0000
0001
0000
0010
0000
0010
0000
0010
0000
,
0001
1000
0010
0001
0320
0000
0100
0000
0100
0000
0100
0000
0100
1000
0100
0001
,
0100
0001
0100
1000
0032
0000
0010
0000
0010
0000
0100
0000
0200
0003
0010
0000
,
0001
1000
0001
1300
0020
0000
0001
0000
0001
0000
1000
0000
2030
0000
0100
0000
,
0010
0001
0010
3000
0020
0000
0001
0000
0001
0000
1030
0000
2000
0000
0001
0000
,
0100
0010
0100
0001
3200
0000
0010
0000
0010
0000
0310
0000
0020
0000
0001
1000
,
0001
0000
0001
1000
0032
0000
1000
0000
1000
0000
0100
0000
0100
0000
0100
0000
,
0100
0010
0100
1000
0023
0000
0100
0000
0100
0000
0100
0000
2030
0000
0010
0000
,
0010
0001
0010
0000
3200
0000
0001
0000
0001
0000
0001
0000
0001
0000
0001
0000
,
0001
0010
0001
1000
0320
0000
0100
0000
0100
0000
0100
0000
0100
0001
0100
1000
,
0100
1000
0100
1000
0032
0000
0100
0000
0100
0000
0100
0000
0100
0000
0100
0000
,
0100
0100
0100
0100
0100
0100
0100
0100
,
0100
0000
0010
0000
0103
0000
0000
0000
0220
0000
0000
0000
0000
0000
0000
0000
0000
0000
0000
0000
0000
0000
0330
0011
0000
0000
0110
0000
0000
1100
0000
0000
,
1010
0000
1010
0000
0201
0000
0002
0000
0000
0000
0000
0000
0000
0000
0000
0323
0000
0000
0000
0000
0000
0000
0000
0000
,
0100
0000
0100
0000
0100
1000
0100
0000
2100
0000
0000
0000
0000
0000
0000
0000
0000
0000
0030
0000
0000
0000
3000
0012
0000
0000
1100
0000
0000
0110
0000
0000
,
1010
0000
0000
0110
0000
0000
2103
0000
0000
0000
0000
0000
0000
0000
0000
0000
0000
0000
0000
0000
3002
0000
0000
0000
0000
0000
0000
0000
0000
0000
0000
0000
,
0100
0000
0103
0000
0100
0001
0100
0001
0202
0000
0000
0000
0000
0000
0000
0000
0303
0000
0000
0000
0000
0000
0000
0000
1020
0000
0000
1100
0000
0000
0101
0000
,
0000
1001
0000
0000
0101
0000
1100
0000
0032
0000
0000
0000
0000
0000
0000
0000
0000
0000
0000
0000
0203
0000
0000
0000
0000
0000
0000
0000
0000
0000
0000
0000
,
0301
0000
0001
0000
0001
1000
0001
0000
2002
0000
0000
0000
0000
0000
0000
0000
0000
0000
0000
0000
0000
0000
0000
0000
3023
0000
0000
0000
0000
0000
0000
0000
,
0000
0000
0000
0000
0000
0000
0000
0000
0230
0000
0000
0000
0000
0000
0000
0000
0000
0000
0000
0000
0000
0000
0301
0010
1000
0000
0000
0000
0000
0000
0000
0000
,
1100
0000
0000
0011
0000
0000
0110
0000
1002
0000
0000
0000
1000
0000
0000
0000
1000
0000
0000
0000
0010
0000
0000
0000
0010
0000
0000
0000
0010
0000
0000
0000
,
0100
0100
0100
1000
1000
1000
0010
0010
,
0100
0010
0100
0000
0013
0000
0010
0000
0010
0000
1000
0000
1000
0000
1000
0000
,
0011
1000
0001
1000
0010
0000
0100
0000
0010
0000
0010
0000
1000
0001
0100
0000
,
1000
0001
0010
0100
1000
0000
1000
0000
1000
0000
0100
0000
0100
0000
0100
0000
,
0010
0001
0010
1000
0010
0000
0001
0000
1000
0000
1000
0000
1000
0000
0100
0000
,
0100
0010
0001
1000
0100
0000
0010
0000
0010
0000
0010
0000
0001
0000
0001
0000
,
0010
1000
0010
0001
0010
0000
0100
0000
0100
0000
1001
0000
1001
0000
1000
0000
,
0001
0100
0001
0000
2001
0000
0010
0000
0010
0000
0100
0000
3200
0000
0010
0000
,
0010
1000
0001
1000
0001
0000
1300
0000
2000
0000
0100
0000
3200
0000
0010
0000
,
0320
0001
2030
0001
3002
0100
0023
1000
,
1000
0100
1000
0100
1000
0000
0001
0000
0001
0000
0001
0000
0100
1000
0100
0001
,
0130
1000
0100
0001
0200
0000
0001
0000
0001
0000
0001
0000
2300
0000
0010
0000
,
0001
0100
0001
0010
3001
0000
0100
0000
0020
0000
0001
0000
0230
0000
0010
0000
,
0302
0010
0100
0000
0023
0000
1000
0000
1000
0000
0001
0000
0001
0000
0001
0000
,
1000
0001
0100
1000
0230
0000
0010
0000
0010
0000
0001
0000
2300
0000
0100
0010
,
0100
0010
0001
0100
3020
0000
1000
0000
1000
0000
0001
0000
0230
0000
0001
0000
,
1000
0010
1000
0001
1000
0000
0310
0000
0002
0000
0010
0000
0203
0000
0010
0000
,
0320
1000
0100
0000
2030
0000
0001
0000
0001
0000
0100
0000
3200
0000
0010
0000
,
0001
1000
0001
0010
0001
0000
0010
0000
0001
0000
1000
0000
1302
0000
0100
1000
,
0023
0000
0100
0001
0230
0000
0010
0000
0010
0000
0001
0000
0001
0000
0001
0000
,
1000
0001
1000
0010
1000
0000
0001
0000
0301
0000
0010
0000
2000
0000
0010
0000
,
0100
0010
0100
0000
3020
0000
0001
0000
0001
0000
0100
0000
0100
0000
0100
0000
,
0100
0001
0100
1000
0230
0000
0001
0000
0001
0000
0010
0000
0001
0000
0010
0001
,
1000
0001
1000
0001
1000
0001
1302
0000
0000
1000
0000
0000
0010
0000
0000
1000
0000
0000
0010
0000
0000
1000
0000
0000
,
0010
0000
0000
1000
0000
0000
0103
0000
0000
0100
0000
0000
1000
0000
0000
0100
0000
0000
0001
0010
0100
1000
0000
0000
,
0100
0010
0100
0001
1100
0001
0110
1000
,
0101
0010
1001
0010
0100
0001
0010
0100
,
1000
0000
0000
0100
0010
0001
1000
0000
0000
0010
0000
0000
1001
0000
0000
1000
0000
0000
0110
0000
0000
0001
0000
0000
,
0010
0100
1000
0001
0110
0000
0010
0000
1000
0000
0001
0100
0011
0000
0100
0000
,
0001
0100
1000
0010
1001
0000
0100
0000
0010
0000
0100
0010
2001
0000
0100
0000
,
0100
0010
0010
0100
3100
0010
0001
0100
,
0010
1000
0001
0100
1010
0000
0001
0000
1100
0000
0100
0000
0110
0000
0010
0000
,
0011
0000
0000
0001
0000
0000
1001
0000
0000
0010
0000
0000
0100
0000
0000
1000
0000
0000
0100
0010
0001
0100
0010
1000
,
0100
0010
0001
0100
0010
1000
0100
0000
0000
0010
0000
0000
0011
0000
0000
0001
0000
0000
0101
0000
0000
0100
0000
0000
,
0110
0010
1010
1000
0100
0010
0001
0100
,
0010
0000
0000
0100
0000
0000
0010
0000
0100
0000
0001
0000
2000
0000
0000
0000
0000
0000
0100
0000
0000
0000
0000
0000
3110
0000
0000
0000
0000
0000
0010
0000
0000
0000
0000
0000
0011
0000
0000
0000
0000
0000
0001
0000
0000
0000
0000
0000
,
1001
1000
1100
0001
1000
0100
0011
0001
,
1000
0010
2010
0001
0001
0010
0010
0100
,
0010
3001
1001
0100
1000
0010
0100
0001
,
1000
0100
0010
0001
2001
0000
0001
0000
0001
0000
0100
0000
0100
0000
0100
0000
,
0010
0010
3020
0001
0001
0031
2000
0010
,
3001
0010
0102
0100
0100
1000
1000
1000
,
0010
0100
0010
1003
0020
0000
0100
0000
0100
0000
0100
0000
0001
1000
0001
1000
,
0001
1000
0001
1000
0032
0000
1000
0000
1000
0000
0100
0000
0100
0000
0100
0000
,
0010
1000
0010
0100
0023
0000
0100
0000
0100
0000
0100
0000
0230
0000
0001
0000
,
0001
1000
0001
0300
0020
0000
1000
0000
1000
0000
0100
0000
0100
0000
0100
0000
,
1000
0001
0100
1000
0230
0000
0010
0000
0010
0000
0010
0000
0010
0001
0010
1000
,
0010
1000
0010
0001
2300
0000
0100
0000
0100
0000
0010
0000
0020
3000
0100
0000
,
1000
0001
1000
0031
0200
0000
1000
0000
1000
0000
0001
0000
0302
0000
0010
0000
,
0100
1000
0100
0003
0200
0000
1000
0000
1000
0000
0301
0000
0002
0000
1000
0000
,
0010
0100
0010
1000
0023
0000
0100
0000
0100
0000
0130
0000
0200
0000
1000
0001
,
1000
0000
1000
0001
2300
0000
0001
0000
0001
0000
0010
0000
0010
0000
0010
0000
,
0010
0100
0010
0001
3200
0000
0010
0000
0010
0000
0010
0000
0302
0000
0100
0000
,
0100
1000
0100
0000
0023
0000
1000
0000
1000
0000
1000
0000
1000
0000
1000
0000
,
1000
0100
1000
0001
0230
0000
0010
0000
0010
0000
0010
0000
0010
1000
0010
0001
,
0010
0001
0010
0001
2300
0000
0010
0000
0010
0000
0010
0000
0010
0000
0010
0000
,
0010
0010
0010
0010
0010
0010
0010
0010
,
0010
0000
0100
0000
3010
0000
0000
0000
0220
0000
0000
0000
0000
0000
0000
0000
0000
0000
0000
0000
0000
0000
0330
1100
0000
0000
0110
0000
0000
0011
0000
0000
,
0101
0000
0101
0000
1020
0000
2000
0000
0000
0000
0000
0000
0000
0000
0000
3230
0000
0000
0000
0000
0000
0000
0000
0000
,
0010
0000
0010
0000
0010
0001
0010
0000
0012
0000
0000
0000
0000
0000
0000
0000
0000
0000
0300
0000
0000
0000
0003
2100
0000
0000
0011
0000
0000
0110
0000
0000
,
0101
0000
0000
0110
0000
0000
3012
0000
0000
0000
0000
0000
0000
0000
0000
0000
0000
0000
0000
0000
2003
0000
0000
0000
0000
0000
0000
0000
0000
0000
0000
0000
,
0010
0000
3010
0000
0010
1000
0010
1000
2020
0000
0000
0000
0000
0000
0000
0000
3030
0000
0000
0000
0000
0000
0000
0000
0201
0000
0000
0011
0000
0000
1010
0000
,
0000
1001
0000
0000
1010
0000
0011
0000
2300
0000
0000
0000
0000
0000
0000
0000
0000
0000
0000
0000
3020
0000
0000
0000
0000
0000
0000
0000
0000
0000
0000
0000
,
1030
0000
1000
0000
1000
0001
1000
0000
2002
0000
0000
0000
0000
0000
0000
0000
0000
0000
0000
0000
0000
0000
0000
0000
3203
0000
0000
0000
0000
0000
0000
0000
,
0000
0000
0000
0000
0000
0000
0000
0000
0320
0000
0000
0000
0000
0000
0000
0000
0000
0000
0000
0000
0000
0000
1030
0100
0001
0000
0000
0000
0000
0000
0000
0000
,
0011
0000
0000
1100
0000
0000
0110
0000
2001
0000
0000
0000
0001
0000
0000
0000
0001
0000
0000
0000
0100
0000
0000
0000
0100
0000
0000
0000
0100
0000
0000
0000
,
0010
0010
0010
0001
0001
0001
0100
0100
,
0010
0100
0010
0000
3100
0000
0100
0000
0100
0000
0001
0000
0001
0000
0001
0000
,
1100
0001
1000
0001
0100
0000
0010
0000
0100
0000
0100
0000
0001
1000
0010
0000
,
0001
1000
0100
0010
0001
0000
0001
0000
0001
0000
0010
0000
0010
0000
0010
0000
,
0100
1000
0100
0001
0100
0000
1000
0000
0001
0000
0001
0000
0001
0000
0010
0000
,
0010
0100
1000
0001
0010
0000
0100
0000
0100
0000
0100
0000
0001
0000
0001
0000
,
0011
1000
0010
0001
0010
0000
0110
0000
0100
0000
1100
0000
1100
0000
1000
0000
,
0011
0000
0000
0100
0000
0000
0002
0003
0000
0000
0000
0000
0000
0000
0000
0000
0000
0000
0000
0000
0000
0000
0000
0000
0000
0000
0000
0000
0000
0000
0000
0000
0000
0000
0000
0000
0000
0000
0000
0000
0000
0000
0000
0000
0000
0000
0000
0000
;

//---------------dance-single - ----------------
#NOTES:
     dance-single:
     :
     Hard:
     16:
     0.785512,0.921256,0.568419,0.398280,0.603220,1422.000000,1275.000000,147.000000,103.000000,0.000000,8.000000,0.785512,0.921256,0.568419,0.398280,0.603220,1422.000000,1275.000000,147.000000,103.000000,0.000000,8.000000:
0001
0010
0001
0010
0100
0010
0100
0010
0001
0010
0001
0010
0100
0010
0100
0010
,
0001
0010
0001
0010
0001
0010
0001
0010
0100
0010
0100
0010
0001
0010
0001
0010
,
0100
1000
0100
1000
0100
1000
0100
1000
0100
0010
0100
0010
0100
0010
0100
0010
,
0100
0010
0100
0010
0100
0010
0100
0010
0100
0010
0100
0010
0100
0010
0100
1000
,
0001
0010
0001
1000
0100
0010
0001
1000
0100
0010
0001
1000
0100
0010
0001
1000
,
0100
0010
0001
0010
0001
0010
0001
0010
0001
1000
0001
1000
0100
0010
0001
1000
,
0001
0100
0001
1000
0001
1000
0001
0100
0001
0010
0001
1000
0001
1000
0001
0100
,
0010
0100
0010
0100
0010
0100
0010
0100
1000
0100
0001
0010
0100
1000
0010
0100
,
2002
3003
1001
0000
0100
0101
0000
0001
,
0100
0010
1000
0100
0010
0000
0000
0000
0001
0000
0101
0000
0000
0000
1000
0000
,
0001
0010
0001
0100
1000
0000
0000
0000
0100
0000
0110
0000
0000
0000
0010
0000
,
1000
0100
0010
0001
1000
0000
0000
0000
0010
0000
1010
0000
0101
0000
0000
0000
,
0100
1000
0010
0100
0001
0000
0000
0000
0010
0000
0011
0000
0000
0000
0000
0000
,
1000
0001
0100
0010
1000
0000
0000
0000
1000
0000
0100
0000
0010
0000
0001
0000
,
0001
0000
0100
0000
0020
0000
0000
0000
0100
0000
0100
0000
0000
0000
0000
0030
,
0010
0001
1000
0100
0021
0000
0000
0000
0000
0000
0100
0000
1030
0000
0001
0100
,
0010
1000
0100
0010
1001
0000
0000
0000
0100
0000
0101
0000
0000
0000
0000
0000
,
0001
0100
0010
1000
0100
0000
0000
0000
0100
0000
0110
0000
0000
0000
0000
0000
,
1010
0110
0101
0000
1000
1010
0000
0000
,
0010
1000
0100
0010
0001
0000
0000
0000
0000
0000
0010
0000
0010
0000
0010
0100
,
0001
1000
0100
0010
0001
0000
0000
0000
0100
0000
0110
0000
0000
0000
0000
0000
,
0001
0010
0100
1000
0001
0000
0000
0000
1000
0000
1001
0000
0000
0000
0000
0000
,
0011
0110
1100
0000
0100
1100
0000
0000
,
1000
0100
0010
0001
1000
0000
0000
0000
1000
0000
1001
0000
0110
0000
1000
0100
,
0010
0001
1000
0100
0010
0001
2000
0000
0000
0001
0000
0000
3002
0000
0000
0010
0000
0000
0023
0000
0000
0100
0000
0000
,
0230
0000
0000
1000
0000
0000
2300
0000
0000
0100
0000
0000
3010
0000
0000
0010
0000
0000
1000
0100
0010
0001
0000
0000
,
0010
0100
1000
0010
0020
1000
2030
0001
,
3002
0100
0203
0010
0310
1000
0100
0010
,
0001
0000
0000
0010
0100
1000
0001
0000
0000
0100
0000
0000
0200
0000
0000
0010
0000
0000
0320
0000
0000
1000
0000
0000
,
2030
0100
0010
0001
3100
0000
0010
0000
1000
0000
1000
0000
0100
0000
0010
0000
,
1000
0010
0001
0010
1000
0000
0010
0000
0100
0000
1000
0100
2000
0000
0010
0000
,
0010
0100
0100
0010
3010
0100
1000
0010
,
0100
0001
1000
0010
1001
0000
1000
0000
1010
0000
0010
0000
0110
0000
0100
0000
,
1100
0000
0000
0100
0000
0000
0101
0000
0000
0001
0000
0000
0010
0000
0000
0001
0000
0000
0010
0100
1000
0010
0100
0001
,
0010
0100
0100
1000
1100
1000
1010
0010
,
0110
0100
0101
0001
0010
0100
1000
0010
,
0100
0000
0000
0010
0000
0000
0100
0000
0010
0000
1000
0000
0002
0000
0000
0000
0000
0000
0010
0000
0000
0000
0000
0000
0113
0000
0000
0000
0000
0000
0100
0000
0000
0000
0000
0000
1100
0000
0000
0000
0000
0000
1000
0000
0000
0000
0000
0000
,
1001
0001
0011
1000
0001
0010
1100
1000
,
0001
0100
0102
1000
1000
0100
0100
0010
,
0100
1003
1001
0010
0001
0100
0010
1000
,
0001
0010
0100
1000
0011
0000
1000
0000
1000
0000
0010
0000
0010
0000
0010
0000
,
0100
0100
1100
1000
1000
1000
0101
0100
,
1000
0100
1010
0010
0010
0001
0001
0001
,
0100
0010
0100
0010
1001
0000
0010
0000
0010
0000
0010
0000
1000
0001
1000
0001
,
1000
0001
1000
0001
1100
0000
0001
0000
0001
0000
0010
0000
0010
0000
0010
0000
,
0100
1000
0100
0010
1100
0000
0010
0000
0010
0000
0010
0000
0011
0000
1000
0000
,
1000
0001
1000
0000
0110
0000
0001
0000
0001
0000
0010
0000
0010
0000
0010
0000
,
0001
1000
0001
1000
0110
0000
0100
0000
0100
0000
0100
0000
0100
1000
0100
0001
,
0100
0001
0100
1000
0110
0000
0010
0000
0010
0000
0100
0000
1100
0000
0010
0000
,
0001
1000
0001
1000
0110
0000
0001
0000
0001
0000
1000
0000
1100
0000
0100
0000
,
0010
0001
0010
0000
0011
0000
0001
0000
0001
0000
1000
0000
1010
0000
0001
0000
,
0100
0010
0100
0001
0110
0000
0010
0000
0010
0000
0010
0000
1010
0000
0001
0010
,
0001
0000
0001
0100
1001
0000
1000
0000
1000
0000
0100
0000
0100
0000
0100
0000
,
0100
0010
0100
1000
0011
0000
0100
0000
0100
0000
0100
0000
1010
0000
0010
0000
,
0010
0001
0010
0000
0101
0000
0001
0000
0001
0000
0001
0000
0001
0000
0001
0000
,
0001
0010
0001
1000
0110
0000
0100
0000
0100
0000
0100
0000
0100
0001
0100
1000
,
0100
1000
0100
1000
0101
0000
0100
0000
0100
0000
0100
0000
0100
0000
0100
0000
,
0100
0100
0100
0100
0100
0100
0100
0100
,
0100
0000
0010
0000
0100
0000
0000
0000
0220
0000
0000
0000
0000
0000
0000
0000
0000
0000
0000
0000
0000
0000
0330
0002
0000
0000
0023
0000
0000
0230
0000
0000
,
2300
0000
0000
0000
0000
0000
0000
0000
0000
0000
0000
0000
0000
0000
0000
0000
0020
0000
3000
0000
0000
0000
0000
0000
0000
0000
0000
0000
0000
0000
0000
0000
0200
0000
0000
0000
0030
0000
0000
0000
0000
0000
0000
0000
0000
0000
0000
0000
0002
0000
0000
0000
0000
0000
0000
0000
0000
0000
0000
0000
0000
0000
0000
0000
0000
0000
0000
0000
0000
0000
0000
0000
0000
0000
0000
0000
0000
0000
0000
0000
0000
0000
0000
0000
0000
0000
0000
0000
0000
0000
0000
0000
0000
0000
0000
0000
0000
0000
0000
0000
0000
0000
0000
0000
0000
0000
0000
0000
0000
0000
0000
0000
0000
0000
0000
0000
0000
0000
0000
0000
0323
0000
0000
0000
0000
0000
0000
0000
0000
0000
0000
0000
0000
0000
0000
0000
0000
0000
0000
0000
0000
0000
0000
0000
0000
0000
0000
0000
0000
0000
0000
0000
0000
0000
0000
0000
0000
0000
0000
0000
0000
0000
0000
0000
0000
0000
0000
0000
0000
0000
0000
0000
0000
0000
0000
0000
0000
0000
0000
0000
0000
0000
0000
0000
0000
0000
0000
0000
0000
0000
0000
0000
,
0130
0000
0100
0000
0100
1000
0100
0000
2100
0000
0000
0000
0000
0000
0000
0000
0000
0000
0000
0000
0000
0000
3000
0002
0000
0000
0203
0000
0000
0320
0000
0000
,
2030
0000
0000
3002
0000
0000
2103
0000
0000
0000
0000
0000
0000
0000
0000
0000
0000
0000
0000
0000
3002
0000
0000
0000
0000
0000
0000
0000
0000
0000
0000
0000
,
0103
0000
0100
0000
0100
0001
0100
0001
0202
0000
0000
0000
0000
0000
0000
0000
0303
0000
0000
0000
0000
0000
0000
0000
2000
0000
0000
3200
0000
0000
0320
0000
,
0000
0032
0000
0000
0203
0000
0320
0000
2030
0000
0000
0000
0000
0000
0000
0000
0000
0000
0000
0000
3200
0000
0000
0000
0000
0000
0000
0000
0000
0000
0000
0000
,
0310
0000
0001
0000
0001
1000
0001
0000
2002
0000
0000
0000
0000
0000
0000
0000
0000
0000
0000
0000
0000
0000
0000
0000
3023
0000
0000
0000
0000
0000
0000
0000
,
0000
0000
0000
0000
0000
0000
0000
0000
0230
0000
0000
0000
0000
0000
0000
0000
0000
0000
0000
0000
0000
0000
0301
0010
1000
0000
0000
0000
0000
0000
0000
0000
,
1100
0000
0000
0011
0000
0000
0110
0000
1002
0000
0000
0000
1000
0000
0000
0000
1000
0000
0000
0000
0010
0000
0000
0000
0010
0000
0000
0000
0010
0000
0000
0000
,
0100
0100
0100
1000
1000
1000
0010
0010
,
0100
0010
0100
0000
0013
0000
0010
0000
0010
0000
1000
0000
1000
0000
1000
0000
,
0011
1000
0001
1000
0010
0000
0100
0000
0010
0000
0010
0000
1000
0001
0100
0000
,
1000
0001
0010
0100
1000
0000
1000
0000
1000
0000
0100
0000
0100
0000
0100
0000
,
0010
0001
0010
1000
0010
0000
0001
0000
1000
0000
1000
0000
1000
0000
0100
0000
,
0100
0010
0001
1000
0100
0000
0010
0000
0010
0000
0010
0000
0001
0000
0001
0000
,
0010
1000
0010
0001
0010
0000
0100
0000
0100
0000
1000
0000
1000
0000
0010
0000
,
0100
0001
0010
0000
1001
0000
0000
0000
0010
0000
1010
0000
0000
0000
1000
0000
,
0010
0100
0001
0010
0100
0000
0000
0000
1000
0000
1010
0000
0000
0000
0001
0000
,
1000
0100
1000
0010
0001
0000
0000
0000
0010
0000
0110
0000
0000
0000
0100
0000
,
0001
0010
0100
1000
0001
0000
0000
0000
0100
0000
0101
0000
1010
0000
0000
0000
,
0010
0001
0100
0010
1000
0000
0000
0000
0100
0000
1100
0000
0000
0000
0000
0000
,
0001
1000
0010
0100
0001
0000
0000
0000
0001
0000
0010
0000
0100
0000
1000
0000
,
1000
0000
0010
0000
0200
0000
0000
0000
0010
0000
0010
0000
0000
0000
0000
0300
,
0100
1000
0001
0010
1200
0000
0000
0000
0000
0000
0010
0000
0301
0000
1000
0010
,
0100
0001
0010
0100
1001
0000
0000
0000
0010
0000
1010
0000
0000
0000
0000
0000
,
1000
0010
0100
0001
0010
0000
0000
0000
0010
0000
0110
0000
0000
0000
0000
0000
,
0101
0110
1010
0000
0001
0101
0000
0000
,
0100
0001
0010
0100
1000
0000
0000
0000
0000
0000
0100
0000
0100
0000
0100
0010
,
1000
0001
0010
0100
1000
0000
0000
0000
0010
0000
0110
0000
0000
0000
0000
0000
,
1000
0100
0010
0001
1000
0000
0000
0000
0001
0000
1001
0000
0000
0000
0000
0000
,
1100
0110
0011
0000
0010
0011
0000
0000
,
0001
0010
0100
1000
0001
0000
0000
0000
0001
0000
1001
0000
0110
0000
0001
0010
,
0100
1000
0001
0010
0100
1000
0002
0000
0000
1000
0000
0000
2003
0000
0000
0100
0000
0000
3200
0000
0000
0010
0000
0000
,
0320
0000
0000
0001
0000
0000
0032
0000
0000
0010
0000
0000
0103
0000
0000
0100
0000
0000
0001
0010
0100
1000
0000
0000
,
0100
0010
0001
0100
0200
0001
0302
1000
,
2003
0010
3020
0100
0130
0001
0010
0100
,
1000
0000
0000
0100
0010
0001
1000
0000
0000
0010
0000
0000
0020
0000
0000
0100
0000
0000
0230
0000
0000
0001
0000
0000
,
0302
0010
0100
1000
0013
0000
0100
0000
0001
0000
0001
0000
0010
0000
0100
0000
,
0001
0100
1000
0100
0001
0000
0100
0000
0010
0000
0001
0010
0002
0000
0100
0000
,
0100
0010
0010
0100
0103
0010
0001
0100
,
0010
1000
0001
0100
1001
0000
0001
0000
0101
0000
0100
0000
0110
0000
0010
0000
,
0011
0000
0000
0010
0000
0000
1010
0000
0000
1000
0000
0000
0100
0000
0000
1000
0000
0000
0100
0010
0001
0100
0010
1000
,
0100
0010
0010
0001
0011
0001
0101
0100
,
0110
0010
1010
1000
0100
0010
0001
0100
,
0010
0000
0000
0100
0000
0000
0010
0000
0100
0000
0001
0000
2000
0000
0000
0000
0000
0000
0100
0000
0000
0000
0000
0000
3110
0000
0000
0000
0000
0000
0010
0000
0000
0000
0000
0000
0011
0000
0000
0000
0000
0000
0001
0000
0000
0000
0000
0000
,
1001
1000
1100
0001
1000
0100
0011
0001
,
1000
0010
2010
0001
0001
0010
0010
0100
,
0010
3001
1001
0100
1000
0010
0100
0001
,
1000
0100
0010
0001
1100
0000
0001
0000
0001
0000
0100
0000
0100
0000
0100
0000
,
0010
0010
0011
0001
0001
0001
1010
0010
,
0001
0010
0101
0100
0100
1000
1000
1000
,
0010
0100
0010
0100
1001
0000
0100
0000
0100
0000
0100
0000
0001
1000
0001
1000
,
0001
1000
0001
1000
0011
0000
1000
0000
1000
0000
0100
0000
0100
0000
0100
0000
,
0010
0001
0010
0100
0011
0000
0100
0000
0100
0000
0100
0000
1100
0000
0001
0000
,
0001
1000
0001
0000
0110
0000
1000
0000
1000
0000
0100
0000
0100
0000
0100
0000
,
1000
0001
1000
0001
0110
0000
0010
0000
0010
0000
0010
0000
0010
0001
0010
1000
,
0010
1000
0010
0001
0110
0000
0100
0000
0100
0000
0010
0000
0011
0000
0100
0000
,
1000
0001
1000
0001
0110
0000
1000
0000
1000
0000
0001
0000
0011
0000
0010
0000
,
0100
1000
0100
0000
1100
0000
1000
0000
1000
0000
0001
0000
0101
0000
1000
0000
,
0010
0100
0010
1000
0110
0000
0100
0000
0100
0000
0100
0000
0101
0000
1000
0100
,
1000
0000
1000
0010
1001
0000
0001
0000
0001
0000
0010
0000
0010
0000
0010
0000
,
0010
0100
0010
0001
1100
0000
0010
0000
0010
0000
0010
0000
0101
0000
0100
0000
,
0100
1000
0100
0000
1010
0000
1000
0000
1000
0000
1000
0000
1000
0000
1000
0000
,
1000
0100
1000
0001
0110
0000
0010
0000
0010
0000
0010
0000
0010
1000
0010
0001
,
0010
0001
0010
0001
1010
0000
0010
0000
0010
0000
0010
0000
0010
0000
0010
0000
,
0010
0010
0010
0010
0010
0010
0010
0010
,
0010
0000
0100
0000
0010
0000
0000
0000
0220
0000
0000
0000
0000
0000
0000
0000
0000
0000
0000
0000
0000
0000
0330
2000
0000
0000
3200
0000
0000
0320
0000
0000
,
0032
0000
0000
0000
0000
0000
0000
0000
0000
0000
0000
0000
0000
0000
0000
0000
0200
0000
0003
0000
0000
0000
0000
0000
0000
0000
0000
0000
0000
0000
0000
0000
0020
0000
0000
0000
0300
0000
0000
0000
0000
0000
0000
0000
0000
0000
0000
0000
2000
0000
0000
0000
0000
0000
0000
0000
0000
0000
0000
0000
0000
0000
0000
0000
0000
0000
0000
0000
0000
0000
0000
0000
0000
0000
0000
0000
0000
0000
0000
0000
0000
0000
0000
0000
0000
0000
0000
0000
0000
0000
0000
0000
0000
0000
0000
0000
0000
0000
0000
0000
0000
0000
0000
0000
0000
0000
0000
0000
0000
0000
0000
0000
0000
0000
0000
0000
0000
0000
0000
0000
3230
0000
0000
0000
0000
0000
0000
0000
0000
0000
0000
0000
0000
0000
0000
0000
0000
0000
0000
0000
0000
0000
0000
0000
0000
0000
0000
0000
0000
0000
0000
0000
0000
0000
0000
0000
0000
0000
0000
0000
0000
0000
0000
0000
0000
0000
0000
0000
0000
0000
0000
0000
0000
0000
0000
0000
0000
0000
0000
0000
0000
0000
0000
0000
0000
0000
0000
0000
0000
0000
0000
0000
,
0310
0000
0010
0000
0010
0001
0010
0000
0012
0000
0000
0000
0000
0000
0000
0000
0000
0000
0000
0000
0000
0000
0003
2000
0000
0000
3020
0000
0000
0230
0000
0000
,
0302
0000
0000
2003
0000
0000
3012
0000
0000
0000
0000
0000
0000
0000
0000
0000
0000
0000
0000
0000
2003
0000
0000
0000
0000
0000
0000
0000
0000
0000
0000
0000
,
3010
0000
0010
0000
0010
1000
0010
1000
2020
0000
0000
0000
0000
0000
0000
0000
3030
0000
0000
0000
0000
0000
0000
0000
0002
0000
0000
0023
0000
0000
0230
0000
,
0000
2300
0000
0000
3020
0000
0230
0000
0302
0000
0000
0000
0000
0000
0000
0000
0000
0000
0000
0000
0023
0000
0000
0000
0000
0000
0000
0000
0000
0000
0000
0000
,
0130
0000
1000
0000
1000
0001
1000
0000
2002
0000
0000
0000
0000
0000
0000
0000
0000
0000
0000
0000
0000
0000
0000
0000
3203
0000
0000
0000
0000
0000
0000
0000
,
0000
0000
0000
0000
0000
0000
0000
0000
0320
0000
0000
0000
0000
0000
0000
0000
0000
0000
0000
0000
0000
0000
1030
0100
0001
0000
0000
0000
0000
0000
0000
0000
,
0011
0000
0000
1100
0000
0000
0110
0000
2001
0000
0000
0000
0001
0000
0000
0000
0001
0000
0000
0000
0100
0000
0000
0000
0100
0000
0000
0000
0100
0000
0000
0000
,
0010
0010
0010
0001
0001
0001
0100
0100
,
0010
0100
0010
0000
3100
0000
0100
0000
0100
0000
0001
0000
0001
0000
0001
0000
,
1100
0001
1000
0001
0100
0000
0010
0000
0100
0000
0100
0000
0001
1000
0010
0000
,
0001
1000
0100
0010
0001
0000
0001
0000
0001
0000
0010
0000
0010
0000
0010
0000
,
0100
1000
0100
0001
0100
0000
1000
0000
0001
0000
0001
0000
0001
0000
0010
0000
,
0010
0100
1000
0001
0010
0000
0100
0000
0100
0000
0100
0000
1000
0000
1000
0000
,
0100
0001
0100
1000
0100
0000
0010
0000
0010
0000
0001
0000
0001
0000
0100
0000
,
0010
0000
0000
1000
0000
0000
2000
3000
0000
0000
0000
0000
0000
0000
0000
0000
0000
0000
0000
0000
0000
0000
0000
0000
0000
0000
0000
0000
0000
0000
0000
0000
0000
0000
0000
0000
0000
0000
0000
0000
0000
0000
0000
0000
0000
0000
0000
0000
;

//---------------dance-single - ----------------
#NOTES:
     dance-single:
     :
     Medium:
     9:
     0.401042,0.571029,0.108270,0.583886,0.119871,726.000000,698.000000,28.000000,151.000000,0.000000,2.000000,0.401042,0.571029,0.108270,0.583886,0.119871,726.000000,698.000000,28.000000,151.000000,0.000000,2.000000:
// measure 0
0000
0002
0023
0230
,  // measure 1
2300
0000
0000
3000
0020
0000
0230
0000
,  // measure 2
0302
0000
0023
0000
,  // measure 3
0000
0000
0000
0000
0000
0000
0000
0030
,  // measure 4
1001
0020
0230
2300
,  // measure 5
3002
0000
0023
0230
,  // measure 6
2300
0000
3020
0000
,  // measure 7
0000
0000
0000
0000
0230
0000
0310
0100
,  // measure 8
2002
3003
1001
0000
0100
0001
0000
0001
,  // measure 9
0100
0100
0100
0000
0001
1000
0000
1000
,  // measure 10
0001
0001
0001
0000
0100
0010
0000
0010
,  // measure 11
1000
1000
1000
0000
0010
1000
0100
0000
,  // measure 12
0100
1000
0010
0000
0010
0100
0000
0001
,  // measure 13
1000
1000
1000
0000
1000
0100
0010
0001
,  // measure 14
0001
0000
0100
0000
0020
0000
0000
0000
0100
0000
0100
0000
0000
0000
0000
0030
,  // measure 15
0010
1000
0200
0000
0000
0310
0001
1000
,  // measure 16
1000
1000
1001
0000
0100
0001
0000
0000
,  // measure 17
0001
1000
1000
0000
0100
0010
0000
0010
,  // measure 18
0001
0001
0001
0000
1000
0010
0000
0010
,  // measure 19
1000
1000
1000
0000
0000
0010
0010
0010
,  // measure 20
0001
1000
0001
1000
0001
0000
0000
0000
0100
0000
0010
0000
0000
0000
0010
0000
,  // measure 21
1000
1000
1000
0000
1000
0001
0000
0001
,  // measure 22
0010
0010
0010
0000
0100
1000
0000
1000
,  // measure 23
0100
0100
0100
0000
1000
0001
0110
1000
,  // measure 24
0010
0000
1000
0001
2000
0000
0001
0000
3002
0000
0010
0000
0023
0000
0100
0000
,  // measure 25
0230
1000
2300
0100
3010
0010
0002
0000
,  // measure 26
0003
0000
2000
3020
,  // measure 27
0230
0302
0000
0003
,  // measure 28
0011
1100
2000
3020
,  // measure 29
0230
0302
0000
2003
,  // measure 30
0000
3200
0000
0320
,  // measure 31
0000
0000
0000
0000
,  // measure 32
0000
0030
1001
0000
0200
0000
0320
0000
,  // measure 33
2030
3200
0000
0320
,  // measure 34
0000
0030
0002
2003
,  // measure 35
3200
0320
0030
0000
,  // measure 36
0000
1001
2000
3200
,  // measure 37
0320
0032
0000
0023
,  // measure 38
0000
0230
0000
0000
,  // measure 39
0300
2000
0000
0000
,  // measure 40
3000
0000
1001
0001
0001
1000
1000
1000
,  // measure 41
0010
0000
0000
0100
0000
0000
0010
0000
,  // measure 42
1000
0000
0100
0100
0100
0010
0010
0010
,  // measure 43
0001
0000
0000
0100
0000
0000
0010
0000
,  // measure 44
1000
0000
0100
0100
0100
0010
0010
0010
,  // measure 45
0001
0000
0000
0100
0000
0000
0010
0000
,  // measure 46
0100
0000
0001
0001
0001
0100
1000
1000
,  // measure 47
0100
0010
0010
0100
0001
0001
1000
0000
,  // measure 48
0100
0000
0010
0010
0010
0001
0001
0001
,  // measure 49
0010
0010
0010
0100
0100
0100
1000
0000
,  // measure 50
0001
0000
0100
0100
0100
0010
0010
0010
,  // measure 51
1000
1000
1000
0001
0001
0001
0010
0000
,  // measure 52
0100
0000
1000
1000
1000
0001
0001
0001
,  // measure 53
0100
0100
0100
0010
0010
0010
1000
0000
,  // measure 54
0100
0000
0010
0010
0010
0100
0100
0100
,  // measure 55
1000
1000
1000
0010
0010
0100
0001
0000
,  // measure 56
0100
0000
0010
0010
0010
1000
1000
1000
,  // measure 57
0100
0100
0100
0010
0010
0010
0001
1000
,  // measure 58
0001
0000
0000
0000
1000
0000
0000
0000
0220
0000
0000
0000
0000
0000
0000
0000
0000
0000
0000
0000
0000
0000
0330
0002
0000
0000
0023
0000
0000
0230
0000
0000
,  // measure 59
2300
0000
0000
0000
0000
0000
0000
0000
0000
0000
0000
0000
0000
0000
0000
0000
0020
0000
3000
0000
0000
0000
0000
0000
0000
0000
0000
0000
0000
0000
0000
0000
0200
0000
0000
0000
0030
0000
0000
0000
0000
0000
0000
0000
0000
0000
0000
0000
0002
0000
0000
0000
0000
0000
0000
0000
0000
0000
0000
0000
0000
0000
0000
0000
0000
0000
0000
0000
0000
0000
0000
0000
0000
0000
0000
0000
0000
0000
0000
0000
0000
0000
0000
0000
0000
0000
0000
0000
0000
0000
0000
0000
0000
0000
0000
0000
0000
0000
0000
0000
0000
0000
0000
0000
0000
0000
0000
0000
0000
0000
0000
0000
0000
0000
0000
0000
0000
0000
0000
0000
0323
0000
0000
0000
0000
0000
0000
0000
0000
0000
0000
0000
0000
0000
0000
0000
0000
0000
0000
0000
0000
0000
0000
0000
0000
0000
0000
0000
0000
0000
0000
0000
0000
0000
0000
0000
0000
0000
0000
0000
0000
0000
0000
0000
0000
0000
0000
0000
0000
0000
0000
0000
0000
0000
0000
0000
0000
0000
0000
0000
0000
0000
0000
0000
0000
0000
0000
0000
0000
0000
0000
0000
,  // measure 60
0130
0000
0100
0000
0100
1000
0100
0000
2000
0000
0000
0000
0000
0000
0000
0000
0000
0000
0000
0000
0000
0000
3000
0002
0000
0000
0203
0000
0000
0320
0000
0000
,  // measure 61
2030
0000
0000
3002
0000
0000
2003
0000
0000
0000
0000
0000
0000
0000
0000
0000
0000
0000
0000
0000
3002
0000
0000
0000
0000
0000
0000
0000
0000
0000
0000
0000
,  // measure 62
0103
0000
0100
0000
0100
0001
0100
0001
0002
0000
0000
0000
0000
0000
0000
0000
0003
0000
0000
0000
0000
0000
0000
0000
2000
0000
0000
3200
0000
0000
0320
0000
,  // measure 63
0000
0032
0000
0000
0203
0000
0320
0000
2030
0000
0000
0000
0000
0000
0000
0000
0000
0000
0000
0000
3200
0000
0000
0000
0000
0000
0000
0000
0000
0000
0000
0000
,  // measure 64
0310
0000
0001
0000
0001
1000
0001
0000
2000
0000
0000
0000
0000
0000
0000
0000
0000
0000
0000
0000
0000
0000
0000
0000
3020
0000
0000
0000
0000
0000
0000
0000
,  // measure 65
0000
0000
0000
0000
0000
0000
0000
0000
0230
0000
0000
0000
0000
0000
0000
0000
0000
0000
0000
0000
0000
0000
1300
0001
1000
0000
0000
0000
0000
0000
0000
0000
,  // measure 66
1100
0000
0000
0011
0000
0000
0110
0000
1001
0000
0000
0000
1000
0000
0000
0000
1000
0000
0000
0000
0010
0000
0000
0000
0010
0000
0000
0000
0010
0000
0000
0000
,  // measure 67
0100
0100
0100
0001
0001
0001
0010
0000
,  // measure 68
0100
0000
1000
1000
1000
0010
0010
0010
,  // measure 69
0100
0100
0100
0001
0001
0001
0010
0000
,  // measure 70
0100
0000
1000
1000
1000
0001
0001
0001
,  // measure 71
0100
0100
0100
0010
0010
0010
1000
0000
,  // measure 72
0001
0000
0010
0010
0010
0100
0100
0100
,  // measure 73
1000
1000
1000
0001
0001
0001
0100
0000
,  // measure 74
0010
0000
1001
0000
0010
1000
0000
1000
,  // measure 75
0010
0010
0010
0000
1000
0001
0000
0001
,  // measure 76
1000
1000
1000
0000
0010
0100
0000
0100
,  // measure 77
0001
0001
0001
0000
0100
0001
0010
0000
,  // measure 78
0010
0001
0100
0000
0100
0010
0000
1000
,  // measure 79
0001
0001
0001
0000
0001
0010
0100
1000
,  // measure 80
1000
0000
0010
0000
0200
0000
0000
0000
0010
0000
0010
0000
0000
0000
0000
0300
,  // measure 81
0100
0001
0020
0000
0000
0130
1000
0001
,  // measure 82
0001
0001
1001
0000
0010
1000
0000
0000
,  // measure 83
1000
0001
0001
0000
0010
0100
0000
0100
,  // measure 84
1000
1000
1000
0000
0001
0100
0000
0100
,  // measure 85
0001
0001
0001
0000
0000
0100
0100
0100
,  // measure 86
1000
0001
1000
0001
1000
0000
0000
0000
0010
0000
0100
0000
0000
0000
0100
0000
,  // measure 87
0001
0001
0001
0000
0001
1000
0000
1000
,  // measure 88
0100
0100
0100
0000
0010
0001
0000
0001
,  // measure 89
0010
0010
0010
0000
0001
1000
0110
0001
,  // measure 90
0100
0000
0001
1000
0002
0000
1000
0000
2003
0000
0100
0000
3200
0000
0010
0000
,  // measure 91
0320
0001
0032
0010
0103
0100
2000
0000
,  // measure 92
3000
0000
0002
0203
,  // measure 93
0320
2030
0000
3000
,  // measure 94
1100
0011
0002
0203
,  // measure 95
0320
2030
0000
3002
,  // measure 96
0000
0023
0000
0230
,  // measure 97
0000
0000
0000
0000
,  // measure 98
0000
0300
1001
0000
0020
0000
0230
0000
,  // measure 99
0302
0023
0000
0230
,  // measure 100
0000
0300
2000
3002
,  // measure 101
0023
0230
0300
0000
,  // measure 102
0000
1001
0002
0023
,  // measure 103
0230
2300
0000
3200
,  // measure 104
0000
0320
0000
0000
,  // measure 105
0030
0002
0000
0000
,  // measure 106
0003
0000
1001
1000
1000
0001
0001
0001
,  // measure 107
0100
0000
0000
0010
0000
0000
0100
0000
,  // measure 108
0001
0000
0010
0010
0010
0100
0100
0100
,  // measure 109
1000
0000
0000
0010
0000
0000
0100
0000
,  // measure 110
0001
0000
0010
0010
0010
0100
0100
0100
,  // measure 111
1000
0000
0000
0010
0000
0000
0100
0000
,  // measure 112
0010
0000
1000
1000
1000
0010
0001
0001
,  // measure 113
0010
0100
0100
0010
1000
1000
0001
0000
,  // measure 114
0010
0000
0100
0100
0100
1000
1000
1000
,  // measure 115
0100
0100
0100
0010
0010
0010
0001
0000
,  // measure 116
1000
0000
0010
0010
0010
0100
0100
0100
,  // measure 117
0001
0001
0001
1000
1000
1000
0100
0000
,  // measure 118
0010
0000
0001
0001
0001
1000
1000
1000
,  // measure 119
0010
0010
0010
0100
0100
0100
0001
0000
,  // measure 120
0010
0000
0100
0100
0100
0010
0010
0010
,  // measure 121
0001
0001
0001
0100
0100
0010
1000
0000
,  // measure 122
0010
0000
0100
0100
0100
0001
0001
0001
,  // measure 123
0010
0010
0010
0100
0100
0100
1000
0001
,  // measure 124
1000
0000
0000
0000
0001
0000
0000
0000
0220
0000
0000
0000
0000
0000
0000
0000
0000
0000
0000
0000
0000
0000
0330
2000
0000
0000
3200
0000
0000
0320
0000
0000
,  // measure 125
0032
0000
0000
0000
0000
0000
0000
0000
0000
0000
0000
0000
0000
0000
0000
0000
0200
0000
0003
0000
0000
0000
0000
0000
0000
0000
0000
0000
0000
0000
0000
0000
0020
0000
0000
0000
0300
0000
0000
0000
0000
0000
0000
0000
0000
0000
0000
0000
2000
0000
0000
0000
0000
0000
0000
0000
0000
0000
0000
0000
0000
0000
0000
0000
0000
0000
0000
0000
0000
0000
0000
0000
0000
0000
0000
0000
0000
0000
0000
0000
0000
0000
0000
0000
0000
0000
0000
0000
0000
0000
0000
0000
0000
0000
0000
0000
0000
0000
0000
0000
0000
0000
0000
0000
0000
0000
0000
0000
0000
0000
0000
0000
0000
0000
0000
0000
0000
0000
0000
0000
3230
0000
0000
0000
0000
0000
0000
0000
0000
0000
0000
0000
0000
0000
0000
0000
0000
0000
0000
0000
0000
0000
0000
0000
0000
0000
0000
0000
0000
0000
0000
0000
0000
0000
0000
0000
0000
0000
0000
0000
0000
0000
0000
0000
0000
0000
0000
0000
0000
0000
0000
0000
0000
0000
0000
0000
0000
0000
0000
0000
0000
0000
0000
0000
0000
0000
0000
0000
0000
0000
0000
0000
,  // measure 126
0310
0000
0010
0000
0010
0001
0010
0000
0002
0000
0000
0000
0000
0000
0000
0000
0000
0000
0000
0000
0000
0000
0003
2000
0000
0000
3020
0000
0000
0230
0000
0000
,  // measure 127
0302
0000
0000
2003
0000
0000
3002
0000
0000
0000
0000
0000
0000
0000
0000
0000
0000
0000
0000
0000
2003
0000
0000
0000
0000
0000
0000
0000
0000
0000
0000
0000
,  // measure 128
3010
0000
0010
0000
0010
1000
0010
1000
0020
0000
0000
0000
0000
0000
0000
0000
0030
0000
0000
0000
0000
0000
0000
0000
0002
0000
0000
0023
0000
0000
0230
0000
,  // measure 129
0000
2300
0000
0000
3020
0000
0230
0000
0302
0000
0000
0000
0000
0000
0000
0000
0000
0000
0000
0000
0023
0000
0000
0000
0000
0000
0000
0000
0000
0000
0000
0000
,  // measure 130
0130
0000
1000
0000
1000
0001
1000
0000
0002
0000
0000
0000
0000
0000
0000
0000
0000
0000
0000
0000
0000
0000
0000
0000
0203
0000
0000
0000
0000
0000
0000
0000
,  // measure 131
0000
0000
0000
0000
0000
0000
0000
0000
0320
0000
0000
0000
0000
0000
0000
0000
0000
0000
0000
0000
0000
0000
0031
1000
0001
0000
0000
0000
0000
0000
0000
0000
,  // measure 132
0011
0000
0000
1100
0000
0000
0110
0000
0220
0000
0000
0000
0000
0000
0000
0000
0000
0000
0000
0000
0000
0000
0000
0000
0000
0000
0000
0000
0000
0000
0000
0000
,  // measure 133
0000
0000
0000
0000
,  // measure 134
0000
0330
0000
0000
;

//---------------dance-single - ----------------
#NOTES:
     dance-single:
     :
     Easy:
     5:
     0.259075,0.432308,0.069602,0.525884,0.108270,469.000000,451.000000,18.000000,136.000000,0.000000,3.000000,0.259075,0.432308,0.069602,0.525884,0.108270,469.000000,451.000000,18.000000,136.000000,0.000000,3.000000:
0000
2000
3200
0320
,
0032
0000
0000
0003
0200
0000
0320
0000
,
2030
0000
3200
0000
,
0000
0000
0000
0000
0000
0000
0000
0300
,
1001
0200
0320
0032
,
2003
0000
3200
0320
,
0032
0000
0203
0000
,
0000
0000
0320
0230
,
2302
3003
1001
0000
0000
0000
0010
0000
,
0000
0000
0100
0001
,
0010
0100
0100
0010
,
0000
0000
0000
0000
,
0000
1000
0000
0001
,
0000
0000
0100
0010
,
0100
0010
0000
0000
,
0000
1000
0000
0100
,
0000
0010
0000
0001
,
0000
0000
0001
0001
,
0001
0001
0000
0010
,
0000
0000
0000
0100
,
1000
0100
0000
0000
,
0000
0000
0000
0010
,
0000
0001
0000
0000
,
0000
0100
0000
0000
,
0000
0010
0010
0010
,
0010
1001
0000
0200
,
0300
0000
0002
0203
,
0320
2030
0000
3000
,
1100
0011
0002
0203
,
0320
2030
0000
3002
,
0000
0023
0000
0230
,
0000
0000
0000
0000
,
0000
0300
1001
0000
0020
0000
0230
0000
,
0302
0023
0000
0230
,
0000
0300
2000
3002
,
0023
0230
0300
0000
,
0000
1001
0002
0023
,
0230
2300
0000
3200
,
0000
0320
0000
0000
,
0030
0002
0000
0000
,
0003
1000
0010
0100
,
0001
0010
0010
0100
,
0100
1000
1000
1000
,
1000
0010
0010
0010
,
0010
0100
0100
0100
,
0100
0010
0010
1000
,
1000
0001
0001
0001
,
0001
0100
0100
0100
,
0100
0010
1000
0010
,
1000
0001
0100
0001
,
0100
0010
1000
0100
,
0010
0001
0100
0010
,
1000
1000
1000
1000
,
1000
0100
0100
0010
,
0010
0001
0001
0001
,
0001
0100
0100
0100
,
0100
0010
1000
0100
,
0010
0000
0100
0000
0010
0100
1000
0001
,
1000
0000
0000
0000
0001
0000
0000
0000
0220
0000
0000
0000
0000
0000
0000
0000
0000
0000
0000
0000
0000
0000
0330
2000
0000
0000
3200
0000
0000
0320
0000
0000
,
0032
0000
0000
0000
0000
0000
0000
0000
0000
0000
0000
0000
0000
0000
0000
0000
0200
0000
0003
0000
0000
0000
0000
0000
0000
0000
0000
0000
0000
0000
0000
0000
0020
0000
0000
0000
0300
0000
0000
0000
0000
0000
0000
0000
0000
0000
0000
0000
2000
0000
0000
0000
0000
0000
0000
0000
0000
0000
0000
0000
0000
0000
0000
0000
0000
0000
0000
0000
0000
0000
0000
0000
0000
0000
0000
0000
0000
0000
0000
0000
0000
0000
0000
0000
0000
0000
0000
0000
0000
0000
0000
0000
0000
0000
0000
0000
0000
0000
0000
0000
0000
0000
0000
0000
0000
0000
0000
0000
0000
0000
0000
0000
0000
0000
0000
0000
0000
0000
0000
0000
3230
0000
0000
0000
0000
0000
0000
0000
0000
0000
0000
0000
0000
0000
0000
0000
0000
0000
0000
0000
0000
0000
0000
0000
0000
0000
0000
0000
0000
0000
0000
0000
0000
0000
0000
0000
0000
0000
0000
0000
0000
0000
0000
0000
0000
0000
0000
0000
0000
0000
0000
0000
0000
0000
0000
0000
0000
0000
0000
0000
0000
0000
0000
0000
0000
0000
0000
0000
0000
0000
0000
0000
,
0310
0000
0010
0000
0010
0001
0010
0000
0002
0000
0000
0000
0000
0000
0000
0000
0000
0000
0000
0000
0000
0000
0003
2000
0000
0000
3020
0000
0000
0230
0000
0000
,
0302
0000
0000
2003
0000
0000
3002
0000
0000
0000
0000
0000
0000
0000
0000
0000
0000
0000
0000
0000
2003
0000
0000
0000
0000
0000
0000
0000
0000
0000
0000
0000
,
3010
0000
0010
0000
0010
1000
0010
1000
0020
0000
0000
0000
0000
0000
0000
0000
0000
0000
0000
0000
0000
0000
0000
0000
0032
0000
0000
0023
0000
0000
0230
0000
,
0000
2300
0000
0000
3020
0000
0230
0000
0302
0000
0000
0000
0000
0000
0000
0000
0000
0000
0000
0000
0023
0000
0000
0000
0000
0000
0000
0000
0000
0000
0000
0000
,
0130
0000
1000
0000
1000
0001
1000
0000
0002
0000
0000
0000
0000
0000
0000
0000
0000
0000
0000
0000
0000
0000
0000
0000
0203
0000
0000
0000
0000
0000
0000
0000
,
0000
0000
0000
0000
0000
0000
0000
0000
0320
0000
0000
0000
0000
0000
0000
0000
0000
0000
0000
0000
0000
0000
0031
1000
0001
0000
0000
0000
0000
0000
0000
0000
,
0001
0000
0000
1000
0000
0000
0001
0000
1001
0000
0000
0000
0000
0000
0000
0000
1000
0000
0000
0000
0000
0000
0000
0000
0000
0000
0000
0000
0000
0000
0000
0000
,
0010
0000
0000
1000
0000
0000
0100
0000
,
0010
0000
0001
0000
0000
0100
0000
0000
,
0010
0000
0000
1000
0000
0000
0100
0000
,
0010
0000
0001
0000
0000
1000
0000
0000
,
0010
0000
0000
0100
0000
0000
0001
0000
,
1000
0000
0100
0000
0000
0010
0000
0000
,
0001
0000
0000
1000
0000
0000
0010
0000
,
0100
1001
0000
0100
,
0000
0000
0010
1000
,
0100
0010
0010
0100
,
0000
0000
0000
0000
,
0000
0001
0000
1000
,
0000
0000
0010
0100
,
0010
0100
0000
0000
,
0000
0001
0000
0010
,
0000
0100
0000
1000
,
0000
0000
1000
1000
,
1000
1000
0000
0100
,
0000
0000
0000
0010
,
0001
0010
0000
0000
,
0000
0000
0000
0100
,
0000
1000
0000
0000
,
0000
0010
0000
0000
,
0000
0100
0100
0100
,
0100
1001
0000
0020
,
0030
0000
2000
3020
,
0230
0302
0000
0003
,
0011
1100
2000
3020
,
0230
0302
0000
2003
,
0000
3200
0000
0320
,
0000
0000
0000
0000
,
0000
0030
1001
0000
0200
0000
0320
0000
,
2030
3200
0000
0320
,
0000
0030
0002
2003
,
3200
0320
0030
0000
,
0000
1001
2000
3200
,
0320
0032
0000
0023
,
0000
0230
0000
0000
,
0300
2000
0000
0000
,
3000
0001
0100
0010
,
1000
0100
0100
0010
,
0010
0001
0001
0001
,
0001
0100
0100
0100
,
0100
0010
0010
0010
,
0010
0100
0100
0001
,
0001
1000
1000
1000
,
1000
0010
0010
0010
,
0010
0100
0001
0100
,
0001
1000
0010
1000
,
0010
0100
0001
0010
,
0100
1000
0010
0100
,
0001
0001
0001
0001
,
0001
0010
0010
0100
,
0100
1000
1000
1000
,
1000
0010
0010
0010
,
0010
0100
0001
0010
,
0100
0000
0010
0000
0100
0010
0001
1000
,
0001
0000
0000
0000
1000
0000
0000
0000
0220
0000
0000
0000
0000
0000
0000
0000
0000
0000
0000
0000
0000
0000
0330
0002
0000
0000
0023
0000
0000
0230
0000
0000
,
2300
0000
0000
0000
0000
0000
0000
0000
0000
0000
0000
0000
0000
0000
0000
0000
0020
0000
3000
0000
0000
0000
0000
0000
0000
0000
0000
0000
0000
0000
0000
0000
0200
0000
0000
0000
0030
0000
0000
0000
0000
0000
0000
0000
0000
0000
0000
0000
0002
0000
0000
0000
0000
0000
0000
0000
0000
0000
0000
0000
0000
0000
0000
0000
0000
0000
0000
0000
0000
0000
0000
0000
0000
0000
0000
0000
0000
0000
0000
0000
0000
0000
0000
0000
0000
0000
0000
0000
0000
0000
0000
0000
0000
0000
0000
0000
0000
0000
0000
0000
0000
0000
0000
0000
0000
0000
0000
0000
0000
0000
0000
0000
0000
0000
0000
0000
0000
0000
0000
0000
0323
0000
0000
0000
0000
0000
0000
0000
0000
0000
0000
0000
0000
0000
0000
0000
0000
0000
0000
0000
0000
0000
0000
0000
0000
0000
0000
0000
0000
0000
0000
0000
0000
0000
0000
0000
0000
0000
0000
0000
0000
0000
0000
0000
0000
0000
0000
0000
0000
0000
0000
0000
0000
0000
0000
0000
0000
0000
0000
0000
0000
0000
0000
0000
0000
0000
0000
0000
0000
0000
0000
0000
,
0130
0000
0100
0000
0100
1000
0100
0000
2000
0000
0000
0000
0000
0000
0000
0000
0000
0000
0000
0000
0000
0000
3000
0002
0000
0000
0203
0000
0000
0320
0000
0000
,
2030
0000
0000
3002
0000
0000
2003
0000
0000
0000
0000
0000
0000
0000
0000
0000
0000
0000
0000
0000
3002
0000
0000
0000
0000
0000
0000
0000
0000
0000
0000
0000
,
0103
0000
0100
0000
0100
0001
0100
0001
0200
0000
0000
0000
0000
0000
0000
0000
0000
0000
0000
0000
0000
0000
0000
0000
2300
0000
0000
3200
0000
0000
0320
0000
,
0000
0032
0000
0000
0203
0000
0320
0000
2030
0000
0000
0000
0000
0000
0000
0000
0000
0000
0000
0000
3200
0000
0000
0000
0000
0000
0000
0000
0000
0000
0000
0000
,
0310
0000
0001
0000
0001
1000
0001
0000
2000
0000
0000
0000
0000
0000
0000
0000
0000
0000
0000
0000
0000
0000
0000
0000
3020
0000
0000
0000
0000
0000
0000
0000
,
0000
0000
0000
0000
0000
0000
0000
0000
0230
0000
0000
0000
0000
0000
0000
0000
0000
0000
0000
0000
0000
0000
1300
0001
1000
0000
0000
0000
0000
0000
0000
0000
,
1000
0000
0000
0001
0000
0000
1000
0000
1001
0000
0000
0000
0000
0000
0000
0000
0001
0000
0000
0000
0000
0000
0000
0000
0000
0000
0000
0000
0000
0000
0000
0000
,
0100
0000
0000
0001
0000
0000
0010
0000
,
0100
0000
1000
0000
0000
0010
0000
0000
,
0100
0000
0000
0001
0000
0000
0010
0000
,
0100
0000
1000
0000
0000
0001
0000
0000
,
0100
0000
0000
0010
0000
0000
1000
0000
,
0001
0000
0010
0000
0000
0100
0000
0000
,
1000
0000
0000
0001
0000
0000
0010
0000
;
