#TITLE:99 Glooms;
#SUBTITLE:;
#ARTIST:Sta;
#TITLETRANSLIT:;
#SUBTITLETRANSLIT:;
#ARTISTTRANSLIT:;
#GENRE:;
#CREDIT:;
#BANNER:Sta - 99 Gloom BN.jpg;
#BACKGROUND:Sta - 99 Gloom BG.jpg;
#LYRICSPATH:;
#CDTITLE:cdtitle_ukiarrow.png;
#MUSIC:99 Glooms.ogg;
#OFFSET:0.020000;
#SAMPLESTART:100.000000;
#SAMPLELENGTH:12.000000;
#SELECTABLE:YES;
#BPMS:0.000000=185.000000
,144.000000=92.500000
,208.000000=185.000000
;
#STOPS:
;
#BGCHANGES:;
#KEYSOUNDS:;
#ATTACKS:;

//---------------dance-single - ----------------
#NOTES:
     dance-single:
     :
     Medium:
     10:
     0.573632,0.901172,0.281999,0.380086,0.153260,655.000000,609.000000,46.000000,62.000000,0.000000,1.000000,0.573632,0.901172,0.281999,0.380086,0.153260,655.000000,609.000000,46.000000,62.000000,0.000000,1.000000:
// measure 0
0000
0000
0000
0000
,  // measure 1
0000
0000
0000
0000
,  // measure 2
0000
0000
0000
0000
,  // measure 3
0000
0000
0000
0000
,  // measure 4
1000
0000
0100
0010
0000
0001
0000
1000
,  // measure 5
0001
0000
0100
0010
0000
1000
0000
0001
,  // measure 6
0100
0000
0010
1000
0100
0010
0001
0100
,  // measure 7
0010
1000
0100
0010
0001
0100
0010
1000
,  // measure 8
0001
0000
1000
0100
0000
0010
0000
0001
,  // measure 9
1000
0000
0001
0100
0000
0010
0000
1000
,  // measure 10
0001
0000
1000
0100
0010
0001
0100
0010
,  // measure 11
1000
0100
0010
0001
0100
0010
1000
0001
,  // measure 12
1000
0000
0001
0100
0000
0010
0000
0100
,  // measure 13
0001
0000
1000
0100
0000
0010
0000
0100
,  // measure 14
1000
0000
0001
0010
0100
1000
0010
0100
,  // measure 15
0002
0000
0013
0100
2000
0000
3100
0000
,  // measure 16
1001
0000
0001
0010
0000
0100
0000
0010
,  // measure 17
0001
0000
1000
0010
0000
0100
0000
0010
,  // measure 18
2000
0000
3010
2000
0000
3001
2000
0000
,  // measure 19
3001
0010
0001
1000
0001
0100
0001
0010
,  // measure 20
0200
1300
2000
3010
,  // measure 21
0020
0031
0002
0013
,  // measure 22
0010
1000
0100
0000
1000
0100
0001
0000
,  // measure 23
0100
0001
0010
0000
0001
0010
1000
0000
,  // measure 24
0001
0000
1000
0100
0000
0100
1000
0000
,  // measure 25
0010
0000
0100
0001
0000
0001
0100
0000
,  // measure 26
0010
1000
0100
0000
1000
0100
0001
0000
,  // measure 27
0100
0001
0010
0000
0001
0010
1000
0001
,  // measure 28
2000
3100
0200
0301
,  // measure 29
0002
0013
0020
0031
,  // measure 30
0001
0100
1000
0000
0100
1000
0010
0000
,  // measure 31
1000
0010
0100
0001
0010
0100
1000
0001
,  // measure 32
0100
0000
0010
1000
0000
1000
0010
0100
,  // measure 33
0001
0000
0010
0001
0000
0001
0010
0100
,  // measure 34
1000
0000
0001
0100
0010
1000
0001
0000
,  // measure 35
1000
0100
0010
0001
1000
0100
0010
0002
,  // measure 36
0003
0000
0000
0000
,  // measure 37
0000
0000
0000
0000
,  // measure 38
0000
0000
0000
2000
3000
0000
0000
0000
,  // measure 39
0000
0000
0000
0000
0000
0000
0000
0000
0001
0100
0010
1000
0001
0100
0010
0000
,  // measure 40
1001
0000
0000
0110
0000
0000
1001
0000
0000
1100
0000
0000
0101
0000
0000
0000
,  // measure 41
0101
0000
0000
1100
0000
0000
1001
0000
0000
0220
0000
0000
0330
0000
0000
0000
,  // measure 42
1100
0000
0000
0101
0000
0000
0011
0000
0000
1010
0000
0000
1001
0000
0000
0000
,  // measure 43
1010
0000
0000
1010
0000
0000
0101
0000
0000
0101
0000
0000
1001
0000
0000
0000
1000
0000
0100
0000
0001
0000
0000
0000
0001
0000
0100
0000
1000
0000
0100
0000
,  // measure 44
2000
0000
0010
0000
0001
0000
3001
0000
0002
0000
0100
0000
1003
0010
0100
0001
,  // measure 45
1000
1100
0011
1000
0002
0100
2003
0100
,  // measure 46
3001
0010
0100
1000
1000
0010
0100
0001
0200
0000
0010
0000
0300
0010
0100
0000
,  // measure 47
0010
0000
1000
0010
0000
0010
0100
0000
0001
0010
0100
1000
0000
1000
0100
0010
,  // measure 48
0002
0000
0100
0000
1003
0001
1000
0000
2000
0000
0100
0000
3001
0010
0100
1000
,  // measure 49
0002
0000
1000
1000
2003
0000
0100
0000
3020
1000
1000
0000
0230
0010
0010
0000
,  // measure 50
0320
2030
3002
0203
0320
0200
0300
0030
,  // measure 51
0100
0000
0001
0010
0000
0010
0100
0000
1000
0000
0001
0000
0100
0000
0010
0000
,  // measure 52
1001
1000
0100
0100
,  // measure 53
0010
0010
0001
0001
,  // measure 54
0200
1300
2000
3100
,  // measure 55
0200
0301
0002
0013
,  // measure 56
0001
0001
0010
0010
,  // measure 57
0100
0100
1000
1000
,  // measure 58
0001
0100
0002
0000
0103
1000
0200
0000
,  // measure 59
1300
0100
2000
0000
3100
0010
0200
0000
,  // measure 60
0320
2030
3200
0302
,  // measure 61
0203
2300
3020
0230
,  // measure 62
1300
0100
0001
0000
0100
0001
0010
0000
,  // measure 63
0001
0010
1000
0000
0010
0100
1000
0000
,  // measure 64
0001
0010
0001
1000
0001
0100
0001
0000
,  // measure 65
0100
0001
0100
0010
0100
1000
0100
0000
,  // measure 66
0010
1000
0010
0100
0010
0001
0010
0000
,  // measure 67
1000
0100
0010
0001
1000
0100
0010
0001
,  // measure 68
1000
0000
0100
1000
0000
0001
0000
1000
,  // measure 69
0100
0000
0010
0001
0000
1000
0000
0001
,  // measure 70
0010
0000
0100
1000
0010
0100
0001
0010
,  // measure 71
0100
1000
0010
0100
0001
0010
0100
1000
,  // measure 72
0001
0000
0100
0010
0000
1000
0000
0010
,  // measure 73
0100
0000
0001
0100
0000
0010
0000
0100
,  // measure 74
0001
0000
1000
0100
0010
0001
0100
0010
,  // measure 75
1000
0100
0010
0001
0100
0010
1000
0001
,  // measure 76
1000
0100
1000
0000
0100
0001
0100
0000
,  // measure 77
0001
0010
0001
0000
0010
1000
0010
0000
,  // measure 78
1000
0100
0010
0100
1000
0001
0100
0001
,  // measure 79
1000
0100
0010
0001
1000
0010
0100
0001
,  // measure 80
1000
0000
0001
0100
0000
0010
0000
0100
,  // measure 81
0001
0000
1000
0010
0000
0100
0000
0010
,  // measure 82
1000
0100
0010
0000
0001
0100
0010
0000
,  // measure 83
1000
0100
0010
0001
0100
0010
1000
0100
,  // measure 84
0020
0031
0002
0103
,  // measure 85
0200
1300
2000
3010
,  // measure 86
0010
0001
1000
0000
1000
0010
0100
0000
,  // measure 87
0100
1000
0001
0000
0001
0100
1000
0100
,  // measure 88
1000
0000
0001
0100
0000
0010
0000
0100
,  // measure 89
0001
0000
1000
0100
0000
0010
0000
0100
,  // measure 90
1000
0010
1000
0010
0100
0001
0100
0001
,  // measure 91
1000
0100
1000
0100
0010
0001
0010
0001
,  // measure 92
1000
0010
0002
0000
0013
0001
0200
0000
,  // measure 93
0301
0100
2000
0000
3100
1000
0020
0000
,  // measure 94
0130
0001
0010
0100
1000
0000
0100
1000
,  // measure 95
0001
0010
0100
1000
0001
0100
0010
1000
,  // measure 96
0001
0000
0010
0000
0100
1000
0000
0000
0001
0000
0100
0001
0000
0100
0001
0000
,  // measure 97
0010
0000
0100
0000
1000
0100
0000
0000
0010
0000
0100
1000
0000
0100
1000
0000
,  // measure 98
1100
0000
0000
0110
0000
0000
0011
0000
0000
0110
0000
0000
1100
0000
0000
0000
,  // measure 99
0001
0010
0100
1000
0001
0100
0010
1000
,  // measure 100
1010
0000
0000
0110
0000
0000
0101
0000
0000
0110
0000
0000
1010
0000
0000
0000
,  // measure 101
1100
0000
0000
0101
0000
0000
0011
0000
0000
1010
0000
0000
1001
0000
0000
0000
,  // measure 102
0011
0000
0000
0101
0000
0000
1100
0000
0000
1010
0000
0000
2002
0000
0000
0000
,  // measure 103
3113
0000
0000
0110
0000
0000
2002
0000
,  // measure 104
0000
0000
0000
0000
,  // measure 105
3003
0000
0000
0000
;

//---------------dance-single - ----------------
#NOTES:
     dance-single:
     :
     Hard:
     15:
     0.813594,1.319573,0.324912,0.435260,0.671281,929.000000,876.000000,53.000000,71.000000,0.000000,0.000000,0.813594,1.319573,0.324912,0.435260,0.671281,929.000000,876.000000,53.000000,71.000000,0.000000,0.000000:
// measure 0
0000
0000
0000
0000
,  // measure 1
0000
0000
0000
0000
,  // measure 2
0000
0000
0000
0000
,  // measure 3
0001
1000
0001
0000
1000
0001
1000
0000
0002
0000
0000
0000
1003
0000
0000
0000
,  // measure 4
1001
0000
0010
0100
0010
1000
0100
0010
,  // measure 5
0001
0000
0010
0100
0010
0001
0100
0010
,  // measure 6
1000
0000
0010
1000
0100
0010
0001
0100
,  // measure 7
0010
1000
0100
0010
0001
0100
0010
1000
,  // measure 8
0001
0000
0100
0010
0100
0001
0010
0100
,  // measure 9
1000
0000
0100
0010
0100
1000
0010
0100
,  // measure 10
0001
0000
1000
0100
0010
0001
0100
0010
,  // measure 11
1000
0000
0100
0000
0010
0000
0001
0000
0100
0000
0010
0000
1000
0001
1000
0001
,  // measure 12
1000
0000
0001
0100
0010
0100
0001
0010
,  // measure 13
0100
0000
1000
0100
0010
0100
1000
0010
,  // measure 14
0100
0000
0001
0010
0100
1000
0010
0100
,  // measure 15
0001
0010
0001
0010
0001
0000
0000
0010
0200
0000
0000
0000
1300
0000
0100
0000
,  // measure 16
1001
0000
0001
0010
0100
0010
0001
0100
,  // measure 17
0110
0000
1000
0010
0100
0010
1000
0100
,  // measure 18
0020
0000
0031
2000
0000
3010
0200
0000
,  // measure 19
0301
0010
0100
1000
0001
0010
0100
1000
0001
0100
0010
1000
0001
0100
0010
1000
,  // measure 20
0002
0103
2000
3100
,  // measure 21
0002
0013
2000
3010
,  // measure 22
0001
0100
0001
0100
1000
0100
1000
0010
,  // measure 23
1000
0010
1000
0010
0001
0010
0001
1000
,  // measure 24
0001
0000
1000
0100
0010
0100
1000
0010
,  // measure 25
0100
0000
0001
0100
0010
0100
0001
0010
,  // measure 26
0100
1000
0100
1000
0010
1000
0010
0001
,  // measure 27
0010
0000
0001
0000
0100
0000
0001
0000
0100
0000
1000
0000
0001
1000
0001
1000
,  // measure 28
0002
0103
2000
3100
,  // measure 29
0002
0013
2000
3010
,  // measure 30
0001
0100
0010
0100
0001
0100
0010
0000
,  // measure 31
1000
0000
0100
0000
0010
0000
0100
0000
1000
0001
1000
0000
0010
0000
0100
0000
,  // measure 32
0001
0000
0010
0100
1000
0100
0010
0001
,  // measure 33
1000
0000
0000
0000
0100
0000
0010
0000
0001
0000
0010
0000
0100
1000
0001
0000
,  // measure 34
1000
0001
0100
0010
1000
0100
0010
0001
,  // measure 35
1000
0100
0010
0001
1000
0100
0010
0001
1000
0010
0100
0001
1000
0010
0100
0002
,  // measure 36
0003
0000
0000
0000
,  // measure 37
0000
0000
0000
0000
,  // measure 38
0000
0000
0000
0000
0000
0000
0000
0000
0000
1000
0100
0010
0000
0000
0000
0000
0000
0000
0000
0000
0000
0000
0000
0000
,  // measure 39
0000
0000
0000
0000
0000
0000
0000
0000
0000
0000
0000
0000
0000
0000
0000
0000
0001
0100
0001
0100
0010
1000
0010
1000
0001
0010
0001
0010
0100
1000
0100
1000
,  // measure 40
2002
3003
0000
2200
3300
0000
0022
0033
0000
2200
3300
0000
2002
3003
0000
0000
,  // measure 41
0220
0330
0000
0202
0303
0000
2020
3030
0000
0202
0000
0000
0303
0000
0000
0000
,  // measure 42
2020
3030
0000
0022
0033
0000
2020
3030
0000
2200
3300
0000
0202
0303
0000
0000
,  // measure 43
1010
0000
0000
0011
0000
0000
1100
0000
0000
0011
0000
0000
1001
0000
0000
0000
1000
0000
0100
0000
0001
0100
0001
0000
0100
0010
0100
1000
0100
0000
1000
0001
,  // measure 44
1000
0000
0010
0000
0100
0000
0000
0000
0201
0000
0000
0000
0301
0000
0010
0000
0002
0000
0100
0000
0203
0000
0000
0000
0310
1000
0001
0100
0010
1000
0001
0100
,  // measure 45
0020
0000
0000
0000
1030
0100
1000
0000
2010
0000
0000
0000
3001
0000
0000
0000
0002
0000
0010
0000
0010
0000
0000
0000
2003
0000
0100
0000
0100
0000
0000
0000
,  // measure 46
3001
0010
0100
0000
0001
0100
0010
0000
1000
0010
0100
0000
1000
0100
0010
0000
0100
1000
0100
1000
0200
0000
0000
0000
0000
0000
0310
0000
0100
1000
0001
0000
,  // measure 47
0100
0000
0000
0000
0010
0000
0010
0000
0100
0000
0010
0000
0100
0000
0000
0000
0001
0010
0001
0000
0010
0000
0100
0000
1000
0100
1000
0000
0100
0000
0010
0000
,  // measure 48
0002
0000
0000
0000
0103
0001
1000
0000
0001
0000
0010
0000
0200
0000
0000
0000
1300
0100
1000
0100
2000
0000
0000
0000
3001
0010
0001
0000
0010
0100
1000
0000
,  // measure 49
0002
0100
1000
1000
2003
0000
0010
0000
3020
0100
0001
0000
0230
1000
0010
0000
,  // measure 50
0310
1000
0010
1000
0001
0100
0001
0000
0010
0001
0010
0001
1000
0100
1000
0000
0020
0000
0000
0000
0200
0000
0000
0000
0300
0000
0130
0000
1001
0000
0000
0000
,  // measure 51
0110
0000
0000
0000
0001
0000
0010
0000
0000
0000
1100
0000
0000
0000
0000
0000
1000
0100
0000
0000
0010
0000
0000
0000
0100
1000
0100
0010
0002
0000
0000
0003
,  // measure 52
1000
0000
0100
1000
0100
0010
0001
0010
,  // measure 53
0001
0000
0100
0001
0100
0010
1000
0010
,  // measure 54
1000
0100
1000
0000
0100
1000
0100
0000
0010
0100
0010
0000
0001
0010
0001
0000
,  // measure 55
0100
0001
0100
0000
0010
0100
0010
0000
1000
0010
1000
0000
0001
1000
0001
0000
,  // measure 56
1000
0000
0010
0100
0010
1000
0100
0010
,  // measure 57
0001
0000
0010
0100
0010
0001
0100
0010
,  // measure 58
1000
0100
0001
0001
1000
0010
0001
0001
,  // measure 59
1000
0100
1000
0000
0100
0010
0100
0000
0010
0001
0010
0000
0001
0100
0001
0100
,  // measure 60
0010
1000
0100
0001
0100
1000
0010
0100
,  // measure 61
0001
0010
1000
0010
0001
0100
1000
0100
,  // measure 62
0001
0100
0001
0000
0010
0001
0010
0000
0100
0010
0100
0000
0001
0100
0001
0000
,  // measure 63
0100
0010
0100
0000
1000
0100
1000
0000
0010
0100
0001
1000
0001
0000
0000
0000
,  // measure 64
1000
0000
0010
1000
0010
0000
1000
0010
1000
0000
0010
1000
0010
0000
0100
0000
,  // measure 65
0001
0000
0100
0001
0100
0000
0001
0100
0001
0000
0010
0001
0010
0000
0000
0000
,  // measure 66
0010
0001
1000
0010
1000
0001
0010
0001
1000
0010
1000
0001
0200
0000
0000
0000
,  // measure 67
1300
0000
0100
0010
0000
1000
0000
0000
0000
1000
0001
1000
0001
0010
0100
1000
,  // measure 68
0001
0100
0001
0100
0000
0010
0000
1000
,  // measure 69
0100
0010
0100
0010
0000
0001
0000
0100
,  // measure 70
0010
0000
0100
0001
0010
0100
1000
0010
,  // measure 71
0100
0001
0010
0100
1000
0010
0100
0001
,  // measure 72
1000
0000
0100
0010
0100
0010
0000
0001
,  // measure 73
0100
0000
0001
0010
0001
0010
0000
0100
,  // measure 74
1000
0000
1000
0100
0010
0001
0100
0010
,  // measure 75
1000
0000
0100
0000
0010
0000
0001
0000
0100
0000
0010
0000
1000
0001
1000
0100
,  // measure 76
1000
0100
1000
0100
0001
0100
0001
0010
,  // measure 77
0001
0010
0001
0010
1000
0010
1000
0001
,  // measure 78
1000
0000
0100
0000
0010
0000
0100
0000
1000
0000
0001
0000
0100
0000
0001
1000
,  // measure 79
0001
0100
0010
0100
0001
0010
0100
1000
,  // measure 80
1001
0000
0001
0100
0010
1000
0000
0001
,  // measure 81
0101
0000
0010
2000
0010
0000
0001
0000
,  // measure 82
3100
1000
0001
0000
1000
0010
0100
0000
0001
0100
0010
0000
1000
0001
0010
0000
,  // measure 83
0100
1000
0100
0000
0010
0001
0010
0000
0100
1000
0010
0100
0001
0010
0100
1000
,  // measure 84
0020
0001
0031
0000
0020
1000
1030
0000
,  // measure 85
0200
0001
0301
0000
0200
1000
1300
0000
,  // measure 86
0010
0000
0001
0000
0010
0000
0100
0000
0001
0000
0010
0000
1000
0000
0010
0100
,  // measure 87
1000
0000
0001
0000
0100
0010
1000
0000
0001
0000
0100
0000
0010
0000
1000
0000
,  // measure 88
1010
0000
0001
0100
0010
0100
0000
0001
,  // measure 89
0101
0000
0000
0000
1000
0100
0010
0000
0100
0010
0001
0000
0010
0100
1000
0001
,  // measure 90
1000
0010
0001
0010
1000
0100
0001
0100
,  // measure 91
1000
0010
1000
0000
0001
1000
0001
0000
0100
0001
0100
0000
0010
0100
0010
1000
,  // measure 92
0001
0010
0001
0010
0001
0100
0001
0100
,  // measure 93
1000
0100
1000
0100
1000
0010
1000
0010
,  // measure 94
0002
0000
0013
0100
1000
0000
0100
1000
,  // measure 95
0001
0000
0010
0000
0100
0000
1000
0000
0001
0100
0010
0000
0100
0010
1000
0000
,  // measure 96
0001
0010
1000
0001
0100
1000
0000
0001
0100
0000
0100
0010
0000
0010
1000
0000
,  // measure 97
1000
0100
1000
0100
0010
0001
0010
0001
0100
0010
1000
0100
0010
0000
0000
0000
,  // measure 98
0011
0000
0000
0110
0000
0000
1100
0000
0000
0011
0000
0000
0110
0000
0000
0000
,  // measure 99
0001
0010
0100
1000
0010
0100
0001
0010
0001
0100
0010
1000
0100
0010
0001
0100
,  // measure 100
0101
0000
0000
0110
0000
0000
1010
0000
0000
0101
0000
0000
0110
0000
0000
0000
,  // measure 101
1100
0000
0000
0011
0000
0000
1010
0000
0000
1100
0000
0000
0011
0000
0000
0010
,  // measure 102
0110
0000
0000
1100
0000
0000
0011
0000
0000
0202
0000
0000
0003
0000
0000
0310
,  // measure 103
0110
0000
0000
0101
0000
0000
2020
0000
,  // measure 104
0000
0000
0000
0000
,  // measure 105
3030
0000
0000
0000
;
