#VERSION:0.83;
#TITLE:Wait;
#SUBTITLE:;
#ARTIST:Icky Blossoms;
#TITLETRANSLIT:;
#SUBTITLETRANSLIT:;
#ARTISTTRANSLIT:;
#GENRE:Pop;
#ORIGIN:;
#CREDIT:;
#BANNER:wait-bn.png;
#BACKGROUND:wait-bg.png;
#PREVIEWVID:;
#JACKET:;
#CDIMAGE:;
#DISCIMAGE:;
#LYRICSPATH:;
#CDTITLE:;
#MUSIC:Wait.ogg;
#OFFSET:-0.019000;
#SAMPLESTART:52.016003;
#SAMPLELENGTH:12.000000;
#SELECTABLE:YES;
#BPMS:0.000=128.000;
#STOPS:;
#DELAYS:;
#WARPS:;
#TIMESIGNATURES:0.000=4=4;
#TICKCOUNTS:0.000=4;
#COMBOS:0.000=1;
#SPEEDS:0.000=1.000=0.000=0;
#SCROLLS:0.000=1.000;
#FAKES:;
#LABELS:0.000=Song Start;
#BGCHANGES:;
#KEYSOUNDS:;
#ATTACKS:
;

//---------------dance-single - ----------------
#NOTEDATA:;
#CHARTNAME:;
#STEPSTYPE:dance-single;
#DESCRIPTION:;
#CHARTSTYLE:;
#DIFFICULTY:Hard;
#METER:11;
#RADARVALUES:0.416117,0.425026,0.057436,0.196923,0.201026,355.000000,348.000000,7.000000,24.000000,0.000000,0.000000,0.000000,0.000000,0.000000,0.416117,0.425026,0.057436,0.196923,0.201026,355.000000,348.000000,7.000000,24.000000,0.000000,0.000000,0.000000,0.000000,0.000000;
#CREDIT:;
#NOTES:
// measure 0
0000
0000
0000
0000
,  // measure 1
0000
0000
0000
0000
,  // measure 2
0000
0000
0000
0000
,  // measure 3
0000
0000
0000
0000
,  // measure 4
1000
0000
0100
0010
0000
0100
1000
0100
,  // measure 5
0010
0000
0001
0100
0000
0010
0100
0000
,  // measure 6
0020
0000
1030
0100
0000
0001
0100
1000
,  // measure 7
0001
0000
0010
1000
0000
0010
0001
0000
,  // measure 8
0001
0000
0100
0010
0000
0010
0100
0010
,  // measure 9
1000
0000
0100
0010
0000
0100
1000
0001
,  // measure 10
0100
0000
0100
0010
0000
0100
0010
0100
,  // measure 11
0001
0000
0010
1000
0000
0010
0001
0000
,  // measure 12
0202
0000
0000
0000
0303
0001
0010
0100
,  // measure 13
1000
0010
0100
0021
,  // measure 14
0230
0000
2000
0000
0300
0000
3001
0100
,  // measure 15
0010
0000
0010
1000
0100
0000
0010
0000
,  // measure 16
0022
0000
0000
0000
0033
0001
1000
0000
,  // measure 17
0120
0000
0001
0000
0030
0000
0100
0010
,  // measure 18
2000
0000
3200
0000
1300
0010
0100
0001
,  // measure 19
0020
0000
0000
0000
1000
0000
0000
0000
0031
0000
0010
0100
0010
0000
0000
0000
,  // measure 20
0010
0000
0001
0000
0000
0001
0000
0000
0001
0000
1000
0000
0010
0000
1000
0000
,  // measure 21
0010
0000
1000
0000
0000
1000
0000
0000
1000
0000
0000
0000
0002
0000
0000
0000
,  // measure 22
0013
0000
0100
0000
0000
0100
0000
0000
0100
0000
0000
0000
0010
0000
0000
0000
,  // measure 23
0001
0000
0010
0000
0000
0100
0000
0000
1000
0000
0000
0000
0010
0000
0000
0000
,  // measure 24
1000
0000
0001
0000
0000
0001
0000
0000
0001
0000
0000
0000
0100
0000
0010
0000
,  // measure 25
1000
0000
0100
0000
0000
0100
0000
0000
0100
0000
0000
0000
0010
0000
0000
0000
,  // measure 26
1200
0000
0010
0000
0301
0000
0010
0100
,  // measure 27
2000
0000
0000
3001
,  // measure 28
1100
0000
0010
0001
0000
0010
0100
1000
,  // measure 29
0001
0000
0100
0010
0000
1000
0010
0000
,  // measure 30
0200
0000
0310
0001
0000
0010
1000
0001
,  // measure 31
0020
0000
0000
0000
0130
0000
0010
0000
0000
0000
0100
0000
0000
1000
0000
0000
,  // measure 32
0001
0000
0000
0001
0000
0000
0001
0000
1000
0000
0000
1000
0000
0000
1000
0000
,  // measure 33
0010
0000
0000
0100
0000
0000
0010
0000
0000
0000
1000
0000
0000
0001
0000
0000
,  // measure 34
1000
0000
0000
1000
0000
0000
1000
0000
0001
0000
0000
0001
0000
0000
0001
0000
,  // measure 35
0100
0000
0000
0010
0000
0000
0100
0000
0000
0000
0001
1000
0001
0000
0000
0000
,  // measure 36
2000
0000
3010
0001
0000
0010
0100
0010
,  // measure 37
1000
0000
0001
0100
0000
0010
1000
0000
,  // measure 38
0010
0000
0001
0010
0000
0100
0010
0100
,  // measure 39
1000
0000
0000
0000
0100
0000
0001
0000
0000
0000
1000
0000
0000
0010
0000
0000
,  // measure 40
0100
0000
0000
0100
0000
0000
0100
0000
0001
0000
0000
0001
0000
0000
0001
0000
,  // measure 41
1000
0000
0000
0010
0000
0000
1000
0000
0000
0000
0001
0000
0000
1000
0000
0000
,  // measure 42
0010
0000
0000
0010
0000
0000
0010
0000
1000
0000
0000
1000
0000
0000
1000
0000
,  // measure 43
0001
0000
0000
0100
0000
0000
0001
0000
0000
0000
1000
0001
1000
0000
0000
0000
,  // measure 44
0001
0000
0000
0000
0100
0000
0000
0100
0001
0000
0000
0001
0100
0000
0000
0100
,  // measure 45
0010
0000
0000
0010
1000
0000
0000
1000
0010
0000
0000
0010
0200
0000
0000
0000
,  // measure 46
0000
0000
0000
0000
0310
0000
0000
0010
1000
0000
0000
1000
0010
0000
0000
0010
,  // measure 47
0100
0000
0000
0100
0001
0000
0000
0001
0100
0000
0000
0100
0010
0000
0000
0000
,  // measure 48
2000
0000
3010
0100
0010
0001
0010
0100
,  // measure 49
0000
0010
0100
1000
0100
0010
0100
0001
,  // measure 50
0000
1000
0001
0010
0001
1000
0001
0100
,  // measure 51
0000
0001
1000
0100
1000
0010
1000
0001
,  // measure 52
1000
0000
0000
0000
0001
0000
0000
0001
0100
0000
0000
0100
0010
0000
0000
0010
,  // measure 53
1000
0000
0000
1000
0010
0000
0000
0010
0100
0000
0000
0100
0002
0000
0000
0000
,  // measure 54
0000
0000
0000
0000
1003
0000
0000
1000
0010
0000
0000
0010
0100
0000
0000
0100
,  // measure 55
0001
0000
0000
0001
0100
0000
0000
0100
0010
0000
0000
0010
2000
0000
0000
0000
,  // measure 56
3001
0000
0100
0010
0100
1000
0100
0010
,  // measure 57
0000
0100
0010
0001
0010
0100
0010
1000
,  // measure 58
0000
0001
1000
0100
1000
0010
1000
0001
,  // measure 59
0000
1000
0001
0010
0001
0100
0001
0000
,  // measure 60
1001
0000
1000
0100
0001
1000
0010
0001
,  // measure 61
0000
0001
1000
0001
0100
1000
0001
0010
,  // measure 62
0000
1000
0001
1000
0100
0001
1000
0010
,  // measure 63
0000
0001
1000
0001
0010
0100
2000
0002
,  // measure 64
0000
0000
0000
3003
;

//---------------dance-single - ----------------
#NOTEDATA:;
#CHARTNAME:;
#STEPSTYPE:dance-single;
#DESCRIPTION:;
#CHARTSTYLE:;
#DIFFICULTY:Beginner;
#METER:2;
#RADARVALUES:0.111355,0.156923,0.065641,0.311795,0.000000,95.000000,87.000000,8.000000,38.000000,0.000000,0.000000,0.000000,0.000000,0.000000,0.111355,0.156923,0.065641,0.311795,0.000000,95.000000,87.000000,8.000000,38.000000,0.000000,0.000000,0.000000,0.000000,0.000000;
#CREDIT:;
#NOTES:
0000
0000
0000
0000
,
0000
0000
0000
0000
,
0000
0000
0000
0000
,
0000
0000
0000
0000
,
2000
3000
0000
0001
,
0002
0003
0000
0010
,
0010
0000
0100
0000
,
1000
0000
0100
0000
,
0200
0300
0000
1000
,
2000
3000
0000
0000
,
0002
0003
0000
0000
,
0200
0300
0000
0000
,
0020
0030
0000
1000
,
1000
0000
0000
0001
,
0001
0001
0000
0100
,
0100
0000
0010
0000
,
0010
0000
0000
0100
,
0100
0000
0000
0001
,
0002
0003
0000
0010
,
0010
0000
0000
0100
,
0200
0300
0000
0100
,
0200
0300
0000
1000
,
1000
0000
0001
0000
,
1000
0000
0001
0000
,
0020
0030
0000
0010
,
0020
0030
0000
0001
,
0002
0000
0003
0000
,
2000
0000
3000
0000
,
0020
0030
0000
0100
,
0200
0300
0000
0001
,
0002
0003
0000
1000
,
2000
3000
0000
0010
,
0010
0000
0000
0000
,
0010
0000
0000
0000
,
0100
0000
0000
0000
,
0000
0000
0000
1000
,
2000
3000
0000
0001
,
0002
0003
0000
0100
,
0200
0300
0000
0010
,
0020
0030
0000
0100
,
0100
0000
0000
0000
,
0100
0000
0000
0000
,
0010
0000
0000
0000
,
0000
0000
0000
0000
,
2002
0000
3003
0000
,
2002
0000
3003
0000
,
0220
0000
0330
0000
,
0220
0000
0330
0000
,
1000
0000
0000
0000
,
0001
0000
0000
0000
,
1000
0000
0000
0000
,
0000
0000
0000
0000
,
0220
0000
0330
0000
,
2002
0000
3003
0000
,
2002
0000
3003
0000
,
0220
0000
0330
0000
,
1000
0000
0000
0000
,
0001
0000
0000
0000
,
1000
0000
0000
0000
,
0000
0000
0000
0010
,
0010
0000
0000
0000
,
0000
1000
0000
0000
,
0000
0100
0000
0000
,
0000
0001
0000
0010
;

//---------------dance-double - ----------------
#NOTEDATA:;
#CHARTNAME:;
#STEPSTYPE:dance-double;
#DESCRIPTION:;
#CHARTSTYLE:;
#DIFFICULTY:Hard;
#METER:11;
#RADARVALUES:0.409084,0.425026,0.229744,0.369231,0.094359,349.000000,321.000000,28.000000,45.000000,0.000000,0.000000,0.000000,0.000000,0.000000,0.409084,0.425026,0.229744,0.369231,0.094359,349.000000,321.000000,28.000000,45.000000,0.000000,0.000000,0.000000,0.000000,0.000000;
#CREDIT:;
#NOTES:
00000000
00000000
00000000
00000000
,
00000000
00000000
00000000
00000000
,
00000000
00000000
00000000
00000000
,
00000000
00000000
00000000
00000000
,
00101000
00000000
00010000
00000100
00000000
00010000
00001000
00100000
,
00010000
00000000
00100000
00001000
00000000
00010000
00001000
00000100
,
00000001
00000000
00001000
00000010
00000000
00000100
00001000
00010000
,
01000000
00000000
00010000
00001000
00000000
00100000
01000000
00000000
,
00011000
00000000
00010000
00000100
00000000
00001000
00000010
00000100
,
00001000
00000000
00010000
00100000
00000000
00010000
00001000
00010000
,
00000010
00000000
00000100
00000001
00000000
00001000
00000010
00000100
,
00001000
00000000
00010000
01000000
00000000
10000000
01000000
00000000
,
00220000
00000000
00000000
00000000
00330000
01000000
00001000
00100000
,
00002000
00010000
00003100
00021000
,
00000100
00000000
00031000
00000000
00000010
00000001
00000100
00000010
,
00002000
00023000
20030000
30010000
,
20020000
00000000
00000000
00000000
30030000
01000000
00100000
00000000
,
02001000
00200000
03300000
00101000
,
00010100
00000000
00002020
00000000
00003030
00000001
00000100
00000010
,
00002000
00000000
00000000
00000000
00003010
00000000
00000000
00000000
00000100
00000000
00000000
00000001
00000010
00000000
00000000
00000000
,
00000100
00000000
00001000
00000000
00000000
00000010
00000000
00000000
00001010
00000000
00000100
00000000
00000001
00000000
00000010
00000000
,
00000100
00000000
00001000
00000000
00000000
00000100
00000000
00000000
00001100
00000000
00000000
00000000
00000020
00000000
00000000
00000000
,
00020030
00032000
01003000
01000000
,
20100000
00010000
31000000
01100000
,
10000000
00000000
00010000
00000000
00000000
00100000
00000000
00000000
00110000
00000000
00000000
00000000
01000000
00000000
00100000
00000000
,
10000000
00000000
00010000
00000000
00000000
01000000
00000000
00000000
01010000
00000000
00000000
00000000
00200000
00000000
00000000
00000000
,
00302000
00023000
00030000
00000010
,
00002002
00000000
00003003
00001100
,
00000101
00000000
00001000
00000010
00000000
00001000
00000100
00001000
,
00000010
00000000
00000100
00001000
00000000
00010000
01000000
00000000
,
10000000
00000000
00010000
00100000
00000000
00010000
01000000
00010000
,
00100000
00000000
00000000
00000000
01000000
00000000
10000000
00000000
00000000
00000000
00010000
00000000
00000000
00100000
00000000
00000000
,
01000000
00000000
00000000
01000000
00000000
00000000
01000000
00000000
10000000
00000000
00000000
10000000
00000000
00000000
10000000
00000000
,
01000000
00000000
00000000
00010000
00000000
00000000
00001000
00000000
00000000
00000000
00000010
00000000
00000000
00000001
00000000
00000000
,
00001000
00000000
00000000
00001000
00000000
00000000
00001000
00000000
00000100
00000000
00000000
00000100
00000000
00000000
00000100
00000000
,
00000010
00000000
00000000
00000010
00000000
00000000
00000010
00000000
00000000
00000000
00000001
00001000
00000001
00000000
00000000
00000000
,
00001100
00000000
00001000
00000010
00000000
00000100
00000001
00000010
,
00000001
00000000
00000100
00001000
00000000
00010000
01000000
00000000
,
10010000
00000000
00010000
00100000
00000000
01000000
10000000
01000000
,
00100000
00000000
00000000
00000000
00010000
00000000
01000000
00000000
00000000
00000000
01000000
00000000
00000000
00100000
00000000
00000000
,
10000000
00000000
00000000
10000000
00000000
00000000
10000000
00000000
00010000
00000000
00000000
00010000
00000000
00000000
00010000
00000000
,
01000000
00000000
00000000
00100000
00000000
00000000
00010000
00000000
00000000
00000000
00001000
00000000
00000000
00000010
00000000
00000000
,
00000001
00000000
00000000
00000001
00000000
00000000
00000001
00000000
00000100
00000000
00000000
00000100
00000000
00000000
00000100
00000000
,
00000010
00000000
00000000
00000010
00000000
00000000
00000010
00000000
00000000
00000000
00001000
00000001
00001000
00000000
00000000
00000000
,
00000101
00000020
00020030
00032000
,
20003000
30002000
00013000
00011000
,
00101000
00200000
00302000
00023000
,
00030002
00020003
00031000
00011000
,
00100000
00000000
00010000
01000000
00010000
00100000
00010000
10000000
,
00000000
10000000
00010000
01000000
00010000
00100000
00010000
10000000
,
00000000
01000000
00010000
00001000
00000100
00001000
00010000
00001000
,
00000000
00000100
00000001
00000100
00000010
00000100
00000001
00000000
,
00001001
00002000
00003200
02000300
,
03000200
00020300
00031000
00011000
,
01001000
00020000
02030000
03000200
,
02000300
03002000
00013000
00011000
,
00000010
00000000
00001000
00000100
00001000
00000010
00001000
00000001
,
00000000
00000001
00001000
00000010
00001000
00000100
00001000
00000001
,
00000000
00000100
00001000
00010000
01000000
00010000
00001000
00010000
,
00000000
01000000
10000000
00100000
10000000
00010000
10000000
00000000
,
10000000
00010000
01000000
00100000
00010000
00001000
00000100
00000001
,
00000000
00001000
00000010
00000100
00001000
00010000
01000000
10000000
,
00000000
01000000
00100000
00010000
01000000
00100000
00010000
00001000
,
00000000
00000010
00000001
00001000
00000010
00000100
00002000
00020000
,
00000000
00000000
00000000
00033000
;

//---------------dance-single - ----------------
#NOTEDATA:;
#CHARTNAME:;
#STEPSTYPE:dance-single;
#DESCRIPTION:;
#CHARTSTYLE:;
#DIFFICULTY:Medium;
#METER:9;
#RADARVALUES:0.364542,0.398462,0.065641,0.549744,0.073846,311.000000,303.000000,8.000000,67.000000,0.000000,0.000000,0.000000,0.000000,0.000000,0.364542,0.398462,0.065641,0.549744,0.073846,311.000000,303.000000,8.000000,67.000000,0.000000,0.000000,0.000000,0.000000,0.000000;
#CREDIT:;
#NOTES:
0000
0000
0000
0000
,
0000
0000
0000
0000
,
0000
0000
0000
0000
,
0000
0000
0000
0000
,
1000
0000
0100
0010
0000
0100
0010
0000
,
0001
0000
0100
0010
0000
1000
0010
0000
,
1000
0000
0001
0010
0000
0001
0010
0000
,
0100
0000
1000
0010
0000
0100
0001
0000
,
0100
0000
0010
1000
0000
0010
1000
0000
,
0001
0000
0100
0001
0000
1000
0010
0000
,
1000
0000
0001
0100
0000
0001
0100
0000
,
0010
0000
1000
0001
0000
0100
0010
0000
,
2200
0000
0000
0000
3300
0010
0100
0001
,
0020
0000
0000
0130
,
1000
0000
0202
0000
0303
0000
0010
1000
,
0001
1000
0010
0010
,
0220
0000
0000
0000
0330
0100
0010
1000
,
0200
1300
0000
1000
,
0002
0000
0103
0000
0000
0100
0010
0100
,
0020
0030
0000
1001
,
0010
0000
1000
0000
0000
0001
0000
0000
1000
0000
0010
0000
0100
0000
0001
0000
,
1000
0000
0001
0000
0000
1000
0000
0000
0001
0000
0000
0000
0200
0000
0000
0000
,
0320
2030
3002
1003
,
0002
2003
3020
0130
,
0001
0000
1000
0000
0000
0010
0000
0000
1000
0000
0000
0000
0001
0000
0000
0000
,
0010
0000
0001
0000
0000
0100
0000
0000
0001
0000
0000
0000
1000
0000
0000
0000
,
2200
0000
3300
0010
,
0022
0000
0033
1000
,
1001
0000
0001
0100
0000
0010
2000
0000
,
3002
0000
0103
0010
0000
1000
0002
0000
,
2003
0000
3010
0100
0000
0100
0002
0000
,
0023
0000
0230
0000
1300
0100
0010
0001
,
0010
0000
0000
0010
0000
0000
0010
0000
0100
0000
0000
0100
0000
0000
0100
0000
,
1000
0000
0000
0010
0000
0000
0100
0000
0000
0000
0001
0000
0000
1000
0000
0000
,
0001
0000
0000
0001
0000
0000
0001
0000
0100
0000
0000
0100
0000
0000
0100
0000
,
0010
0000
0000
1000
0000
0000
0001
0000
0000
0000
0000
0000
0200
0000
0000
0000
,
0320
0000
1030
0100
0000
0010
0002
0000
,
2003
0000
3001
0010
0000
0100
2000
0000
,
3020
0000
0130
0001
0000
0001
0010
0000
,
0200
0000
2300
0000
3001
1000
0010
0100
,
0001
0000
0000
0001
0000
0000
0001
0000
1000
0000
0000
1000
0000
0000
1000
0000
,
0010
0000
0000
0100
0000
0000
0001
0000
0000
0000
0100
0000
0000
0010
0000
0000
,
1000
0000
0000
1000
0000
0000
1000
0000
0001
0000
0000
0001
0000
0000
0001
0000
,
0100
0000
0000
0010
0000
0000
0100
0000
0000
0000
0000
0000
0002
0000
0000
0000
,
2003
3200
0302
0203
,
2300
3020
0130
0101
,
0002
0023
2030
3020
,
0032
0203
0320
2030
,
3100
1000
0100
1000
0100
0010
0100
0010
,
0000
0010
0001
0010
0001
0010
0100
0010
,
0000
0010
0100
0010
0100
1000
0100
0010
,
0000
0010
0001
0010
0001
0010
0100
0000
,
2000
3020
0230
2300
,
3200
0302
2003
3001
,
0002
0203
0320
0032
,
0023
2030
3002
1003
,
1000
0100
0010
0100
0010
0001
0010
0100
,
0000
0100
1000
0100
1000
0100
0010
0100
,
0000
0100
0010
0100
0010
0001
0010
0100
,
0000
0100
0010
0100
1000
0100
0010
0000
,
0001
1000
0010
1000
0010
0100
0001
0100
,
0000
0001
0100
0001
0100
0010
1000
0010
,
0000
1000
0010
1000
0010
0100
0001
0100
,
0000
0001
0100
0001
0100
0010
2000
0002
,
0000
0000
0000
3003
;

//---------------dance-single - ----------------
#NOTEDATA:;
#CHARTNAME:;
#STEPSTYPE:dance-single;
#DESCRIPTION:;
#CHARTSTYLE:;
#DIFFICULTY:Easy;
#METER:5;
#RADARVALUES:0.229744,0.261538,0.098462,0.516923,0.000000,196.000000,184.000000,12.000000,63.000000,0.000000,0.000000,0.000000,0.000000,0.000000,0.229744,0.261538,0.098462,0.516923,0.000000,196.000000,184.000000,12.000000,63.000000,0.000000,0.000000,0.000000,0.000000,0.000000;
#CREDIT:;
#NOTES:
0000
0000
0000
0000
,
0000
0000
0000
0000
,
0000
0000
0000
0000
,
0000
0000
0000
0000
,
0202
0000
0303
0020
,
2030
0000
3100
0010
,
0010
0001
0100
0010
,
0100
1000
0100
0000
,
0002
0000
0000
0000
0003
0010
0000
0200
,
0000
0000
2300
0000
0000
3001
0000
2000
,
0000
0000
3020
0000
0000
0230
0000
0302
,
0000
0000
1003
0000
0000
0010
0100
0000
,
2002
0000
3003
0010
,
0010
0000
0000
1000
,
0100
0001
0000
0100
,
1000
1000
0010
0100
,
0001
0000
0000
0000
0000
0010
0001
0000
,
0200
0002
0303
0020
,
2030
0000
0002
0000
3003
0010
0100
0010
,
0200
0000
0000
1300
,
1010
0000
0000
0000
0000
0100
0001
0100
,
0001
0000
0000
2000
,
3001
0100
0010
0010
,
0100
0001
1000
0010
,
1010
0000
0000
0001
,
0200
0320
0030
1000
,
0200
0320
0030
0001
,
1000
0000
0000
0010
,
2020
0000
3030
1000
,
0002
0000
0000
0000
0003
0010
0100
0000
,
2000
0000
0000
3100
,
1100
0000
0000
0000
0000
0010
0001
1000
,
0010
0000
0000
0000
,
0101
0000
0000
0000
,
1010
0000
0000
0000
,
0000
0000
0000
0000
0000
0010
0100
0000
,
0202
0000
0303
0001
,
2000
0000
0000
0000
3000
0000
0010
0100
,
0002
0000
0003
0010
,
0220
0000
0000
0000
0330
0100
1000
0001
,
0100
0000
0000
0000
,
0011
0000
0000
0000
,
1100
0000
0000
0000
,
0000
0000
0000
0000
0000
1000
0001
0000
,
2000
3020
0230
0302
,
0203
0320
2030
3001
,
1000
0002
0023
0230
,
2300
3200
0320
0031
,
1000
0010
0010
0001
,
0010
1000
1000
0010
,
0001
0010
0010
1000
,
0100
0010
0010
0001
,
1000
0002
0203
0320
,
2030
3020
0230
0301
,
1000
0002
2003
3020
,
0230
0320
2030
3001
,
0001
0100
0100
1000
,
0100
0001
0001
0100
,
1000
0100
0100
0001
,
0010
0100
0100
1000
,
0002
1000
1000
1003
,
2000
0001
0001
3001
,
0002
1000
1000
1003
,
2000
0001
0001
3001
;

//---------------dance-double - ----------------
#NOTEDATA:;
#CHARTNAME:;
#STEPSTYPE:dance-double;
#DESCRIPTION:;
#CHARTSTYLE:;
#DIFFICULTY:Easy;
#METER:6;
#RADARVALUES:0.239121,0.313846,0.139487,0.443077,0.000000,204.000000,187.000000,17.000000,54.000000,0.000000,0.000000,0.000000,0.000000,0.000000,0.239121,0.313846,0.139487,0.443077,0.000000,204.000000,187.000000,17.000000,54.000000,0.000000,0.000000,0.000000,0.000000,0.000000;
#CREDIT:;
#NOTES:
00000000
00000000
00000000
00000000
,
00000000
00000000
00000000
00000000
,
00000000
00000000
00000000
00000000
,
00000000
00000000
00000000
00000000
,
00000020
00000000
00000000
00001030
,
00000002
00000000
00000000
00000103
,
00001000
00010000
00100000
10000000
,
01000000
00010000
01000000
00000000
,
20000000
00000000
00000000
00000000
00000000
30100000
00000000
02000000
,
00000000
00000000
00000000
00000000
00000000
03002000
00000000
00023000
,
00000000
00000000
00000000
00000000
00000000
00030020
00000000
00000230
,
00000000
00000000
00000000
00000000
00000000
00000300
00001001
00000000
,
00000202
00000000
00000000
00000000
00000303
00000001
00000010
00000100
,
00002000
00000000
00000000
00003100
,
00010000
00000000
00001000
00000000
00000000
00000000
00100000
00010000
,
00100000
01000000
10000000
00100000
,
20200000
00000000
00000000
00000000
30300000
10000000
01000000
00000000
,
00200000
00320000
00030000
01000000
,
00002000
00000000
00023000
00000000
00030000
00000010
00001000
00000001
,
00000100
00000000
00000000
00000000
00000000
00000010
00000100
00000000
,
00001001
00000000
00000000
00000000
00000000
00000010
00010000
00000010
,
00010000
00000000
00000000
00001000
,
01000000
00100000
00010000
00001000
,
00000100
00000001
00000010
00001000
,
00020000
00000000
00000000
00031000
,
01000000
00100000
00000000
01000000
,
01020000
20000000
30030000
00100000
,
20200000
00000000
30300000
10020000
,
01030000
00000000
00100000
10000000
00000000
00100000
10000000
00000000
,
00010000
00000000
01000000
00010000
00000000
01000000
00010000
00000000
,
00100000
00000000
00001000
00010000
00000000
00001000
00010000
00000000
,
00000100
00000000
00001000
00000010
00000000
00000100
00000001
00000000
,
00001001
00000000
00000000
00000000
,
00000110
00000000
00000000
00000000
,
00001001
00000000
00000000
00000000
,
00000000
00000000
00000000
00000000
00000000
00000001
00000010
00000000
,
00000100
00000000
00001000
00000010
00000000
00001000
00000010
00000000
,
00010000
00000000
00001000
01000000
00000000
00001000
01000000
00000000
,
00100000
00000000
10000000
00010000
00000000
10000000
00010000
00000000
,
01000000
00000000
00100000
01000000
00000000
00010000
10000000
00000000
,
10010000
00000000
00000000
00000000
,
01100000
00000000
00000000
00000000
,
10010000
00000000
00000000
00000000
,
00000000
00000000
00000000
00000000
00000000
00100000
20000000
00000000
,
32000000
03020000
00032000
00003200
,
00000320
00002030
00003001
00002002
,
00003003
00000200
00002300
00023000
,
02030000
23000000
30010000
20020000
,
30030000
10000000
10000000
10000000
,
00000000
00010000
00010000
00010000
,
00000000
10000000
10000000
10000000
,
00000000
00010000
00010000
00010000
,
20000000
30200000
00320000
00032000
,
00003020
00000032
00000103
00000202
,
00000303
00000020
00002030
00023000
,
00230000
20300000
31000000
22000000
,
33000000
00100000
00100000
00100000
,
00000000
01000000
01000000
01000000
,
00000000
00001000
00001000
00001000
,
00000000
00010000
00010000
00010000
,
00000000
00000100
00010000
00001000
,
00000000
00100000
00001000
00010000
,
00000000
00000100
00010000
00001000
,
00000000
00100000
00001000
00010000
;

//---------------dance-double - ----------------
#NOTEDATA:;
#CHARTNAME:;
#STEPSTYPE:dance-double;
#DESCRIPTION:;
#CHARTSTYLE:;
#DIFFICULTY:Medium;
#METER:8;
#RADARVALUES:0.373919,0.423385,0.106667,0.278974,0.073846,319.000000,306.000000,13.000000,34.000000,0.000000,0.000000,0.000000,0.000000,0.000000,0.373919,0.423385,0.106667,0.278974,0.073846,319.000000,306.000000,13.000000,34.000000,0.000000,0.000000,0.000000,0.000000,0.000000;
#CREDIT:;
#NOTES:
00000000
00000000
00000000
00000000
,
00000000
00000000
00000000
00000000
,
00000000
00000000
00000000
00000000
,
00000000
00000000
00000000
00000000
,
00100000
00000000
00010000
01000000
00000000
01000000
00010000
00000000
,
00100000
00000000
00001000
00010000
00000000
00010000
00000100
00000000
,
00000010
00000000
00000001
00000100
00000000
00000010
00001000
00000000
,
00000010
00000000
00001000
00000010
00000000
00000100
00000001
00001000
,
00000010
00000000
00001000
00000010
00000000
00000010
00001000
00000000
,
00000100
00000000
00010000
00001000
00000000
00001000
01000000
00000000
,
00100000
00000000
10000000
01000000
00000000
00100000
00010000
00000000
,
01000000
00000000
00010000
00100000
00000000
01000000
10000000
00000000
,
20020000
00000000
00000000
00000000
30030000
10000000
01000000
00100000
,
02000000
00000000
03000000
00010000
,
00001000
00000000
00000100
00000000
00000000
00000000
00000001
00000100
,
00000101
00000010
00001100
00000010
,
00000200
00000000
00000000
00000000
00000300
00000010
00000100
00000000
,
00001000
00010000
00000000
01000000
,
00010000
00000000
00001000
00000000
00000000
01000000
00100000
10000000
,
00010000
00000000
00000000
00000000
00000000
01000000
00010000
00000000
,
10000000
00000000
00100000
00000000
00000000
00100000
00000000
00000000
00100000
00000000
01000000
00000000
00001000
00000000
01000000
00000000
,
00001000
00000000
00010000
00000000
00000000
00010000
00000000
00000000
00010000
00000000
00000000
00000000
00000100
00000000
00000000
00000000
,
00001100
00010100
00010000
00000010
,
00000100
00000101
00001001
00000110
,
00000010
00000000
00010000
00000000
00000000
00010000
00000000
00000000
00010000
00000000
00000000
00000000
00001000
00000000
00000000
00000000
,
01000000
00000000
00100000
00000000
00000000
00100000
00000000
00000000
00100000
00000000
00000000
00000000
01000000
00000000
00000000
00000000
,
00002000
00023000
00030000
00020000
,
00032000
00003000
00000000
00011000
,
00100000
00000000
00010000
01000000
00000000
01000000
00100000
00000000
,
10000000
00000000
01000000
00100000
00000000
00100000
00001000
00000000
,
00010000
00000000
00000100
00001000
00000000
00001000
00000010
00000000
,
00000100
00000000
00000001
00000010
00000000
00000100
00001000
00000100
,
00001000
00000000
00000000
00001000
00000000
00000000
00001000
00000000
00000001
00000000
00000000
00000001
00000000
00000000
00000001
00000000
,
00000100
00000000
00000000
00000100
00000000
00000000
00000100
00000000
00000000
00000000
00000010
00000000
00000000
00001000
00000000
00000000
,
00000100
00000000
00000000
00000100
00000000
00000000
00000100
00000000
00001000
00000000
00000000
00001000
00000000
00000000
00001000
00000000
,
00000001
00000000
00000000
00000001
00000000
00000000
00000001
00000000
00000000
00000000
00000000
00000000
00000100
00000000
00000000
00000000
,
00000010
00000000
00010000
00001000
00000000
00001000
00100000
00000000
,
00010000
00000000
01000000
00100000
00000000
00100000
01000000
00000000
,
00001000
00000000
00010000
00000100
00000000
00000100
00010000
00000000
,
00001000
00000000
01000000
00100000
00000000
00100000
10000000
00100000
,
10000000
00000000
00000000
10000000
00000000
00000000
10000000
00000000
00010000
00000000
00000000
00010000
00000000
00000000
00010000
00000000
,
01000000
00000000
00000000
01000000
00000000
00000000
01000000
00000000
00000000
00000000
00100000
00000000
00000000
01000000
00000000
00000000
,
00010000
00000000
00000000
00010000
00000000
00000000
00010000
00000000
00100000
00000000
00000000
00100000
00000000
00000000
00100000
00000000
,
01000000
00000000
00000000
01000000
00000000
00000000
01000000
00000000
00000000
00000000
10000000
00000000
00010000
00000000
00000000
00000000
,
20000000
32000000
03020000
00032000
,
00003020
00000032
00001003
00001001
,
00000002
00000203
00002300
00023000
,
00230000
20300000
30010000
10010000
,
00010000
01000000
00010000
01000000
00100000
10000000
00100000
10000000
,
00000000
10000000
00100000
10000000
00100000
01000000
00010000
01000000
,
00000000
01000000
00001000
01000000
00001000
00010000
00001000
00010000
,
00000000
00010000
00000100
00010000
00000100
00000010
00000001
00000000
,
00000002
00000203
00002300
00023000
,
00230000
20300000
30010000
10010000
,
20000000
32000000
03020000
00032000
,
00003020
00000032
00001003
00001001
,
00000001
00000100
00000001
00000100
00000010
00001000
00000010
00001000
,
00000000
00001000
00000100
00001000
00000100
00000010
00000100
00000010
,
00000000
00000010
00000100
00000010
00000100
00010000
00000100
00010000
,
00000000
00010000
00001000
00010000
00001000
01000000
00100000
00000000
,
00100000
00001000
00100000
00001000
00010000
00001000
00010000
00001000
,
00000000
00010000
00000010
00010000
00000010
00010000
00001000
00010000
,
00000000
00001000
00100000
00001000
00100000
00001000
00010000
00001000
,
00000000
00010000
00000010
00010000
00000010
00010000
00002000
00020000
,
00000000
00000000
00033000
00000000
;
