#VERSION:0.83;
#TITLE:Thank God I'm a Country Boy;
#SUBTITLE:;
#ARTIST:Hampton the Hampster;
#TITLETRANSLIT:;
#SUBTITLETRANSLIT:;
#ARTISTTRANSLIT:;
#GENRE:Eurodance;
#ORIGIN:;
#CREDIT:;
#BANNER:;
#BACKGROUND:;
#PREVIEWVID:;
#JACKET:;
#CDIMAGE:;
#DISCIMAGE:;
#LYRICSPATH:;
#CDTITLE:;
#MUSIC:Thank God I'm a Country Boy.ogg;
#OFFSET:0.010000;
#SAMPLESTART:47.920002;
#SAMPLELENGTH:12.000000;
#SELECTABLE:YES;
#BPMS:0.000=127.000;
#STOPS:61.500=0.709,
77.500=0.472,
93.500=0.472,
110.000=2.598,
142.000=0.472,
158.000=0.472,
174.000=1.417,
190.500=2.598,
222.500=0.472;
#DELAYS:;
#WARPS:;
#TIMESIGNATURES:0.000=4=4;
#TICKCOUNTS:0.000=4;
#COMBOS:0.000=1;
#SPEEDS:0.000=1.000=0.000=0;
#SCROLLS:0.000=1.000;
#FAKES:;
#LABELS:0.000=Song Start;
#BGCHANGES:;
#KEYSOUNDS:;
#ATTACKS:
;

//---------------dance-single - ----------------
#NOTEDATA:;
#CHARTNAME:;
#STEPSTYPE:dance-single;
#DESCRIPTION:;
#CHARTSTYLE:;
#DIFFICULTY:Challenge;
#METER:15;
#RADARVALUES:0.752544,0.721669,0.076468,0.076468,1.015328,620.000000,611.000000,9.000000,9.000000,0.000000,0.000000,0.000000,0.000000,0.000000,0.752544,0.721669,0.076468,0.076468,1.015328,620.000000,611.000000,9.000000,9.000000,0.000000,0.000000,0.000000,0.000000,0.000000;
#CREDIT:;
#NOTES:
0000
0000
0000
0000
,
0000
0000
0000
0000
,
0000
0000
0000
0000
,
0000
0000
0000
0000
0000
0000
0000
0010
,
1000
0000
0100
0010
0100
0000
1000
0100
0000
0100
0010
0000
0001
0000
0000
0010
,
0001
0010
0100
0000
0010
0001
0100
0010
1000
0001
0000
0001
1000
0000
0000
0000
,
0010
1000
0010
1000
0020
0000
0000
0000
0130
0001
0100
0001
0200
0000
0000
0000
,
0300
0000
0001
0000
0001
0000
1000
0010
1000
0010
1000
0000
0001
0000
0000
0001
,
1000
0000
0001
0100
0010
0100
0001
0100
0010
0000
1000
0100
0010
0100
1000
0000
,
0001
0000
0000
0001
1000
0100
1000
0001
1000
0100
0010
0001
0100
0010
0100
0001
,
0100
0000
0000
0100
0010
1000
0010
0000
0100
0000
0001
0010
0100
0010
0001
0010
,
0200
0000
0000
0000
0300
0000
1000
0000
1000
0000
0010
0100
0001
0100
0010
0000
,
1000
0000
0000
1000
0010
0000
1000
0100
0010
0000
0010
0001
0100
0000
0100
0010
,
1000
0001
1000
0001
1000
0010
0100
0001
0010
0000
0010
0100
0010
0100
0010
0001
,
0000
0100
0000
0001
0100
0010
0000
0000
1000
0000
0010
0000
0100
0001
0100
0001
,
1000
0010
1000
0010
0100
0000
0001
0000
0001
0000
1000
0000
1000
0010
1000
0010
,
0100
0000
0001
0000
0000
0001
1000
0000
0010
0100
0010
0000
0100
0000
0010
0000
,
0100
0010
0100
0010
0100
0010
0100
0000
0000
0001
1000
0000
0001
1000
0001
1000
,
0010
0100
0010
0100
0001
1000
0001
0000
1000
0100
0010
0000
0001
0000
0010
0000
,
0100
1000
0100
1000
0100
1000
0100
0000
1000
0000
1000
0000
0010
0100
0010
0100
,
0010
0000
0100
0000
0000
0001
1000
0000
0010
0000
0100
0000
0001
0010
0001
0100
,
0010
1000
0010
0000
1000
0100
1000
0000
0010
0100
0010
1000
0100
1000
0001
0010
,
0001
0100
0010
0100
0001
1000
0001
0000
0100
0010
0100
0010
1000
0010
1000
0000
,
0000
0100
0010
0000
0001
1000
0001
0000
0100
0000
0100
0000
0010
1000
0010
1000
,
0010
0000
0100
0000
0000
0100
0001
0000
0010
0001
0010
0000
0100
1000
0100
0000
,
0010
0001
0010
0001
0010
0000
0100
1000
0100
1000
0100
0000
1000
0010
1000
0010
,
1000
0010
0000
0100
0000
0001
0100
0010
0000
0000
0010
0000
1000
0000
0001
0100
,
0001
0100
0001
1000
0010
1000
0010
1000
0020
0000
0130
0000
0001
0000
0010
0100
,
0010
0100
0010
0000
0100
0000
0000
0100
1000
0000
0010
0000
1000
0100
1000
0010
,
1000
0001
1000
0010
1000
0000
0100
0000
0002
0000
0000
0000
0003
0100
0010
0000
,
0200
0000
0000
0000
1300
0010
1000
0001
1000
0010
0100
0000
0001
0000
0001
0010
,
0001
0000
0001
0100
0001
1000
0001
0100
0001
0000
0000
0000
0100
0010
0100
0000
,
0010
1000
0010
0000
2000
0000
0000
0000
3001
0100
0010
1000
0001
0010
0100
0010
,
0001
0000
1000
0100
0000
0100
0010
0000
0001
0000
0000
0000
1000
0100
0001
0100
,
1000
0000
0001
0100
1000
0100
0001
0000
1000
0000
0000
0000
0001
0010
1000
0010
,
0001
0000
1000
0010
0001
0010
1000
0000
1001
0000
0010
0000
0010
0000
0100
0001
,
0010
0001
0100
0000
0010
0000
0000
0010
1000
0000
1000
0100
0010
0100
1000
0100
,
0010
0100
1000
0100
0010
0000
0010
0000
0010
0000
0000
0001
0100
0010
0100
0001
,
0100
0010
0100
0001
0100
0000
0100
0010
1000
0000
1000
0100
0010
0001
0100
0010
,
1000
0100
0010
0001
0100
0010
1000
0000
0001
0000
0100
0000
0100
0000
0001
1000
,
0010
1000
0001
0000
1001
0000
0000
0010
0100
0000
0010
1000
0001
0100
0001
1000
,
0010
0000
0100
0001
1000
0010
1000
0001
0100
0010
0000
1000
0100
0010
0001
0100
,
0010
1000
0001
0100
0010
1000
0100
0010
0001
1000
0000
0010
0100
0010
0100
0010
,
0100
0000
0001
1000
0001
1000
0001
1000
0002
0000
1003
0000
0100
0000
0010
0100
,
1000
0010
0100
0000
0101
0000
0000
0001
0010
0000
0100
1000
0100
0000
1000
0010
,
1000
0001
1000
0010
0100
0001
0010
0001
0010
0001
0100
0010
1000
0100
1000
0010
,
0100
0001
0010
0100
0000
1000
0000
0010
0100
0001
0000
0000
0100
0000
0100
0000
,
0001
1000
0001
1000
0010
0100
0010
0100
0010
0000
2000
0000
3001
0000
0001
0000
,
1000
0100
0001
0100
1000
0000
1001
0000
0000
0010
0100
0000
0010
0000
1000
0100
,
0010
0100
1000
0001
0010
0100
0010
0000
0001
0000
1001
0000
0000
0000
0001
0100
,
0010
0000
0001
0000
0000
0000
1000
0010
0100
0000
1000
0000
0000
0000
0011
0000
,
0001
0100
0010
1000
0100
0010
0001
0000
1000
0000
0001
0000
0000
0000
0100
0010
,
0100
0000
0010
0100
0010
0000
1000
0001
1000
0001
1000
0001
1000
0000
0001
0100
,
0001
0000
0101
0000
1000
0010
0000
0010
1000
0000
1010
0000
0000
0000
0010
0100
,
0001
0100
0010
0000
0100
0010
1000
0010
0100
0000
0110
0000
0000
0000
0001
0100
,
0010
1000
0001
0000
0000
0000
1000
0100
0010
0001
1000
0000
0010
0000
0010
0000
,
0100
0001
1000
0001
0100
0001
1000
0100
0010
0001
1000
0000
0000
0000
0000
0000
;

//---------------dance-single - ----------------
#NOTEDATA:;
#CHARTNAME:;
#STEPSTYPE:dance-single;
#DESCRIPTION:;
#CHARTSTYLE:;
#DIFFICULTY:Hard;
#METER:11;
#RADARVALUES:0.428465,0.481112,0.016993,0.016993,0.101958,353.000000,351.000000,2.000000,2.000000,0.000000,0.000000,0.000000,0.000000,0.000000,0.428465,0.481112,0.016993,0.016993,0.101958,353.000000,351.000000,2.000000,2.000000,0.000000,0.000000,0.000000,0.000000,0.000000;
#CREDIT:;
#NOTES:
0000
0000
0000
0000
,
0000
0000
0000
0000
,
0000
0000
0000
0000
,
0000
0000
0000
0000
0000
0000
0000
1000
,
0100
0000
0010
0000
0001
0000
0000
0001
1000
0000
0010
0000
0100
0000
0000
0100
,
0010
0000
1000
0000
0001
0000
0010
0000
0001
1000
0000
0000
0010
0000
0000
0000
,
0100
0001
1000
0000
0010
1000
0100
0000
,
0000
0010
0010
0100
1000
0001
0000
0000
,
0000
0000
0000
0100
0010
0000
0100
0000
0001
0000
1000
0000
0010
0000
0100
0000
,
0010
0000
1000
0100
0010
0000
0001
0100
,
0001
0000
0000
0001
1000
0000
0100
0000
0010
0000
0100
0000
1000
0000
0010
0000
,
0100
0000
0000
0001
0001
0010
0100
1000
,
0000
0000
0000
0000
0000
0000
0001
1000
0001
0000
0100
0010
0100
0000
0001
0000
,
1000
0000
0010
0000
0100
0000
0001
0010
0001
0000
1000
0100
1000
0000
0001
0000
,
0100
0010
1000
0000
0010
0010
0100
0100
,
0001
0001
1000
1000
0010
0100
0001
1000
,
0001
0000
0000
0000
0000
0100
0001
0100
,
0010
0100
0001
0100
0000
0010
1000
0010
,
0100
0010
1000
0010
0000
1000
0100
0001
,
0100
1000
0010
0100
0001
0001
1000
0010
,
1000
0000
0000
0000
0001
0010
0001
0010
,
0100
1000
0100
1000
0010
1000
0010
1000
,
0001
0100
0001
0100
0010
0100
0010
0100
,
0000
0001
1000
0001
1000
1000
0001
0100
,
0001
0000
0000
0000
0000
0000
0000
0000
0100
0001
0100
0000
0010
1000
0010
0000
,
0100
0000
0001
0000
1000
0000
0010
0000
0100
0010
0100
0000
0001
1000
0001
0000
,
0100
0010
1000
0001
0000
1000
1000
0100
,
0100
0010
0010
0001
0001
0100
0100
0010
,
1000
0010
0000
0000
0000
0000
0100
0001
,
0100
0000
0001
0000
1000
0000
0010
0000
0100
0000
0000
0000
0000
0010
1000
0000
,
0010
0000
0100
0001
0100
0000
0001
0010
,
0001
0000
0000
0000
1000
0000
0100
0000
1000
0000
0000
0000
0010
0100
0010
0000
,
1000
0001
1000
0000
0020
0000
0000
0000
0000
0000
0000
0000
0130
0000
0001
0000
,
0100
0000
0001
0010
0001
0000
1000
0100
,
1000
0000
0010
1000
0010
0000
0100
0001
,
1000
0000
0010
1000
0100
0010
0010
0001
,
1000
0100
0000
0000
0000
0010
0010
0000
,
0000
0000
0000
0000
0000
0000
0000
0000
0000
0000
0000
0100
1000
0000
0000
0000
,
0000
0000
0000
0000
0000
0000
0000
0000
0000
0000
0000
0001
0010
0000
0000
0000
,
0000
0000
0000
0000
1001
0010
0010
0100
,
0001
0000
0100
0000
0000
0000
0000
0010
1000
0000
0010
0000
0100
0000
0001
0000
,
0100
0010
1000
0010
1000
0000
0100
1000
,
0100
0010
0001
0010
0001
0000
0100
0001
,
1000
0010
1000
0001
0100
0010
0010
1000
,
0001
0000
1000
0000
0000
0000
0000
0000
0000
0000
0010
0100
0010
0000
1000
0100
,
1000
0000
0001
0000
0100
0000
0001
0000
0010
0000
0001
1000
0001
0000
0100
0001
,
0100
0010
0100
0010
1000
0000
0010
0010
,
0100
0100
0001
0001
1000
1000
0001
0001
,
1000
0000
0100
0000
0010
0000
0011
0000
0000
0010
0001
0000
0000
0000
1000
0000
,
0010
0100
0001
0010
0001
1000
0000
0001
,
0100
1000
0000
0001
0010
1000
0000
0010
,
0100
0001
1000
0001
0010
0001
0000
1000
,
1000
0100
0100
0020
0000
0000
0000
0031
,
0100
0001
0000
1000
1000
0010
0000
1000
,
0100
1000
0000
0001
0001
0010
0000
0001
,
0100
1000
0000
1000
0100
0001
1000
1000
,
0001
0100
0001
1000
0010
0100
0000
0000
;

//---------------dance-single - ----------------
#NOTEDATA:;
#CHARTNAME:;
#STEPSTYPE:dance-single;
#DESCRIPTION:;
#CHARTSTYLE:;
#DIFFICULTY:Medium;
#METER:7;
#RADARVALUES:0.309514,0.360834,0.033986,0.033986,0.000000,255.000000,251.000000,4.000000,4.000000,0.000000,0.000000,0.000000,0.000000,0.000000,0.309514,0.360834,0.033986,0.033986,0.000000,255.000000,251.000000,4.000000,4.000000,0.000000,0.000000,0.000000,0.000000,0.000000;
#CREDIT:;
#NOTES:
0000
0000
0000
0000
,
0000
0000
0000
0000
,
0000
0000
0000
0000
,
0000
0000
0000
0000
,
1000
0100
1000
0000
1000
0010
1000
0000
,
0010
0000
0100
0000
0010
0100
0001
0000
,
0001
0100
0001
0000
0001
0010
0001
0000
,
0000
2000
3002
0003
,
0000
0000
0100
0001
0100
0000
0100
0010
,
0100
0000
0010
0000
1000
0000
0001
0100
,
0010
0000
0010
1000
0010
0000
0010
0100
,
0010
0000
2000
3002
,
0003
0000
1000
0100
,
0010
0001
0010
0000
0001
0000
0010
0000
,
0100
1000
0100
0000
1000
0000
1000
0000
,
0001
0000
0001
0001
0000
1000
0000
0001
,
0000
0000
0000
0000
0000
1000
0100
1000
,
0000
1000
0001
1000
0000
0001
0100
0001
,
0000
0001
1000
0001
0000
0100
0010
0100
,
0000
0010
0100
0010
0000
1000
0000
0001
,
0000
0000
0000
0000
0000
1000
0100
1000
,
0000
0001
0100
0001
0000
1000
0010
1000
,
0000
0001
0010
0001
0000
1000
0001
1000
,
0000
0001
1000
0001
0000
0100
0000
0010
,
0000
0000
0000
0000
0000
1000
0000
0100
,
0000
0010
0000
0001
0000
0001
0000
0100
,
0000
0010
0000
1000
0000
0010
0100
0010
,
0100
0001
1000
0001
0001
0000
0100
0000
,
0010
0000
0000
1000
,
0100
0000
1000
1000
0010
0000
0000
0100
,
0001
0000
0000
1000
0010
0000
0100
0000
,
0001
0000
0010
0010
0001
0000
0100
0010
,
0100
0010
0100
0000
0000
0000
0010
0000
,
1000
0000
1010
1000
0001
0000
0100
0000
,
0001
0000
0101
0001
1000
0000
0010
0000
,
0100
0000
0110
0100
0001
0000
1000
0000
,
0010
0000
0000
0000
0000
0000
0100
0001
,
0100
0001
0100
0001
0100
0000
0010
1000
,
0010
1000
0010
1000
0010
0000
0100
0001
,
0100
0000
0010
1000
0010
0000
1000
0000
,
0001
0000
0000
0000
0000
0000
1000
0100
,
1000
0000
1000
0010
1000
0000
0010
0000
,
0100
0000
0010
0100
0001
0000
0001
0010
,
0001
0000
0001
1000
0001
0000
0100
0000
,
0010
0000
0000
1000
,
0100
0010
0001
0001
,
0100
0000
0010
0000
1000
0000
0010
0100
,
0010
0100
0001
1000
0001
0001
0000
1000
,
0000
0001
0000
0000
0000
0000
0000
0100
,
0001
0100
0010
0100
0001
0100
0000
0010
,
0000
0010
0000
1000
0000
1000
0000
0010
,
1000
0010
0100
0010
1000
0010
0000
1000
,
0000
0001
0000
1001
0000
0000
0000
1000
,
0100
0010
0000
0010
0010
0100
0000
1000
,
0001
0100
0000
0100
0001
1000
0000
0001
,
0100
0010
0000
0010
0010
0100
0000
0001
,
0000
1000
0000
0010
0000
0100
0000
0000
;

//---------------dance-double - ----------------
#NOTEDATA:;
#CHARTNAME:;
#STEPSTYPE:dance-double;
#DESCRIPTION:;
#CHARTSTYLE:;
#DIFFICULTY:Challenge;
#METER:16;
#RADARVALUES:0.788958,0.745724,0.246397,0.042482,1.062058,650.000000,621.000000,29.000000,5.000000,0.000000,0.000000,0.000000,0.000000,0.000000,0.788958,0.745724,0.246397,0.042482,1.062058,650.000000,621.000000,29.000000,5.000000,0.000000,0.000000,0.000000,0.000000,0.000000;
#CREDIT:;
#NOTES:
// measure 0
00000000
00000000
00000000
00000000
,  // measure 1
00000000
00000000
00000000
00000000
,  // measure 2
00000000
00000000
00000000
00000000
,  // measure 3
00000000
00000000
00000000
00000000
00000000
00000000
00000000
00000001
,  // measure 4
00000010
00000000
00000001
00000100
00000001
00000000
00001000
00000100
00000000
00000100
00000010
00000000
00001000
00000000
00000000
00010000
,  // measure 5
00100000
10000000
00100000
10000000
00100000
01000000
00100000
01000000
00010000
00100000
00000000
00000000
11000000
00000000
00000000
00000000
,  // measure 6
10000000
00010000
10000000
00010000
00000000
00000000
00000000
00000000
01000000
00100000
01000000
00100000
02000000
00000000
00000000
00000000
,  // measure 7
00000000
00000000
00010000
00000000
03010000
00000000
10000000
00010000
01000000
00010000
10000000
00000000
10010000
00000000
00000000
00100000
,  // measure 8
01000000
00000000
00100000
10000000
01000000
00100000
01000000
10000000
01000000
00000000
00010000
00001000
00000100
00001000
00010000
00000000
,  // measure 9
00001000
00000000
00000000
00000100
00000001
00001000
00000001
00000010
00000001
00001000
00000001
00000100
00000010
00001000
00000100
00001000
,  // measure 10
00000010
00000000
00000000
00000100
00000001
00000010
00000100
00000000
00001000
00000000
00000010
00000100
00000001
00000100
00000010
00001000
,  // measure 11
00000200
00000000
00000000
00000000
00000000
00000000
00001000
00000000
00001300
00000000
00000001
00001000
00000100
00001000
00000001
00000000
,  // measure 12
00001001
00000000
00000000
00000100
00000010
00000000
00001000
00000001
00000100
00000000
00001000
00010000
01000000
00000000
00010000
00001000
,  // measure 13
00000100
00000001
00000100
00000000
00001000
00010000
01000000
00010000
00001000
00000100
00000001
00000100
00001000
00010000
01000000
00010000
,  // measure 14
00000000
00001000
00000000
00000100
00000001
00000100
00000000
00000000
00001000
00000000
00010000
00000000
01000000
10000000
01000000
00010000
,  // measure 15
00001000
00010000
01000000
10000000
01000000
00000000
01000000
00000000
10000000
00000000
10100000
00000000
00010000
10000000
00100000
10000000
,  // measure 16
00010000
00000000
01010000
00000000
00000000
00100000
10000000
00000000
00010000
01000000
00010000
00000000
00010000
10000000
00010000
00000000
,  // measure 17
10000000
01000000
10000000
00010000
10000000
00100000
10000000
00000000
00000000
00100000
00010000
00000000
00001000
00000010
00001000
00010000
,  // measure 18
00001000
00000010
00000001
00000100
00000001
00001000
00000001
00000000
00001000
00000100
00000010
00000000
00000010
00000100
00001000
00000000
,  // measure 19
00000010
00000100
00001000
00010000
01000000
00010000
00001000
00000000
00000100
00000000
00000101
00000000
00000001
00001000
00000010
00001000
,  // measure 20
00000001
00000000
00001010
00000000
00000000
00000100
00000001
00000000
00001000
00000000
00000010
00000000
00001000
00000100
00000010
00000100
,  // measure 21
00001000
00000100
00000010
00000100
00010000
00001000
00010000
00000000
00001000
01000000
00100000
01000000
00001000
01000000
00100000
01000000
,  // measure 22
00001000
00010000
00100000
10000000
00100000
00010000
00001000
00000000
01000000
00010000
10000000
00010000
10000000
00010000
01000000
00000000
,  // measure 23
00000000
00100000
10000000
00000000
00010000
10000000
00010000
00000000
10000000
00000000
11000000
00000000
00100000
00010000
10000000
00010000
,  // measure 24
00100000
00000000
01010000
00000000
00000000
00100000
10000000
00000000
00010000
10000000
01000000
00000000
00010000
00001000
00000100
00000000
,  // measure 25
00001000
00010000
01000000
10000000
01000000
00000000
00010000
00001000
00000100
00001000
00010000
01000000
10000000
01000000
00010000
00001000
,  // measure 26
00000100
00001000
00000000
00010000
00000000
01000000
10000000
01000000
00000000
00000000
00010000
00000000
00001000
00000000
00000100
00000001
,  // measure 27
00000100
00001000
00010000
00001000
00000100
00000001
00000100
00000000
00000100
00000000
00001000
00000000
00001010
00000000
00000100
00000001
,  // measure 28
00001000
00000001
00000100
00000000
00000011
00000000
00000000
00000001
00001000
00000000
00000010
00000000
00000100
00000001
00000100
00000010
,  // measure 29
00000100
00001000
00010000
00001000
00000100
00000000
00000010
00000000
00000200
00000000
00000000
00000000
00001300
00010000
01000000
00000000
,  // measure 30
01010000
00000000
00000000
00000000
00010000
00001000
00000100
00001000
00010000
01000000
10000000
01000000
00010000
00000000
00010000
00001000
,  // measure 31
00000010
00000000
00000000
00000000
00000000
00000000
00000010
00000000
00000000
00000001
00000000
00000000
00001000
00000000
00000000
00000010
00000000
00000000
00000100
00000000
00000000
00000001
00000000
00000000
00000100
00000000
00000000
00000000
00000000
00000000
00000000
00000000
00000000
00000000
00000000
00000000
00000010
00000000
00001000
00000000
00000010
00000000
00001000
00000000
00000000
00000000
00000000
00000000
,  // measure 32
00000100
00000000
00010000
00000000
00000100
00000000
00010000
00000000
00000000
00000000
00000000
00000000
00001000
00000000
00000000
00100000
00000000
00000000
00001000
00000000
00000000
00100000
00000000
00000000
00010000
00000000
00000000
01000000
00000000
00000000
00010000
00000000
00000000
01000000
00000000
00000000
00100000
00000000
00000000
00000000
00000000
00000000
10000000
00000000
00000000
00100000
00000000
00000000
,  // measure 33
10000000
00000000
00010000
01000000
00000000
01000000
00010000
00000000
10010000
00000000
00000000
00000000
00100000
00001000
00100000
00001000
,  // measure 34
00100000
00000000
00001000
00000000
00010000
00000100
00010000
00000100
00010000
00000000
00000000
00000000
00000010
00001000
00000001
00001000
,  // measure 35
00000010
00000000
00000000
00000100
00000001
00001000
00000010
00001000
00000001
00000000
00000100
00000000
00000101
00000000
00000010
00001000
,  // measure 36
00000001
00001000
00000010
00000000
00001100
00000000
00000000
00000010
00001000
00000000
00000001
00000100
00000010
00000100
00000010
00000100
,  // measure 37
00000001
00001000
00000001
00001000
00000010
00000000
00000100
00000000
00011000
00000000
00000000
01000000
00100000
01000000
00100000
01000000
,  // measure 38
00010000
10000000
00010000
10000000
00100000
00000000
01000000
00001000
00010000
00000100
00001000
00000000
00000010
00000100
00000010
00000000
,  // measure 39
00000100
00000010
00001000
00000001
00001000
00000001
00001000
00000001
00001000
00000000
00000001
00000000
00000001
00000000
00000100
00000001
,  // measure 40
00000100
00000001
00000100
00000000
00001010
00000000
00000000
00000010
00001000
00000000
00000000
00000001
00001000
00000100
00000010
00000100
,  // measure 41
00001000
00000100
00000010
00000100
00001000
00000000
00000100
00010000
00001000
01000000
00000000
01000000
00010000
00100000
01000000
00100000
,  // measure 42
00010000
00100000
01000000
00100000
00010000
00000000
00100000
01000000
10000000
00100000
00000000
01000000
00001000
00010000
00000100
00001000
,  // measure 43
00000010
00000100
00000001
00000010
00000100
00010000
00001000
01000000
00200000
00000000
10300000
00000000
10000000
00000000
00100000
10000000
,  // measure 44
00100000
10000000
00100000
00000000
01010000
00000000
00000000
00010000
10000000
00000000
00010000
10000000
00100000
00000000
00010000
00001000
,  // measure 45
00000010
00000000
00001000
00010000
00100000
10000000
00100000
00000000
00010000
00001000
00000010
00001000
00010000
00100000
10000000
00100000
,  // measure 46
00010000
00001000
00000010
00001000
00000000
00010000
00000000
00100000
10000000
00100000
00000000
00000000
00010000
00000000
00001000
00000000
,  // measure 47
00000010
00000001
00000010
00001000
00010000
00001000
00000010
00000001
00000010
00000000
00000020
00000000
00000031
00000000
00001001
00000000
,  // measure 48
00001000
00000010
00000100
00000001
00001000
00000000
00001001
00000000
00000000
00000010
00000100
00000000
00000001
00000010
00000001
00001000
,  // measure 49
00000001
00000010
00000001
00000100
00001000
00000100
00000001
00000000
00000100
00000000
00010010
00000000
00000000
00000000
00010000
00001000
,  // measure 50
01000000
00000000
01001000
00000000
00000000
00000000
00010000
00000010
00001000
00000000
00001010
00000000
00000000
00000000
00010100
00000000
,  // measure 51
00010000
00000000
00000000
00001000
00000000
00000000
01000000
00000000
00000000
00100000
00000000
00000000
01000000
00000000
00000000
00001000
00000000
00000000
00010000
00000000
00000000
00000000
00000000
00000000
00100000
00000000
00000000
00000000
00000000
00000000
11000000
00000000
00000000
00000000
00000000
00000000
00000000
00000000
00000000
00000000
00000000
00000000
00100000
00000000
01000000
00000000
00100000
00000000
,  // measure 52
01000000
00000000
00000000
00000000
00000000
00000000
00010000
00000000
10000000
00000000
00010000
00000000
10000000
00000000
00000000
00000000
00000000
00000000
00010000
00000000
00000000
00100000
00000000
00000000
00010000
00000000
00000000
00100000
00000000
00000000
00010000
00000000
00000000
00100000
00000000
00000000
00010000
00000000
00000000
00100000
00000000
00000000
01000000
00000000
00000000
10000000
00000000
00000000
,  // measure 53
01000000
00000000
11000000
00000000
10000000
00100000
00000000
00100000
00010000
00000000
00011000
00000000
00000000
00000000
00001000
00000010
,  // measure 54
00000001
00000010
00000100
00000010
00000001
00000100
00000010
00000100
00001000
00000100
00000010
00000000
00000000
00000000
00001000
00000010
,  // measure 55
00000100
00000000
00000101
00000000
00000000
00000001
00000010
00000100
00001000
00000000
00001100
00000000
00000010
00000000
00000010
00000000
,  // measure 56
00010000
00001000
00010000
00001000
01000000
00100000
10000000
00010000
01000000
00100000
10000000
00000000
00000000
00000000
00000000
00000000
;

//---------------dance-single - ----------------
#NOTEDATA:;
#CHARTNAME:;
#STEPSTYPE:dance-single;
#DESCRIPTION:;
#CHARTSTYLE:;
#DIFFICULTY:Easy;
#METER:5;
#RADARVALUES:0.205129,0.216501,0.008496,0.084965,0.000000,169.000000,168.000000,1.000000,10.000000,0.000000,0.000000,0.000000,0.000000,0.000000,0.205129,0.216501,0.008496,0.084965,0.000000,169.000000,168.000000,1.000000,10.000000,0.000000,0.000000,0.000000,0.000000,0.000000;
#CREDIT:;
#NOTES:
0000
0000
0000
0000
,
0000
0000
0000
0000
,
0000
0000
0000
0000
,
0000
0000
0000
0000
,
0010
0100
0010
0010
,
0100
0010
0100
0100
,
0001
0000
1000
0000
,
0000
0001
1000
0000
,
0000
0001
0010
0001
,
0001
1000
0100
1000
,
1000
0010
0000
0100
,
0000
0000
0010
0100
,
0000
0000
0001
1000
,
0100
0100
1000
0001
,
0010
0010
0001
0010
,
0100
0000
1000
0000
0000
0010
0000
0100
,
0000
0000
0000
0000
0000
0001
0000
0001
,
0000
1000
0000
1000
0000
0001
0000
1000
,
0000
0010
0000
0100
0000
0010
0000
0010
,
0000
0100
0000
0100
0000
0001
0000
1000
,
0000
0000
0000
0000
0000
0010
0000
1000
,
0000
0010
0000
1000
0000
0001
0000
0100
,
0000
0001
0000
0100
0000
0010
0000
1000
,
0000
1000
0000
0010
0000
0100
0000
0001
,
0000
0000
0000
0000
0000
1000
0000
0001
,
0000
0100
0000
0100
0000
0001
0000
1000
,
0000
0010
0000
0010
0000
1000
0000
0100
,
0000
0010
0000
0002
0003
0000
1000
0000
,
0001
0000
0000
0100
,
0001
0010
0000
0100
,
0000
0100
0000
0010
,
1000
0100
0000
1000
,
0100
0010
0000
0001
,
0001
1000
1000
0001
,
1000
0010
0100
0010
,
0010
0100
0100
0000
,
0000
0000
0000
0002
,
0003
0000
0000
2000
,
3000
0000
0000
0020
,
0030
0000
0000
0000
0220
0330
1000
0000
,
0001
0000
0000
0100
,
0001
0100
0001
1000
,
0010
1000
0010
0100
,
0001
0001
0100
0010
,
1000
0000
0000
0001
,
1000
0100
0100
1000
,
0001
0010
0010
0001
,
0100
0000
0010
0000
2000
0000
3000
1000
,
0000
0001
0000
0000
0000
0000
0000
0100
,
0000
0001
0000
0100
0000
0010
0000
0010
,
0000
1000
0000
1000
0000
0010
0000
0100
,
0000
0001
0000
1000
0000
0010
0000
2000
,
0000
3002
0000
0203
0000
0300
0000
0010
,
0000
0010
0000
0100
0000
0100
0000
0010
,
0000
0100
0000
0010
0000
0100
0000
0001
,
0000
0001
0000
1000
0000
1000
0000
0010
,
0000
0100
0000
0001
0000
1000
0000
0000
;

//---------------dance-single - ----------------
#NOTEDATA:;
#CHARTNAME:;
#STEPSTYPE:dance-single;
#DESCRIPTION:;
#CHARTSTYLE:;
#DIFFICULTY:Beginner;
#METER:3;
#RADARVALUES:0.097102,0.142741,0.025489,0.008496,0.000000,80.000000,77.000000,3.000000,1.000000,0.000000,0.000000,0.000000,0.000000,0.000000,0.097102,0.142741,0.025489,0.008496,0.000000,80.000000,77.000000,3.000000,1.000000,0.000000,0.000000,0.000000,0.000000,0.000000;
#CREDIT:;
#NOTES:
0000
0000
0000
0000
,
0000
0000
0000
0000
,
0000
0000
0000
0000
,
0000
0000
0000
0000
,
1000
0000
1000
0000
,
0010
0000
0010
0000
,
1000
0000
0010
0000
,
0000
0010
0000
0000
,
0000
0100
0000
0001
,
0000
0100
0000
0001
,
0000
0100
0000
0000
,
0000
0000
0001
0000
,
0000
0000
1000
0000
,
0001
0000
0001
0000
,
1000
0000
0010
0000
,
0000
0000
0000
0010
,
0000
0000
0000
0100
,
0000
0000
0000
0010
,
0000
0000
1000
0000
,
0000
0000
0000
0001
,
0000
0000
0000
0100
,
0000
0000
0010
0000
,
0000
0000
1000
0000
,
0000
0001
0000
0100
,
0000
0000
0010
0000
,
0010
0000
1000
0000
,
1000
0000
0001
0000
,
0000
0000
0000
0100
,
0000
0000
0000
0010
,
0000
1000
1000
0000
,
0001
0000
0001
0000
,
0000
0010
0010
0000
,
0000
0002
0000
0003
,
0000
0100
0100
0000
,
0000
0001
0001
0000
,
0000
1000
1000
0000
,
0000
0000
0000
0110
,
0000
0000
0000
1001
,
0000
0000
0000
0110
,
0000
0000
0010
0010
,
0000
0000
0000
1000
,
0000
0001
0000
0001
,
0000
1000
0000
0010
,
0000
0010
0000
0100
,
0000
0000
0000
0001
,
0000
1000
0000
0010
,
0000
0100
0000
0001
,
0000
0001
0000
0000
,
1000
0000
0000
0001
,
0000
0000
0000
0000
,
0100
0000
0000
0000
,
0010
0000
0000
0000
,
1000
0000
0000
0000
,
0100
0000
0100
0000
,
0000
0010
0000
0000
,
0001
0000
0001
0000
,
0100
0000
0000
0000
;

//---------------dance-double - ----------------
#NOTEDATA:;
#CHARTNAME:;
#STEPSTYPE:dance-double;
#DESCRIPTION:;
#CHARTSTYLE:;
#DIFFICULTY:Hard;
#METER:11;
#RADARVALUES:0.400548,0.481112,0.076468,0.016993,0.025489,330.000000,321.000000,9.000000,2.000000,0.000000,0.000000,0.000000,0.000000,0.000000,0.400548,0.481112,0.076468,0.016993,0.025489,330.000000,321.000000,9.000000,2.000000,0.000000,0.000000,0.000000,0.000000,0.000000;
#CREDIT:;
#NOTES:
00000000
00000000
00000000
00000000
,
00000000
00000000
00000000
00000000
,
00000000
00000000
00000000
00000000
,
00000000
00000000
00000000
00000000
,
00000100
00000001
00001000
00000000
00000010
00001000
00000001
00000000
,
00001000
00000100
00001000
00000000
00000001
00000100
00000001
00000000
,
00000100
00001000
00000000
00000000
00010000
01000000
10000000
00000000
,
00000000
00100000
00100000
01000000
00010000
10000000
00000000
00000000
,
00000000
00000000
00010000
00100000
01000000
00000000
10000000
01000000
,
00100000
00000000
00010000
00100000
00010000
00000000
10000000
00100000
,
10000000
00000000
10000000
00100000
00010000
00000000
00001000
00000010
,
00000001
00000000
00000000
00000001
00000001
00001000
00000100
00000010
,
00000000
00000000
00000000
00000010
00000100
00001000
00000100
00000010
,
00000100
00001000
00000100
00000010
00000001
00000100
00000001
00000010
,
00000001
00000100
00001000
00000000
00010000
01000000
10000000
00000000
,
00100000
01000000
00010000
00010000
10000000
10000000
00100000
10000000
,
00100000
00000000
00000000
00000000
01000000
00010000
01000000
00010000
,
00000000
00010000
00100000
00010000
00000000
10000000
01000000
10000000
,
00000000
10000000
00100000
10000000
00000000
00100000
00010000
00001000
,
00000010
00000001
00001000
00001000
00000001
00000001
00000100
00000001
,
00000100
00000000
00000000
00000000
00000010
00001000
00000010
00001000
,
00000001
00000100
00000001
00000100
00000010
00010000
00000010
00010000
,
00001000
00010000
00001000
00010000
00001000
01000000
00001000
01000000
,
00000000
00100000
10000000
10000000
00010000
00010000
00100000
00010000
,
00100000
00000000
00000000
00000000
00000000
00010000
00000000
01010000
,
00000000
00100000
10000000
00100000
00000000
10000000
00000000
11000000
,
00000000
00100000
00010000
00100000
00000000
00001000
00010000
00000100
,
00000010
00000001
00001000
00000001
00000001
00000100
00000100
00000010
,
00000100
00000010
00000000
00000000
00000000
00000000
00001000
00000100
,
00000010
00000001
00000010
00000100
00001000
00000000
00000010
00000100
,
00001000
00000000
00010000
00100000
10000000
00000000
00010000
01000000
,
00100000
10000000
00100000
01000000
00010000
00000000
10000000
01000000
,
00010000
00001000
00000200
00000000
00000000
00000000
00000301
00001000
,
00001010
00000000
00000100
00000001
00000101
00000000
00000001
00001000
,
00000001
00001000
00000010
00000100
00000010
00000000
00000100
00001000
,
00010000
00000000
01000000
10000000
01000000
10000000
10000000
00010000
,
10000000
00010000
00000000
00000000
00000000
01000000
01000000
00000000
,
00000000
00000000
00000000
00000000
00000000
00000000
00000000
00000000
00000000
00000000
00000000
00001000
00010000
00000000
00000000
00000000
,
00000000
00000000
00000000
00000000
00000000
00000000
00000000
00000000
00000000
00000000
00000000
00000010
00000100
00000000
00000000
00000000
,
00000000
00000000
00000000
00000000
00001001
00000010
00000010
00001000
,
00000010
00001000
00000000
00000000
00000000
00000000
00000001
00000100
,
00000010
00001000
00000100
00000010
00000001
00000000
00000100
00001000
,
00010000
00100000
10000000
01000000
00100000
00000000
00010000
01000000
,
00100000
10000000
01000000
00100000
00010000
01000000
01000000
00100000
,
01000000
00000000
00100000
00000000
00000000
00000000
00000000
00000000
00000000
00000000
10000000
01000000
10000000
00000000
00010000
01000000
,
00010000
00000000
00100000
00000000
00001000
00000000
00010000
00000000
00000100
00000000
00001000
00000010
00001000
00000000
00000001
00000010
,
00000001
00000100
00000010
00010000
00001000
00000000
01000000
00010000
,
01000000
00010000
10000000
00100000
10000000
10000000
00010000
00010000
,
00100000
00010000
00100000
00000000
00000000
00000000
00000000
00010000
,
01000000
10000000
01000000
00010000
00100000
01000000
00000000
10000000
,
00100000
00010000
00000000
00001000
00000010
00000001
00000000
00001000
,
00000100
00000001
00000100
00001000
00000010
00000100
00000000
00001000
,
00001000
00010000
00010000
02000000
00000000
00000000
00000000
13000000
,
00010000
01010000
00000000
00010000
10000000
11000000
00000000
00100000
,
00001000
00010000
00000100
00001000
00000010
00000100
00000000
00000001
,
00001000
00001100
00000000
00001000
00000001
00000101
00000010
00000010
,
00000100
00001000
00010000
01000000
10000000
00010000
00000000
00000000
;

//---------------dance-double - ----------------
#NOTEDATA:;
#CHARTNAME:;
#STEPSTYPE:dance-double;
#DESCRIPTION:;
#CHARTSTYLE:;
#DIFFICULTY:Medium;
#METER:7;
#RADARVALUES:0.308300,0.360834,0.008496,0.025489,0.000000,254.000000,253.000000,1.000000,3.000000,0.000000,0.000000,0.000000,0.000000,0.000000,0.308300,0.360834,0.008496,0.025489,0.000000,254.000000,253.000000,1.000000,3.000000,0.000000,0.000000,0.000000,0.000000,0.000000;
#CREDIT:;
#NOTES:
00000000
00000000
00000000
00000000
,
00000000
00000000
00000000
00000000
,
00000000
00000000
00000000
00000000
,
00000000
00000000
00000000
00000000
,
00100000
00000000
01000000
00000000
00010000
00010000
00010000
00000000
,
01000000
00000000
00100000
00000000
10000000
10000000
10000000
00000000
,
00100000
01000000
00000000
00000000
00001000
00010000
00001000
00000000
,
00000000
00010000
00000100
00000000
,
00000000
00000000
00000010
00000001
00000010
00000000
00000001
00001000
,
00000001
00000000
00001000
00000010
00001000
00000000
00000010
00000100
,
00000010
00000100
00001000
00010000
,
00100000
00000000
10000000
00010000
,
00000000
00000000
00000000
00000000
01000000
00010000
00100000
00000000
,
00100000
00010000
01000000
00000000
01000000
00100000
10000000
00000000
,
10000000
00100000
01000000
00000000
00010000
00000000
10000000
00000000
,
00100000
01000000
00100000
01000000
00000000
00001000
00000000
00010000
,
00000000
00000000
00000000
00000000
00000010
00001000
00000010
00000100
,
00000010
00001000
00000010
00000100
00000000
00000100
00000001
00000100
,
00000010
00000100
00000001
00000100
00000000
00000010
00000000
00010000
,
00000000
00001000
00000000
01000000
00000000
00100000
00000000
10000000
,
00000000
00000000
00000000
00000000
00000000
10000000
00100000
10000000
,
01000000
10000000
00100000
10000000
00000000
00010000
01000000
00010000
,
00100000
00010000
01000000
00010000
00000000
01000000
00000000
00000000
,
00000000
00001000
00000000
00010000
00000000
00000010
00000000
00000100
,
00000000
00000000
00000000
00000000
00000000
00000001
00000100
00000010
,
00000000
00000010
00000100
00000001
00000000
00001000
00000100
00000010
,
00000000
00000010
00000100
00001000
00000000
00000001
00000000
00000100
,
00000000
00001000
00000000
00010000
00000000
00000000
00100000
00000000
,
10000000
00000000
00000000
00000000
00000000
00000000
00010000
01000000
,
00010000
00100000
01000000
10000000
01000000
00000000
00000000
00000000
,
10000000
00000000
00010000
00000000
01000000
00000000
00001000
00010000
,
00000100
00000010
00000001
00001000
00000001
00000000
00000100
00000000
,
00000100
00000000
00000110
00000000
00000000
00000000
00000010
00010000
,
00001000
00000000
00001000
00010000
00000010
00000000
00010000
00001000
,
01000000
00000000
01000000
00001000
00010000
00000000
00001000
00100000
,
01000000
00000000
10000000
00100000
01000000
00000000
00001000
00000000
,
00010000
00000000
00000000
00000000
00000000
00000010
00000100
00000010
,
00000100
00000010
00000100
00000010
00000100
00000000
00000001
00001000
,
00000001
00001000
00000001
00001000
00000001
00000000
00000200
00000000
,
00000000
00000320
00000130
00000010
,
00010000
00000000
00000000
00000000
00000000
00000000
00001000
01000000
,
00001000
00010000
00001000
01000000
00001000
00000000
01000000
00001000
,
01000000
00010000
01000000
00001000
01000000
00000000
00100000
10000000
,
00010000
00000000
00010000
10000000
00100000
00000000
01000000
00000000
,
00010000
00000000
00000000
00000000
00000000
00000000
10000000
00100000
,
01000000
00000000
01000000
00100000
10000000
00000000
10000000
01000000
,
00010000
00000000
00001000
00000100
00000001
00000000
00000001
00000000
,
00000100
00000000
00000010
00000000
00001000
00001000
00000000
00000001
,
00000000
00000010
00000000
00000000
00000000
00000000
00000000
00001000
,
00000000
00010000
00000000
00100000
10000000
00100000
00000000
01000000
,
00000000
00010000
00000000
10000000
00100000
10000000
00000000
00100000
,
00000000
00010000
00000000
00001000
00000100
00001000
00000000
00000100
,
00000000
00000100
00000000
00000002
00000000
00000000
00000000
00001003
,
00000010
00010000
00000000
00010000
00000010
00001000
00000000
00001000
,
00000100
00010000
00000000
00010000
00000100
00001000
00000000
00010000
,
00000000
00100000
00000000
10000000
00000000
00010000
00000000
01000000
,
00000000
01000000
00000000
00001000
00010000
00000010
00000000
00000000
;

//---------------dance-double - ----------------
#NOTEDATA:;
#CHARTNAME:;
#STEPSTYPE:dance-double;
#DESCRIPTION:;
#CHARTSTYLE:;
#DIFFICULTY:Easy;
#METER:5;
#RADARVALUES:0.207557,0.240556,0.042482,0.016993,0.000000,171.000000,166.000000,5.000000,2.000000,0.000000,0.000000,0.000000,0.000000,0.000000,0.207557,0.240556,0.042482,0.016993,0.000000,171.000000,166.000000,5.000000,2.000000,0.000000,0.000000,0.000000,0.000000,0.000000;
#CREDIT:;
#NOTES:
00000000
00000000
00000000
00000000
,
00000000
00000000
00000000
00000000
,
00000000
00000000
00000000
00000000
,
00000000
00000000
00000000
00000000
,
00000001
00001000
00000001
00000001
,
00001000
00000001
00001000
00001000
,
00000010
00000000
00010000
00000000
,
00000000
00001000
00100000
00000000
,
00000000
00010000
01000000
00010000
,
00010000
10000000
00100000
10000000
,
10000000
00010000
01000000
00010000
,
00010000
00000000
01000000
00001000
,
00000000
00000000
00010000
00000100
,
00001000
00000000
00000010
00000100
,
00000001
00000000
00001000
00000100
,
00010000
00000000
00001000
00001000
00000000
01000000
00000000
00100000
,
00000000
00000000
00000000
10010000
00000000
00010000
00000000
01000000
,
00000000
00100000
00000000
00100000
00000000
10000000
00000000
01000000
,
00000000
00100000
00000000
00100000
00000000
00010000
00000000
01000000
,
00000000
00001000
00000000
00001000
00000000
00010000
00000000
00000010
,
00000000
00000000
00000000
00000000
00000000
00000100
00000000
00000001
,
00000000
00000010
00000000
00000100
00000000
00001000
00000000
00000010
,
00000000
00000100
00000000
00000001
00000000
00001000
00000000
00001000
,
00000000
00000001
00000000
00000001
00000000
00000100
00000000
00000010
,
00000000
00000000
00000000
00000000
00000000
00010000
00000000
00001000
,
00000000
01000000
00000000
00000000
00000000
00100000
00000000
10000000
,
00000000
00010000
00000000
00000000
00000000
01000000
00000000
00001000
,
00000000
00010000
00000000
00010000
00010000
00000000
00000010
00000000
,
00000100
00000000
00000000
00000001
,
00000001
00001000
00001000
00000010
,
00000100
00000100
00000010
00010000
,
00001000
01000000
01000000
00100000
,
10000000
00200000
00000000
01300000
,
00000000
00010000
00000000
01000000
,
00001000
00010000
00000100
00001000
,
00000000
00000010
00000000
00000100
,
00000001
00000000
00000000
00001001
,
00000000
00000000
00000000
00010100
,
00000000
00000000
00000000
00101000
,
00000000
00000000
10010000
00100000
,
01000000
00000000
00000000
00010000
,
10000000
01000000
01000000
10000000
,
00010000
00100000
00100000
00010000
,
01000000
00001000
00001000
00010000
,
00000010
00000000
00000000
00000100
,
00000001
00001000
00000000
00000100
,
00010000
00001000
00000000
00100000
,
00010000
00000000
01000000
00000000
01000000
01000000
00000000
00100000
,
00000000
10000000
00000000
00000000
00000000
00000000
00000000
00010000
,
00000000
01000000
00000000
00010000
00000000
00010000
00000000
00100000
,
00000000
00000000
00000000
00001000
00000000
00000000
00000000
00010000
,
00000000
00000100
00000000
00010000
00000000
00010000
00000000
00000010
,
00000000
00000100
00000000
00000020
00000000
00000000
00000000
00001030
,
00000000
00000000
00000000
00000001
00000000
00000001
00000000
00000100
,
00000000
00000000
00000000
00000010
00000000
00000010
00000000
00010000
,
00000000
00001000
00000000
01000000
00000000
00100000
00000000
10000000
,
00000000
00010000
00000000
00100000
00000000
01000000
00000000
00000000
;
