#TITLE:Summerblue;
#SUBTITLE:;
#ARTIST:Toby Fox & Camellia;
#TITLETRANSLIT:;
#SUBTITLETRANSLIT:;
#ARTISTTRANSLIT:;
#GENRE:Trance;
#CREDIT:;
#BANNER:summerblue-bn.png;
#BACKGROUND:summerblue-bg.png;
#LYRICSPATH:;
#CDTITLE:;
#MUSIC:Summerblue.ogg;
#OFFSET:0.020000;
#SAMPLESTART:42.959999;
#SAMPLELENGTH:12.000000;
#SELECTABLE:YES;
#BPMS:0.000000=145.000000
,68.000000=72.500000
,82.000000=145.000000
,150.000000=72.500000
,152.000000=145.000000
;
#STOPS:
;
#BGCHANGES:;
#KEYSOUNDS:;
#ATTACKS:;

//---------------dance-single - ----------------
#NOTES:
     dance-single:
     :
     Challenge:
     15:
     0.695729,0.901453,0.403154,0.249956,1.080453,604.000000,554.000000,50.000000,31.000000,0.000000,0.000000,0.695729,0.901453,0.403154,0.249956,1.080453,604.000000,554.000000,50.000000,31.000000,0.000000,0.000000:
0000
0000
0000
0000
,
0110
0000
0000
0000
,
0110
0000
0000
0101
0000
0000
0000
0000
0000
0000
0000
0000
0000
0000
0000
0000
,
0011
0000
0000
0000
,
0011
0000
0000
1010
0000
0000
0000
0000
0000
0000
0000
0000
0000
0000
0000
0000
,
1010
0000
1000
0010
0000
1000
0000
0100
0000
1000
0010
0000
0100
0000
0001
0000
,
0011
0000
0000
0101
0000
0100
0010
0000
1000
0010
0000
0100
0010
0000
1000
0000
,
0001
1000
0001
1000
0001
1000
0001
1000
0001
1000
0001
1000
0001
1000
0001
1000
,
0001
0000
0100
0010
0000
0100
0000
0010
0000
0010
1000
0000
0100
0000
0010
0000
,
0001
0000
0100
0001
0000
0010
0000
0001
0000
0100
0010
0000
1000
0000
0010
0000
,
0100
0010
0100
0010
0000
1000
0000
0010
0000
0100
0001
0000
0010
0000
0100
0000
,
1000
0000
0100
0010
0000
0100
0000
1000
0000
0100
0010
0000
0100
0000
1000
0000
,
0001
0000
0001
0010
0000
0010
0000
0010
0000
0100
1000
0000
0010
0000
0100
0000
,
0001
0000
0010
1000
0000
0010
0000
0001
0000
1000
0100
0000
0010
0000
0010
0000
,
0100
1000
0000
0100
0000
0010
0000
0010
0000
0100
1000
0000
0001
0000
1000
0000
,
0010
1000
0010
1000
0000
0001
0000
0000
0100
0001
0100
0001
0000
1000
0000
0000
,
1001
0000
0000
1001
0000
0000
0000
0000
0000
0000
0000
0000
0000
0000
0000
0000
,
0100
0000
0001
1000
0000
0100
0000
0010
0000
0000
0000
0100
1000
0000
0001
0000
0020
0000
0000
0200
0000
0000
0000
0000
0000
0000
0330
0000
0000
0010
0001
0000
,
1000
0000
0010
0100
0000
0001
0000
0100
0000
0000
0000
0010
1000
0000
0001
0000
0020
0000
0000
0032
0000
0000
1003
0000
0010
0100
0000
0100
0000
0200
0000
0000
,
0310
0000
0100
1000
0000
0010
0000
0200
0000
0000
0300
0010
0001
0000
0010
0000
1000
0000
0001
0010
0000
0012
0000
0000
0000
0000
0000
0000
0003
0100
0010
0000
,
1010
0000
0000
1100
0000
0000
2200
0000
0000
0000
0000
0000
3300
0000
1000
0001
0100
0000
0000
0000
0000
0000
0011
0000
0000
0000
0000
0000
0022
0000
0000
0000
,
0000
0000
0000
0033
0000
0000
0000
0000
,
0000
0000
0000
0000
0000
0000
0000
0000
0010
0000
0001
1000
0000
0010
0000
1010
,
0000
0000
0101
0000
0001
0000
0100
0000
0010
0000
0100
0010
0000
2000
0000
0002
,
0000
0000
3003
0000
0000
0010
0000
0100
1000
0000
0001
0010
0000
0001
0000
0001
,
0000
0000
0010
0000
1000
0000
0010
0000
0001
0000
2000
0002
0000
0000
3003
0001
,
0100
0010
1000
0001
0100
0010
1000
0001
1000
0000
0100
0010
0000
0100
0000
1100
,
0000
0000
0011
0000
0001
0000
0100
0000
0010
0000
1000
0010
0000
1010
0000
0100
,
0000
0100
0001
0000
0000
0000
1000
0000
0001
0000
0000
0101
0000
1010
0000
2002
,
0000
0000
3003
0000
,
0000
0000
0000
0000
,
0000
0000
0000
0100
0100
0000
0000
0010
,
0010
0000
0000
0000
0000
0000
0100
0001
0010
0000
0000
0000
0000
0000
0000
0000
,
0000
0000
0000
0000
0000
0000
0000
0000
0001
0000
0000
1000
0000
0000
1000
0001
,
1000
0010
1000
0010
1000
0000
0001
1000
0001
0010
0001
0010
0001
0000
1000
0001
,
1000
0010
1000
0010
1000
0000
0001
0100
0001
0010
0001
0010
0001
0000
1000
0001
,
1000
0010
1000
0010
1000
0000
0010
0000
0100
0010
0100
0010
0100
0010
0100
0010
,
0100
0010
0100
0010
0100
0010
0100
0010
0100
0000
0000
0000
0000
0000
0000
0000
,
0101
0000
0000
0110
0000
0000
1010
0000
0000
2002
0000
0000
0000
0000
3003
0000
,
0010
0000
0100
0001
0000
0010
0000
0002
0000
0000
1003
0000
0010
0000
1000
0000
,
0001
0000
0100
1000
0000
1000
0000
0200
0000
0000
0300
0000
0001
0010
0001
0010
,
0100
0000
1000
0010
0000
0100
0000
0020
0000
0000
0130
0000
0001
0000
0010
0000
,
0100
0000
1000
0200
0000
0000
0300
1000
0010
0100
0001
0100
0010
0000
1000
0000
,
0100
0000
0010
0001
0000
1000
0000
0001
0000
0000
0100
0000
0010
0000
0100
0000
,
0010
1000
0010
1000
0000
0100
0000
0010
0000
0001
1000
0000
0010
0100
0010
0100
,
0001
0000
0000
1001
0000
1001
0000
1001
0000
0000
0020
0000
0000
0000
0030
0000
,
0100
0000
1000
0000
0001
0010
0100
1000
0001
1000
0001
0000
1001
0000
0000
0000
,
1000
0010
0000
0100
0000
0100
0000
0000
0101
0000
0000
0000
2002
0000
0000
3003
,
0000
1010
0000
0000
1001
0000
0000
0000
0001
0000
0100
0000
0010
0000
0000
0000
,
1100
0000
0000
0000
0010
0000
1000
0000
0001
0000
0000
0000
0100
0001
0100
0001
,
0100
0000
0000
0000
0010
1000
0010
1000
0000
0000
1001
0000
0000
1100
0000
0000
,
0011
0000
0000
0000
0000
0000
0000
0000
0000
0000
0000
0000
0100
0000
0000
0000
0000
0000
0001
0000
0000
0000
0000
0000
1000
0000
0000
0010
0000
0000
1000
0000
0000
0010
0000
0000
0100
0000
0000
0000
0001
0000
0000
0000
0100
0000
0000
0000
,
0002
0000
0003
0020
0000
1030
0010
0001
,
0000
0000
0101
0000
0000
0110
0000
0000
1010
0000
0000
0000
1000
0000
0100
0010
,
0000
0001
0000
0100
0000
0001
0000
0010
0000
0000
0011
0000
1001
0000
0010
0000
,
0100
0001
0100
0001
0000
1000
0000
0010
0000
0010
0100
0000
0001
0100
0000
0000
,
0010
0000
1000
0100
0000
1000
0000
0001
0000
0001
0100
0000
0010
0000
0010
0000
,
0100
0000
0001
0010
0000
0001
0000
0010
0000
0100
1000
0000
0002
0003
0002
0003
,
1000
0000
0100
0010
0000
0010
0000
0001
0000
0100
0010
0000
1000
0000
1000
0000
,
0001
0100
0010
0100
0000
1000
0000
1000
0000
0100
0001
0000
1000
0000
0020
0000
,
0030
0100
1000
0100
0000
0001
0000
1000
0000
0001
0010
0000
0100
0000
0100
0000
,
1000
0000
0010
1000
0000
0001
0000
1000
0000
0000
0100
0000
0100
0000
0100
0000
,
0010
0000
0001
1000
0000
0010
0000
1000
0000
0100
0001
0000
0100
0000
1000
0000
,
0010
0001
0010
1000
0000
0001
0000
0010
0000
1000
0010
0001
0100
0010
1000
0100
,
0010
0000
0001
1000
0000
0010
0000
0100
0000
0010
0001
0000
0010
0000
1000
0000
,
0000
1100
0000
1001
0000
0101
0000
0110
0000
0010
0100
0001
1000
0010
0100
0001
,
1000
0000
0010
0100
0000
0010
0000
0100
0000
0100
0010
0000
1000
0000
1000
0000
,
0001
0000
0010
0100
0000
0010
0000
0100
0000
0100
0010
0000
0001
0000
0100
0010
,
1000
0000
0010
0100
0000
0010
0000
0100
0000
0100
0010
0000
1000
0000
1000
0000
,
0001
0100
0010
1000
0000
0001
0000
1000
0000
0100
0010
0000
0001
0000
1000
0000
;

//---------------dance-single - ----------------
#NOTES:
     dance-single:
     :
     Hard:
     13:
     0.536771,0.790182,0.137072,0.225766,0.798245,466.000000,449.000000,17.000000,28.000000,0.000000,0.000000,0.536771,0.790182,0.137072,0.225766,0.798245,466.000000,449.000000,17.000000,28.000000,0.000000,0.000000:
0000
0000
0000
0000
,
0000
0000
0000
0000
,
0000
0000
0000
0000
,
0000
0000
0000
0000
,
0000
0000
0000
0000
,
1000
0000
0100
1000
0000
0010
0000
0100
0000
0100
0010
0000
0100
0000
0001
0000
,
0010
0000
0001
1000
0000
0010
0000
0100
0000
0010
1000
0000
0001
0000
0100
0000
,
0010
0000
1000
0010
0000
1000
0000
0001
0000
0001
1000
0000
0010
0000
0100
0000
,
0001
0000
1000
0001
0000
1000
0000
1000
0000
0000
0000
0000
0000
0000
0000
0000
,
1000
0000
0001
0010
0000
0001
0000
1000
0000
1000
0001
0000
0100
0000
0010
0000
,
0100
0010
0100
0010
0000
1000
0000
0100
0000
0010
0001
0000
1000
0000
0100
0000
,
1000
0000
0010
1000
0000
0001
0000
0100
0000
0100
0010
0000
0100
0000
0010
0000
,
0100
0000
0001
0010
0000
0010
0000
0010
0000
0000
0000
0000
0100
0000
0010
0000
,
0001
0000
1000
0010
0000
1000
0000
1000
0000
0000
0100
0000
0010
0000
0001
0000
,
0010
0001
0010
0001
0000
1000
0000
0001
0000
0000
1000
0000
0010
0000
0100
0000
,
0001
0010
0100
1000
0010
0100
0001
1000
,
0010
0000
0000
0010
0000
0000
0000
0000
0000
0000
0000
0000
0000
0000
0000
0000
,
1000
0000
0000
0100
0000
0010
0000
0100
0000
0000
0000
1000
0001
0000
1000
0000
0001
0000
0000
0002
0000
0000
0000
0000
0000
0000
0003
0000
0000
0100
0010
0000
,
0100
0000
0000
0001
0000
1000
0000
0001
0000
0000
0000
0010
0100
0000
0010
0000
0001
0000
0000
1000
0000
0000
0010
0000
0100
0010
0000
0010
0000
0010
0000
0000
,
0100
0000
0000
0001
0000
0010
0000
0001
0000
0000
0000
0100
0010
0000
0100
0000
0001
0000
1000
0001
0000
0002
0000
0000
0000
0000
0003
0000
0000
0010
0001
0000
,
0100
0000
0000
0100
0000
0000
0200
0000
0000
0000
0000
0000
0000
0000
0000
0000
0310
0000
0000
0000
0000
0000
0010
0000
0000
0000
0000
0000
0020
0000
0000
0000
,
0000
0000
0000
0030
0000
0000
0000
0000
,
0000
0000
0000
0000
0000
0000
0000
0000
0100
0000
0001
1000
0000
1000
0000
1000
,
0000
0000
0010
0000
0001
0000
0010
0000
1000
0000
0001
1000
0000
0010
0000
0100
,
0000
0000
0000
0000
0000
0001
0000
1000
0001
0000
0100
0010
0000
0100
0000
0100
,
0000
0000
0001
0000
0010
0000
0001
0000
1000
0000
0100
2000
0000
0000
3010
0000
,
0100
0000
0001
0000
1000
0000
0100
0000
0010
0000
0100
1000
0000
0010
0000
1000
,
0000
0000
0100
0000
0010
0000
0001
0000
0100
0000
0001
0010
0000
0001
0000
1000
,
0000
0001
0010
0000
0000
0000
0100
0000
1000
0000
0000
1000
0000
0010
0000
2002
,
0000
0000
3003
0000
,
0000
0000
0000
0000
,
0000
0000
0000
0001
0100
0000
0000
1000
,
0010
0000
0000
0000
0000
0000
0001
1000
0001
0000
0000
0000
0000
0000
0000
0000
,
0000
0000
0000
0000
0000
0000
0000
0000
1000
0000
0000
1000
0000
0000
0100
0000
,
0000
0010
0000
0000
0100
0000
0010
0001
0010
0000
0000
0001
0000
0000
0010
0000
,
0000
0001
0000
0000
0010
0000
0001
1000
0001
0000
0000
1000
0000
0000
0001
0000
,
0000
1000
0000
0000
0001
0000
1000
0000
0100
0000
0010
0000
0001
0000
0100
0000
,
0010
1000
0001
0100
0010
0000
0000
0000
,
1100
0000
0000
0110
0000
0000
0011
0000
0000
2002
0000
0000
0000
0000
3003
0000
,
0010
0000
1000
0001
0000
0010
0000
0010
0000
0000
0001
0000
0100
0000
0001
0000
,
0010
0000
0100
1000
0000
1000
0000
0010
0000
0000
0000
0000
0000
0100
0000
0001
,
1000
0000
0010
1000
0000
0100
0000
0100
0000
0000
0010
0000
0001
0000
0010
0000
,
0100
0000
2000
0002
0000
0000
0000
0000
0000
0000
3003
0000
0000
0000
0000
0000
,
0001
0000
0100
0010
0000
1000
0000
1000
0000
0000
0010
0000
0100
0000
0010
0000
,
1000
0000
0001
0010
0000
0010
0000
0001
0000
1000
0001
0000
0000
0100
0010
0000
,
0100
0000
0000
0001
0000
0010
0000
1001
0000
0000
0010
0000
1000
0000
0001
0000
,
0100
0000
0010
0000
2000
0000
0000
0000
3100
0010
0100
0000
1000
0000
0000
0000
,
0101
0000
0000
1010
0000
0000
0000
0000
1001
0000
0000
0000
0120
0000
0000
0000
,
0000
0100
0000
0000
0130
0000
0000
0000
0010
0000
0001
0000
0010
0000
0000
0000
,
2000
0000
3001
0100
0020
0000
0000
0000
,
0130
0000
0000
0000
0010
0100
0010
0100
0000
0000
0001
0000
0000
1000
0000
0000
,
2001
0000
0000
3020
0000
0000
0230
0000
0000
0301
0010
0100
,
2000
0000
3000
0002
0000
0103
0010
1001
,
0000
0000
1100
0000
0000
0011
0000
0000
1100
0000
0010
0000
0100
0000
0001
1000
,
0001
0000
1000
0100
0000
0010
0000
0100
0000
0010
0100
0000
0100
0000
1000
0000
,
0001
0100
0001
0100
0000
0100
0000
0001
0000
1000
0100
0000
0010
0100
0000
0000
,
2000
0000
3001
0100
0000
0010
0000
1000
0000
0001
1000
0000
1000
0000
0010
0000
,
0100
0000
0001
1000
0000
0010
0000
0010
0000
1000
0001
0000
0200
0000
2300
0000
,
3100
0000
0001
0010
0000
0001
0000
1000
0000
0001
0010
0000
0100
0000
1000
0000
,
0100
0010
0100
0010
0000
0001
0000
1000
0000
0001
0100
0000
0010
0000
0020
0000
,
0030
0100
0010
0100
0000
1000
0000
0001
0000
0010
0001
0000
0100
0000
0010
0000
,
1000
0000
0010
1000
0000
0100
0000
1000
0000
0000
0010
0000
0100
0000
0001
0000
,
1000
0000
0001
0010
0000
0001
0000
1000
0000
0001
0010
0000
0100
0000
1000
0000
,
0001
0000
1000
0010
0000
1000
0000
0001
0000
1000
0010
0000
0200
0000
0000
0000
,
0310
0000
1000
0100
0000
0010
0000
0100
0000
1000
0001
0000
0100
0000
0010
0000
,
0000
0100
0000
0010
0000
1001
0000
0010
0000
0000
0020
0000
0000
0000
0000
0000
,
0031
0000
0100
0010
0000
1000
0000
0000
0000
0000
0000
0000
0000
0000
0000
0000
,
1000
0100
0010
0001
0000
1000
0000
0000
0000
0000
0000
0000
0000
0000
0010
0100
,
0001
0000
1000
0010
0000
0100
0000
0000
0000
0000
0000
0000
0000
0000
0000
0000
,
0001
0010
0100
2000
0000
0002
0000
0000
0000
0000
0000
0000
0000
0000
3003
0000
,
0110
0000
0000
0000
;

//---------------dance-double - ----------------
#NOTES:
     dance-double:
     :
     Challenge:
     16:
     0.746411,0.957794,0.475722,0.330586,1.128832,648.000000,589.000000,59.000000,41.000000,0.000000,0.000000,0.746411,0.957794,0.475722,0.330586,1.128832,648.000000,589.000000,59.000000,41.000000,0.000000,0.000000:
00000000
00000000
00000000
00000000
,
00011000
00000000
00000000
00000000
,
00101000
00000000
00000000
00011000
00000000
00000000
00000000
00000000
00000000
00000000
00000000
00000000
00000000
00000000
00000000
00000000
,
00010010
00000000
00000000
00000000
,
00010100
00000000
00000000
00011000
00000000
00000000
00000000
00000000
00000000
00000000
00000000
00000000
00000000
00000000
00000000
00000000
,
00100000
00000000
00010000
01000000
00000000
00100000
00000000
00010000
00000000
00010000
00001000
00000000
00000100
00000000
00000001
00000000
,
00002000
00000000
00000000
00003020
00000000
00000000
00000030
00000100
00000000
00001000
00010000
00000000
01000000
00000000
10000000
00010000
,
10000000
00000000
00100000
01000000
00000000
00100000
00000000
00010000
00000000
00100000
10000000
00000000
01000000
00100000
00001000
00010000
,
00001000
00000000
00010000
00000100
00000000
00000001
00000000
00000100
00000000
00010000
00001000
00000000
00010000
00000000
01000000
00000000
,
10000000
00000000
00100000
01000000
00000000
00100000
00000000
00010000
00000000
00100000
01000000
00000000
00100000
00000000
00010000
00000000
,
00001000
00010000
00001000
00000010
00000000
00000001
00000000
00000010
00000000
00001000
00010000
00000000
00000100
00000000
00000010
00000000
,
00000001
00000000
00000100
00001000
00000000
00010000
00000000
01000000
00000000
00010000
00001000
00000000
00000100
00000000
00000001
00000000
,
00000010
00000000
00001000
00010000
00000000
00100000
00000000
00010000
00000000
00001000
00010000
00000000
01000000
00000000
10000000
00000000
,
01000000
00000000
00010000
00001000
00000000
00001000
00000000
00010000
00000000
01000000
00010000
00000000
00001000
00000000
00001000
00000000
,
00000010
00000001
00000010
00001000
00000000
00000010
00000000
00001000
00000000
00010000
00001000
00000000
00000010
00000000
00000010
00000000
,
00000001
00000100
00000010
00000100
00001000
00000100
00000001
00000000
00001000
00000100
00000010
00000100
00000001
00000100
00001000
00000000
,
00020000
00000000
00000000
00130000
00000000
00000000
00000000
00000000
00000000
00000000
00000000
00000000
00000000
00000000
00000000
00000000
,
10000000
00000000
00010000
01000000
00000000
00010000
00000000
20000000
00000000
00000000
00000000
31000000
00010000
00000000
00001000
00000000
00001010
00000000
00000000
00000022
00000000
00000000
00000000
00000000
00000000
00000000
00000033
00000000
00000000
00000001
00001000
00000000
,
00000010
00000000
00001000
00000100
00000000
00000010
00000000
00000200
00000000
00000000
00000000
00001300
00000010
00000000
00000100
00000000
00002000
00000000
00000000
00023000
00000000
00000000
00130000
00000000
10000000
00010000
00000000
01010000
00000000
10100000
00000000
00000000
,
00010000
00000000
01000000
00100000
00000000
00010000
00000000
00200000
00000000
00000000
00300000
01000000
00010000
00000000
00001000
00000000
00000010
00000000
00000001
00000010
00000000
00002020
00000000
00000000
00000000
00003030
00000000
00000000
00000000
00010000
00001000
00000000
,
01001000
00000000
00000000
01010000
00000000
00000000
02200000
00000000
00000000
00000000
03300000
00000000
00000000
00000000
00100000
10000000
01000000
00000000
00000000
00000000
00000000
00000000
01100000
00000000
00000000
00000000
00000000
00000000
22000000
00000000
00000000
00000000
,
00000000
33000000
00000000
00200000
,
00320000
00000000
00000000
00032000
00000000
00000000
00003000
00000000
00000010
00000000
00000001
00000100
00000000
00000010
00000000
00001000
,
00000000
00000000
00000100
00000000
00000001
00000000
00000100
00000000
00001000
00000000
00000010
00000100
00000000
00001000
00000000
00020000
,
00000000
00000000
00130000
00000000
10000000
00010000
00000000
00010000
10000000
00000000
01000000
00010000
00000000
00001000
00000000
00020000
,
00000000
00000000
00031000
00000000
00000010
00000000
00000001
00000000
00000100
00000000
00000010
00000200
00000000
00000000
00000301
00000010
,
00000100
00001000
00000010
00000100
00001000
00010000
00100000
10000000
01000000
00000000
00100000
00010000
00000000
00100000
00000000
02000000
,
00000000
00000000
03010000
00000000
00001000
00000000
00000010
00000000
00000001
00000000
00001000
00000010
00000000
00000001
00000000
00000010
,
00000000
00001000
00000001
00000000
00000000
00000100
00001000
00000000
00010000
00000000
00000000
01001000
00000000
00011000
00000000
00020200
,
00000000
00000000
00000000
00030300
00000000
00000000
00000000
00000000
,
00000000
00000000
00000000
00000000
,
00000000
00000000
00000000
00000010
00000010
00000000
00000000
00100000
,
00100000
00000000
00000000
00000000
00000000
00000000
00001000
00010000
00001000
00000000
00000000
00000000
00000000
00000000
01000000
00000000
,
00001000
00000000
00100000
00001000
00010000
00000100
00000010
00000000
00000101
00000000
00000000
00001010
00000000
00000000
00001000
00000010
,
00000100
00000001
00000010
00000001
00000100
00000010
00001000
00000000
00000001
00000100
00000010
00001000
00000001
00001000
00000010
00000100
,
00000001
00000010
00000100
00010000
00001000
01000000
00100000
00000000
10000000
01000000
00100000
00010000
01000000
00010000
00100000
01000000
,
10000000
00010000
01000000
00100000
01000000
00010000
10000000
01000000
00100000
00001000
00100000
00001000
00100000
00001000
00100000
00001000
,
00100000
00000000
00001000
00000000
00100000
00000000
00001000
00000000
00100000
00000000
00001000
00000000
00100000
00000000
00001000
00000000
00100000
00000000
00000000
00000000
00000000
00000000
00000000
00000000
00000000
00000000
00000000
00000000
00000000
00000000
00001000
00010000
,
00000010
00000000
00000000
00001010
00000000
00000000
00000110
00000000
00000000
00000101
00000000
00000000
00001000
00000100
00000010
00000001
,
00000100
00000000
00000010
00000100
00000000
00001000
00000000
00020000
00000000
00000000
00100000
00030000
10000000
00000000
00100000
00000000
,
00010000
00000000
00001000
01000000
00000000
00100000
00000000
00020000
00000000
00000000
00000000
00000000
00031000
00010000
00100000
10000000
,
01000000
00000000
00100000
00010000
00000000
01000000
00000000
20000000
00000000
00000000
31000000
00000000
00100000
00000000
00010000
00000000
,
00001000
00000000
00010000
00000020
00000000
00000000
00000000
00000000
00000130
00000001
00000100
00000001
00000100
00000000
00000000
00000000
,
00000010
00000000
00001000
00000001
00000000
00000100
00000000
00000020
00000000
00000000
00000130
00000000
00001000
00000000
00010000
00000000
,
00100000
00000000
10000000
00100000
00000000
00010000
00000000
00001000
00000000
00010000
00100000
00000000
00000000
10000000
00010000
00000000
,
01010000
00000000
10000000
00100000
00000000
10100000
00000000
22000000
00000000
33000000
01100000
00000000
00100000
00000000
00001000
00000000
,
00010000
00000000
00001000
00000000
01000000
00100000
01000000
00100000
10000000
01000000
00010000
00000000
00001000
00000000
00000000
00000000
,
00000011
00000000
00000000
00000000
00000000
00000000
00001000
00000000
00000000
00000001
00000000
00000000
00000000
00000000
00000000
00000100
00000000
00000000
00000000
00000000
00000000
00000000
00000000
00000000
00001010
00000000
00000000
00000000
00000000
00000000
00000000
00000000
00000000
00000000
00000000
00000000
00001000
00000000
00000001
00000000
00001000
00000000
00000001
00000000
00000000
00000000
00000000
00000000
,
00000000
00000101
00000000
00000000
00001100
00000000
00000000
00000000
00001000
00000000
00010000
00000000
01000000
00000000
10000000
00000000
,
00100000
01000000
00100000
00000000
00010000
00000000
00100000
00000000
10000000
01000000
00100000
00000000
00010000
00000000
01000000
00000000
,
00200000
00000000
00000000
00000000
00000000
00000000
00000000
00000000
00000000
00000000
00000000
00000000
10300000
00000000
00010000
00000000
10000000
00000000
00010000
00000000
00000000
00000000
00000000
00000000
00000000
00000000
00000000
10000000
00000000
00000000
01000000
00000000
00000000
00000000
00000000
00000000
00000000
00000000
00000000
01010000
00000000
00000000
00000000
00000000
00000000
00000000
00000000
00000000
,
11000000
00000000
00000000
00000000
00000000
00000000
00100000
00000000
00000000
00001000
00000000
00000000
00010000
00001000
00010000
00001000
00010000
00001000
00010000
00000000
00000100
00000000
00000010
00000000
,
00000001
00000100
00000000
00002020
00003030
00000100
00000011
00001200
,
00000000
00000000
00000310
00000000
00000000
00001100
00000000
00000000
00000100
00000000
00010000
00000000
00001000
00000000
00100000
00010000
,
01000000
00000000
00100000
10000000
00000000
00100000
00000000
00010000
00000000
00100000
10000000
00000000
10010000
00000000
01000000
00000000
,
00010000
00001000
00000100
00000001
00000000
00001001
00000000
00001000
00000000
00000010
00000100
00000000
00001000
00010000
00000000
00000000
,
00012000
00000000
00013000
01000000
00000000
10000000
00000000
00010000
00000000
10000000
01000000
00000000
00010000
00000000
00001000
00000000
,
00000010
00000000
00000001
00000010
00000000
00000011
00000000
00001100
00000000
00001000
00000010
00000000
00000200
00000300
00000200
00000300
,
00001000
00000000
00010000
01000000
00000000
01010000
00000000
00010000
00000000
00001000
00010000
00000000
01000000
00000000
11000000
00000000
,
10000000
00100000
00010000
00001000
00000000
00011000
00000000
00010000
00000000
00100000
00010000
00000000
00001000
00000000
00001200
00000000
,
00000300
00000100
00000001
00000100
00000000
00000001
00000000
00000011
00000000
00000010
00000100
00000000
00001000
00000000
00001100
00000000
,
00000010
00000000
00000100
00001000
00000000
00010000
00000000
00011000
00000000
00001000
02000000
00000000
00100000
00000000
13000000
00000000
,
01000000
00000000
00010000
00100000
00000000
11000000
00000000
00100000
00000000
00010000
01000000
00000000
10100000
00000000
01000000
00000000
,
00100000
00010000
00001000
00000100
00000000
00000101
00000000
00001000
00000000
00000010
00000100
00000000
00000001
00000010
00000100
00001000
,
00000010
00000000
00000100
00001000
00000000
00011000
00000000
00010000
00000000
00001000
01000000
00000000
00100000
00000000
10010000
00000000
,
00000000
11000000
00000000
01100000
00000000
00110000
00000000
10010000
00000000
10000000
01000000
00100000
00010000
01000000
00100000
10000000
,
01000000
00000000
10000000
01000000
00000000
00100000
00000000
01000000
00000000
10000000
01000000
00000000
00100000
00000000
00001000
00000000
,
00010000
00000100
00001000
00000010
00000000
00000100
00000000
00010000
00000000
00000100
00000010
00000000
00000100
00000000
00010000
00000010
,
00000100
00000000
00000001
00001000
00000000
00000001
00000000
00000100
00000000
00000001
00001000
00000000
00000001
00000000
00000100
00000000
,
00000010
00010000
00001000
00100000
00000000
00001000
00000000
00010000
00000000
00000100
00010000
00000000
00001000
00000000
00100000
00000000
;

//---------------dance-double - ----------------
#NOTES:
     dance-double:
     :
     Hard:
     13:
     0.531012,0.705520,0.129009,0.217703,0.782119,461.000000,445.000000,16.000000,27.000000,0.000000,0.000000,0.531012,0.705520,0.129009,0.217703,0.782119,461.000000,445.000000,16.000000,27.000000,0.000000,0.000000:
00000000
00000000
00000000
00000000
,
00011000
00000000
00000000
00000000
,
00100000
00000000
00000000
00001000
00000000
00000000
00000000
00000000
00000000
00000000
00000000
00000000
00000000
00000000
00000000
00000000
,
00011000
00000000
00000000
00000000
,
00000010
00000000
00000000
00010000
00000000
00000000
00000000
00000000
00000000
00000000
00000000
00000000
00000000
00000000
00000000
00000000
,
00001000
00000000
01000000
00100000
00000000
00100000
00000000
00000000
00000000
00000000
00000000
00000000
01000000
00000000
00001000
00000000
,
00010000
00000000
00000100
00010000
00000000
00000000
00000000
00000000
00000000
00000000
00000000
00000000
00000100
00000000
00000010
00000000
,
00000001
00000000
00001000
00000001
00000000
00000010
00000000
00000000
00000001
00000000
00000100
00000000
00000010
00000000
00001000
00000000
,
00000100
00000000
00000000
00000000
00000000
00000100
00000000
00010000
00000000
00001000
00010000
00000000
00001000
00000000
01000000
00000000
,
00100000
00000000
10000000
00100000
00000000
10000000
00000000
00010000
00000000
10000000
00100000
00000000
10000000
00000000
01000000
00000000
,
00100000
00000000
00010000
00100000
00000000
01000000
00000000
00100000
00000000
00010000
00100000
00000000
01000000
00000000
00100000
00000000
,
00001000
00000000
00010000
00000100
00000000
00010000
00000000
00001000
00000000
00010000
00000100
00000000
00001000
00000000
00000010
00000000
,
00000100
00000000
00000000
00000100
00000000
00000001
00000000
00001000
00000000
00000000
00000000
00000000
00000000
00000000
00000000
00000000
,
00000001
00000000
00000010
00000001
00000000
00000010
00000000
00000100
00000000
00000010
00000001
00000000
00000010
00000000
00000100
00000000
,
00001000
00000000
00000010
00000100
00000000
00000010
00000000
00001000
00000000
00000010
00000100
00000000
00000010
00000000
00001000
00000000
,
00000100
00000000
00010000
00001000
00000000
00100000
00000000
00001000
00000000
00010000
00001000
00000000
00100000
00000000
00001000
00000000
,
01000000
00000000
00000000
01000000
00000000
00000000
00000000
00000000
00000000
00000000
00000000
00000000
00000000
00000000
00000000
00000000
,
10000000
00000000
01000000
00100000
00000000
00100000
00000000
00100000
00000000
00000000
00000000
00000000
00010000
00000000
10000000
00000000
00020000
00000000
00000000
00200000
00000000
00000000
00000000
00000000
00330000
00000000
00000000
00000000
00000000
00010000
01000000
00000000
,
00001000
00000000
00000000
00010000
00000000
00010000
00000000
00010000
00000000
00000000
00000000
00000000
00000010
00000000
00000100
00000000
00000001
00000000
00000000
00001000
00000000
00000000
00000100
00000000
00001000
00000010
00000000
00000010
00000000
00000010
00000000
00000000
,
00000100
00000000
00000000
00000001
00000000
00000001
00000000
00000001
00000000
00000000
00000000
00000000
00001000
00000000
00000100
00000000
00010000
00000000
00000000
00001000
00000000
00020000
00000000
00000000
00000000
00000000
00000000
00000000
00030000
00000000
00001000
00000000
,
01000000
00000000
00000000
01000000
00000000
00000000
02000000
00000000
00000000
00000000
00000000
00000000
00000000
00000000
00000000
00000000
03100000
00000000
00000000
00000000
00000000
00000000
00100000
00000000
00000000
00000000
00000000
00000000
00200000
00000000
00000000
00000000
,
00000000
00000000
00000000
00300000
00000000
00000000
00000000
00000000
,
00000000
00000000
00000000
00000000
00000000
00000000
00000000
00000000
10000000
00000000
01000000
00100000
00000000
01000000
00000000
00200000
,
00000000
00000000
00310000
00000000
10000000
00000000
00010000
00000000
01000000
00000000
00010000
10000000
00000000
00010000
00000000
02000000
,
00000000
00000000
03000000
00000000
00000000
00001000
00000000
00001000
00010000
00000000
00000100
00001000
00000000
00000010
00000000
00000010
,
00000000
00000000
00000100
00000000
00000001
00000000
00001000
00000000
00000010
00000000
00000100
00000020
00000000
00000000
00000000
00000000
,
00000130
00000000
00001000
00000000
00010000
00000000
01000000
00000000
10000000
00000000
00010000
00100000
00000000
00010000
00000000
10000000
,
00000000
00000000
01000000
00000000
00100000
00000000
00010000
00000000
01000000
00000000
00001000
00010000
00000000
00000010
00000000
00010000
,
00000000
00000100
00000010
00000000
00000000
00000001
00001000
00000000
00000010
00000000
00000000
00001010
00000000
00000101
00000000
00002020
,
00000000
00000000
00000000
00003030
00000000
00000000
00000000
00000000
,
00000000
00000000
00000000
00000000
,
00000000
00000000
00000000
00010000
00001000
00000000
00000000
00001000
,
00010000
00000000
00000000
00000000
00000000
00000000
00010000
00000010
00000100
00000000
00000000
00000000
00000000
00000000
00000000
00000000
,
00000000
00000000
00000000
00000000
00000000
00000000
00000000
00000000
00000001
00000000
00000000
00000010
00000000
00000000
00000001
00000000
,
00000000
00000010
00000000
00000000
00001000
00000000
00010000
00000000
00100000
00000000
00000000
10000000
00000000
00000000
00100000
00000000
,
00000000
10000000
00000000
00000000
00100000
00000000
00010000
00000000
00001000
00000000
00000000
00000010
00000000
00000000
00001000
00000000
,
00000000
00000010
00000000
00000000
00000001
00000000
00000100
00000000
00000010
00000000
00000100
00000000
00001000
00000000
00010000
00000000
,
01000000
00000000
00000000
00000000
10000000
00000000
00000000
00000000
01000000
00000000
00000000
00000000
00100000
00000000
00000000
00000000
00010000
00000000
00000000
00000000
00000000
00000000
00000000
00000000
00000000
00000000
00000000
00000000
00000000
00000000
00010000
10000000
,
00010000
00000000
00000000
10000000
00000000
00000000
00010000
00000000
00000000
20020000
00000000
00000000
00000000
00000000
30030000
00000000
,
00100000
00000000
00010000
01000000
00000000
00010000
00000000
00100000
00000000
00000000
00100000
00000000
00001000
00000000
00010000
00000000
,
00000010
00000000
00000100
00000010
00000000
00001000
00000000
00000010
00000000
00000000
00000000
00000000
00000000
00000100
00000000
00000001
,
00001000
00000000
00000001
00000100
00000000
00000010
00000000
00001000
00000000
00000000
00000010
00000000
00000100
00000000
00000001
00000000
,
00001000
00000000
00000200
00000020
00000000
00000000
00000330
00000000
00000000
00000000
00000000
00000000
00000000
00000000
00000000
00000000
,
00000100
00000000
00010000
00001000
00000000
00010000
00000000
00001000
00000000
00000000
01000000
00000000
00100000
00000000
10000000
00000000
,
00010000
00000000
00100000
01000000
00000000
10000000
00000000
01000000
00000000
00100000
00010000
00000000
00000000
01000000
00100000
00000000
,
20000000
00000000
00000000
31000000
00000000
00010000
00000000
00001000
00000000
00000000
00000010
00000000
00000001
00000000
00000010
00000000
,
00000001
00000000
00000100
00000000
00000010
00001000
00000010
00000000
00000100
00000001
00001000
00000000
00001001
00000000
00000000
00000000
,
00000010
00000000
00000000
00010000
00000000
00010000
00000000
00000000
00011000
00000000
00000000
00000000
02000000
00000000
00000000
00000000
,
03000000
00100000
00000000
00000000
00100000
00000000
00000000
00000000
10000000
00000000
01000000
00000000
00010000
00000000
00000000
00000000
,
00011000
00000000
00100000
01000000
10000000
00000000
00010000
00001000
,
00000001
00000000
00000100
00000000
00000020
00000000
00000000
00000000
00000030
00001000
00000001
00000000
00000000
00000100
00000000
00000000
,
00001000
00000000
00000000
00010000
00000000
00000000
11000000
00000000
00000000
00100000
01000000
00010000
,
20000000
00000000
30100000
00020000
00000000
00031000
00010000
00100000
,
10000000
00000000
01000000
00000000
00000000
01000000
00000000
00000000
01000000
00000000
00000000
00000000
00000000
00000000
00000000
00000000
,
10000000
00000000
01000000
00100000
00000000
00100000
00000000
01000000
00000000
00100000
01000000
00000000
01000000
00000000
00100000
00000000
,
00001000
00010000
00001000
00010000
00000000
00010000
00000000
00001000
00000000
00010000
00001000
00000000
00010000
00001000
00000000
00000000
,
00010000
00000000
00000100
00010000
00000000
00000100
00000000
00010000
00000000
00000100
00010000
00000000
00010000
00000000
00000010
00000000
,
00000100
00000000
00000001
00001000
00000000
00000010
00000000
00001000
00000000
00000001
00000100
00000000
00002000
00000000
00003200
00000000
,
00000301
00000000
00000010
00000100
00000000
00001000
00000000
00000100
00000000
00000010
00000001
00000000
00001000
00000000
00000001
00000000
,
00001000
00000100
00001000
00000100
00000000
00010000
00000000
00001000
00000000
01000000
00100000
00000000
10000000
00000000
20000000
00000000
,
30000000
00010000
10000000
00010000
00000000
01000000
00000000
00100000
00000000
01000000
00010000
00000000
00100000
00000000
00100000
00000000
,
00001000
00000000
00010000
00000100
00000000
00000010
00000000
00000010
00000000
00000001
00000100
00000000
00000010
00000000
00001000
00000000
,
00000001
00000000
00000010
00000100
00000000
00000010
00000000
00000100
00000000
00001000
00000100
00000000
00001000
00000000
00001000
00000000
,
00000010
00010000
00000010
00010000
00000000
00001000
00000000
00010000
00000000
00001000
01000000
00000000
00200000
00000000
00000000
00000000
,
10300000
00000000
00010000
01000000
00000000
00010000
00000000
10000000
00000000
00010000
01000000
00000000
00100000
00000000
00100000
00000000
,
00000000
10100000
00000000
10010000
00000000
01010000
00000000
10010000
00000000
00000000
20020000
00000000
00000000
00000000
30030000
00000000
,
10000000
00000000
01000000
00100000
00000000
00010000
00000000
00000000
00000000
00000000
00000000
00000000
00000000
00000000
00000000
00000000
,
01000000
00100000
00001000
00010000
00000000
00000000
00000000
00000000
00000000
00000000
00000000
00000000
00000000
00000000
00001000
00010000
,
00000100
00000000
00000010
00000001
00000000
00000001
00000000
00000000
00000000
00000000
00000000
00000000
00000000
00000000
00000000
00000000
,
00000100
00000010
00020000
00002000
00000000
00000000
00000000
00000000
00000000
00000000
00000000
00000000
00000000
00000000
00033000
00000000
,
00011000
00000000
00000000
00000000
;

//---------------dance-single - ----------------
#NOTES:
     dance-single:
     :
     Medium:
     10:
     0.335194,0.422556,0.056442,0.177388,0.157230,291.000000,284.000000,7.000000,22.000000,0.000000,0.000000,0.335194,0.422556,0.056442,0.177388,0.157230,291.000000,284.000000,7.000000,22.000000,0.000000,0.000000:
0000
0000
0000
0000
,
1000
0000
0000
0000
,
0001
0000
0000
0010
0000
0000
0000
0000
0000
0000
0000
0000
0000
0000
0000
0000
,
0100
0000
0000
0000
,
1000
0000
0000
0010
0000
0000
0000
0000
0000
0000
0000
0000
0000
0000
0000
0000
,
0101
0000
1000
0000
0010
1000
0100
0010
,
0100
0000
0000
0100
0000
0000
0100
0000
1000
0000
0001
0000
0010
0000
0001
0000
,
0200
0310
2000
3001
,
0202
0000
0000
0000
0303
0010
0100
0010
,
1000
0000
0000
0100
0000
0000
0000
0000
0000
0000
0000
0000
0100
0000
0010
0000
,
0001
0100
0001
0000
0000
0100
0100
0010
,
1000
0000
0000
0001
0000
0000
0100
0000
0010
0000
0100
0000
0001
0000
0000
0000
,
0010
1000
0100
0001
,
1000
0000
0000
0100
0000
0000
0000
0000
1000
0000
0100
0000
0010
0000
0001
0000
,
0100
0000
0000
0001
0000
0000
0100
0000
0001
0000
0010
0000
0100
0000
1000
0000
,
0020
0000
2030
0000
,
3001
0000
0000
1000
0000
0000
0000
0000
0000
0000
0000
0000
0000
0000
0000
0000
,
1000
0000
0000
0000
0000
0000
0000
0100
0000
0000
0000
0000
0000
0000
0000
0000
2000
0000
0000
0000
0000
0000
0000
0000
0000
0000
0000
0000
3000
0000
0000
0000
,
0001
0000
0000
0000
0000
0000
0000
0100
0000
0000
0000
0000
0000
0000
0000
0000
0002
0000
0000
0000
0000
0000
0000
0000
2003
0000
0000
0000
0000
0000
0000
0000
,
3010
0000
0000
0000
0000
0000
0000
1000
0000
0000
0000
0000
0000
0000
0000
0000
0010
0000
0000
0000
0000
0000
0000
0000
0000
0000
0000
0000
0000
0000
0000
0000
,
0100
0000
0000
0100
0000
0000
0000
0000
0020
0000
0000
0000
0030
0000
0020
0000
,
0000
0030
0000
0000
0000
0000
0000
0000
,
0000
0000
0000
0000
1000
0100
1000
0000
,
0100
0000
0000
0000
1010
0000
0000
0000
2000
0000
0000
0000
0000
0000
0000
3010
,
0000
0000
0000
0000
0001
0010
0001
0100
,
0001
0000
0000
0000
1000
0000
0000
0000
0001
0000
0000
0100
0000
0000
0000
0000
,
0020
0000
0000
0000
0130
0010
0100
0000
,
0010
0000
0000
0000
0101
0000
0000
0000
0020
0000
0000
0000
0000
0000
0000
0130
,
0000
0000
0000
0000
0000
0000
0000
0000
0010
0000
0000
1000
0000
0001
0000
1000
,
0000
0100
0000
0000
0000
0000
0000
0000
,
0000
0000
0000
0000
,
0000
0000
0000
0010
0010
0000
0000
0001
,
0001
0000
0000
0100
0100
0000
0000
0000
,
0000
0000
0000
0000
0000
0000
0000
0000
0010
0000
0000
0010
0000
0000
0010
0000
,
0000
0010
0000
0000
0010
0000
0000
0000
1000
0000
0000
1000
0000
0000
1000
0000
,
0000
1000
0000
0000
1000
0000
0000
0000
0001
0000
0000
0001
0000
0000
0001
0000
,
0000
0001
0000
0000
0001
0000
0000
0000
0220
0000
0000
0000
0000
0000
0000
0000
,
0000
0000
0330
0000
,
1000
0000
0000
0001
0000
0000
1000
0000
0000
0001
0000
0000
0200
0000
0000
0000
,
0310
1000
0010
0000
0100
0000
0001
0000
,
0010
0100
1000
0000
0001
0000
0000
0000
,
0100
0001
1000
0000
0010
0000
0100
0010
,
0100
0000
0000
0001
0000
0000
0000
0000
0020
0000
0000
0000
0000
0000
0000
0000
,
0130
1000
0010
0000
0110
0000
0100
0001
,
1000
0000
0100
0000
0010
0000
0000
0001
,
0100
0000
0000
0010
0000
1000
0000
0010
0000
0000
1000
0000
0100
0000
0010
0000
,
0002
0000
0010
0000
0100
0100
0103
0000
,
1000
0000
0010
0000
0101
0000
0010
2000
,
0000
0001
0000
0000
3001
0000
0000
0000
0100
0000
0001
0000
0010
0000
0000
0000
,
0100
0000
0100
0100
0100
0000
0000
0000
,
1000
0000
0001
0000
0100
0000
0000
0000
0000
0000
0010
0000
0000
0010
0000
0000
,
0010
1000
0001
0200
,
0000
0000
0300
0010
0000
0100
0010
0000
,
0000
0000
1000
0000
0000
1000
0000
0000
1000
0000
0000
0000
0000
0000
0000
0000
,
0100
0000
0000
0000
0010
0010
0010
0000
,
0001
0000
0000
0000
0000
0100
0010
0000
,
2000
0000
3001
0000
0000
0001
0100
0000
,
0010
0000
0000
1000
0000
0010
0000
0000
0000
0000
0100
0000
0001
0000
0001
0000
,
1000
0000
0001
0000
0100
0010
0100
0001
,
1000
0010
1000
0000
0100
0000
0100
1000
,
0000
1000
0010
0000
0100
0001
0010
0000
,
0010
0100
1000
0000
0000
0010
0100
1000
,
0010
0100
0001
0000
0001
0100
0010
0000
,
1000
0100
0001
0000
0100
1000
1000
0000
,
0010
0100
0001
0100
0010
1000
0100
1000
,
0000
0010
0000
0010
0000
0010
0000
0010
0000
0000
0010
0000
0000
0000
0000
0000
,
0100
0000
0000
0000
0001
1000
0001
0000
,
0010
0000
0000
0000
1000
0001
1000
0000
,
0010
0000
0000
0000
0001
1000
0001
0000
,
0010
0000
0000
0000
1000
0001
0100
0010
;

//---------------dance-double - ----------------
#NOTES:
     dance-double:
     :
     Medium:
     10:
     0.366294,0.423312,0.104820,0.169325,0.237861,318.000000,305.000000,13.000000,21.000000,0.000000,0.000000,0.366294,0.423312,0.104820,0.169325,0.237861,318.000000,305.000000,13.000000,21.000000,0.000000,0.000000:
00000000
00000000
00000000
00000000
,
11000000
00000000
00000000
00000000
,
00100000
00000000
00000000
00001000
00000000
00000000
00000000
00000000
00000000
00000000
00000000
00000000
00000000
00000000
00000000
00000000
,
00010100
00000000
00000000
00000000
,
00000010
00000000
00000000
00000001
00000000
00000000
00000000
00000000
00000000
00000000
00000000
00000000
00000000
00000000
00000000
00000000
,
00000001
00000000
00000100
00000001
00000000
00000000
00000000
00000000
00001000
00000000
00000010
00000000
00000010
00000000
00000000
00000000
,
00001000
00000000
00000000
00000100
00000000
00000000
00000000
00000000
00010000
00000000
00001000
00000000
01000000
00000000
00000000
00000000
,
00100000
10000000
00010000
00000000
00100000
10000000
00010000
00000000
,
10000000
00000000
00000000
01000000
00000000
01000000
00000000
01000000
00000000
00000000
00100000
00000000
00010000
00000000
00100000
00000000
,
00010000
00000000
01010000
00000000
00100000
10000000
01000000
10000000
,
00100000
01000000
00100000
00000000
01000000
00000000
00010000
00000000
,
00100000
00001000
00010000
00000000
00010000
00000100
00001000
00000000
,
00000010
00000100
00000001
00001001
,
00000001
00000000
00000000
00000100
00000000
00000010
00000000
00000000
00001000
00000000
00000000
00000000
00000100
00000000
00000100
00000000
,
00001000
00000000
00000000
00000010
00000000
00000100
00000000
00000000
00000001
00000000
00000000
00000000
00000100
00000000
00000001
00000000
,
00000020
00000000
00000230
00000000
,
00010300
00000000
00000000
00001000
00000000
00000000
00000000
00000000
00000000
00000000
00000000
00000000
00000000
00000000
00000000
00000000
,
00100000
00000000
00000000
00000000
00000000
00000000
00000000
00010000
00000000
00000000
00000000
00000000
00000000
00000000
00000000
00000000
01000000
00000000
00000000
01000000
00000000
00000000
00000000
00000000
00000000
00000000
00000000
00000000
00000000
00000000
00000000
00000000
,
00100000
00000000
00000000
00000000
00000000
00000000
00000000
10000000
00000000
00000000
00000000
00000000
00000000
00000000
00000000
00000000
00100000
00000000
00000000
00000000
00000000
00000000
00000000
00000000
01000000
00000000
00000000
00000000
00001000
00000000
00000000
00000000
,
00010000
00000000
00000000
00000000
00000000
00000000
00000000
00000100
00000000
00000000
00000000
00000000
00000000
00000000
00000000
00000000
00001000
00000000
00000000
00000000
00000000
00001000
00000000
00000000
00000000
00000000
00000000
00000000
00000000
00000000
00000000
00000000
,
00000001
00000000
00000000
00000001
00000000
00000000
00000002
00000000
00000000
00000000
00000000
00000000
00000000
00000000
00000000
00000000
00001003
00000000
00000000
00000000
00000000
00000000
00001000
00000000
00000000
00000000
00000000
00000000
00002000
00000000
00000000
00000000
,
00000000
00000000
00003000
00000000
,
00000000
00000000
00000000
00000000
00000010
00000000
00000100
00000001
,
00001000
00000000
00000000
00000000
00000010
00000000
00000000
00000000
00000100
00000000
00000010
00000000
00010000
00000000
00000000
00001000
,
00000000
00000000
00000000
00000000
00000000
00000000
00000000
00000000
00100000
00000000
00000000
00010000
00000000
10000000
00000000
00010000
,
00000000
00000000
01000000
00000000
00100000
00000000
01000000
00000000
00100000
00000000
00000000
00100000
00000000
00000000
00000000
00000000
,
00000000
00000000
00000000
00000000
10000000
01000000
00100000
00000000
,
00010000
00000000
00000000
00000000
01000000
00000000
00000000
00000000
00001000
00000000
00000000
00010000
00000000
00000100
00000000
00010000
,
00000000
00000000
00000000
00000000
00000000
00000000
00001000
00000000
00010000
00000000
00000000
00000010
00000000
00000010
00000000
00000010
,
00000000
00000000
00000000
00000000
,
00000000
00000000
00000000
00000000
,
00000000
00000000
00000000
00000100
00000100
00000000
00000000
00010000
,
00010000
00000000
00000000
00100000
00100000
00000000
00000000
00000000
,
00000000
00000000
00000000
00000000
00000000
00000000
00000000
00000000
10000000
00000000
00000000
00010000
00000000
00000000
10000000
00000000
,
00000000
00010000
00000000
00000000
10000000
00000000
00000000
00000000
00010000
00000000
00000000
00100000
00000000
00000000
00010000
00000000
,
00000000
00100000
00000000
00000000
00010000
00000000
00000000
00000000
00100000
00000000
00000000
00001000
00000000
00000000
00100000
00000000
,
00000000
00001000
00000000
00000000
00100000
00000000
00000000
00000000
00022000
00000000
00000000
00000000
00000000
00000000
00000000
00000000
,
00000000
00000000
00033000
00000000
,
00001001
00000000
00000000
00001001
00000000
00000000
00001001
00000000
00000000
00002002
00000000
00000000
00000000
00000000
00003003
00000000
,
00000001
00000100
00000010
00000000
00000100
00000000
00000001
00001000
,
00000001
00000000
00000000
00000000
00000100
00000000
00000000
00000010
00000000
00000000
00000000
00000000
00000000
00001000
00000000
00000000
,
00000100
00001000
00010000
00100000
,
10000000
00000000
00000000
00010000
00000000
00000000
00000000
00000000
00000000
00000000
00000000
00000000
00000000
00000000
00000000
00000000
,
01000000
00010000
01000000
00000000
00100000
00000000
10000000
00000000
,
01000000
00100000
00010000
00100000
01000000
00000000
00000000
10000000
,
00010000
00000000
00000000
01000000
00000000
01000000
00000000
01000000
00000000
00000000
00001000
00000000
00010000
00000000
00001000
00000000
,
00020000
00000000
00030100
00000000
00000200
00010000
00010300
00000000
,
00000010
00000000
00010100
00000000
00000011
00000000
00002002
00003003
,
00000000
00000001
00000000
00000000
00001000
00000000
00000000
00000000
00000010
00000000
00000100
00000000
00000010
00000000
00000000
00000000
,
00002000
00000000
00003001
00000001
00000001
00000000
00000000
00000000
,
00000200
00000000
00000000
00000000
00000320
00000000
00000000
00000000
00000030
00000000
00010000
00000000
00000000
00010000
00000000
00000000
,
00010000
00001000
01010000
00100000
,
02000000
00000000
03000000
00020000
00000000
00130000
00020000
00000000
,
00030000
00000000
10000000
00000000
00000000
10000000
00000000
00000000
10000000
00000000
00000000
00000000
00000000
00000000
00000000
00000000
,
01000000
00100000
00010000
00000000
01000000
01000000
01000000
00000000
,
00001000
00010000
00001000
00000000
00000010
00000000
00000001
00000000
,
00002000
00000100
00003100
00000000
00000010
00000001
00000010
00000100
,
00000010
00000000
00000000
00000001
00000000
00001000
00000000
00000001
00000000
00000000
00000000
00000000
00000000
00000000
00000000
00000000
,
00000100
00000000
00000001
00000000
00001000
00000000
00000000
00000100
00000000
00000000
00000000
00000000
00000100
00000000
00001000
00000000
,
00000010
00000010
00010000
00000000
00001000
00000000
00001000
01000000
,
00000000
01000000
00100000
00000000
10000000
00010000
10000000
00000000
,
00010000
00000000
00000000
00100000
00000000
01000000
00000000
10000000
00000000
00000000
01000000
00000000
00100000
00000000
00010000
00000000
,
01000000
00001000
00010000
00000000
00000100
00001000
00000010
00001000
,
00000100
00000010
00000001
00000000
00000100
00000001
00000010
00000010
,
00000001
00001000
00000100
00000000
00000100
00001000
00000100
00000000
,
00000000
00010000
00000000
00001000
00000000
00010000
00000000
00001000
00000000
00000000
00100000
00000000
00000000
00000000
00000000
00000000
,
00100000
01000000
10000000
00000000
00010000
00000000
00010000
00000000
,
01000000
00001000
00010000
00000000
00001000
00000000
00001000
00000000
,
00010000
00000010
00000100
00000000
00000001
00000000
00000001
00000000
,
00001000
00000100
00000010
00000001
00000100
00000010
00002000
00000002
,
00003003
00000000
00000000
00000000
;

//---------------dance-double - ----------------
#NOTES:
     dance-double:
     :
     Easy:
     4:
     0.148591,0.197546,0.008063,0.161262,0.000000,129.000000,128.000000,1.000000,20.000000,0.000000,0.000000,0.148591,0.197546,0.008063,0.161262,0.000000,129.000000,128.000000,1.000000,20.000000,0.000000,0.000000:
00000000
00000000
00000000
00000000
,
00000000
00000000
00000000
00000000
,
00000000
00000000
00000000
00000000
,
00000000
00000000
00000000
00000000
,
00000000
00000000
00000000
00000000
,
10000000
00000000
00010000
00000000
,
01000000
00000000
00010000
00000000
,
00100000
00000000
00100000
00000000
,
00002000
00000000
00000000
00013000
,
00000100
00000010
00000000
00000010
,
00000001
00001000
00000000
00000010
,
00001000
00000001
00000000
00000000
,
00000200
00000000
00000300
00000010
,
00010000
00001000
00000000
00100000
,
00010000
01000000
00000000
00000000
,
00200000
00000000
02300000
00000000
,
03010000
00000000
00000000
00000000
,
10000000
00000000
01000000
00000000
,
00100000
00000000
00001000
00010000
,
00000100
00000000
00000010
00000000
,
00000002
00000000
00002000
00000000
,
00003003
00000000
00000000
00000000
,
00000000
00000000
00000010
00000100
,
00000010
00000000
00001000
00000001
,
00001000
00000000
00000100
00001000
,
00000100
00000000
00020000
00000000
,
00032000
00000000
01003000
00010000
,
01000000
00000000
00100000
01000000
,
00100000
00000000
20000000
00000000
,
30000000
00000000
00000000
00000000
,
00000000
00000000
00000000
00000000
,
00000000
00000000
00010000
00000000
,
01000000
00000000
00001000
00000000
,
00000000
00000000
00020000
00000000
,
00000000
00030000
00000200
00000000
,
00000000
00000300
00020000
00000000
,
00000000
00000000
00002000
00000000
,
00000000
00000000
00033000
00000000
,
10010000
00000000
00000000
00000000
,
01000000
00010000
01000000
00000000
,
00010000
00100000
00010000
00000000
,
00100000
00010000
00100000
00000000
,
00002000
00000000
00023000
00000000
,
00030100
00001000
00000100
00000000
,
00001000
00000010
00001000
00000000
,
00000002
00000000
00000000
00000003
,
00000100
00000000
00000010
00000010
,
00001000
00001000
00001000
00001000
,
00000000
00000000
00010000
00000000
,
00001000
00000000
00000000
00000000
,
01000000
00000000
00000000
00000000
,
00100000
00000000
00000000
10000000
,
00020000
00030000
00000000
00010000
,
00000000
00000000
01000000
00000000
,
00010000
00000000
00100000
00000000
,
00100000
00000000
00001000
00000000
,
00010000
00000000
00000100
00000000
,
00000020
00000000
00000030
00000000
,
00000001
00001000
00000001
00000000
,
00001000
00000100
00001000
00000000
,
00000000
00000100
00010000
00001000
,
00200000
00000000
00300000
00000000
,
00010000
10000000
00010000
00000000
,
00010000
00100000
00010000
00000000
,
01000000
00000000
00001000
00000000
,
00000000
00000000
00000000
00000000
,
00010000
00000000
00000100
00000000
,
00000010
00000000
00000100
00000000
,
00010000
00000000
00001000
00000000
,
01000000
00000000
00200000
00000000
,
01300000
00000000
00000000
00000000
;

//---------------dance-single - ----------------
#NOTES:
     dance-single:
     :
     Easy:
     5:
     0.191210,0.282208,0.048379,0.169325,0.000000,166.000000,160.000000,6.000000,21.000000,0.000000,0.000000,0.191210,0.282208,0.048379,0.169325,0.000000,166.000000,160.000000,6.000000,21.000000,0.000000,0.000000:
0000
0000
0000
0000
,
0000
0000
0000
0000
,
0000
0000
0000
0000
,
0000
0000
0000
0000
,
0000
0000
0000
0000
,
0001
0000
0100
0000
,
1000
0000
0010
0000
,
0002
0000
0000
0000
,
1003
0000
0000
0000
,
1000
0010
1000
0000
,
1000
0100
1000
0000
,
1000
0010
0100
0000
,
0001
0010
0001
0000
,
0001
0100
0000
0010
,
1000
0100
0000
0000
,
0020
0000
0032
0000
,
1003
0000
0000
0000
,
1000
0000
0100
0010
0100
0000
0000
0000
,
0010
0000
0001
1000
0001
0000
0100
0000
,
0010
0000
0100
0010
0100
0000
0000
0000
,
0002
0000
2003
0000
,
0000
3000
0000
0000
,
0000
0000
0010
1000
,
0010
0000
0100
0001
,
1000
0000
0010
1000
,
0100
0000
0010
0010
,
0002
0000
0103
0001
,
1000
0000
0010
1000
,
0010
0000
2002
0000
,
0000
0000
3003
0000
,
0000
0000
0000
0000
,
0000
0000
1000
0000
,
0010
0000
0001
0000
,
0000
0000
2000
0000
,
0000
0000
3200
0000
,
0000
0000
0320
0000
,
0000
0000
0032
0000
,
0000
0000
0003
0000
,
0220
0000
0000
0330
,
0010
1000
0100
0100
,
0010
0001
0010
0000
,
0001
0100
0001
0001
,
0100
0010
0000
0000
,
1000
0100
1000
1000
,
0010
0100
0001
0000
,
2002
0000
0000
3003
,
2000
3100
0010
0010
,
0100
1000
0001
0010
,
0000
0001
1000
0000
,
0010
0100
0000
0000
,
0100
0010
0000
0000
,
1000
0100
0001
0000
,
2000
0000
3000
0000
0000
0002
0000
0003
,
0000
0000
0000
0000
,
0100
0001
0100
0100
,
0001
0100
0001
0001
,
0010
0100
1000
0100
,
1000
0010
0100
0000
,
0010
1000
0010
0010
,
1000
0010
1000
1000
,
0100
0010
0001
0010
,
0100
1000
0100
0000
,
1000
0010
0100
0000
,
0100
0001
0010
0000
,
0110
0000
1001
0000
,
0020
0000
0000
0000
,
0031
0000
0100
0100
,
0010
0000
0010
0010
,
1000
0000
1000
1000
,
0100
0000
0020
0031
,
1001
0000
0000
0000
;

//---------------dance-single - ----------------
#NOTES:
     dance-single:
     :
     Beginner:
     3:
     0.137072,0.225766,0.040315,0.104820,0.000000,119.000000,114.000000,5.000000,13.000000,0.000000,0.000000,0.137072,0.225766,0.040315,0.104820,0.000000,119.000000,114.000000,5.000000,13.000000,0.000000,0.000000:
// measure 0
0000
0000
0000
0000
,  // measure 1
0000
0000
0000
0000
,  // measure 2
0000
0000
0000
0000
,  // measure 3
0000
0000
0000
0000
,  // measure 4
0000
0000
0000
0000
,  // measure 5
1000
0000
0000
0000
,  // measure 6
0100
0000
0000
0000
,  // measure 7
0001
0000
0000
0000
,  // measure 8
1000
0000
0000
0001
,  // measure 9
0001
0000
0000
0100
,  // measure 10
0100
0000
0000
0010
,  // measure 11
0010
0000
0000
1000
,  // measure 12
1000
0000
0000
0000
,  // measure 13
0100
0000
0010
0000
,  // measure 14
0100
0000
1000
0000
,  // measure 15
0001
0000
0010
0000
,  // measure 16
0002
0003
0000
0000
,  // measure 17
1000
1000
1000
0000
,  // measure 18
0001
0001
0000
0010
,  // measure 19
0010
0010
0010
0000
,  // measure 20
0110
0000
2002
0000
,  // measure 21
0000
3003
0000
0000
,  // measure 22
0000
0000
1000
0000
,  // measure 23
0100
0000
1000
1000
,  // measure 24
1000
0000
0001
0000
,  // measure 25
0010
0000
0100
0000
,  // measure 26
0020
0030
0010
0000
,  // measure 27
0001
0000
0010
0010
,  // measure 28
0010
0000
1001
0000
,  // measure 29
0000
0000
0000
0000
,  // measure 30
0000
0000
0000
0000
,  // measure 31
0000
0000
0001
0000
,  // measure 32
0010
0000
1000
0000
,  // measure 33
0000
0000
0002
0000
,  // measure 34
0003
0000
0020
0000
,  // measure 35
0030
0000
0200
0000
,  // measure 36
0300
0000
2000
0000
,  // measure 37
0000
0000
3000
0000
,  // measure 38
0020
0000
0030
0000
,  // measure 39
0100
0000
0001
0000
,  // measure 40
0100
0100
0100
0000
,  // measure 41
0001
0000
1000
0000
,  // measure 42
0010
0000
0000
0000
,  // measure 43
0010
0000
1000
0000
,  // measure 44
0010
0010
0010
0000
,  // measure 45
1001
0000
0000
0000
,  // measure 46
0020
0030
0010
0000
,  // measure 47
1000
1000
1000
1000
,  // measure 48
1000
0000
0100
0000
,  // measure 49
0010
0010
0000
0000
,  // measure 50
0001
0000
0100
0000
,  // measure 51
0010
0010
0010
0000
,  // measure 52
2000
3000
0000
2000
,  // measure 53
3000
0000
0000
0000
,  // measure 54
0100
0000
0010
0000
,  // measure 55
0100
0000
0010
0000
,  // measure 56
0001
0000
0100
0000
,  // measure 57
0001
0000
1000
1000
,  // measure 58
1000
0000
0010
0000
,  // measure 59
0100
0000
0001
0000
,  // measure 60
0010
0000
0100
0000
,  // measure 61
0010
0010
0010
0000
,  // measure 62
0001
0000
1000
0000
,  // measure 63
1000
0000
0001
0000
,  // measure 64
0100
0000
0010
0000
,  // measure 65
0020
0000
0030
0000
,  // measure 66
1000
0000
0000
0000
,  // measure 67
0100
0000
0000
0000
,  // measure 68
0010
0000
0000
0000
,  // measure 69
0001
0000
0000
0000
,  // measure 70
1001
0000
0000
0000
;
