#VERSION:0.83;
#TITLE:Real Move Touch;
#SUBTITLE:;
#ARTIST:Confidence Man feat. Sweetie Irie;
#TITLETRANSLIT:;
#SUBTITLETRANSLIT:;
#ARTISTTRANSLIT:;
#GENRE:House;
#ORIGIN:;
#CREDIT:;
#BANNER:;
#BACKGROUND:;
#PREVIEWVID:;
#JACKET:;
#CDIMAGE:;
#DISCIMAGE:;
#LYRICSPATH:;
#CDTITLE:;
#MUSIC:Real Move Touch.ogg;
#OFFSET:-0.000000;
#SAMPLESTART:46.089996;
#SAMPLELENGTH:12.000000;
#SELECTABLE:YES;
#BPMS:0.000=130.000;
#STOPS:;
#DELAYS:;
#WARPS:;
#TIMESIGNATURES:0.000=4=4;
#TICKCOUNTS:0.000=4;
#COMBOS:0.000=1;
#SPEEDS:0.000=1.000=0.000=0;
#SCROLLS:0.000=1.000;
#FAKES:;
#LABELS:0.000=Song Start;
#BGCHANGES:;
#KEYSOUNDS:;
#ATTACKS:
;

//---------------dance-single - ----------------
#NOTEDATA:;
#CHARTNAME:;
#STEPSTYPE:dance-single;
#DESCRIPTION:;
#CHARTSTYLE:;
#DIFFICULTY:Hard;
#METER:13;
#RADARVALUES:0.520706,0.627831,0.344017,0.073718,0.380876,445.000000,403.000000,42.000000,9.000000,0.000000,0.000000,0.000000,0.000000,0.000000,0.520706,0.627831,0.344017,0.073718,0.380876,445.000000,403.000000,42.000000,9.000000,0.000000,0.000000,0.000000,0.000000,0.000000;
#CREDIT:;
#NOTES:
0000
0000
0000
0000
,
0000
0000
0000
0000
,
1000
0100
1000
0100
1000
0000
0001
0000
0100
0000
0000
0000
0001
0100
0001
0000
,
1000
0000
0000
0000
0001
0100
0001
0100
0001
0000
1000
0000
0100
0000
0000
0000
,
1000
0000
0010
0100
0010
0000
0100
0000
0001
0000
0000
0000
0001
0010
0001
0000
,
1000
0000
0000
0000
0001
0010
0001
0010
0001
0000
1000
0000
0010
0000
0000
0000
,
1100
0000
0100
0000
1000
0000
0100
0000
1000
0000
0000
0000
0010
0100
0010
0000
,
0100
0001
0010
0001
0010
0000
0000
0000
,
0011
0000
1001
0000
,
1010
0110
0101
1001
,
1100
0000
0000
0100
1000
0000
0100
0010
0000
0000
0010
0000
0100
0000
0010
0000
,
0001
0000
0000
0001
0100
0000
0010
0100
0000
0000
0100
0000
0010
0000
1000
0000
,
0010
0000
0000
0100
0001
0000
1000
0001
0000
0000
0010
0000
0001
0000
1000
0000
,
0100
0000
1100
0010
0001
0010
0000
0000
,
0101
0000
0000
0001
0100
0000
0010
0100
0000
0000
0100
0000
0010
0000
0100
0000
,
0001
0000
0000
0010
0100
0000
1000
0001
0000
0000
0001
0000
1000
0000
0010
0000
,
1000
0000
0000
1000
0010
0000
0100
0010
0000
0000
0010
0000
0100
0000
0010
0000
,
1000
0000
0001
0010
0001
0000
1000
0100
,
1000
0000
0000
0000
0000
0000
0010
0000
0100
0001
0100
0000
0010
0000
0000
0000
,
0110
0000
0000
0000
0000
0000
0100
0000
0010
1000
0010
0000
0100
0000
0000
0000
,
0110
0000
0000
0000
0000
0000
0010
0000
0100
0001
0100
0000
0010
0000
0000
0000
,
1001
0000
0000
0000
0000
0000
1000
0100
0001
0100
1000
0000
0000
0000
0000
0000
,
1002
0000
0000
0000
0000
0000
0000
0200
0000
0000
0000
0000
0303
0000
0000
0000
,
2001
0000
0000
0000
0000
0000
0000
0200
0000
0000
0000
0000
3300
0000
0000
0000
,
1002
0000
0000
0000
0000
0000
0000
0200
0000
0000
0000
0000
0000
0000
0000
0000
,
0303
0000
0000
0000
,
1001
0000
0000
1000
0100
0000
0010
0000
0000
0000
0000
1000
0100
0000
0000
0000
,
1001
0000
0000
0001
0010
0000
0100
0000
0000
0000
0000
0001
0010
0000
0000
0000
,
1001
0000
0000
0000
1000
0000
0100
0000
0001
0100
1000
0000
0100
0000
0000
0000
,
0010
0100
0010
0100
0010
0001
0010
0001
,
1001
0000
0000
0001
0100
0000
0010
0000
0000
0000
0000
0001
0100
0000
0000
0000
,
1001
0000
0000
1000
0010
0000
0100
0000
0000
0000
0000
1000
0010
0000
0000
0000
,
1001
0000
0000
0000
0001
0000
0100
0000
1000
0100
0001
0000
0100
0000
0000
0000
,
0010
0100
0010
0100
0010
0100
0010
0100
,
1001
0000
0000
0000
0000
0000
0000
1000
0000
0010
0100
0000
0001
0000
0000
0000
,
1001
0000
0000
0000
0000
0000
0000
0001
0000
0010
0100
0000
1000
0000
0000
0000
,
1010
0000
0000
0000
0000
0000
0000
1000
0000
0010
0001
0000
0010
0000
0000
0000
,
1000
0100
0001
0100
0010
0100
1000
0100
,
1001
0000
0000
0000
0000
0000
0000
0001
0000
0010
0100
0000
1000
0000
0000
0000
,
1001
0000
0000
0000
0000
0000
0000
1000
0000
0100
0010
0000
0001
0000
0000
0000
,
0101
0000
0000
0000
0000
0000
0000
0001
0000
0100
1000
0000
0100
0000
0000
0000
,
0001
0010
1000
0010
0001
0010
1000
0010
,
0002
0000
0000
0003
,
0101
0000
0000
0100
0010
0000
1000
0000
0100
0000
0001
0100
1000
0000
0000
0000
,
0010
0000
0010
0000
1000
0100
0001
0100
1000
0000
1000
0000
0001
0000
0000
0000
,
0202
0000
0000
0000
0303
1000
0100
0010
0001
0000
0001
0000
1000
0000
0000
0000
,
0010
0100
0000
0010
0100
0000
0001
0100
0001
0000
1000
0100
1000
0000
0000
0000
,
0001
0010
0001
0010
0001
0000
1000
0000
0010
0000
0100
0010
0100
0000
0100
0000
,
0010
0000
0100
0001
0010
0000
0010
0100
1000
0000
0000
0000
1000
0010
1000
0010
,
1000
0010
1000
0000
0001
0100
0000
0100
0001
1000
0010
0000
1001
0000
0000
0010
,
0100
0000
0001
1000
0010
0000
0010
0000
0100
0000
0000
0000
1001
0000
0000
0000
,
0000
0000
0000
0000
,
1100
0000
0000
1000
0010
0000
0100
0000
0000
0000
0000
1000
0100
0000
0000
0000
,
0101
0000
0000
0001
0010
0000
0100
0000
0000
0000
0000
0001
0100
0000
0000
0000
,
1100
0000
0000
0000
1000
0000
0010
0000
0100
1000
0100
0000
0001
0000
0000
0000
,
1000
1000
0001
0001
0100
0100
0010
0010
,
0110
0000
0000
0001
0100
0000
0010
0000
0000
0000
0000
0001
0010
0000
0000
0000
,
0110
0000
0000
1000
0100
0000
0010
0000
0000
0000
0000
1000
0010
0000
0000
0000
,
0110
0000
0000
0000
0001
0000
0100
0000
0010
0001
0010
0000
1000
0000
0000
0000
,
0001
0001
0100
0100
0010
0010
1000
0000
,
1010
0000
0100
0000
0001
0000
0000
0100
0000
0100
0001
0000
1000
0000
0001
0000
,
0011
0000
0100
0000
1000
0000
0000
0001
0000
0001
1000
0000
0001
0000
0100
0000
,
0110
0000
1000
0000
0001
0000
0000
0010
0000
0010
0100
0000
1000
0000
0001
0000
,
1001
0000
0010
0000
0100
0000
0000
0001
0000
1000
0100
0000
0010
0000
0100
0000
;

//---------------dance-double - ----------------
#NOTEDATA:;
#CHARTNAME:;
#STEPSTYPE:dance-double;
#DESCRIPTION:;
#CHARTSTYLE:;
#DIFFICULTY:Hard;
#METER:15;
#RADARVALUES:0.575702,0.627831,0.491453,0.065527,0.376781,492.000000,432.000000,60.000000,8.000000,0.000000,0.000000,0.000000,0.000000,0.000000,0.575702,0.627831,0.491453,0.065527,0.376781,492.000000,432.000000,60.000000,8.000000,0.000000,0.000000,0.000000,0.000000,0.000000;
#CREDIT:;
#NOTES:
// measure 0
00000000
00000000
00000000
00000000
,  // measure 1
00000000
00000000
00000000
00000000
,  // measure 2
10000000
01000000
00010000
01000000
10000000
00000000
01000000
00000000
00010000
00000000
00000000
00000000
00001000
00010000
00001000
00000000
,  // measure 3
00000100
00000000
00000000
00000000
00000001
00000100
00001000
00000100
00000001
00000000
00000100
00000000
00001000
00000000
00000000
00000000
,  // measure 4
00010000
00000000
00001000
00000100
00001000
00000000
00010000
00000000
01000000
00000000
00000000
00000000
10000000
01000000
00010000
00000000
,  // measure 5
00001000
00000000
00000000
00000000
00000100
00000001
00000100
00001000
00010000
00000000
01000000
00000000
10000000
00000000
00000000
00000000
,  // measure 6
10010000
00000000
00100000
00000000
00001000
00000000
00100000
00000000
00001000
00000000
00000000
00000000
00010000
00000100
00010000
00000000
,  // measure 7
00000000
00100000
00001000
00100000
00001000
00000000
00000000
00000000
,  // measure 8
00000110
00000000
01100000
00000000
,  // measure 9
00001001
10010000
00001001
10010000
,  // measure 10
01100000
00000000
00000000
10000000
00100000
00000000
01000000
00010000
00000000
00000000
00010000
00000000
00100000
00000000
01000000
00000000
,  // measure 11
11000000
00000000
00000000
01000000
00100000
00000000
00001000
00010000
00000000
00000000
00010000
00000000
00000100
00000000
00000010
00000000
,  // measure 12
00001001
00000000
00000000
00000001
00000100
00000000
00000010
00001000
00000000
00000000
00001000
00000000
00000100
00000000
00000010
00000000
,  // measure 13
00001001
00000000
00000110
00010000
00001000
01200000
00000000
00300000
,  // measure 14
01010000
00000000
00000000
00010000
01000000
00000000
00100000
10000000
00000000
00000000
10000000
00000000
01000000
00000000
00100000
00000000
,  // measure 15
00110000
00000000
00000000
00010000
01000000
00000000
00001000
00010000
00000000
00000000
00010000
00000000
00000100
00000000
00000010
00000000
,  // measure 16
00000011
00000000
00000000
00000001
00000100
00000000
00000010
00001000
00000000
00000000
00000100
00000000
00000010
00000000
00000001
00000000
,  // measure 17
00011000
00000000
00100000
00010000
11000000
00000000
00001000
00010000
,  // measure 18
00000011
00000000
00000000
00000000
00001000
00000000
00000010
00000000
00000100
00000010
00000100
00000000
00100000
00000000
00000000
00000000
,  // measure 19
01100000
00000000
00000000
00000000
10000000
00000000
01000000
00000000
00100000
01000000
00100000
00000000
00000100
00000000
00000000
00000000
,  // measure 20
00000110
00000000
00000000
00000000
00000001
00000000
00000100
00000000
00000010
00000100
00000010
00000000
01000000
00000000
00000000
00000000
,  // measure 21
10010000
00000000
00000000
00000000
10000000
00000000
00100000
00010000
00001000
00000010
00000001
00000000
00000000
00000000
00000000
00000000
,  // measure 22
00001001
00000000
00000010
00000000
00000100
00000000
00000020
00000200
00000000
00000000
00000000
00000000
00000000
00000000
00000330
00000000
,  // measure 23
10010000
00000000
01000000
00000000
00100000
00000000
02000000
00200000
00000000
00000000
00000000
00000000
00000000
00000000
03300000
00000000
,  // measure 24
00001001
00000000
00000010
00000000
00000100
00000000
00000020
00000200
00000000
00000000
00000000
00000000
00000000
00000000
00000330
00000000
,  // measure 25
01000000
00100000
01000000
00100000
00000010
00000100
00000010
00000100
,  // measure 26
00011000
00000000
00000000
00100000
01000000
00000000
00010000
00000000
00000000
00000000
00000000
00000010
00000100
00000000
00000000
00000000
,  // measure 27
00011000
00000000
00000000
10000000
00010000
00000000
00100000
00000000
00000000
00000000
00000000
00000001
00001000
00000000
00000000
00000000
,  // measure 28
00011000
00000000
00000000
00000000
10000000
00000000
00010000
00000000
00100000
01000000
00100000
00000000
00000010
00000000
00000000
00000000
,  // measure 29
01000000
00100000
01000000
00100000
00000010
00000100
00000010
00000100
,  // measure 30
00011000
00000000
00000000
00100000
01000000
00000000
00010000
00000000
00000000
00000000
00000000
00000010
00000100
00000000
00000000
00000000
,  // measure 31
00011000
00000000
00000000
00000001
00001000
00000000
00000100
00000000
00000000
00000000
00000000
10000000
00010000
00000000
00000000
00000000
,  // measure 32
00011000
00000000
00000000
00000000
00000001
00000000
00001000
00000000
00000100
00000010
00000100
00000000
01000000
00000000
00000000
00000000
,  // measure 33
00000010
00000100
00000010
00000100
01000000
00100000
01000000
00100000
,  // measure 34
00011000
00000000
00000000
00000000
00000000
00000000
00000000
10000000
00000000
00010000
00001000
00000000
00000001
00000000
00000000
00000000
,  // measure 35
00001001
00000000
00000000
00000000
00000000
00000000
00000000
00000001
00000000
00001000
00010000
00000000
10000000
00000000
00000000
00000000
,  // measure 36
10010000
00000000
00000000
00000000
00000000
00000000
00000000
10000000
00000000
00010000
00001000
00000000
00000001
00000000
00000000
00000000
,  // measure 37
00000100
00000010
00000100
00000010
00100000
01000000
00100000
01000000
,  // measure 38
00011000
00000000
00000000
00000000
00000000
00000000
00000000
10000000
00000000
00100000
10000000
00000000
00001000
00000000
00000000
00000000
,  // measure 39
00011000
00000000
00000000
00000000
00000000
00000000
00000000
00000001
00000000
00000010
00000001
00000000
00010000
00000000
00000000
00000000
,  // measure 40
00011000
00000000
00000000
00000000
00000000
00000000
00000000
10000000
00000000
00100000
10000000
00000000
00001000
00000000
00000000
00000000
,  // measure 41
01000000
00100000
01000000
00100000
00000010
00000100
00000010
00000100
,  // measure 42
00200000
00000000
00000000
00300010
,  // measure 43
00011000
00000000
00000000
00100000
00010000
00000000
01000000
00000000
00100000
00000000
00000010
00000100
00000010
00000000
00000000
00000000
,  // measure 44
00100000
00000000
00100000
00000000
00010000
10000000
01000000
10000000
00010000
00000000
00000001
00000000
00010000
00000000
00000000
00000000
,  // measure 45
00000110
00000000
00000000
00000000
00000000
00000001
00000100
00000010
00001000
00000000
10000000
00000000
00001000
00000000
00000000
00000000
,  // measure 46
00100000
01000000
00000000
00100000
01000000
00000000
00000100
00000010
00000100
00000000
00100000
01000000
00100000
00000000
00000000
00000000
,  // measure 47
10100000
00000000
00100000
10000000
00100000
00000000
01000000
00000000
00000100
00000000
01000000
00100000
01000000
00000000
00000010
00000000
,  // measure 48
01000000
00000000
00001000
00010000
00001000
00000000
00010000
00001000
00010000
00000000
00000000
00000000
00000001
00000100
00001000
00000100
,  // measure 49
00000001
00000100
00001000
00000000
00010000
01000000
00000000
10000000
01000000
00010000
01000000
00000000
10010000
00000000
00000000
00100000
,  // measure 50
01000000
00000000
00000010
00001000
00000010
00000000
01000000
00000000
00010000
00000000
00000000
00000000
00011000
00000000
00000000
00000000
,  // measure 51
10100000
01000000
00001010
00000100
00110000
01000000
00000011
00000100
,  // measure 52
00011000
00000000
00000000
01000000
00010000
00000000
10000000
00000000
00000000
00000000
00000000
00000100
00000001
00000000
00000000
00000000
,  // measure 53
00011000
00000000
00000000
00100000
10000000
00000000
00010000
00000000
00000000
00000000
00000000
00000010
00001000
00000000
00000000
00000000
,  // measure 54
00011000
00000000
00000000
00000000
00000001
00000000
00000100
00000000
00001000
00010000
01000000
00000000
10000000
00000000
00000000
00000000
,  // measure 55
11000000
00100000
00001100
00000010
01010000
00100000
00000101
00000010
,  // measure 56
00011000
00000000
00000000
01000000
00010000
00000000
10000000
00000000
00000000
00000000
00000000
00000100
00000001
00000000
00000000
00000000
,  // measure 57
00011000
00000000
00000000
00000010
00001000
00000000
00000001
00000000
00000000
00000000
00000000
00100000
10000000
00000000
00000000
00000000
,  // measure 58
10010000
00000000
00000000
00000000
10000000
00000000
01000000
00000000
00010000
00001000
00000100
00000000
00000001
00000000
00000000
00000000
,  // measure 59
00000010
00100000
00000010
00100000
00000100
01000000
00000100
01000000
,  // measure 60
00011000
00000000
00100000
00000000
00010000
00000000
00000000
01000000
00000000
00000100
01000000
00000000
00100000
00000000
01000000
00000000
,  // measure 61
00110000
00000000
10000000
00000000
00010000
00000000
00000000
00100000
00000000
00000010
00100000
00000000
00001000
00000000
00100000
00000000
,  // measure 62
00001100
00000000
00000010
00000000
00000100
00000000
00000000
00000001
00000000
00010000
00000001
00000000
00000100
00000000
00000010
00000000
,  // measure 63
00011000
00000000
01000000
00000000
00100000
00000000
00000000
10000000
00000000
00001000
10000000
00000000
01000000
00000000
00100000
00000000
;

//---------------dance-single - ----------------
#NOTEDATA:;
#CHARTNAME:;
#STEPSTYPE:dance-single;
#DESCRIPTION:;
#CHARTSTYLE:;
#DIFFICULTY:Medium;
#METER:10;
#RADARVALUES:0.414225,0.444714,0.286681,0.147436,0.036859,354.000000,319.000000,35.000000,18.000000,0.000000,0.000000,0.000000,0.000000,0.000000,0.414225,0.444714,0.286681,0.147436,0.036859,354.000000,319.000000,35.000000,18.000000,0.000000,0.000000,0.000000,0.000000,0.000000;
#CREDIT:;
#NOTES:
0000
0000
0000
0000
,
0000
0000
0000
0000
,
1000
0100
0010
0100
1000
0000
0001
0100
,
0010
0000
0100
0001
0010
0001
0100
0000
,
0010
1000
0100
1000
0010
0000
0100
0001
,
1000
0000
0010
1000
0001
1000
0010
0000
,
1000
0100
1000
0100
1000
0000
0101
0000
,
0001
0100
0001
0100
0001
0000
0000
0000
,
1100
0000
1001
0000
,
0101
0110
1010
1001
,
1000
0000
0000
0000
0100
0000
0000
0010
0000
0000
0001
0000
1000
0000
0001
0000
,
1000
0000
0000
0000
0100
0000
0000
0010
0000
0000
0001
0000
1000
0000
0001
0000
,
1000
0000
0000
0000
0010
0000
0000
0100
0000
0000
0001
0000
1000
0000
0001
0000
,
1000
0000
0110
0000
0002
2000
0000
3003
,
0001
0000
0000
0000
0100
0000
0000
0010
0000
0000
1000
0000
0001
0000
1000
0000
,
0001
0000
0000
0000
0100
0000
0000
0010
0000
0000
1000
0000
0001
0000
1000
0000
,
0001
0000
0000
0000
0010
0000
0000
0100
0000
0000
1000
0000
0010
0000
1000
0000
,
0100
0000
1000
0010
1000
0000
0100
0010
,
0001
0000
0000
0000
0100
0010
0100
0000
,
1001
0000
0000
0000
0010
0100
0010
0000
,
1001
0000
0000
0000
0100
0010
0100
0000
,
1001
0000
0001
0100
1000
0100
0001
0000
,
0002
0000
0000
0000
0000
0000
0000
2000
0000
0000
0000
0000
3003
0000
0000
0000
,
2000
0000
0000
0000
0000
0000
0000
0002
0000
0000
0000
0000
3003
0000
0000
0000
,
0002
0000
0000
0000
0000
0000
0000
2000
0000
0000
0000
0000
3003
0000
0000
0000
,
0000
0000
0000
0000
,
1100
0000
0010
0100
0010
0000
0010
0000
,
0101
0000
0010
0100
0010
0000
0010
0000
,
1100
0000
0010
0100
0001
0100
0010
0000
,
1000
0001
1000
0001
1000
0001
1000
0001
,
1001
0000
0100
0010
0100
0000
0100
0000
,
0011
0000
0100
0010
0100
0000
0100
0000
,
1010
0000
0100
0010
1000
0010
0100
0000
,
0001
1000
0001
1000
0001
1000
0001
1000
,
1001
0000
0000
0000
0010
1000
0001
0000
,
0110
0000
0000
0000
0100
0001
1000
0000
,
0110
0000
0000
0000
0010
1000
0001
0000
,
1000
0010
1000
0010
1000
0010
1000
0010
,
1010
0000
0000
0000
0100
0001
0010
0000
,
0110
0000
0000
0000
0100
1000
0010
0000
,
0110
0000
0000
0000
0100
0001
1000
0000
,
0001
0010
0001
0010
0001
0010
0001
0010
,
0022
0000
0000
0033
,
0000
0000
0001
1000
0010
0100
0010
0000
,
0000
0000
1000
0001
0100
0100
0100
0000
,
0000
0000
0010
1000
0100
1000
0010
0000
,
0100
0000
0100
0000
0001
1000
0001
0000
,
0100
0001
0010
0001
0100
0010
1000
0010
,
0100
0001
0010
0001
0100
0000
0010
0010
,
0010
0000
1000
0001
1000
0000
0110
0000
,
1000
0100
0010
0100
1000
0000
0000
0000
,
0001
0100
0001
0100
0001
0100
0001
0100
,
0101
0000
0010
1000
0010
0000
0010
0000
,
1100
0000
0010
0001
0010
0000
0010
0000
,
0101
0000
0010
1000
0100
1000
0010
0000
,
1000
0010
1000
0010
1000
0010
1000
0010
,
1010
0000
0100
0010
0100
0000
0100
0000
,
0011
0000
0100
0010
0100
0000
0100
0000
,
1010
0000
0100
0001
0010
0001
0100
0000
,
0001
0100
0010
1000
0010
0100
0001
0000
,
2002
0000
3003
0000
0010
0100
0001
0000
,
2002
0000
3003
0000
0100
0010
1000
0000
,
2002
0000
3003
0000
1000
0100
0010
0000
,
0022
0000
0033
0000
0001
0100
0010
1000
;

//---------------dance-single - ----------------
#NOTEDATA:;
#CHARTNAME:;
#STEPSTYPE:dance-single;
#DESCRIPTION:;
#CHARTSTYLE:;
#DIFFICULTY:Easy;
#METER:7;
#RADARVALUES:0.315934,0.366951,0.253917,0.081909,0.000000,270.000000,239.000000,31.000000,10.000000,0.000000,0.000000,0.000000,0.000000,0.000000,0.315934,0.366951,0.253917,0.081909,0.000000,270.000000,239.000000,31.000000,10.000000,0.000000,0.000000,0.000000,0.000000,0.000000;
#CREDIT:;
#NOTES:
0000
0000
0000
0000
,
0000
0000
0000
0000
,
1000
0100
1000
0100
1000
0000
0001
0100
,
0001
0000
1000
0100
1000
0100
1000
0000
,
0000
0000
0001
0010
0001
0000
1000
0010
,
1000
0000
0001
0010
0001
0010
0001
0000
,
0000
1000
0010
1000
0100
0000
0000
0000
,
0000
0001
0010
0001
0100
0000
0000
0000
,
1001
0000
0110
0000
,
1001
0110
1001
0110
,
1001
0000
0000
0000
0000
1000
0100
0010
,
0001
0000
0000
0000
0000
1000
0100
0010
,
0002
0000
0003
0000
0000
1000
0100
0010
,
0100
0000
2000
0000
3100
0010
0001
0000
,
0002
0000
0003
0000
0000
0001
0100
0010
,
1000
0000
0000
0000
0000
0001
0100
0010
,
1000
0000
0000
0000
0000
1000
0100
0010
,
0001
0000
1000
0001
1000
0000
0001
1000
,
0001
0000
0000
0000
0100
0010
0100
0000
,
1001
0000
0000
0000
0010
0100
0010
0000
,
1001
0000
0000
0000
0100
0010
0100
0000
,
1001
0000
0000
0000
0010
0100
0001
0000
,
0202
0000
0000
0303
,
2020
0000
0000
3030
,
2200
0000
0000
3300
,
0000
0000
0000
0000
,
1001
0000
1000
0100
0000
0000
1000
0000
,
1001
0000
0001
0100
0000
0000
0001
0000
,
1001
0000
1000
0100
0010
0100
1000
0000
,
0001
0100
1000
0010
,
1001
0000
0001
0100
0000
0000
0001
0000
,
1001
0000
1000
0100
0000
0000
1000
0000
,
1001
0000
0001
0100
0010
0100
0001
0000
,
1000
0100
1000
0100
,
1100
0000
0010
0010
,
0101
0000
0010
0010
,
1100
0000
0010
0010
,
1000
0100
0001
0010
,
1000
0000
0100
0100
,
0011
0000
0100
0100
,
1010
0000
0100
0100
,
0010
0001
0010
0001
0010
0001
0010
0001
,
0020
0000
0000
0030
,
0000
0001
0100
1000
,
0000
0001
0100
1000
,
0000
1000
0100
0001
,
1000
0001
0001
1000
,
0010
1000
0010
0000
0100
0000
0100
0000
,
0001
0000
0010
0001
0010
0000
0100
1000
,
0100
1000
0001
1001
,
0100
0100
0100
0000
,
0000
0000
0000
0000
,
0110
0000
1000
0100
0000
0000
0010
0000
,
0110
0000
0001
0100
0000
0000
0010
0000
,
0110
0000
1000
0100
0010
0100
1000
0000
,
0001
1000
1000
0001
,
1001
0000
0010
0100
0000
0000
0001
0000
,
1001
0000
0010
0100
0000
0000
1000
0000
,
1001
0000
0010
0100
0001
0100
0010
0000
,
1000
0100
0001
0010
,
1000
0000
0001
0100
,
0010
0000
1000
0100
,
0010
0000
0001
1000
,
0010
0000
0100
0001
,
1000
0000
0000
0000
;

//---------------dance-single - ----------------
#NOTEDATA:;
#CHARTNAME:;
#STEPSTYPE:dance-single;
#DESCRIPTION:;
#CHARTSTYLE:;
#DIFFICULTY:Beginner;
#METER:3;
#RADARVALUES:0.135735,0.183476,0.000000,0.098291,0.000000,116.000000,116.000000,0.000000,12.000000,0.000000,0.000000,0.000000,0.000000,0.000000,0.135735,0.183476,0.000000,0.098291,0.000000,116.000000,116.000000,0.000000,12.000000,0.000000,0.000000,0.000000,0.000000,0.000000;
#CREDIT:;
#NOTES:
0000
0000
0000
0000
,
0000
0000
0000
0000
,
1000
0000
1000
0000
,
0001
0000
0001
0000
,
0000
0100
0000
0010
,
0000
0100
0100
0100
,
0000
0010
0010
0000
,
0000
0100
0100
0000
,
0001
0000
1000
0000
,
0001
0001
0001
0001
,
0001
0000
0000
0000
,
1000
0000
0000
0000
,
0001
0000
0000
0000
,
1000
0000
0010
0000
,
1000
0000
0000
0000
,
0001
0000
0000
0000
,
1000
0000
0000
0000
,
0001
0000
0100
0000
,
0010
0000
1000
1000
,
1000
0000
0001
0001
,
0001
0000
1000
1000
,
1000
0000
0000
0000
,
0002
0003
0000
0000
,
2000
3000
0000
0000
,
0002
0003
0000
0000
,
0000
0000
0000
0000
,
0010
0010
0000
0000
,
0100
0100
0000
0010
,
0010
0000
0001
0001
,
0001
0000
0000
0000
,
1000
1000
0000
0000
,
0010
0010
0000
1000
,
1000
0000
0100
0100
,
0100
0000
0000
0000
,
0010
0000
0002
0003
,
0000
0000
2000
3000
,
0000
0000
0002
0003
,
0000
0000
0000
0000
,
0010
0000
2000
3000
,
0000
0000
0002
0003
,
0000
0000
1000
0000
,
0010
0010
0010
0010
,
0010
0000
0000
0000
,
0000
1000
1000
1000
,
0000
0001
0001
0001
,
0000
0000
1000
1000
,
0000
0000
0001
0001
,
0000
0100
0100
0000
,
0000
0010
0010
0000
,
0000
0100
0100
0000
,
0010
0000
1000
0000
,
0001
0000
0000
0000
,
1000
1000
0000
0000
,
0001
0001
0000
1000
,
1000
0000
0010
0010
,
0010
0000
0000
0000
,
0100
0100
0000
0000
,
0001
0001
0000
0100
,
0100
0000
0010
0010
,
0010
0000
1000
0000
,
0020
0000
0030
0000
,
0200
0000
0300
0000
,
0002
0000
0003
0000
,
2000
0000
3000
0000
,
0001
0000
0000
0000
;

//---------------dance-double - ----------------
#NOTEDATA:;
#CHARTNAME:;
#STEPSTYPE:dance-double;
#DESCRIPTION:;
#CHARTSTYLE:;
#DIFFICULTY:Medium;
#METER:8;
#RADARVALUES:0.327635,0.419373,0.278490,0.000000,0.000000,280.000000,246.000000,34.000000,0.000000,0.000000,0.000000,0.000000,0.000000,0.000000,0.327635,0.419373,0.278490,0.000000,0.000000,280.000000,246.000000,34.000000,0.000000,0.000000,0.000000,0.000000,0.000000,0.000000;
#CREDIT:;
#NOTES:
00000000
00000000
00000000
00000000
,
00000000
00000000
00000000
00000000
,
00000010
00001000
00000100
00001000
00000010
00000000
00001000
00000100
,
00000010
00000000
00001000
00010000
00100000
10000000
00100000
00000000
,
00000000
10000000
01000000
00100000
01000000
00000000
10000000
01000000
,
00010000
00000000
00001000
00000100
00000001
00000100
00000010
00000000
,
00001000
00000001
00001000
00000001
00001000
00000000
00001001
00000000
,
00010000
10000000
00010000
10000000
00010000
00000000
00000000
00000000
,
10010000
00000000
00001001
00000000
,
10010000
01100000
10010000
01100000
,
10010000
00000000
00000000
00000000
00000000
10000000
01000000
00100000
,
00010000
00000000
00000000
00000000
00000000
01000000
00100000
00001000
,
00010000
00000000
00000000
00000000
00000000
00000100
00000010
00000001
,
00001000
00000000
00000110
00000001
00001000
00000001
00000000
00000000
,
00001001
00000000
00000000
00000000
00000000
00000001
00000100
00000010
,
00001000
00000000
00000000
00000000
00000000
00000100
00000010
00010000
,
00001000
00000000
00000000
00000000
00000000
01000000
00100000
01000000
,
00100000
00000000
10000000
00010000
10000000
00000000
00100000
01000000
,
00100000
00000000
00000000
00000000
10000000
00010000
00100000
00000000
,
00000000
00000000
00000000
00000000
00100000
00001000
00010000
00000000
,
00000000
00000000
00000000
00000000
00010000
00000100
00000010
00000000
,
00000010
00000000
00000000
00000001
00001000
00000000
00000000
00000000
,
00010010
00000000
00000000
00000000
,
00011000
00000000
00000000
00000000
,
01001000
00000000
00000000
00000000
,
00000000
00000000
00000000
00000000
,
01100000
00000000
10000000
00010000
00000000
00000000
00010000
00000000
,
01100000
00000000
00001000
00010000
00000000
00000000
00010000
00000000
,
00000110
00000000
00001000
00000001
00000000
00001000
00000001
00000000
,
00000100
00000010
00000100
00000010
00000100
00000010
00000100
00000010
,
00000110
00000000
00000010
00010000
00000000
00000000
00010000
00000000
,
00011000
00000000
00001000
01000000
00000000
00000000
01000000
00000000
,
01100000
00000000
00100000
10000000
00000000
00100000
10000000
00000000
,
00010000
01000000
00100000
10000000
,
10010000
00000000
10000000
00010000
,
00110000
00000000
00100000
00001000
,
00011000
00000000
00010000
00000100
,
00010000
00000100
00010000
00000000
00000010
00000100
00000010
00000000
,
00000101
00000000
00000010
00010000
,
00010010
00000000
00010000
00001000
,
00011000
00000000
00001000
01000000
,
00100000
10000000
00010000
01000000
,
01100000
00000000
00000000
00000000
,
00000000
00000000
10000000
00000000
00010000
00100000
00010000
00000000
,
00000000
00000000
01000000
00000000
00001000
00010000
00001000
00000000
,
00000000
00000000
00010000
00000000
00000100
00001000
00000100
00000000
,
00000010
00000000
00000001
00001000
00000000
00001000
00000001
00000000
,
00000100
00001000
00000100
00000000
00000001
00000000
00001000
00000100
,
00001000
00000000
00000010
00000000
00010000
00000000
00001000
01000000
,
00001000
01000000
00001000
00000000
00010000
00000000
00001000
00000000
,
01000000
01000000
00100000
10010000
,
00000000
00000000
00000000
00000000
,
11000000
00000000
00100000
00001000
00000000
00000000
00100000
00000000
,
00011000
00000000
00000100
00010000
00000000
00000000
00000100
00000000
,
00011000
00000000
00100000
00001000
00010000
00001000
00100000
00000000
,
00001000
00001000
00010000
00010000
,
00011000
00000000
00000100
00000010
00000000
00000000
00000100
00000000
,
00011000
00000000
01000000
00100000
00000000
00000000
01000000
00000000
,
00011000
00000000
00000010
00001000
00000001
00001000
00000010
00000000
,
00000100
00000001
00000100
00000001
,
00000101
00000000
00000100
00010000
,
00001000
00000000
00100000
00010000
,
01000000
00000000
00100000
10000000
,
00010000
00000000
00100000
00001000
,
00010000
00000000
00000000
00000000
;

//---------------dance-double - ----------------
#NOTEDATA:;
#CHARTNAME:;
#STEPSTYPE:dance-double;
#DESCRIPTION:;
#CHARTSTYLE:;
#DIFFICULTY:Easy;
#METER:5;
#RADARVALUES:0.208282,0.314530,0.098291,0.016382,0.000000,178.000000,166.000000,12.000000,2.000000,0.000000,0.000000,0.000000,0.000000,0.000000,0.208282,0.314530,0.098291,0.016382,0.000000,178.000000,166.000000,12.000000,2.000000,0.000000,0.000000,0.000000,0.000000,0.000000;
#CREDIT:;
#NOTES:
00000000
00000000
00000000
00000000
,
00000000
00000000
00000000
00000000
,
10000000
01000000
10000000
00000000
,
00010000
00000000
01000000
00000000
,
00000000
00010000
00100000
00010000
,
00000000
00100000
00001000
00010000
,
00000000
00000100
00000100
00000000
,
00000000
00000100
00000100
00000000
,
00011000
00000000
00101000
00000000
,
00010100
00000000
00000000
00000000
,
00010000
00000000
00000000
00001000
,
01000000
00000000
00000000
00100000
,
10000000
00000000
00000000
01000000
,
00100000
00001000
00010000
00000000
,
00001000
00000000
00000000
00010000
,
00000100
00000000
00000000
00000010
,
00000001
00000000
00000000
00001000
,
00000001
00000100
00000010
00001000
,
00000001
00000000
00001000
00001000
,
00000000
00000000
00000001
00000001
,
00000000
00000000
00001000
00001000
,
00000100
00000000
00010000
00000000
,
00011000
00000000
00000000
00000000
,
01001000
00000000
00000000
00000000
,
00010100
00000000
00000000
00000000
,
00000000
00000000
00000000
00000000
,
00010000
00001000
00000000
00010000
,
00000100
00000000
00010000
00001000
,
01000000
00100000
00100000
00000000
,
10000000
00010000
10000000
00010000
,
01000000
00001000
00000000
00010000
,
00000100
00001000
00000000
00000010
,
00000100
00000001
00000001
00000100
,
00000010
00000000
00000010
00000000
,
00000010
00000000
00010000
00001000
,
00000000
00000000
00001000
00010000
,
00000000
00000000
00010000
00001000
,
01000000
00100000
10000000
00010000
,
01000000
00000000
00001000
00010000
,
00000000
00000000
00010000
00001000
,
00000000
00000000
00001000
00010000
,
00000100
00001000
00000010
00000100
,
00000002
00000000
00000000
00000003
,
00000000
00001000
00000100
00001000
,
00000000
00000100
00001000
00001000
,
00000000
00000100
00010000
00001000
,
01000000
00100000
01000000
01000000
,
00000000
00010000
10000000
00010000
,
00010000
10000000
00100000
10000000
,
10000000
01000000
00100000
00020000
,
01030000
00100000
01000000
00000000
,
00000000
00000000
00000000
00000000
,
10010000
00010000
01000000
00010000
,
10010000
10000000
01000000
10000000
,
10010000
00010000
00100000
00100000
,
00001000
00010000
00000100
00001000
,
00001001
00000001
00000100
00000001
,
00001001
00001000
00000100
00001000
,
00001001
00000001
00000010
00000100
,
00001000
00001000
00000001
00000001
,
00000100
00000000
00000010
00010000
,
00000000
00000000
00010000
00001000
,
00000000
00000000
01000000
00100000
,
00000000
00000000
10000000
00010000
,
10000000
00000000
00000000
00000000
;
