#TITLE:Quoi!;
#SUBTITLE:;
#ARTIST:Avalon Emerson;
#TITLETRANSLIT:;
#SUBTITLETRANSLIT:;
#ARTISTTRANSLIT:;
#GENRE:House;
#CREDIT:;
#BANNER:quoi-bn.png;
#BACKGROUND:quoi-bg.png;
#LYRICSPATH:;
#CDTITLE:;
#MUSIC:Quoi!.ogg;
#OFFSET:-0.736000;
#SAMPLESTART:65.650002;
#SAMPLELENGTH:12.000000;
#SELECTABLE:YES;
#BPMS:0.000000=122.000000
;
#STOPS:
;
#BGCHANGES:;
#KEYSOUNDS:;
#ATTACKS:;

//---------------dance-single - ----------------
#NOTES:
     dance-single:
     :
     Hard:
     12:
     0.463028,0.470538,0.139033,0.052137,0.503993,373.000000,357.000000,16.000000,6.000000,0.000000,0.000000,0.463028,0.470538,0.139033,0.052137,0.503993,373.000000,357.000000,16.000000,6.000000,0.000000,0.000000:
// measure 0
0000
0000
0000
0000
,  // measure 1
0000
0000
0000
0000
,  // measure 2
0000
0000
0000
0000
,  // measure 3
0000
0000
0000
0000
,  // measure 4
0000
0000
0000
0000
0000
0000
0010
0000
0000
0000
0001
0000
1000
0001
0000
0000
,  // measure 5
1000
0000
0100
0000
0010
0000
0100
0000
0000
0000
0100
0000
1000
0001
0000
1000
,  // measure 6
0001
0000
0100
0000
0010
0000
0100
0000
0000
0000
0100
0000
0001
1000
0000
0001
,  // measure 7
1000
0000
0010
0000
0100
0000
0020
0000
0000
0000
0031
0000
0010
0000
0000
0100
,  // measure 8
0010
0000
1000
0000
0100
0000
1000
0000
0000
0000
0010
0000
0100
0001
0000
0100
,  // measure 9
0002
0000
0000
0000
0003
0000
0010
0000
0100
0000
0010
0000
0100
0000
0000
0100
,  // measure 10
1000
0000
0000
0000
0000
0000
0010
0000
0100
0000
0010
0000
0100
0000
0000
0100
,  // measure 11
0001
0000
0000
0000
0000
0000
0011
0000
0100
0000
1000
0000
0011
0000
0000
0001
,  // measure 12
1000
0000
0000
0000
0000
0000
1000
0000
0010
0000
1010
0000
0100
0001
0000
0100
,  // measure 13
0001
0000
0000
0000
0000
0000
1000
0000
0010
0000
0001
0000
0010
0000
0000
1000
,  // measure 14
0001
0000
0000
0000
0000
0000
0001
0000
0010
0000
1000
0000
0010
0000
0000
0001
,  // measure 15
1000
0000
0000
0000
0000
0000
1010
0000
0100
0000
0001
0000
1010
0000
0000
0010
,  // measure 16
0100
0000
0000
0000
0000
0000
0001
0000
0010
0000
0011
0000
0100
1000
0000
0010
,  // measure 17
0100
0000
0001
1000
0000
0000
0000
0000
0000
0010
0000
0010
0000
0000
0100
0000
,  // measure 18
0001
0000
0010
0100
0000
0000
0000
0000
0000
1000
0000
1000
0000
0000
0000
0000
,  // measure 19
0010
0000
0100
0001
0000
0000
0000
0000
0000
0100
0000
0100
0000
0000
0010
0000
,  // measure 20
1000
0000
0001
0010
0000
0000
0000
0000
0000
1000
0000
0010
0000
0000
0001
0100
,  // measure 21
0010
0000
1000
0001
0000
0000
0000
0000
0000
0001
0000
1000
0000
0000
0010
0000
,  // measure 22
1100
0000
0000
1000
0010
0000
0000
0000
0000
0100
0000
0001
0000
0000
0100
0010
,  // measure 23
1000
0000
0001
0010
0000
0000
0000
0000
0000
0100
0000
1000
0000
0000
0110
0000
,  // measure 24
0001
0000
0000
0001
1000
0000
0000
0000
0000
0010
0000
0010
0000
0000
0000
0000
,  // measure 25
0100
0000
0001
1000
0000
0000
0000
0000
0000
0010
0000
0100
0000
0000
0001
0000
,  // measure 26
1000
0000
0100
0010
0000
0000
0000
0000
0000
0001
0000
1000
0000
0000
0000
0000
,  // measure 27
0110
0000
0001
1000
0000
0000
0000
0000
0000
0001
0000
0001
0000
0000
0100
0000
,  // measure 28
1010
0000
0100
0010
0000
0000
0000
0000
0000
0100
0000
0100
0000
0000
1000
0001
,  // measure 29
1000
0000
0001
0010
0000
0000
0000
0000
0000
0100
0000
1000
0010
0000
0100
0000
,  // measure 30
1001
0000
0000
0001
1000
0000
0000
0000
0000
0010
0000
0100
0000
0000
0010
1000
,  // measure 31
0100
0000
0010
0001
0000
0000
0000
0000
0000
0100
0000
1000
0100
0000
0001
0000
,  // measure 32
0010
0000
0000
0000
1100
0000
0000
0000
0010
0100
0000
0010
0000
0000
0000
0000
,  // measure 33
1000
0000
0100
1000
0000
0000
0010
0000
0100
0000
0001
0000
1000
0000
0001
0000
,  // measure 34
0010
0000
0001
0010
0000
0000
0100
0000
0010
0000
0001
0000
0010
0000
0100
0000
,  // measure 35
1000
0000
0010
1000
0000
0000
0101
0000
0000
0000
0100
0000
1000
0000
0100
0000
,  // measure 36
0001
0000
1000
0100
0000
0000
0010
0000
0100
0000
0010
0000
0001
0000
0100
0010
,  // measure 37
0100
0000
0010
0100
0000
0000
0100
0000
0010
0000
0100
0000
0010
0000
0100
0000
,  // measure 38
0001
0000
0000
0001
1000
0000
0001
0000
1000
0000
0001
0000
1000
0000
0010
0100
,  // measure 39
0010
0000
0010
0100
0000
0000
0002
0000
0000
0000
1003
0010
0000
0000
0010
0000
,  // measure 40
1000
0000
0000
1000
0001
0000
0010
0000
0100
0000
0010
0000
0100
0000
0000
0000
,  // measure 41
1000
0000
0010
0100
0000
0000
0001
0000
0010
0000
0100
0000
1000
0000
0010
0000
,  // measure 42
0100
0000
0001
1000
0000
0000
1000
0000
0100
0000
0010
0000
0001
0000
0100
0000
,  // measure 43
0010
0000
1000
0001
0000
0000
0120
0000
0000
0000
1030
0000
0001
0000
1000
0000
,  // measure 44
0010
0000
0100
0010
0000
0000
0100
0000
1000
0000
0100
0000
0001
0000
0010
0100
,  // measure 45
1000
0000
1000
0001
0000
0000
0010
0000
1000
0000
0010
0000
0001
0000
1000
0000
,  // measure 46
0001
0000
0000
0001
1000
0000
0100
0000
0001
0000
0100
0000
1000
0000
0001
0010
,  // measure 47
0100
0000
0100
1000
0000
0000
0011
0000
0000
0000
0001
0000
1000
0000
0001
0000
,  // measure 48
0100
0000
0000
0100
0010
0000
1000
0000
0001
0000
1000
0000
0001
0000
0000
0000
,  // measure 49
1000
0000
0100
0010
0000
0000
0000
0000
0000
0001
0000
0001
0000
0000
0001
0000
,  // measure 50
1000
0000
0010
0100
0000
0000
0000
0000
0000
0001
0000
0001
0000
0000
0000
0000
,  // measure 51
0001
0000
0010
0100
0000
0000
0000
0000
0000
1000
0000
1000
0000
0000
1000
0000
,  // measure 52
0001
0000
0100
0010
0000
0000
0000
0000
0000
1000
0000
1000
0000
0000
0010
0100
,  // measure 53
0001
0000
0001
1000
0000
0000
0000
0000
0000
0010
0000
0100
0000
0000
1001
0000
,  // measure 54
0010
0000
0000
0010
0100
0000
0000
0000
0000
0100
0000
0001
0000
0000
0010
0100
,  // measure 55
1000
0000
1000
0010
0000
0000
0000
0000
0000
0100
0000
0001
0000
0000
0001
0000
,  // measure 56
1000
0000
0000
1000
0010
0000
0000
0000
0000
0020
0000
0200
0000
0000
0000
0000
,  // measure 57
0330
0000
0000
0000
;

//---------------dance-double - ----------------
#NOTES:
     dance-double:
     :
     Hard:
     13:
     0.537510,0.520068,0.286755,0.182480,0.534406,433.000000,400.000000,33.000000,21.000000,0.000000,0.000000,0.537510,0.520068,0.286755,0.182480,0.534406,433.000000,400.000000,33.000000,21.000000,0.000000,0.000000:
00000000
00000000
00000000
00000000
,
00000000
00000000
00000000
00000000
,
00000000
00000000
00000000
00000000
,
00000000
00000000
00000000
00000000
,
00000000
00000000
00000000
00000000
00000000
00000000
10000000
00000000
00000000
00000000
10100000
00000000
00010000
10000000
00000000
00000000
,
01000000
00000000
00010000
00000000
01000000
00000000
00100000
00000000
01000000
00000000
00010000
00000000
00001000
00010000
00000000
00010000
,
00000010
00000000
00000100
00000000
00001000
00000000
00000100
00000000
00000010
00000000
00000100
00000000
00000001
00001000
00000000
00001000
,
00000010
00000000
00000100
00000000
00000001
00000000
00002000
00000000
00000000
00000000
00003100
00000000
00010000
00001000
00000000
00001000
,
00100000
00000000
01000000
00000000
00010000
00000000
01000000
00000000
00100000
00000000
00010000
10000000
00010000
00000000
00000000
00000000
,
11000000
00000000
00100000
00000000
00010000
00000000
10000000
00000000
01000000
00000000
10000000
01000000
10000000
00000000
00000000
00000000
,
00110000
00000000
01000000
00000000
00001000
00000000
00010000
00000000
00000100
00000000
00010000
00001000
00010000
00000000
00000000
00000000
,
00000110
00000000
00001000
00000000
00000010
00000000
00001002
00000000
00000000
00000000
00000103
00000010
00000100
00000000
00000000
00000000
,
00000101
00000000
00000010
00000000
00001000
00000000
00000100
00000000
00010000
00000000
00000100
00000010
00000100
00010000
00000000
00000000
,
00011000
00000000
00100000
00000000
01000000
00000000
10000000
00000000
00010000
00000000
10000000
01000000
10000000
00000000
00000000
00000000
,
01010000
00000000
00100000
00000000
00010000
00000000
01000000
00000000
00100000
00000000
01000000
00010000
01000000
00000000
00000000
00000000
,
00001000
00000000
00010000
00000000
00001000
00000000
00001200
00000000
00000000
00000000
00000301
00001000
00000001
00000000
00000000
00000001
,
00000100
00000000
00001000
00000000
00010000
00000000
01000000
00000000
10000000
00000000
01000000
00100000
01000000
10000000
00000000
00000000
,
10000000
00000000
00100000
01000000
00000000
00000000
00000000
00000000
00000000
01010000
00000000
10010000
00000000
00000000
01000000
00000000
,
00010000
00000000
00001000
00000100
00000000
00000000
00000000
00000000
00000000
00001010
00000000
00001001
00000000
00000000
00000000
00000000
,
00000010
00000000
00000100
00000001
00000000
00000000
00000000
00000000
00000000
00001001
00000000
00000110
00000000
00000000
00000010
00000000
,
00000100
00000000
00001000
00010000
00000000
00000000
00000000
00000000
00000000
01010000
00000000
10100000
00000000
00000000
10000000
00010000
,
10000000
00000000
10000000
00200000
00000000
00000000
00000000
00000000
00000000
00320000
00000000
00002000
00030000
00000000
00003010
00000000
,
00000002
00000000
00000000
00001003
00000002
00000000
00000000
00000000
00000003
00001100
00000000
00000110
00000000
00000000
00000001
00000100
,
00001000
00000000
00001000
00020000
00000000
00000000
00000000
00030000
00000000
00011000
00000000
01001000
00000000
00000000
00200000
00000000
,
00000000
00300000
00000000
00200000
02000000
00000000
00000000
00000000
03300000
00010000
00000000
00001000
00000000
00000000
00000000
00000000
,
00000010
00000000
00000001
00001000
00000000
00000000
00000000
00000000
00000010
00000001
00000000
00001000
00000000
00000000
00000010
00000000
,
00000100
00000000
00001000
00010000
00000000
00000000
00000000
00000000
00000100
00001000
00000000
00010000
00000000
00000000
00000000
00000000
,
01000000
00000000
10000000
00100000
01000000
00000000
00000000
00000000
00010000
00100000
00000000
10010000
00000000
00000000
01000000
00000000
,
00001000
00000000
00010000
00000100
00000010
00000000
00000000
00000000
00010000
00000100
00000000
00000010
00000000
00000000
00000001
00001000
,
00000010
00000000
00000100
00001000
00000000
00000000
00000000
00000000
00000010
00000100
00000000
00001000
00000000
00000000
00010000
00000000
,
01000000
00000000
00000000
01000000
10000000
00000000
00000000
00000000
00100000
01000000
00000000
10010000
00000000
00000000
01000000
00100000
,
00010000
00000000
01000000
00001000
00000000
00000000
00000000
00000000
00010000
00000010
00000000
00001100
00000000
00000000
00000010
00000000
,
00000101
00000000
00000000
00000001
00001000
00000000
00000000
00000000
00000010
00000100
00000000
00000100
00000000
00000000
00000000
00000000
,
00000001
00000000
00001000
00000010
00000000
00000000
00000100
00000000
00001000
00000000
00000100
00000000
00001000
00000000
00020000
00000000
,
01030000
00000000
10000000
01000000
00000000
00000000
00100000
00000000
00010000
00000000
00100000
00000000
00010000
00000000
01000000
00100000
,
01000000
00000000
00010000
10000000
00000000
00000000
10200000
00000000
00000000
00000000
01300000
00000000
00010000
00000000
00100000
00000000
,
01000000
00000000
00010000
00001000
00000000
00000000
00000100
00000000
00000001
00000000
00000100
00000001
00000100
00000000
00000010
00001000
,
00000001
00000000
00000001
00001000
00000000
00000000
00000001
00000000
00000100
00000000
00001000
00010000
00001000
00000000
00200000
00000000
,
00310000
00000000
00000000
00010000
01000000
00000000
00100000
00000000
10000000
00000000
01000000
00000000
00010000
00000000
00001000
00000100
,
00001000
00000000
00010000
00000010
00000000
00000000
00000201
00000000
00000000
00000000
00000310
00010000
00000010
00000000
00001000
00000000
,
00001001
00000000
00000000
00000010
00000100
00000000
00000001
00000000
00001000
00000000
00000010
00000000
00000100
00000000
00001000
00000000
,
00010000
00000000
01000000
10000000
00000000
00000000
00010000
00000000
10000000
00000000
00100000
00000000
10000000
00000000
00010000
00000000
,
01000000
00000000
00100000
00010000
00000000
00000000
00001000
00000000
00000010
00000000
00000001
00000000
00000100
00000000
00000010
00000000
,
00001000
00000000
00000100
00000010
00000000
00000000
00000011
00000000
00000001
00000000
00001000
00000010
00001000
00000000
00000010
00000000
,
00000100
00000000
00001000
00010000
00000000
00000000
01000000
00000000
10000000
00000000
02000000
00000000
03100000
00000000
00010000
10000000
,
00100000
00000000
00100000
01000000
00000000
00000000
00100000
00000000
00010000
00000000
00001000
00000000
00000010
00000000
00000001
00000000
,
00001100
00000000
00000000
00000010
00000001
00000000
00000100
00000000
00001000
00000000
00000100
00000000
00000001
00000000
00000010
00000100
,
00001000
00000000
00001000
00000100
00000000
00000000
00010100
00000000
00001000
00000000
00100000
00000000
01000000
00000000
10010000
00000000
,
00100000
00000000
00000000
00100000
01000000
00000000
00010000
00000000
10000000
00000000
00200000
00000000
00310000
00000000
00001000
01000000
,
00100000
00000000
00100000
10000000
00000000
00000000
00000000
00000000
10000000
01000000
00000000
00010000
00000000
00000000
10000000
00000000
,
00010000
00000000
01000000
00100000
00000000
00000000
00000000
00000000
00010000
00001000
00000000
00000010
00000000
00000000
00000000
00000000
,
00000001
00000000
00000100
00000010
00000000
00000000
00000000
00000000
00001000
00000100
00000000
00000001
00000000
00000000
00001000
00000000
,
00000010
00000000
00000100
00000001
00000000
00000000
00000000
00000000
00000010
00001000
00000000
00010000
00000000
00000000
00010000
00001000
,
00010000
00000000
00001000
01000000
00000000
00000000
00000000
00000000
00100000
10000000
00000000
01000000
00000000
00000000
00100000
00000000
,
00010000
00000000
00000000
00010000
10000000
00000000
00000000
00000000
01000000
00010000
00000000
00001000
00000000
00000000
00000010
00000001
,
00000010
00000000
00000001
00001000
00000000
00000000
00000000
00000000
00000010
00000100
00000000
00001001
00000000
00000000
00000020
00000000
,
00000130
00000000
00000000
00000100
00001000
00000000
00000000
00000000
00010000
02000000
00000000
20000000
00000000
00000000
00000000
00000000
,
33000000
00000000
00000000
00000000
;

//---------------dance-single - ----------------
#NOTES:
     dance-single:
     :
     Beginner:
     2:
     0.100550,0.146636,0.000000,0.008690,0.000000,81.000000,81.000000,0.000000,1.000000,0.000000,0.000000,0.100550,0.146636,0.000000,0.008690,0.000000,81.000000,81.000000,0.000000,1.000000,0.000000,0.000000:
0000
0000
0000
0000
,
0000
0000
0000
0000
,
0000
0000
0000
0000
,
0000
0000
0000
0000
,
0000
0000
0000
0000
,
0010
0000
0000
0000
,
0100
0000
0000
0000
,
0001
0000
0000
0000
,
1000
0000
0000
0000
,
0200
0300
0000
0100
,
0000
0000
0000
1000
,
0000
0000
0010
0010
,
0000
0000
0000
0100
,
0000
0000
0000
0001
,
0000
0000
0000
0010
,
0000
0000
0100
0100
,
0000
0000
1000
1000
,
1000
0000
0000
0000
,
0001
0000
0000
0000
,
0100
0000
0000
0000
,
0010
0000
0000
0000
,
0010
0010
0000
0000
,
0100
0100
0000
0000
,
0001
0001
0000
0000
,
1000
1000
0000
0000
,
0010
0000
0000
0000
,
1000
0000
0000
0000
,
0001
0000
0000
0000
,
0100
0000
0000
0000
,
0001
0001
0000
0000
,
0010
0010
0000
0000
,
0100
0100
0000
0000
,
1000
1000
0000
0000
,
0010
0000
0100
0100
,
0000
0000
0001
0001
,
0000
0000
0000
1000
,
0000
0000
1000
1000
,
0000
0000
0010
0010
,
0000
0000
0100
0100
,
0000
0000
0000
0001
,
0000
0000
0001
0001
,
0000
0000
0100
0100
,
0000
0000
0010
0010
,
0000
0000
0000
1000
,
0000
0000
0100
0100
,
0000
0000
0010
0010
,
0000
0000
0001
0001
,
0000
0000
0000
0100
,
0000
0000
0010
0010
,
0010
0000
0000
0000
,
1000
0000
0000
0000
,
0001
0000
0000
0000
,
0100
0000
0000
0000
,
0000
0100
0100
0000
,
0001
0001
0000
0000
,
1000
1000
0000
0000
,
0010
0010
0000
0000
;

//---------------dance-single - ----------------
#NOTES:
     dance-single:
     :
     Medium:
     8:
     0.314065,0.346712,0.052137,0.104274,0.165101,253.000000,247.000000,6.000000,12.000000,0.000000,0.000000,0.314065,0.346712,0.052137,0.104274,0.165101,253.000000,247.000000,6.000000,12.000000,0.000000,0.000000:
0000
0000
0000
0000
,
0000
0000
0000
0000
,
0000
0000
0000
0000
,
0000
0000
0000
2000
0000
0002
0000
3003
,
1001
0000
0000
0010
0000
0100
0010
0000
,
1000
0100
0000
0010
0000
0100
1000
0000
,
0001
1000
0000
0001
0000
1000
0001
0000
,
0100
0001
0000
0020
0000
0031
0100
0000
,
0010
1000
0000
0001
0000
1000
0010
0000
,
0100
0000
0100
0001
0000
0001
0100
0000
,
0010
0000
0010
1000
0000
1000
0010
0000
,
1000
0000
1000
0200
0000
0310
0001
0000
,
0010
0000
0010
0001
0000
0001
1000
0010
,
0100
0000
0001
0100
0000
0001
1000
0000
,
0010
0000
1000
0010
0000
1000
0001
0000
,
1000
0000
0100
0020
0000
0031
1000
0000
,
0001
0000
0010
0100
0000
1000
0001
0000
,
2000
0000
0000
0000
3000
0000
0000
0000
0000
0001
0000
0001
0000
0000
0100
0000
,
0020
0000
0000
0000
0030
0000
0000
0000
0000
0100
0000
0100
0000
0000
0000
0000
,
2002
0000
0000
0000
3003
0000
0000
0000
0000
1000
0000
1000
0000
0000
0020
0000
,
0200
0000
0030
0000
0300
0000
0000
0000
0000
0010
0000
0010
0000
0000
0000
0000
,
1000
0000
0001
1000
0000
0000
0000
0000
0000
0000
0000
0000
0000
0000
0000
0000
,
0001
0000
0000
0001
0010
0000
0000
0000
0000
0000
0000
0000
0000
0000
0000
0000
,
0010
0000
0100
0010
0000
0000
0000
0000
0000
0000
0000
0000
0000
0000
0000
0000
,
0100
0000
0000
0100
1000
0000
0000
0000
0000
0000
0000
0000
0000
0000
0000
0000
,
0010
0000
1000
0000
0000
0000
0000
0000
0000
1000
0000
0010
0000
0000
0000
0000
,
0100
0000
0001
0000
0000
0000
0000
0000
0000
0001
0000
0100
0000
0000
0000
0000
,
0010
0000
0100
0000
0000
0000
0000
0000
0000
0100
0000
0010
0000
0000
1000
0000
,
0001
0000
1000
0000
0000
0000
0000
0000
0000
0001
0000
1000
0000
0000
0000
0000
,
0010
0000
0100
0010
0000
0000
0000
0000
0000
0000
0000
0000
0000
0000
0000
0000
,
0100
0000
0000
0100
1000
0000
0000
0000
0000
0000
0000
0000
0000
0000
0000
0000
,
1000
0000
0001
0010
0000
0000
0000
0000
0000
0000
0000
0000
0000
0000
0000
0000
,
0100
0000
0000
0010
0100
0000
0000
0000
0000
0000
0000
0000
0000
0000
0000
0000
,
1000
0100
0000
0010
0000
0100
0010
0100
,
1000
0001
0000
0100
0000
0010
0100
0000
,
0001
1000
0000
0110
0000
1000
0001
0000
,
0100
0010
0000
1000
0000
0010
0100
0001
,
0010
0100
0000
1000
0000
1000
0100
0010
,
0000
0000
0100
0010
0000
0010
0000
0001
,
0100
0010
0000
1010
0000
0100
0001
0010
,
0000
0000
0100
1000
0000
1000
0010
0100
,
0001
1000
0000
0010
0000
0001
0000
0010
,
1000
0001
0000
0100
0000
1000
0000
0100
,
0001
0010
0000
1100
0000
0010
0001
0000
,
1000
0100
0000
0001
0000
0100
1000
0010
,
0100
0001
0000
1000
0000
1000
0001
0010
,
0000
0100
1000
0001
0000
0001
0000
1000
,
0010
0100
0000
1001
0000
0001
0010
0100
,
1000
0000
0010
0100
0000
0001
1000
0010
,
0100
0000
0001
0000
0000
0000
0000
0000
0000
1000
0000
1000
0000
0000
0010
0000
,
1000
0000
0001
0000
0000
0000
0000
0000
0000
0100
0000
0100
0000
0000
0000
0000
,
0001
0000
0010
0000
0000
0000
0000
0000
0000
0001
0000
0001
0000
0000
1000
0000
,
0010
0000
0100
0000
0000
0000
0000
0000
0000
0100
0000
0100
0000
0000
1000
0000
,
0010
0000
1000
0010
0000
0000
0000
0000
0000
0000
0100
0000
0000
0000
0001
0000
,
1000
0000
0000
1000
0001
0000
0000
0000
0000
0000
0000
0000
0000
0000
0010
0000
,
0001
0000
0010
0001
0000
0000
0000
0000
0000
0000
0100
0000
0000
0000
0010
0000
,
1000
0000
0000
1000
0010
0000
0000
0000
0000
0100
0000
0200
0000
0000
0000
0000
,
0300
0000
0000
0000
;

//---------------dance-single - ----------------
#NOTES:
     dance-single:
     :
     Easy:
     6:
     0.207307,0.297182,0.121653,0.034758,0.000000,167.000000,153.000000,14.000000,4.000000,0.000000,0.000000,0.207307,0.297182,0.121653,0.034758,0.000000,167.000000,153.000000,14.000000,4.000000,0.000000,0.000000:
0000
0000
0000
0000
,
0000
0000
0000
0000
,
0000
0000
0000
0000
,
0000
0000
0000
0000
,
0110
0000
0100
0001
,
1000
0000
0000
0001
0000
0001
0000
0000
,
0100
0000
0000
0010
0000
0010
0000
0000
,
1000
0000
0000
0010
0000
0010
0100
0000
,
0001
0000
0000
1000
0000
0000
0000
0000
,
1001
0000
0000
0010
0000
0010
0000
0000
,
0000
0000
0000
0100
0000
0100
0000
0000
,
0000
0000
0000
0110
0000
0001
1000
0000
,
0000
0000
0000
0010
0000
0100
0010
0000
,
0000
0000
0000
1000
0000
1000
0000
0000
,
0000
0000
0000
0001
0000
0001
0000
0000
,
0000
0000
0000
1100
0000
0010
0000
0000
,
0000
0000
0000
1000
0000
0100
0010
0000
,
0002
0000
0003
0000
0000
0000
0000
0010
,
0100
2000
0000
3000
0000
0000
0000
0000
,
1001
0000
0000
0000
0000
0000
0000
0010
,
0100
0020
0000
0030
0000
0000
0000
0100
,
0000
0001
0000
0000
0000
0000
0000
1000
,
0000
0000
0010
0000
0000
0000
0000
0100
,
0001
1000
0000
0000
0000
0010
0000
0100
,
0000
0010
0000
0000
,
1000
0100
0000
0000
0000
0000
0000
0100
,
1000
0010
0000
0000
0000
0000
0000
0000
,
0100
0001
0000
0000
0000
0000
0000
0001
,
0100
0010
0000
0000
0000
0000
0000
1000
,
0001
1000
0000
0000
0000
0000
0000
0110
,
0000
0000
0100
0000
0000
0000
0000
0010
,
0100
0001
0000
0000
0000
0000
0100
0010
,
0000
1001
0000
0000
,
0100
0010
0000
0001
0000
0001
0000
0000
,
0100
0010
0000
0001
0000
0001
0000
0000
,
0100
0010
0000
1000
0000
0010
0000
0000
,
0100
0010
0000
1000
0000
1000
0000
0100
,
0000
0010
0000
0000
0000
0001
0000
1000
,
0000
0000
1001
0000
0000
0000
0000
0010
,
0100
0010
0000
0000
0000
1000
0000
0001
,
0000
0000
0101
0000
0000
0010
1000
0010
,
0100
0001
0000
0001
0000
0001
0000
0010
,
0100
1000
0000
1000
0000
1000
0000
0001
,
0100
0001
0000
1000
0000
0010
0000
1000
,
0010
0100
0000
0100
0000
0100
0000
0001
,
0000
0010
0000
0000
0000
0100
0000
0100
,
0000
0000
1100
0000
0000
0000
0000
0010
,
0100
0001
0000
0000
0000
0000
0000
0100
,
0000
0110
0000
0000
,
0001
0100
0000
0000
0000
0000
0000
0000
,
1000
0010
0000
0000
0000
0000
0000
0000
,
0010
0100
0000
0000
0000
0000
0000
0000
,
0001
1000
0000
0000
0000
0000
0000
0001
,
0000
0110
0000
0000
0000
0100
0000
0001
,
0000
0000
1010
0000
0000
0000
0000
0010
,
0100
0010
0000
0000
0000
1000
0000
0001
,
0000
0000
1100
0000
0000
0020
0000
0000
,
0030
0000
0000
0000
;

//---------------dance-double - ----------------
#NOTES:
     dance-double:
     :
     Medium:
     10:
     0.332685,0.396243,0.112964,0.052137,0.182480,268.000000,255.000000,13.000000,6.000000,0.000000,0.000000,0.332685,0.396243,0.112964,0.052137,0.182480,268.000000,255.000000,13.000000,6.000000,0.000000,0.000000:
00000000
00000000
00000000
00000000
,
00000000
00000000
00000000
00000000
,
00000000
00000000
00000000
00000000
,
00000000
00000000
00000000
00000000
00000000
00000000
00011000
00000000
00000000
00000000
00000100
00000000
00010000
00000000
00000000
00010000
,
00000100
00000000
00000000
00000000
00000000
00000000
00000010
00000000
00000000
00000000
00000010
00000000
00000001
00001000
00000000
00000000
,
00000010
00000000
00000100
00000000
00000000
00000000
00001000
00000000
00000000
00000000
00010000
00000000
01000000
10000000
00000000
00000000
,
10000000
00000000
00000000
00000000
00000000
00000000
00100000
00000000
00000000
00000000
01000000
00000000
00010000
00100000
00000000
00000000
,
00100000
00000000
00000000
00000000
00000000
00000000
00010000
00000000
00000000
00000000
10000000
00000000
00010000
00000000
00000000
01000000
,
00100000
00000000
00000000
00000000
00000000
00000000
00010000
00000000
00000000
00000000
00001000
00000000
00000010
00000001
00000000
00000000
,
00000001
00000000
00000000
00001000
00000010
00001000
00000010
00000000
,
00000000
00000000
00000000
00010000
00001000
00010000
00001000
00000000
,
00000000
00000000
00000000
00000000
00000000
00000000
01100000
00000000
00000000
00000000
10000000
00000000
00010000
00000000
00000000
00010000
,
10000000
00000000
00000000
00000000
00000000
00000000
01000000
00000000
00100000
00000000
01000000
00000000
10000000
00000000
00000000
10000000
,
00010000
00000000
00000000
01000000
00001000
01000000
00001000
00000000
,
00000000
00000000
00000000
00010000
00001000
00010000
00001000
00000000
,
00000000
00000000
00000000
00000000
00000000
00000000
00010100
00000000
00000000
00000000
00000100
00000000
00001000
00000000
00000000
00001000
,
00000100
00000000
00000000
00001000
00000010
00000100
00000001
00000000
,
00000100
00000000
00000010
00000100
00000000
00000000
00000000
00000000
00000000
00000000
00000000
00000000
00000000
00000000
00000100
00000000
,
00000001
00000000
00000100
00000001
00000000
00000000
00000000
00000000
00000000
00000000
00000000
00000000
00000000
00000000
00000000
00000000
,
00001000
00000000
00000010
00010000
00000000
00000000
00000000
00000000
00000000
00000000
00000000
00000000
00000000
00000000
00010000
00000000
,
00001000
00000000
01000000
00100000
00000000
00000000
00000000
00000000
00000000
00000000
00000000
00000000
00000000
00000000
00010000
00000000
,
00000000
11000000
00000000
00000000
00000000
00100000
00000000
01000000
,
00000000
00000000
10010000
00000000
00000000
00000000
00000000
01000000
,
00100000
00000000
00011000
00000000
00000000
00001000
01000000
00100000
,
00000000
10010000
00000000
00000000
,
10000000
00000000
00010000
01000000
00000000
00000000
00000000
00000000
00000000
00000000
00000000
00000000
00000000
00000000
01000000
00000000
,
00010000
00000000
00100000
00001000
00000000
00000000
00000000
00000000
00000000
00000000
00000000
00000000
00000000
00000000
00000000
00000000
,
00010000
00000000
00000100
00001000
00000000
00000000
00000000
00000000
00000000
00000000
00000000
00000000
00000000
00000000
00001000
00000000
,
00000010
00000000
00000100
00000001
00000000
00000000
00000000
00000000
00000000
00000000
00000000
00000000
00000000
00000000
00000101
00000000
,
00000000
00001100
00000000
00000000
00000000
00000010
00000000
00000100
,
00000000
00000000
00001001
00000000
00000000
00000000
00000000
00000100
,
00000010
00000001
00000000
00000000
00000000
00001100
00000000
00000010
,
00000000
00000000
00000000
00010000
00001000
00000000
00000000
00000000
00000000
00000000
00000000
00000000
00000000
00000000
00000000
00000000
,
00100000
00000000
00010000
00100000
00000000
00000000
01000000
00000000
00000000
00000000
01000000
00000000
00000000
00000000
10000000
00000000
,
00010000
00000000
10000000
00010000
00000000
00000000
01000000
00000000
00000000
00000000
01000000
00000000
00000000
00000000
00100000
00000000
,
00010000
00001000
00000000
00000020
00000000
00000031
00000100
00000000
,
00000100
00000000
00000010
00000100
00000000
00000000
00001000
00000000
00000000
00000000
00010000
00000000
01000000
00000000
00000000
00000000
,
10000000
00000000
00010000
10000000
00000000
00000000
01000000
00000000
00100000
00000000
01000000
00000000
10000000
00000000
00010000
00000000
,
00000000
00000000
00000000
00010000
10000000
00000000
00010000
00000000
00100000
00000000
00010000
00000000
00100000
00000000
00010000
00000000
,
01000000
00000000
00010000
01000000
00000000
00000000
00200000
00000000
00000000
00000000
00310000
00000000
00001000
00000000
00000100
00000000
,
00000000
00000000
00000001
00001000
00000010
00000100
00000001
00000000
,
00000100
00000000
00000001
00000100
00000000
00000000
00000010
00000000
00001000
00000000
00000001
00000000
00000100
00000000
00000010
00000000
,
00010000
00000000
00000010
00000100
00000000
00000000
00000001
00000000
00001000
00000000
00000100
00000000
00010000
00000000
00000000
00000000
,
00001000
00000000
00100000
00001000
00000000
00000000
00200000
00000000
00000000
00000000
00310000
00000000
10000000
00000000
00100000
00000000
,
01000000
00000000
00100000
10000000
00000000
00000000
00010000
00000000
01000000
00000000
00010000
00000000
01000000
00000000
00100000
00000000
,
00000000
00000000
00100000
01000000
00000000
00000000
00010000
00000000
10000000
00000000
00010000
00000000
10000000
00000000
00000000
00000000
,
00000000
00000000
00000000
10000000
00010000
00000000
01000000
00000000
00100000
00000000
01000000
00000000
00100000
00000000
01000000
00000000
,
00010000
00000000
00100000
00001000
00000000
00000000
00200000
00000000
00000000
00000000
00301000
00000000
00010000
00000000
00000100
00000000
,
00000010
00000000
00000000
00000010
00000100
00000000
00001000
00000000
00000001
00000000
00000100
00000000
00000010
00000000
00000000
00000000
,
00001000
00000000
00000100
00001000
00000000
00000000
00000000
00000000
00000000
00000000
00000000
00000000
00000000
00000000
00001000
00000000
,
00000100
00000000
00001000
00000001
00000000
00000000
00000000
00000000
00000000
00000000
00000000
00000000
00000000
00000000
00000000
00000000
,
00001000
00000000
00000010
00010000
00000000
00000000
00000000
00000000
00000000
00000000
00000000
00000000
00000000
00000000
00010000
00000000
,
00001000
00000000
00100000
00010000
00000000
00000000
00000000
00000000
00000000
00000000
00000000
00000000
00000000
00000000
00100000
00000000
,
00000000
00000000
00011000
00000000
00000000
00000000
00000000
00000000
00000000
00000000
00000000
01000000
00000000
00000000
00100000
00000000
,
00000000
00000000
00000000
10000000
00010000
00000000
00000000
00000000
00000000
00000000
00000000
00000000
00000000
00000000
01000000
00000000
,
00001000
00000000
00000000
00000000
00110000
00000000
00000000
00000000
00000000
00000000
00000000
01000000
00000000
00000000
10000000
00000000
,
00000000
00000000
00000000
10000000
00010000
00000000
00000000
00000000
00000000
02000000
00000000
00200000
00000000
00000000
00000000
00000000
,
03300000
00000000
00000000
00000000
;

//---------------dance-double - ----------------
#NOTES:
     dance-double:
     :
     Easy:
     6:
     0.209790,0.247652,0.078206,0.017379,0.017379,169.000000,160.000000,9.000000,2.000000,0.000000,0.000000,0.209790,0.247652,0.078206,0.017379,0.017379,169.000000,160.000000,9.000000,2.000000,0.000000,0.000000:
00000000
00000000
00000000
00000000
,
00000000
00000000
00000000
00000000
,
00000000
00000000
00000000
00000000
,
00000000
00000000
00000000
01000000
00000000
01000000
00000000
00000000
,
00100000
00000000
00000000
10000000
00000000
00000000
00010000
00000000
,
01000000
00010000
00000000
00100000
00000000
00100000
00000000
00000000
,
00001000
00000000
00000000
00010000
00000000
00000100
00000000
00000000
,
00001000
00000000
00000000
00000010
00000000
00000100
00000000
00000000
,
00000001
00000000
00000000
00001000
00000000
00000000
00000010
00000000
,
00000100
00000000
00000000
00000001
00000000
00000001
00000000
00000000
,
00000010
00000000
00000000
00001000
00000000
00001000
00000000
00000000
,
00010000
00000000
00000000
00100000
00000000
10000000
00000000
00000000
,
00010000
00000000
00000000
10000000
00000000
10000000
00000000
00000000
,
00100000
00000000
00000000
01000000
00000000
01000000
00000000
00000000
,
00100000
00000000
00000000
00010000
00000000
00010000
00000000
00000000
,
00001000
00000000
00000000
00000100
00000000
00000001
00000000
00000000
,
00001000
00000000
00000000
00000010
00000000
00000000
00000100
00000000
,
00001000
00000000
00010000
00000000
00000000
00000000
00000000
01000000
,
10000000
00000000
00000000
00000000
,
00100000
01000000
00000000
00000000
00000000
00000000
00000000
00010000
,
00100000
00010000
00000000
00000000
00000000
00000000
00000000
01000000
,
00000000
00101000
00000000
00000000
00000000
00000000
00000000
00010000
,
00000000
00000000
00010010
00000000
00000000
00000000
00000000
00000010
,
00000000
00001001
00000000
00000000
00000000
00000000
00000000
00000100
,
00000000
00001001
00000000
00000000
,
00000001
00000010
00000000
00000000
00000000
00000000
00000000
00000100
,
00001000
00000010
00000000
00000000
00000000
00000000
00000000
00000000
,
00000100
00000010
00000000
00000000
00000000
00000000
00000000
00010000
,
00001000
01000000
00000000
00000000
00000000
00000000
00000000
00100000
,
00000000
11000000
00000000
00000000
00000000
00100000
00000000
01000000
,
00000000
00000000
01001000
00000000
00000000
00000000
00000000
00100000
,
00000000
10010000
00000000
00000000
00000000
00000000
00000000
01000000
,
00000000
10010000
00000000
00000000
,
10000000
01000000
00000000
00100000
00000000
00100000
00000000
00000000
,
00010000
01000000
00000000
00100000
00000000
00100000
00000000
00000000
,
10000000
00010000
00000000
01000000
00000000
00100000
00000000
00000000
,
00010000
00001000
00000000
00000010
00000000
00000010
00000000
00000001
,
00000000
00000100
00000000
00000010
00000000
00000010
00000000
00000000
,
00000000
00000000
00001000
00000010
00000000
00000010
00000000
00000100
,
00000000
00000001
00000000
00000100
00000000
00000010
00000000
00001000
,
00000000
00001001
00000000
00000000
,
00000010
00000100
00000000
00001000
00000000
00001000
00000000
00000000
,
00010000
01000000
00000000
10000000
00000000
10000000
00000000
00000000
,
00100000
01000000
00000000
00100000
00000000
10000000
00000000
00000000
,
00010000
01000000
00000000
00100000
00000000
00100000
00000000
00010000
,
00000000
00001000
00000000
00000010
00000000
00000010
00000000
00000000
,
00000000
00000001
00000000
00001000
00000000
00001000
00000000
00000010
,
00000000
00000100
00000000
00000001
00000000
00001000
00000001
00000000
,
00000000
00000100
00000000
00000010
00000000
00001000
00000000
00000000
,
00000100
00010000
00000000
00000000
00000000
00000000
00000000
00010000
,
00001000
00100000
00000000
00000000
00000000
00000000
00000000
00000000
,
01000000
10000000
00000000
00000000
00000000
00000000
00000000
00100000
,
01000000
00001000
00000000
00000000
00000000
00000000
00000000
00020000
,
00000000
00000000
00030010
00000000
00000000
00000000
00000000
00000000
00000000
00000000
00000000
00000100
00000000
00000000
00000100
00000000
,
00000000
00000000
00000010
00000000
00000000
00000000
00000000
00010000
,
00000000
00000000
00001000
00000000
00000000
00000000
00000000
00000000
00000000
00000000
00000000
01000000
00000000
00000000
01000000
00000000
,
00000000
00000000
00000000
00000000
00100000
00000000
00000000
00000000
00000000
10000000
00000000
20000000
00000000
00000000
00000000
00000000
,
30000000
00000000
00000000
00000000
;
