#TITLE:キルト;
#SUBTITLE:(Patchworker RMX);
#ARTIST:Patchworker’s System;
#TITLETRANSLIT:Quilt;
#SUBTITLETRANSLIT:;
#ARTISTTRANSLIT:;
#GENRE:Hardcore;
#CREDIT:;
#BANNER:quilt-bn.png;
#BACKGROUND:quilt-bg.png;
#LYRICSPATH:;
#CDTITLE:;
#MUSIC:キルト (Patchworker RMX).ogg;
#OFFSET:-0.040000;
#SAMPLESTART:43.379997;
#SAMPLELENGTH:12.000000;
#SELECTABLE:YES;
#BPMS:0.000000=188.000000
;
#STOPS:
;
#BGCHANGES:;
#KEYSOUNDS:;
#ATTACKS:;

//---------------dance-single - ----------------
#NOTES:
     dance-single:
     :
     Challenge:
     17:
     0.966574,1.097253,0.338301,0.178053,0.725567,760.000000,722.000000,38.000000,20.000000,0.000000,0.000000,0.966574,1.097253,0.338301,0.178053,0.725567,760.000000,722.000000,38.000000,20.000000,0.000000,0.000000:
0000
0000
0000
0000
,
0000
0000
0000
0000
,
0000
0000
0000
0000
,
0000
0000
0000
0000
,
0001
0000
0100
0000
0001
0000
0100
0000
0000
0000
1010
0000
0000
0000
1100
1000
,
0100
0000
0100
0000
0100
0000
0000
0000
0010
0000
0000
0000
0010
0000
0010
0001
,
1000
0000
0000
0000
1000
0000
0000
0000
1000
0000
0000
0000
1000
0000
0010
0100
,
0001
0001
0001
0000
0001
0000
0000
0000
,
0001
0100
0010
2000
0000
3010
0100
0001
,
1001
0000
0010
0000
0101
0000
1000
0000
0001
1000
0001
1000
0001
1000
0001
0000
,
1010
0000
0010
0000
0001
0000
0010
0000
1000
0000
0001
0100
0010
0000
1000
0100
,
0010
0001
0010
0100
0010
1000
0010
0100
,
0010
0000
0001
0000
0100
0000
0010
0000
0000
0000
1010
0000
0000
0000
0001
0010
,
0100
1000
0010
0100
0001
0000
0001
0100
,
0010
0000
0001
0000
0010
0000
1000
0000
0001
0000
0010
0100
1000
0000
0010
0100
,
0001
0100
0001
1000
0001
0100
0001
0010
,
0100
0000
0001
0000
0100
0000
1000
0000
0000
0000
1001
0000
0000
0000
0010
0100
,
0010
0000
1000
0000
0100
0000
0001
0000
0100
1000
0100
1000
0100
0000
0000
0000
,
1000
0000
0010
0000
0100
0000
0010
0000
1000
0000
0100
0000
0010
0000
0100
1000
,
0001
0000
0010
0000
0100
0000
0010
0000
0001
0000
0100
0000
0010
0000
0100
0001
,
0010
0000
0100
0000
1000
0000
0100
0000
0010
0000
0001
0000
0100
0000
0001
1000
,
0100
0000
0001
0000
1000
0000
0010
0000
0001
0000
0000
0000
1001
0000
0010
0100
,
0001
0000
0100
0010
0100
0000
0010
1000
0010
0000
1000
0100
1000
0000
0010
0100
,
0001
0000
0100
0010
0100
0000
0001
0100
0001
0000
1000
0010
1000
0000
0010
0000
,
1001
0001
0100
0001
1001
1000
0100
1000
,
0010
0000
0000
0100
0001
0100
0001
0000
0000
0100
0010
0100
0010
0000
0000
0010
1000
0010
1000
0000
0000
1020
0000
0000
,
0000
0130
0001
1000
0010
1000
0001
0200
,
0000
0301
0010
1000
0010
0001
0010
1020
,
0000
0031
1000
0100
0010
0100
1000
0001
,
0100
0010
0100
0010
1000
0001
1000
0001
0100
0010
0100
0010
0100
0000
0210
0000
,
0000
0310
1000
0001
0100
0001
1000
0020
,
0000
1030
0010
0001
0010
1000
0010
0021
,
0000
1030
0001
0010
0100
0010
0001
2100
,
0000
0000
3010
0100
0001
0010
0100
1000
0010
0100
0002
0000
0000
0000
0000
0000
,
0103
0000
0010
0000
1000
0000
0100
0000
0000
0000
0011
0000
0000
0000
0101
0100
,
0010
0000
1000
0000
0000
0000
0001
0000
0100
0000
0001
0000
0000
0000
0100
0010
,
0100
0000
0010
0000
1000
0000
0100
0000
0000
0000
1010
0000
0000
0000
1100
1000
,
0100
0000
0000
0000
0011
0000
0000
0000
0001
0000
0100
0000
0000
0000
0010
1000
,
0010
0000
0100
0000
0001
0000
1000
0000
0100
0000
1000
0000
0010
0000
1000
0001
,
0010
0000
0100
0000
1100
0000
0000
0000
0010
0000
0100
0000
0101
0000
0001
0100
,
0010
0000
0010
0000
0000
0000
1001
0000
1001
0000
0000
0000
0100
0000
0100
1000
,
0001
0000
0001
0000
0010
0000
0010
0000
0100
0000
0100
0000
1000
0000
1000
0010
,
0200
0000
0000
0000
0001
0000
0001
0000
0000
0000
0310
0000
0000
0000
0010
1000
,
0020
0000
0000
0000
1000
0000
0000
0000
0100
0000
0000
0000
0031
0000
0100
0010
,
2000
0000
0000
0000
0100
0000
0010
0000
0000
0000
0001
0000
3000
0000
1000
0001
,
0020
0000
1000
0000
0001
0000
0130
0010
,
1000
0100
1000
0100
1000
0000
0001
0100
0001
0100
0001
0000
1000
0001
0100
0000
,
0001
0010
0001
0010
0001
0000
1000
0010
1000
0010
1000
0000
0010
1000
0001
0000
,
0100
0010
0100
0010
0100
0000
0010
0100
0010
0100
0010
0000
1000
0001
0100
0010
,
0100
0000
0000
0000
1000
0100
0001
0100
1000
0000
0000
0000
0001
0100
1000
0100
,
0001
0000
0000
0000
1000
0100
0001
0100
1000
0000
1000
0000
0001
0000
0001
0000
,
0110
0010
0101
1100
,
0001
0100
0010
1000
0100
0010
0001
0100
0010
0000
0001
0010
1000
0000
0000
0000
,
0001
0000
0010
0000
0100
0000
0010
0000
0001
0000
0100
0000
0010
0000
0100
0001
,
0010
0000
0100
0000
1000
0000
0100
0000
0010
0000
0001
0000
0100
0000
0001
0010
,
0100
0000
1000
0000
0001
0000
1000
0000
0100
0000
0010
0000
0100
0000
1000
0010
,
0100
0000
1000
0000
0100
0000
0001
0000
0010
0000
0100
0000
0001
0000
0100
1000
,
0001
0000
0100
0000
0010
0000
1000
0001
1000
0000
0010
0000
0100
0000
0001
0010
,
0100
0000
0010
0000
0001
0000
1000
0010
1000
0000
0010
0000
0100
0000
0001
1000
,
0010
0000
0100
0000
0010
0000
0100
0001
0100
0000
0001
0000
0010
0000
0100
1000
,
0010
0100
0001
0100
0010
0000
0100
0001
0010
0001
0100
0000
0010
0000
0010
0000
,
1000
0001
1000
0001
1000
0000
0010
0000
0100
0000
0001
0100
0010
1000
0100
1000
,
0001
0000
0100
0000
1000
0000
0001
0000
0010
0000
1000
0100
0010
0001
0100
0010
,
1000
0010
1000
0010
0001
0000
1000
0000
0100
0000
0001
1000
0010
0100
0010
1000
,
0001
0010
0001
0010
1000
0000
0001
0000
0100
0000
1000
0010
0100
0010
1000
0100
,
0010
0000
1000
0000
0010
0000
0001
0000
0100
0000
0010
1000
0100
0010
0001
0100
,
0010
0000
0001
0000
0010
0000
1000
0000
0100
0000
0010
0001
0100
0010
1000
0001
,
0100
0010
0100
0010
1000
0000
0001
0000
0100
0000
0001
1000
0010
0100
0010
1000
,
0001
0010
0001
0010
0100
0000
0010
0000
0001
0000
1000
0000
0001
1000
0001
0100
,
0010
1000
0010
1000
0010
0000
1000
0000
0000
0100
0000
0000
0010
0000
0001
0100
,
0010
0000
1000
0000
0000
0010
0000
0000
0100
0000
0000
0001
0000
0000
0100
0010
,
1000
0000
0000
0001
0000
0000
1000
0000
0000
0001
0000
0000
1000
0000
0001
0100
,
0010
1000
0100
1000
0010
0000
0100
0001
0010
0001
0100
0000
0010
1000
0100
1000
,
0010
0000
0000
1100
0000
0000
1010
0000
0000
1100
0000
0000
0011
0000
0100
0001
,
1000
0000
0000
1100
0000
0000
1001
0000
0101
0000
0000
0110
0000
0000
0001
1000
,
0010
0100
0001
1000
0010
0000
0100
0010
1000
0001
0100
0000
0010
0100
0001
1000
,
0010
0100
0010
0100
0010
0000
1000
0001
1000
0001
1000
0000
0010
0100
0010
0000
,
1000
0100
0010
0002
0000
0103
0010
0100
,
0001
1000
0010
0100
0220
0000
0000
0330
,
0001
0010
0100
2000
0000
3010
0100
0010
,
1000
0001
0100
0010
0110
0000
0000
0000
,
1000
0100
0001
0200
0000
1300
0010
0001
,
1000
0100
0010
1000
2010
0000
0001
3000
,
0001
0100
1000
0200
0000
0301
0010
1000
,
0001
0000
0100
0000
0010
0000
0001
0000
0010
0001
0010
0001
0010
0001
0010
0001
,
0010
0000
0000
0000
;

//---------------dance-double - ----------------
#NOTES:
     dance-double:
     :
     Challenge:
     15:
     0.727474,0.831174,0.133540,0.534160,0.413974,572.000000,557.000000,15.000000,60.000000,0.000000,0.000000,0.727474,0.831174,0.133540,0.534160,0.413974,572.000000,557.000000,15.000000,60.000000,0.000000,0.000000:
00000000
00000000
00000000
00000000
,
00000000
00000000
00000000
00000000
,
00000000
00000000
00000000
00000000
,
00000000
00000000
00000000
00000000
,
00000010
00000100
00000010
00002000
00000000
00003002
00000000
00000203
,
00000010
00000000
00000010
00000000
00000310
00000000
00000000
00000000
00010100
00000000
00000000
00000000
00001000
00000000
00000010
00000100
,
00000010
00000000
00000000
00000000
00001000
00000000
00000000
00000000
00010000
00000000
00000000
00000000
00100000
00000000
10000000
00010000
,
20000000
00100000
30100000
00000000
01001000
00000000
00000000
00000000
,
00100000
10000000
00100000
02000000
00000000
03010000
00100000
00010000
,
01010000
00011000
00001100
00000000
,
00001000
00000100
00000001
00000200
00000000
00000320
00000000
00001030
,
00010000
00000100
00001000
00010000
00100000
10000000
00010000
01000000
,
00100000
00010000
01000000
00020000
00000000
02030000
00000000
03100000
,
00010000
00001000
00000010
00000001
00000010
00001000
00010000
00100000
,
10000000
01000000
00010000
02000000
00000000
03200000
00000000
00310000
,
00001000
00000010
00000100
00001000
00010000
00100000
00010000
00001000
,
00000010
00000001
00000010
00000200
00000000
00002300
00000000
00003010
,
00000100
00000000
00001000
00000000
00010000
00000000
00100000
00000000
10000000
00010000
10000000
00010000
10000000
00000000
00000000
00000000
,
00010000
00000000
01000000
00000000
00010000
00000000
00100000
00000000
00010000
00000000
01000000
00000000
00010000
00000000
00100000
01000000
,
10000000
00000000
00100000
00000000
10000000
00000000
01000000
00000000
10000000
00000000
00100000
00000000
10000000
00000000
00010000
01000000
,
00100000
00000000
10000000
00000000
00100000
00000000
01000000
00000000
00100000
00000000
10000000
00000000
00100000
00000000
01000000
00010000
,
10000000
00100000
00010000
00001000
00010000
00000010
00000100
00000001
,
00001000
00000000
00000010
00000000
00001000
00000000
00000100
00000000
00001000
00000000
00000010
00000000
00001000
00000000
00000100
00000010
,
00000001
00000000
00000100
00000000
00000001
00000000
00000010
00000000
00000001
00000000
00000100
00000000
00000001
00000000
00000010
00000100
,
00001000
00000001
00001000
00000001
00000100
00000010
00000100
00000010
,
00010000
00000000
00001000
00100000
00001000
00000000
00010000
00001000
00010000
00000000
00000100
00001000
00000100
00000000
00020000
00000000
,
00000000
00031000
00100000
01000000
00100000
00001000
00010000
00000200
,
00000000
00000310
00000001
00000100
00000001
00000010
00000100
00000200
,
00000000
00010300
00001000
00100000
00001000
00010000
00100000
10000000
,
00010000
01000000
00010000
01000000
00010000
00000000
00000000
00000000
10000000
01000000
10000000
01000000
10000000
00000000
00200000
00000000
,
00000000
01300000
00001000
00010000
00001000
01000000
00010000
00200000
,
00000000
00301000
00010000
00000100
00001000
00000100
00010000
00020000
,
00000000
00030010
00000100
00000001
00000100
00000010
00001000
00000200
,
00000000
00000000
00001300
00000100
00001000
00000100
00000010
00000001
00000010
00000001
00000010
00000000
00000000
00000000
00000000
00000000
,
00000001
00001000
00000010
00000200
00000000
00000301
00000000
00000101
,
00000000
00000000
00000000
00000010
00010000
00000010
00000000
00000000
,
00001000
00010000
01000000
00100000
00000000
10100000
00000000
21000000
,
00000000
00000000
00010000
00000000
00100000
30100000
00000000
00000000
,
01020000
00000000
00100000
00100000
00000000
01030000
00100000
10000000
,
00020000
02030000
03002000
00023000
,
00031000
00001000
00000000
00010000
00010000
00000000
00000100
00000010
,
00000100
00000100
00001000
00001000
00000001
00000001
00000010
00000010
,
00000001
00000000
00000100
00000010
00000000
00001100
00000000
00000020
,
00000000
00000030
00000200
00000000
00002300
00000000
00023000
00000000
,
00130000
00000000
10000000
00010000
00000000
11000000
00000000
00200000
,
00000000
00300000
00020000
00000000
00032000
00000000
00003020
00000000
,
00000031
00000100
00000001
00000100
00000001
00000000
00001000
00000100
00001000
00000100
00001000
00000000
00000000
00000000
00000000
00000000
,
00000100
00010000
00000100
00010000
00000100
00000000
00010000
00000100
00010000
00000100
00010000
00000000
00000000
00000000
00000000
00000000
,
00001000
01000000
00001000
01000000
00001000
00000000
01000000
00001000
01000000
00001000
01000000
00000000
00000000
00000000
00000000
00000000
,
01010000
00000000
00000000
00000000
01000000
00010000
01000000
00010000
01000000
00000000
00000000
00000000
00010000
01000000
00010000
01000000
,
00010000
00000000
00000000
00000000
01000000
00010000
01000000
00010000
01000000
00000000
00100000
00000000
01000000
00000000
00100000
00000000
,
01000000
10010000
00100000
01000000
,
00010000
10000000
00010000
10000000
00010000
10000000
00010000
10000000
00010000
00000000
00000000
00000000
10000000
00000000
00000000
00000000
,
10010000
00000000
00010000
00100000
00010000
01000000
00001000
00002000
,
00000000
00013000
00020000
00000000
00030000
00000000
00000000
00000000
,
00000100
00001000
00000100
00000010
00000001
00000010
00000100
00002000
,
00000000
00003010
00000200
00000000
00000310
00000200
00000000
00000300
,
00000000
00000000
00000100
00001000
00000100
00000010
00000001
00000002
,
00000000
00001003
00002000
00000000
00003000
00000000
00000000
00000000
,
00000000
00000000
00000100
00010000
00001000
01000000
00010000
00200000
,
00000000
01300000
20000000
00000000
30100000
10000000
00010000
00010000
,
01000000
00100000
01000000
00100000
02000000
00000000
00000000
00000000
00000000
00000000
03010000
00100000
00010000
10000000
01000000
00100000
,
02000000
00000000
00000000
00000000
00000000
00000000
00000000
00000000
00000000
00000000
03100000
00001000
00100000
00001000
00010000
00000100
,
00001000
00000100
00000020
00000000
00000000
00000000
00000000
00000000
00000030
00000000
00000001
00000100
00000001
00000100
00000001
00000100
,
00000002
00000000
00000000
00000000
00000000
00000000
00000000
00000000
00000000
00000000
00001003
00000010
00000100
00000010
00010000
00001000
,
00020000
00000000
00000000
00000000
00000000
00000000
00000000
00000000
00030000
00000000
00001000
00100000
00001000
00100000
01000000
10000000
,
02000000
00000000
00000000
00000000
00000000
00000000
00000000
00000000
00000000
00000000
13000000
00010000
01000000
00010000
10000000
01000000
,
00100000
00010000
00200000
00000000
00000000
00000000
00000000
00000000
00000000
00000000
00310000
01000000
00010000
01000000
00010000
01000000
,
00020000
00000000
00000000
00000000
00000000
00000000
00000000
00000000
00000000
00000000
10030000
01000000
10000000
01000000
10000000
01000000
,
10000000
00000000
00000000
10000000
00000000
00000000
00100000
00000000
00000000
00100000
00000000
00000000
01000000
00000000
00000000
00001000
,
00000000
00000000
00010000
00000000
00000000
00010000
00000000
00000000
00000100
00000000
00000000
00010000
00000000
00000000
00010000
00000000
,
00000010
00000000
00000000
00000100
00000000
00000000
00000010
00000000
00000000
00000100
00000000
00000000
00000010
00000000
00000100
00000000
,
00000000
00000001
00000010
00000000
00000100
00001000
00000010
00000100
,
00000001
00000000
00000000
00000010
00000000
00000000
00000100
00000000
00000000
00001000
00000000
00000000
00000010
00000000
00000000
00010000
,
00000000
00000000
00001000
00000000
00000000
00000100
00000000
00000000
00000010
00000000
00000000
00000001
00000000
00000000
00001000
00000000
,
00000100
00000000
00000000
00000010
00000000
00000000
00000100
00000000
00000000
00000010
00000000
00000000
00000100
00000000
00000000
00000000
,
00010000
00001000
00010000
00001000
00010000
00000000
00001000
00010000
00001000
00010000
00001000
00000000
00010000
00001000
00010000
00001000
,
00010000
00001000
01000000
00200000
00000000
10300000
00010000
01000000
,
00010000
00100000
01000000
10000000
00020000
00000000
00030000
00000000
,
01000000
00100000
00010000
00002000
00000000
00003010
00000001
00000010
,
00000100
00001000
00000010
00000100
00000220
00000000
00000330
00000000
,
00000001
00001000
00000010
00000200
00000000
00000310
00000100
00001000
,
00010000
00100000
10000000
01000000
00200000
00000000
00300000
00000000
,
00010000
01000000
00100000
20000000
00000000
30100000
00010000
00001000
,
00000010
00000000
00000001
00000000
00000010
00000000
00000001
00000000
00001000
00000100
00001000
00000100
00001000
00000100
00001000
00000000
;

//---------------dance-single - ----------------
#NOTES:
     dance-single:
     :
     Hard:
     14:
     0.679146,0.831174,0.249274,0.436230,0.235920,534.000000,506.000000,28.000000,49.000000,0.000000,0.000000,0.679146,0.831174,0.249274,0.436230,0.235920,534.000000,506.000000,28.000000,49.000000,0.000000,0.000000:
0000
0000
0000
0000
,
0000
0000
0000
0000
,
0000
0000
0000
0000
,
0000
0000
0000
0000
,
0010
0000
1000
0000
0001
0000
0200
0000
0300
0000
0220
0000
0330
0000
0020
1000
,
0031
0000
0001
0000
0001
0000
0000
0000
1001
0000
0000
0000
0100
0000
0100
0001
,
0010
0000
0000
0000
0010
0000
0000
0000
0010
0000
0000
0000
0010
0000
0010
0100
,
1000
1000
1000
0000
1001
0000
0000
0000
,
1000
0100
0001
0200
0000
0310
0001
0010
,
1010
0000
0000
0000
0011
0000
0000
0000
1001
0000
0000
0000
1000
0001
1000
0001
,
1000
0000
0010
0000
0100
0000
0010
0000
0000
0000
1010
0000
0000
0000
1000
0001
,
1000
0100
0010
0001
1000
0100
0010
0001
,
0100
0010
0100
1000
0000
1100
0000
0100
,
0001
0010
0100
1000
0001
0010
0100
1000
,
0010
0000
0100
0000
1000
0000
0100
0000
0000
0000
0101
0000
0000
0000
0001
1000
,
0100
1000
0001
0010
0100
1000
0001
0010
,
0001
0100
0010
0001
0000
0011
0000
0010
,
1000
0000
0001
0000
0100
0000
0010
0000
1000
0001
1000
0001
1000
0000
0000
0000
,
0001
0000
0100
0000
0001
0000
0010
0000
0001
0000
0100
0000
0001
0000
0010
0100
,
1000
0000
0010
0000
1000
0000
0100
0000
1000
0000
0010
0000
1000
0000
0100
0010
,
0001
0100
0001
0010
0001
0100
0001
0010
,
0100
1000
0100
0010
0011
0000
1001
0000
,
0010
0000
0100
0000
0010
0000
1000
0000
0010
0000
0100
0000
0010
0000
1000
0001
,
0100
0000
0010
0000
0100
0000
0001
0000
0100
0000
0010
0000
0100
0000
0001
1000
,
0010
0100
0010
1000
0100
0001
0100
0010
,
0001
0000
1000
0100
0010
0000
0001
0100
0010
0000
1000
0100
0010
0000
0002
0000
,
0000
0103
0010
0100
1000
0100
0001
2000
,
0000
3010
0100
0010
0001
0010
1000
2000
,
0000
3001
0100
0010
1000
0100
0010
0001
,
0100
0010
0100
0010
0100
0000
0000
0000
0010
0100
0010
0100
0010
0000
0200
0000
,
0000
0301
0010
0100
0010
0001
1000
0020
,
0000
1030
0100
0010
0100
1000
0100
0200
,
0000
0310
0001
1000
0010
0100
0010
0020
,
0000
0000
1030
0100
1000
0100
0010
0001
0010
0001
0010
0000
0000
0000
0000
0000
,
0001
0100
0001
1000
0000
1010
0000
2200
,
0000
3300
0000
1000
0100
0010
0000
0000
,
1000
0010
1000
0100
0000
0110
0000
0022
,
0000
0033
1001
0000
0010
0200
0000
0300
,
0010
0000
1000
0001
0000
0100
1000
0100
,
0001
0011
1000
1100
,
0010
2000
0000
3001
0200
0000
0301
0010
,
0001
0001
1000
1000
0010
0010
0100
0100
,
0020
0000
1030
0001
0000
0001
0000
0201
,
0000
0010
0010
0310
,
0100
0000
0010
1000
0000
1000
0000
1020
,
0000
0100
0100
0130
,
0001
1000
0001
1000
0001
0000
1000
0001
1000
0001
1000
0000
0000
0000
0000
0000
,
0010
0100
0010
0100
0010
0000
0100
0010
0100
0010
0100
0000
0000
0000
0000
0000
,
0001
1000
0001
1000
0001
0000
1000
0001
1000
0001
1000
0000
0000
0000
0000
0000
,
0120
1030
0210
0301
,
0120
0000
1030
0000
0010
0010
0100
0100
,
0102
0013
2100
3010
,
0102
0013
0001
1000
,
1001
0000
0010
0100
0010
1000
0001
2000
,
0000
3010
2000
0000
3000
0000
0000
0000
,
0000
0000
0000
0001
0010
0001
1000
0200
,
0000
0310
0002
0000
0103
0010
0000
0000
,
0000
0000
0100
0010
0100
0001
1000
0002
,
0000
0013
0002
0000
0003
0000
0000
0000
,
0000
0000
0000
1000
0010
1000
0001
0020
,
0000
0130
2000
0000
3010
0200
0000
0300
,
0001
1000
0001
1000
0002
0000
0000
0000
0000
0000
0103
0000
0010
0000
1000
0000
,
0020
0000
0000
0000
0000
0130
0010
0001
,
0020
0000
0000
0000
0000
1030
0100
0001
,
0200
0000
0000
0000
0000
1300
0001
1000
,
0020
0000
0000
0000
0000
0130
1000
0100
,
0002
0000
0000
0000
0003
0010
0100
0001
,
0200
0000
0000
0000
0000
1300
0010
0100
,
2000
0000
0000
0000
3000
0100
0001
0100
,
0001
0000
0000
0010
0000
0000
0100
0000
0000
1000
0000
0000
0010
0000
0000
1000
,
0000
0000
0100
0000
0000
0010
0000
0000
0001
0000
0000
0100
0000
0000
0010
0000
,
0100
0000
0000
1000
0000
0000
0100
0000
0000
0001
0000
0000
0010
0000
0100
0000
,
0000
1000
0001
0000
0100
0010
1000
0001
,
1000
0000
0000
0100
0000
0000
1000
0000
0000
0010
0000
0000
1000
0000
0000
0001
,
0000
0000
0100
0000
0000
1000
0000
0000
0100
0000
0000
0001
0000
0000
0000
0000
,
0010
0100
0000
1000
0001
0000
0100
0010
,
0000
1000
0001
0000
0100
0010
0000
0100
,
1000
0100
0010
0200
0000
0301
0010
0100
,
0010
1000
0010
0001
2000
0000
0000
0000
,
3010
0100
1000
0200
0000
0301
0010
0100
,
0001
0100
1000
0010
0100
0000
0000
0000
,
0001
0010
0001
0100
0001
0010
0001
0100
,
0010
1000
0010
0100
0020
0000
0100
0000
,
1030
0100
1000
0010
1000
0100
1000
0010
,
0100
0000
0001
0000
0100
0000
0010
0000
0100
0001
0100
0001
0100
0001
0100
0000
;

//---------------dance-single - ----------------
#NOTES:
     dance-single:
     :
     Medium:
     10:
     0.395532,0.458042,0.017805,0.560867,0.000000,311.000000,309.000000,2.000000,63.000000,0.000000,0.000000,0.395532,0.458042,0.017805,0.560867,0.000000,311.000000,309.000000,2.000000,63.000000,0.000000,0.000000:
0000
0000
0000
0000
,
0000
0000
0000
0000
,
0000
0000
0000
0000
,
0000
0000
0000
0000
,
1000
0100
0010
0001
0000
0001
0000
0002
,
0000
0000
0103
0000
0100
0000
0100
0020
,
0000
0000
1000
0000
1000
0000
1030
0200
,
0000
0010
0310
0000
,
0001
0000
0001
0100
0000
0000
0001
0000
,
1000
1000
1000
0000
,
0010
1000
0010
0100
0000
0100
0000
0001
,
0000
0001
0000
1000
0000
1000
0000
0010
,
0100
0001
0100
0010
0000
0010
0000
1000
,
0002
0000
2003
0000
,
3001
0010
0001
1000
0000
1000
0000
0100
,
0000
0100
0000
0010
0000
0010
0000
0100
,
1000
0010
1000
0001
0000
0100
0000
0100
,
0020
0000
0230
0300
,
0001
0001
1000
1000
,
0010
0100
0010
0000
0100
0010
0100
0000
,
0001
0001
0010
0010
,
0100
1000
0100
0000
1000
0010
1000
0000
,
0010
0010
1000
1000
,
0001
0100
0010
0000
1000
0100
0010
0000
,
0022
0033
2200
3300
,
0010
1000
0010
0100
0001
0100
0010
0200
,
0000
0000
0310
0000
0010
0000
0010
0200
,
0000
0000
0310
0000
0010
0000
0010
2000
,
0000
0000
0001
0000
0001
0000
3001
0100
,
0000
0010
1000
0000
1000
0001
0000
0002
,
0000
0000
1003
0000
1000
0000
1000
0020
,
0000
0030
1000
0000
1000
0000
1000
0200
,
0000
0000
0010
0000
0010
0000
0310
0002
,
0000
1003
0001
0000
0100
0010
0000
0000
,
1000
0100
1000
0100
0000
0010
0000
0100
,
0000
0000
0000
1000
0001
1000
0000
0000
,
0001
0100
0001
0100
0000
0010
0000
0200
,
0000
0000
0301
0000
0010
0010
0000
0000
,
0100
0000
1000
0100
0000
1000
0010
1000
,
0010
0100
0001
0100
,
0001
0001
0000
1000
1000
0000
0010
0010
,
0200
0000
0000
0300
,
0001
0000
0010
0001
0000
0010
0000
0002
,
0000
0100
0100
0103
,
0010
0000
1000
0100
0000
1000
0000
0200
,
0000
1000
1000
1300
,
0020
0000
0030
0200
0000
0300
0010
0000
,
2000
0000
3000
0002
0000
0003
1000
0000
,
0020
0000
0030
0200
0000
0300
0010
0000
,
2000
3000
2000
3000
,
2000
3000
1000
0001
,
2000
3000
2000
3000
,
0001
1000
0001
0001
,
0000
0000
0100
0010
0100
0010
0100
0002
,
0000
1003
0002
0000
0003
0000
0000
0000
,
0000
0000
0100
0010
0100
0010
0100
0020
,
0000
1030
0020
0000
1030
0020
0000
0030
,
0000
0000
1000
0100
1000
0100
1000
0200
,
0000
0310
0200
0000
0300
0000
0000
0000
,
0000
0000
0010
0001
0010
0001
0010
0002
,
0000
0103
0002
0000
0013
0002
0000
0003
,
0200
0000
0000
0000
0300
0010
1000
0010
,
1000
0000
0000
0000
0000
1000
0100
1000
,
0100
0000
0000
0000
0000
0010
0001
0010
,
0001
0000
0000
0000
0000
0001
1000
0001
,
1000
0000
0000
0000
0000
0010
0100
0010
,
0100
0000
0000
0000
0000
0100
0001
0100
,
0001
0000
0000
0000
0000
0001
0010
0001
,
0010
0000
0000
0000
,
0020
0000
0230
0000
,
2300
0000
3002
0000
,
0023
0000
0032
0000
,
0203
0300
0020
0030
,
0200
0000
0302
0000
,
2003
0000
3020
0000
,
2030
0000
3020
0000
,
2030
3000
0002
0003
,
1000
0000
0000
0010
0000
0000
1000
0000
,
0100
0010
0002
0003
,
0001
0000
0000
0100
0000
0000
0001
0000
,
0010
0100
1000
0000
,
0010
0000
0000
1000
0000
0000
0010
0000
,
0100
0001
1000
0000
,
0100
0000
0000
0010
0000
0000
0100
0000
,
1000
0001
0020
0000
,
0032
0000
0000
0003
;

//---------------dance-single - ----------------
#NOTES:
     dance-single:
     :
     Beginner:
     4:
     0.161520,0.340527,0.000000,0.142443,0.000000,127.000000,127.000000,0.000000,16.000000,0.000000,0.000000,0.161520,0.340527,0.000000,0.142443,0.000000,127.000000,127.000000,0.000000,16.000000,0.000000,0.000000:
0000
0000
0000
0000
,
0000
0000
0000
0000
,
0000
0000
0000
0000
,
0000
0000
0000
0000
,
0000
0000
0000
0000
,
1000
0000
0001
0000
,
1000
0000
0000
0000
,
0010
0000
0000
0000
,
0010
0000
0000
0000
,
0100
0100
0100
0000
,
0001
0000
0000
0000
,
0010
0010
0010
0000
,
0100
0000
0000
0000
,
1000
1000
1000
0000
,
0010
0000
0000
0000
,
0100
0100
0100
0000
,
0001
0000
0000
0000
,
0010
0010
0020
0030
,
0010
0000
0000
0000
,
0001
0000
0000
0000
,
1000
0000
0000
0000
,
0010
0010
0010
0000
,
0100
0000
0000
0000
,
0010
0000
0000
0000
,
0100
0000
0010
0000
,
0001
0000
0000
0000
,
1000
0000
0000
0000
,
0010
0000
0000
0000
,
1000
0000
0000
0000
,
0010
0000
0010
0000
,
0100
0000
0000
0000
,
0001
0000
0000
0000
,
0100
0000
0000
0000
,
0001
0000
0001
0000
,
1000
0000
0000
0000
,
0000
0000
0010
0000
,
0100
0000
0000
0000
,
0010
0000
0010
0000
,
1000
0000
0000
0000
,
0001
0000
0000
0000
,
1000
0000
0001
0000
,
1000
0000
0000
0000
,
0001
0000
0000
0000
,
0100
0000
0000
0000
,
0010
0000
0000
0000
,
0100
0000
0000
0000
,
0002
0003
0000
0000
,
2000
3000
0000
0000
,
0002
0003
0000
0000
,
2000
3000
2000
3000
,
2000
3000
2000
3000
,
1000
0000
0010
0000
,
0010
0000
0010
0010
,
0010
0000
0000
0000
,
0100
0000
0000
0000
,
0000
0000
0001
0000
,
1000
0000
0010
0000
,
0000
0000
0100
0000
,
0001
0000
0000
0000
,
0000
0000
0010
0000
,
0100
0000
1000
0000
,
0200
0000
0300
0000
,
0020
0000
0030
0000
,
0002
0000
0003
0000
,
0200
0000
0300
0000
,
0020
0000
0030
0000
,
2000
0000
3000
0000
,
0002
0000
0003
0000
,
2000
0000
3000
0000
,
0010
0000
0010
0000
,
0100
0000
0100
0000
,
0010
0000
0010
0000
,
0100
0000
0100
0000
,
0001
0000
0000
0000
,
1000
0000
0000
0000
,
0001
0000
1000
0000
,
0001
0000
0100
0000
,
0010
0000
0010
0000
,
0010
0000
0010
0000
,
0100
0000
0100
0000
,
0100
0000
0100
0000
,
0001
0001
0001
0001
,
0001
0001
0001
0000
,
1000
1000
1000
1000
,
1000
1000
1000
1000
,
1000
0000
0000
0000
;

//---------------dance-single - ----------------
#NOTES:
     dance-single:
     :
     Easy:
     7:
     0.408251,0.567544,0.186956,0.329398,0.000000,321.000000,300.000000,21.000000,37.000000,0.000000,0.000000,0.408251,0.567544,0.186956,0.329398,0.000000,321.000000,300.000000,21.000000,37.000000,0.000000,0.000000:
0000
0000
0000
0000
,
0000
0000
0000
0000
,
0000
0000
0000
0000
,
0000
0000
0000
0000
,
1000
0000
1000
0000
1000
0000
1000
0100
,
0010
0010
0010
0000
0010
0000
0010
0001
,
0100
0000
0100
0000
0100
0000
0100
0010
,
1000
1000
1000
0000
1000
0000
0000
0000
,
0001
0100
0001
0200
0000
0000
0310
0000
,
0100
0100
0110
0000
,
0010
0000
0000
1000
0000
0010
0000
0000
,
0100
0001
0100
0001
,
0010
0100
1000
0000
,
0010
0010
0100
0100
,
0010
0000
0000
0100
0000
0001
0000
0000
,
1000
0100
0010
0001
,
0100
0100
0010
0010
,
1000
0000
1000
0000
0001
0010
0001
0000
,
1000
1000
1010
1010
,
0010
0010
0110
0110
,
0100
0100
0101
0101
,
0001
1000
0001
0000
1000
0001
1000
0000
,
1001
1001
0010
0100
,
1001
1001
0100
0010
,
1001
0010
1001
0010
,
0100
0010
0100
0010
0100
0010
0100
0020
,
0000
0000
1030
0000
1000
0000
1000
0002
,
0000
0000
0103
0000
0100
0000
0100
0020
,
0000
0030
0100
0000
0100
0000
0100
0001
,
0000
0001
1000
0000
1000
0010
0000
0020
,
0000
0000
0130
0000
0100
0000
0100
0020
,
0000
0000
1030
0000
1000
0000
1000
0200
,
0000
0000
0310
0000
0010
0000
0010
0002
,
0000
1003
0001
0000
,
0100
0001
0100
0001
0000
1000
0000
0001
,
0000
0000
0000
1000
0010
1000
0000
0000
,
0010
0100
0010
0100
0000
0010
0000
2000
,
0000
0000
3001
0000
0100
0002
0000
0000
,
0103
0000
0000
0010
0000
0000
0100
0000
,
0020
2030
0001
3001
,
0100
0100
0000
0010
0010
0000
0100
0100
,
0200
0000
0300
0000
,
0010
0000
1000
0010
0000
1000
0000
0200
,
0000
0010
0010
0310
,
0001
0000
0100
0010
0000
0100
0000
0002
,
0000
0010
0010
0013
,
0002
0000
0003
0101
0000
0000
0001
0000
,
2000
0000
3000
1100
0000
0000
1000
0000
,
0002
0000
0003
0101
0000
0000
0010
0000
,
0200
1300
0200
1300
,
0200
1300
0200
0320
,
0230
1300
0200
1300
,
0200
2300
0001
3001
,
1001
0010
0100
0001
,
1000
0000
0000
0000
,
0010
0000
0100
0000
0001
0000
1000
0001
,
0000
0000
0100
0000
0010
0100
0000
0000
,
0000
0001
0010
0100
,
1000
0000
0000
0000
,
0000
0000
0001
0000
0010
0000
0100
1000
,
0000
0000
0010
0000
0100
0001
0000
0000
,
1000
0001
1000
0000
0010
0000
0100
0000
,
0001
0000
0000
0000
,
0000
0000
1000
0000
0010
0000
0100
0001
,
0000
0000
0010
0000
0100
1000
0000
0000
,
0000
0001
1000
0010
,
0100
0000
0000
0000
,
0000
0000
0001
0000
1000
0000
0010
0100
,
0000
0000
0010
0000
1000
0001
0000
0000
,
0000
0000
1000
0000
1000
0010
0000
0010
,
0000
0000
0100
0000
0100
0001
0000
0001
,
0000
0000
0010
0000
0010
0100
0000
0100
,
0000
0000
1000
0000
1000
0001
0000
0001
,
0000
0000
0100
0000
0001
0010
0000
0001
,
0000
0000
0100
0000
0010
1000
0000
0010
,
0000
0000
0000
0000
,
0200
0000
0300
0200
0000
0300
0000
0000
,
0010
0000
0000
1000
0000
0000
0100
0000
,
0010
0001
0022
0033
,
0100
0000
0000
0001
0000
0000
0010
0000
,
0100
1000
2200
3300
,
0010
0010
1000
1000
,
0001
0001
2002
3003
,
0100
0100
0001
0001
,
1000
1000
2002
0000
,
3003
0000
0000
0000
;

//---------------dance-double - ----------------
#NOTES:
     dance-double:
     :
     Hard:
     13:
     0.563411,0.606271,0.213664,0.409522,0.044513,443.000000,419.000000,24.000000,46.000000,0.000000,0.000000,0.563411,0.606271,0.213664,0.409522,0.044513,443.000000,419.000000,24.000000,46.000000,0.000000,0.000000:
00000000
00000000
00000000
00000000
,
00000000
00000000
00000000
00000000
,
00000000
00000000
00000000
00000000
,
00000000
00000000
00000000
00000000
,
00010000
01000000
00010000
01000000
00000000
10100000
00000000
01000000
,
00010000
00010000
00010000
00000000
00010000
00000000
00100000
00010000
,
00001000
00000000
00001000
00000000
00000010
00000000
00000010
00000001
,
00001000
00001000
00001000
00000000
00001000
00000000
00000000
00000000
,
00000001
00000100
00000001
00000200
00000000
00001300
00010000
00100000
,
00010000
00011000
00002000
00000000
,
00103000
01000000
10000000
01000000
00000000
00110000
00000000
00010000
,
01000000
00100000
01000000
00000000
00100000
10000000
00100000
00000000
,
10000000
01000000
10000000
00020000
00000000
00230000
00000000
00310000
,
01000000
00010000
00001000
00000010
00001000
00000000
00000010
00000000
,
00000001
00001000
00000010
00001000
00000000
00000101
00000000
00000010
,
00001000
00000100
00001000
00000000
00000001
00000100
00000001
00000000
,
00001000
00000100
00000010
00000002
00000000
00002003
00000000
00003001
,
00000100
00001000
00010000
01000000
00010000
00000000
01000000
00000000
,
10100000
00000000
11000000
00000000
10100000
00000000
10000000
01000000
,
00010000
00000000
00011000
00000000
00001100
00000000
00010000
00000010
,
00000100
00000000
00000101
00000000
00001010
00000000
00000100
00000001
,
00001000
00000000
00001100
00000000
00010100
00000000
00010000
00100000
,
10000000
01000000
10000000
00100000
10000000
01000000
10000000
00000000
,
00010000
00100000
00010000
01000000
00010000
00100000
00010000
00000000
,
10000000
01000000
00010000
00000000
00001000
00000100
00000010
00000000
,
00001000
00000020
00000000
00000230
00000000
00000320
00000000
00002030
,
00000000
00003001
00000100
00000000
00000100
00000010
00000100
00000010
,
00000000
00000010
00001000
00000000
00001000
00000100
00001000
00000200
,
00000000
00010300
00001000
00000000
00001000
00100000
00001000
00100000
,
00000000
01000000
10000000
00000000
00010000
00100000
00000000
00020000
,
00000000
01030000
00010000
00000000
00010000
00100000
00010000
00100000
,
00000000
00100000
00001000
00000000
00001000
00010000
00001000
00020000
,
00000000
00030010
00000100
00000000
00000100
00000001
00000100
00000001
,
00000000
00001000
00000010
00000000
00000100
00000002
00000000
00000003
,
00001000
00000010
00001000
00000001
00000000
00000100
00000000
00000010
,
00000000
00000000
00000000
00010000
00001000
00010000
00000000
00000000
,
00001000
00100000
00001000
01000000
00000000
00100000
00000000
20200000
,
00000000
30300000
10000000
00000000
00010000
01000000
00000000
00000000
,
01100000
00000000
01000000
00100000
00000000
00100000
01000000
00100000
,
01000000
00010000
00100000
01000000
,
00010000
00001000
00000000
00000100
00000001
00000000
00001000
00000010
,
00000100
00000001
00000100
00000001
00000100
00000010
00001000
00000000
,
00000002
00000000
00000103
00000010
00000000
00000110
00000000
00000200
,
00000000
00000001
00000001
00000301
,
00001000
00000000
00000100
00010000
00000000
00001000
00000000
00200000
,
00000000
00010000
00010000
00310000
,
02020000
00000000
03030000
20200000
00000000
30300000
10000000
00000000
,
02200000
00000000
03300000
00022000
00000000
00033000
00000100
00000000
,
00002200
00000000
00003300
00000022
00000000
00000033
00001000
00000100
,
00001000
00000010
00001000
00000010
,
00001000
00000000
00000010
00000000
00001000
00001000
00000010
00000010
,
00001000
00000010
00001000
00000010
,
00001000
00000010
00010000
00010000
,
00010000
00000000
00001000
01000000
00100000
10000000
00100000
01000000
,
00000000
01000000
00010000
00000000
00000000
00000000
00000000
00000000
,
00000000
00000000
00100000
00010000
01000000
00010000
10000000
00010000
,
00000000
00010000
00100000
00000000
00100000
00001000
00000000
00000000
,
00000000
00000000
00010000
00000100
00000010
00000001
00000010
00000100
,
00000000
00001000
00000010
00000000
00000000
00000000
00000000
00000000
,
00000000
00000000
00000010
00010000
00000100
00010000
00001000
00010000
,
00000000
00010000
00000100
00000000
00000010
00000001
00000000
00000001
,
00001000
00000001
00002000
00000000
00000000
00003010
00000100
00000001
,
00002000
00000000
00000000
00000000
00000000
00003100
00010000
00001000
,
01000000
00200000
00000000
00000000
00000000
10300000
00010000
01000000
,
00200000
00000000
00000000
00000000
00000000
01300000
00001000
00010000
,
00000020
00000000
00000000
00000000
00000000
00000130
00000001
00001000
,
00000200
00000000
00000000
00000000
00000000
00001300
00000010
00000100
,
00000001
00000020
00000000
00000000
00000000
00001030
00010000
00100000
,
20000000
00000000
00000000
00000000
00000000
30010000
01000000
00100000
,
10000000
00000000
00000000
01000000
00000000
00000000
10000000
00000000
00000000
00100000
00000000
00000000
01000000
00000000
00000000
00010000
,
00000000
00000000
00100000
00000000
00000000
00010000
00000000
00000000
00100000
00000000
00000000
01000000
00000000
00000000
10000000
00000000
,
00100000
01000000
00000000
00100000
01000000
00000000
00100000
01000000
,
00000000
00010000
00100000
00000000
00010000
00100000
00000000
00010000
,
00100000
00000000
00000000
00100000
00000000
00000000
00001000
00000000
00000000
00001000
00000000
00000000
00010000
00000000
00000000
00010000
,
00000000
00000000
00000100
00000000
00000000
00000010
00000000
00000000
00000100
00000000
00000000
00001000
00000000
00000000
00000010
00000000
,
00000100
00000001
00000000
00000100
00000001
00000000
00000100
00000001
,
00001000
00000010
00000000
00001000
00000010
00000000
00001000
00000010
,
00000100
00000001
00000100
00000002
00000000
00000013
00000100
00000000
,
00010000
00001000
00022000
00033000
,
00100000
00010000
00100000
00020000
00000000
01030000
00100000
00000000
,
10000000
00010000
10010000
00000000
,
10000000
01000000
00100000
00020000
00000000
01030000
00001000
00010000
,
00000100
00000010
00000100
00000010
00000002
00000000
00000000
00000000
,
00001003
00000010
00000100
00000020
00000000
00010030
00001000
01000000
,
00100000
10000000
00010000
10000000
01000000
00100000
00010000
01000000
,
00000000
00001000
00000000
00000000
00000000
00000000
00000000
00000000
;

//---------------dance-double - ----------------
#NOTES:
     dance-double:
     :
     Medium:
     7:
     0.345932,0.419872,0.000000,0.365009,0.000000,272.000000,272.000000,0.000000,41.000000,0.000000,0.000000,0.345932,0.419872,0.000000,0.365009,0.000000,272.000000,272.000000,0.000000,41.000000,0.000000,0.000000:
00000000
00000000
00000000
00000000
,
00000000
00000000
00000000
00000000
,
00000000
00000000
00000000
00000000
,
00000000
00000000
00000000
00000000
,
01000000
00010000
10000000
00100000
00000000
01000000
00000000
00100000
,
00000000
00000000
00000000
00000000
,
00000000
00000000
00000000
00000000
,
00000000
00000000
00000000
00000000
,
01000000
00001000
01000000
00002000
00000000
00013000
00001000
00000000
,
00010000
00010000
00020000
00000000
,
00030010
00000000
00000000
00000100
00000000
00000001
00000000
00000000
,
00001000
00000010
00000100
00000010
,
00010000
00000000
00000000
00001000
00000000
00001000
00000000
00000000
,
00100000
00010000
01000000
01000000
,
00100000
00000000
00000000
10000000
00000000
00010000
00000000
00000000
,
01000000
00010000
00100000
00010000
,
01000000
00000000
00000000
00001000
00000000
00001000
00000000
00000000
,
00010000
00000100
00000010
00000001
,
00001000
00001000
00000010
00000010
,
00001000
00000100
00001000
00000000
,
00000100
00000100
00010000
00010000
,
00001000
00010000
00001000
00000000
,
00100000
00010000
00100000
00010000
,
01000000
00100000
01000000
00100000
,
10000000
01000000
00100000
00010000
,
00000000
01000000
00000000
01000000
00000000
01000000
00000000
00200000
,
00000000
10300000
00010000
00000000
01000000
00000000
01000000
00002000
,
00000000
00013000
00001000
00000000
00010000
00000000
00010000
00000020
,
00000000
00000130
00000001
00000000
00001000
00000000
00000001
00000000
,
00000100
00000020
00000000
00000030
00000100
00000020
00000000
00002030
,
00000000
00003100
00010000
00000000
00001000
00000000
00010000
00002000
,
00000000
00103000
00010000
00000000
00100000
00000000
00010000
02000000
,
00000000
03100000
01000000
00000000
00100000
00000000
01000000
00020000
,
00000000
10030000
00100000
00000000
01000000
00010000
00000000
00000000
,
00100000
00000000
00010000
00100000
00000000
01000000
00000000
10000000
,
00000000
00000000
00000000
10000000
00010000
00000000
00000000
00000000
,
01000000
00000000
00000000
01000000
00000000
00001000
00000000
00010000
,
00000000
00000000
00000010
00000000
00000100
00000010
00000000
00000000
,
00001000
00000000
00001000
00000001
00000000
00000000
00000000
00000000
,
00000100
00001000
00010000
01000000
,
10000000
00010000
00000000
00010000
10000000
00000000
00100000
00000000
,
02000000
00000000
00000000
03000000
,
00010000
00000000
00100000
00010000
00000000
00010000
00000000
00000000
,
00200000
00001000
00301000
00010000
,
00000100
00000000
00001000
00000100
00000000
00000100
00000000
00000000
,
00002000
00000100
00003100
00010000
,
00002000
00000000
00003000
00020000
00000000
00030000
00000000
00000000
,
00020000
00000000
00030000
00002000
00000000
00003000
00000000
00000000
,
00002000
00000000
00003000
00020000
00000000
00030000
00000000
00000000
,
00001000
00010000
00010000
00001000
,
00001000
00010000
00002000
00023000
,
00032000
00013000
00010000
00001000
,
00001000
00010000
00001000
00100000
,
01000000
00000000
10000000
00000000
01000000
00000000
10000000
00100000
,
00000000
00100000
10000000
00000000
00000000
00000000
00000000
00000000
,
00000000
00000000
00010000
00000000
01000000
00000000
00010000
00100000
,
00000000
00100000
00010000
00000000
00010000
00100000
00000000
00000000
,
00000000
00000000
00001000
00000000
00010000
00000000
00000100
00001000
,
00000000
00001000
00000100
00000000
00000000
00000000
00000000
00000000
,
00000000
00000000
00000010
00000000
00000001
00000000
00001000
00000010
,
00000000
00000010
00001000
00000000
00001000
00000010
00000000
00000000
,
00000200
00000000
00000300
00000010
,
00002000
00000000
00003000
00000100
,
00020000
00000000
00000000
00031000
,
00002000
00000000
00000000
00103000
,
00020000
00000000
00030000
01000000
,
00200000
00000000
00300000
01000000
,
00002000
00000000
00000000
00013000
,
00020000
00000000
00000000
00030010
,
00000100
00000001
00000100
00000001
,
00001000
00000010
00001000
00000010
,
00010000
00001000
00010000
00001000
,
02000000
03010000
02000000
03010000
,
01000000
00100000
01000000
00100000
,
10000000
01000000
10000000
01000000
,
00100000
00001000
00100000
00001000
,
00020000
00000000
00030000
00002000
00000000
00003000
00000000
00000000
,
00020000
00000000
00030000
00000100
,
00000010
00000100
00010000
00000000
,
00000020
00000000
00000030
00001000
,
00000001
00000100
00000010
00000000
,
00000200
00000000
00000300
00000001
,
00001000
00000100
00020000
00000000
,
00032000
00000000
00003000
01000000
,
00010000
10000000
00200000
00000000
,
01000000
00000000
00000000
00300000
;

//---------------dance-double - ----------------
#NOTES:
     dance-double:
     :
     Easy:
     5:
     0.253090,0.340527,0.000000,0.231469,0.000000,199.000000,199.000000,0.000000,26.000000,0.000000,0.000000,0.253090,0.340527,0.000000,0.231469,0.000000,199.000000,199.000000,0.000000,26.000000,0.000000,0.000000:
// measure 0
00000000
00000000
00000000
00000000
,  // measure 1
00000000
00000000
00000000
00000000
,  // measure 2
00000000
00000000
00000000
00000000
,  // measure 3
00000000
00000000
00000000
00000000
,  // measure 4
00000100
00000001
00000100
00000001
,  // measure 5
00001000
00001000
00001000
00000010
,  // measure 6
00010000
00001000
00010000
00001000
,  // measure 7
01000000
01000000
01000000
00000000
,  // measure 8
00200000
00000000
00000000
00000000
,  // measure 9
10000000
10000000
20300000
00000000
,  // measure 10
30010000
00000000
00000000
00000000
,  // measure 11
01000000
00010000
01000000
00000000
,  // measure 12
00020000
00000000
00030000
00000000
,  // measure 13
00100000
00001000
00100000
00001000
,  // measure 14
00020000
00000000
00030000
00000000
,  // measure 15
00000100
00001000
00000100
00000000
,  // measure 16
00002000
00000000
00003000
00000000
,  // measure 17
00000010
00001000
00000020
00000030
,  // measure 18
00000100
00000100
00000001
00000001
,  // measure 19
00001000
00000100
00001000
00000000
,  // measure 20
00000100
00000100
00010000
00010000
,  // measure 21
00001000
00010000
00001000
00000000
,  // measure 22
00100000
00100000
00010000
00010000
,  // measure 23
01000000
00010000
01000000
00000000
,  // measure 24
00100000
00000000
10000000
00000000
,  // measure 25
00010000
00010000
00010000
00000000
,  // measure 26
00000000
01000000
00010000
00000000
,  // measure 27
00000000
00100000
00010000
00000000
,  // measure 28
00000000
01000000
00010000
00000000
,  // measure 29
00100000
00000000
00001000
00000000
,  // measure 30
00010000
00000100
00001000
00000000
,  // measure 31
00000000
00000010
00001000
00000000
,  // measure 32
00000000
00000100
00001000
00000000
,  // measure 33
00000000
00000010
00000010
00000000
,  // measure 34
00000100
00000000
00000001
00001000
,  // measure 35
00000100
00000000
00000000
00000000
,  // measure 36
00001000
00000010
00000100
00000000
,  // measure 37
00000010
00000000
00000010
00000000
,  // measure 38
00010000
00000000
00001000
00010000
,  // measure 39
00001000
00000000
00000000
00000000
,  // measure 40
01000000
00000000
00000000
01000000
,  // measure 41
00100000
00100000
00100000
00100000
,  // measure 42
20000000
00000000
30000000
00000000
,  // measure 43
00010000
01000000
00100000
01000000
,  // measure 44
00020000
00000000
00000000
00030000
,  // measure 45
00100000
00001000
00010000
00000100
,  // measure 46
00002000
00000000
00003000
00000002
00000000
00000003
00000000
00000000
,  // measure 47
00000002
00000000
00000003
00002000
00000000
00003000
00000000
00000000
,  // measure 48
00002000
00000000
00003000
00000002
00000000
00000003
00001000
00000000
,  // measure 49
00000100
00010000
00000100
00010000
,  // measure 50
00000100
00010000
00000100
00000100
,  // measure 51
00010000
00010000
00000100
00010000
,  // measure 52
00000100
00010000
00000100
00000100
,  // measure 53
00000000
00010000
00001000
01000000
,  // measure 54
00001000
00000000
00000000
00000000
,  // measure 55
00000000
01000000
00100000
10000000
,  // measure 56
00100000
00000000
01000000
00000000
,  // measure 57
00000000
00001000
00010000
00001000
,  // measure 58
01000000
00000000
00000000
00000000
,  // measure 59
00000000
00001000
00010000
00000100
,  // measure 60
00000010
00000000
00000010
00000000
,  // measure 61
00000200
00000000
00000300
00010000
,  // measure 62
00002000
00000000
00003000
01000000
,  // measure 63
00200000
00000000
00300000
10000000
,  // measure 64
00020000
00000000
00030000
10000000
,  // measure 65
02000000
00000000
03000000
00100000
,  // measure 66
00020000
00000000
00030000
01000000
,  // measure 67
00002000
00000000
00003000
00010000
,  // measure 68
00000020
00000000
00000030
00000100
,  // measure 69
00000001
00000000
00001000
00000000
,  // measure 70
00000010
00000000
00000100
00000000
,  // measure 71
00000010
00000000
00010000
00000000
,  // measure 72
00000100
00000000
00000100
00000000
,  // measure 73
00010000
00000000
00001000
00000000
,  // measure 74
01000000
00000000
00100000
00000000
,  // measure 75
10000000
00000000
00010000
00000000
,  // measure 76
01000000
00000000
01000000
00000000
,  // measure 77
00200000
00000000
00000000
00300000
,  // measure 78
10000000
00010000
01000000
00000000
,  // measure 79
02000000
00000000
00000000
03000000
,  // measure 80
00001000
00010000
00000100
00000000
,  // measure 81
00002000
00000000
00003000
00000010
,  // measure 82
00000100
00000001
00000000
00000000
,  // measure 83
00000200
00000000
00000000
00000300
,  // measure 84
00000010
00010000
00001000
00001000
,  // measure 85
00010000
00000000
00000000
00000000
;
