#TITLE:Oh Oh Oh Sexy Vampire;
#SUBTITLE:(Initial P Remix);
#ARTIST:Fright Ranger;
#TITLETRANSLIT:;
#SUBTITLETRANSLIT:;
#ARTISTTRANSLIT:;
#GENRE:Hardcore;
#CREDIT:;
#BANNER:ohohohsexyvampire-bn.png;
#BACKGROUND:ohohohsexyvampire-bg.png;
#LYRICSPATH:;
#CDTITLE:;
#MUSIC:Oh Oh Oh Sexy Vampire (Initial P Remix).ogg;
#OFFSET:-0.040000;
#SAMPLESTART:32.910000;
#SAMPLELENGTH:12.000000;
#SELECTABLE:YES;
#BPMS:0.000000=204.000000
;
#STOPS:
;
#BGCHANGES:;
#KEYSOUNDS:;
#ATTACKS:;

//---------------dance-single - ----------------
#NOTES:
     dance-single:
     :
     Challenge:
     17:
     0.940431,0.961858,0.293609,0.177710,0.498362,852.000000,814.000000,38.000000,23.000000,0.000000,0.000000,0.940431,0.961858,0.293609,0.177710,0.498362,852.000000,814.000000,38.000000,23.000000,0.000000,0.000000:
0000
0000
0000
0000
,
0000
0000
0000
0000
,
0000
0000
0000
0000
,
0000
0000
0000
0000
,
0010
0000
0100
0000
0010
0000
1000
0001
0100
0000
0000
0010
0000
0000
1000
0000
,
0100
0010
0100
0000
1000
0000
0001
0100
0010
0000
0000
0100
0000
0000
0010
0000
,
1000
0000
0100
1000
0001
0000
0001
0010
0100
0000
0100
0000
1000
0000
1000
0000
,
0001
0000
0010
0000
0001
0000
0100
0010
1000
0000
0000
0100
0000
0000
0010
0001
,
0100
0000
0010
0000
0100
0000
0001
1000
0010
0000
0000
0100
0000
0000
0001
0000
,
0010
0100
0010
0000
0001
0000
1000
0001
0010
0000
0000
0001
0000
0000
1000
0000
,
0001
0000
0010
0001
0100
0000
0100
0010
1000
0000
0100
0000
0010
0000
0001
0000
,
1000
0000
0100
0000
1000
0000
0010
0100
0010
0000
0000
0010
0000
0000
0010
0000
,
1000
0000
0100
0000
0001
0000
0100
0000
2000
0000
0000
0000
3001
0000
1000
0100
,
0000
0000
0100
0010
0000
0000
0020
0000
0000
0000
0031
0000
1000
0000
0000
0000
,
0001
0100
1000
0100
0001
0010
1000
0010
,
0001
0100
0010
0100
1000
0100
0010
0100
,
0001
1100
1000
0101
,
0010
0000
1000
0001
0000
0000
0001
1000
0000
0000
1000
0000
0010
0000
0000
0000
,
0100
1000
0100
0010
0100
0001
0100
0010
,
0000
1000
0000
1000
0000
1000
0000
1000
,
1000
0100
0001
0100
1000
0100
0001
0100
,
1000
0010
0001
0010
0100
0010
0010
0000
,
1000
0010
0001
0010
1000
0010
0001
0010
,
1000
0100
0001
0100
0010
0100
1000
0001
,
0100
1000
0100
0001
0010
1000
0010
0001
,
0100
1000
0100
0001
0010
0100
1000
0010
,
0100
0001
0010
0100
1000
0010
0100
0001
,
0100
0010
0110
1000
0100
1100
0010
0001
,
0100
0010
1010
0000
0100
0010
1000
0100
,
0010
0001
0010
0002
0000
0100
0103
0000
,
0100
0010
0000
0000
0010
0100
0000
0000
0110
0000
0110
0000
0000
0000
1000
0000
,
0010
0001
0010
0200
0000
0010
0310
0000
,
1000
0100
0011
0000
0001
0100
0010
1000
,
0100
0000
0010
0000
0100
0000
0010
0001
0000
0000
0001
1000
0000
0000
1000
0000
,
0010
0000
0100
0001
1000
0000
0010
0000
0000
0000
0101
0000
0000
0000
1100
0000
,
0000
0010
0000
0100
0001
0010
1100
0000
,
0010
0100
0101
0000
0010
0100
0001
0010
,
0100
1000
0100
2000
0000
0010
3010
0000
,
0100
0010
0000
0000
0010
0100
0000
0000
0110
0000
0110
0000
0000
0000
1000
0000
,
0100
0001
0100
2000
0000
0001
3001
0000
,
0010
0100
1100
0000
0010
0100
1000
0010
,
0100
0000
0001
0000
0100
0000
0001
1000
0000
0000
1000
0010
0000
0000
0010
0000
,
0100
0000
0001
1000
0010
0000
0100
0001
0010
0000
0100
0000
1000
0000
0010
0000
,
0001
0010
0100
0010
1000
0020
0000
0130
,
0001
0000
0010
0000
0100
0000
1000
0100
1000
0000
0000
0010
0000
0000
0100
0000
,
0001
0010
0001
0000
0100
0000
0010
0000
1000
0000
0000
0010
0000
0000
0100
0000
,
0010
0000
1000
0001
1000
0000
0010
0100
0001
0000
0100
0000
0001
0000
1000
0000
,
0010
0000
1000
0000
0100
0000
0010
0001
1000
0000
0100
0010
0000
0010
0100
0000
,
1000
0000
0100
0000
0010
0000
0001
0010
0001
0000
0000
0100
0000
0000
0010
0000
,
1000
0100
1000
0000
0010
0000
0100
0000
0001
0000
0000
0100
0000
0100
0010
0000
,
0100
0000
0001
1000
0001
0000
0100
0010
1000
0000
0100
0000
1000
0000
0010
0000
,
0100
0000
0001
0000
0010
0000
0100
1000
0100
0000
0000
0100
0000
0000
0100
0000
,
1100
0000
0101
0000
1100
0000
0010
1000
,
0100
0001
0100
1000
0000
0010
0010
0000
,
0101
0000
1100
0000
0100
0001
0000
1000
,
0010
0100
0001
2000
0000
0001
3001
0000
,
0101
0000
1100
0000
0101
0000
0001
1000
,
0010
0000
0100
0000
0010
0000
1000
0100
0000
0000
0100
0010
0000
0000
0010
0000
,
0001
0100
0010
1000
0100
0020
0000
0032
,
0000
0000
0203
0000
0000
0000
0310
1000
0001
0000
0000
0001
0000
0000
0001
0000
,
0101
0000
0011
0000
1010
0000
0010
0001
,
0100
1000
0100
0002
0000
0010
0013
0000
,
1100
0000
1010
0000
0010
0002
0000
0013
,
1000
0100
0001
0200
0000
1000
1300
0000
,
1100
0000
0101
0000
0011
0000
0010
0001
,
0100
0000
1000
0000
0100
0000
0001
0010
0000
0000
0010
0100
0000
0000
0100
0000
,
1000
0010
0100
0001
0010
0100
1000
0010
,
0100
0000
0001
0000
0010
0000
0100
0000
1000
0000
0000
1000
0000
0000
1000
0000
,
0100
0000
0000
0100
1000
0000
0010
0000
0000
0100
0001
0100
0001
0000
1000
0000
,
0010
0000
0000
0010
0100
0000
0001
0000
0000
0010
0100
0010
0100
0000
1000
0000
,
0001
0000
0000
0001
0010
0000
0100
0000
0000
1000
0010
1000
0010
0000
0100
0000
,
0010
0000
0000
0010
1000
0000
0100
0000
0000
0010
0001
0010
0001
0000
0100
0000
,
0010
0000
0000
1000
0001
0000
0100
0000
0000
0100
1000
0100
0001
0000
0100
0000
,
0001
0000
0000
0010
0100
0000
1000
0000
0000
1000
0010
0001
0010
0000
0100
0000
,
0010
0000
0000
1000
0001
0000
0100
0000
0000
0100
0010
0001
0010
0000
1000
0000
,
0001
0010
0011
0100
1000
1100
0010
0100
,
0001
1000
0010
0001
0010
1000
0001
0100
,
1000
0100
0001
0010
0100
1000
0010
0100
,
0101
0000
1100
0000
0010
0020
0000
0130
,
0001
1000
0010
0200
0000
0010
0310
0000
,
1000
0001
0100
1000
0100
0001
1000
0010
,
0001
0010
1000
0100
0010
0001
0100
0010
,
2000
0000
0100
0000
3020
0000
0001
0000
0230
0000
0010
0000
1300
0000
0100
0010
,
0000
0000
0010
0001
0000
0000
0001
0000
0100
0000
0010
0000
1010
0000
0000
0000
,
1000
0001
0100
1000
0100
0001
1000
0010
,
0001
0010
1000
0100
0010
0001
0100
0010
,
1010
0000
0011
0000
0100
0200
0000
0310
,
1000
0001
0100
0020
0000
0100
0130
0000
,
0001
1000
0010
0001
0010
1000
0001
0100
,
1000
0100
0001
0010
0100
1000
0010
0100
,
0001
1000
0000
0001
0000
1000
0001
0010
,
0100
1000
0010
0100
0001
2000
0000
3010
,
0100
0000
0001
0000
0100
0000
0010
1000
0010
0000
1000
0100
0000
0010
0001
0000
,
0100
0010
1000
0000
0001
0000
0010
0100
0010
0000
0001
1000
0000
0010
0100
0000
,
0001
0000
1000
0100
1000
0000
0010
0001
0010
0000
1000
0000
0100
0000
0010
0000
,
0001
0000
0100
0000
1000
0000
0100
0001
0100
0000
0001
0010
0000
0100
1000
0000
,
0010
0000
1000
0000
0010
0000
0100
0001
0100
0000
0001
0010
0000
0100
1000
0000
,
0010
0100
0001
0000
1000
0000
0100
0010
0100
0000
1000
0001
0000
0100
0010
0000
,
1000
0000
0001
0010
0001
0000
0100
1000
0100
0000
0001
0000
0010
0000
0100
0000
,
1000
0000
0010
0000
0001
0000
0010
1000
0001
0000
0000
0001
0000
0000
0001
0000
,
1000
0000
0100
0000
0010
0000
0100
1000
0100
0000
1000
0010
0000
0100
0001
0000
,
0010
0100
0010
0000
0001
0000
0100
0010
1000
0000
0001
0100
0000
0010
1000
0000
,
0100
0000
1000
0010
0100
0000
0010
0001
0010
0000
0100
0000
0010
0000
1000
0000
,
0100
0000
0001
0000
0100
0000
1000
0010
0100
0000
0001
1000
0000
0001
1000
0000
,
0001
0000
0010
0000
0100
0000
0010
0001
0010
0000
0001
0100
0000
0010
1000
0000
,
0100
0010
0100
0000
1000
0000
0010
0100
0001
0000
1000
0010
0000
0100
0001
0000
,
0010
0000
0001
0100
0010
0000
0100
1000
0100
0000
0010
0000
0100
0000
0001
0000
,
0010
0000
1000
0000
0010
0000
0001
0100
0010
0000
1000
0001
0000
1000
0001
0000
,
0200
0300
0000
0000
;

//---------------dance-single - ----------------
#NOTES:
     dance-single:
     :
     Hard:
     14:
     0.661171,0.667573,0.185437,0.316788,0.096582,599.000000,575.000000,24.000000,41.000000,0.000000,0.000000,0.661171,0.667573,0.185437,0.316788,0.096582,599.000000,575.000000,24.000000,41.000000,0.000000,0.000000:
0000
0000
0000
0000
,
0000
0000
0000
0000
,
0000
0000
0000
0000
,
0000
0000
0000
0000
,
1000
0000
0100
0000
1000
0000
0000
0000
0010
0000
0000
0010
0000
0000
0010
0000
,
0100
0000
0001
0000
0100
0000
0000
0000
0001
0000
0000
0001
0000
0000
0001
0000
,
0010
0100
1000
0000
0010
0100
0001
1000
,
0010
0000
1000
0000
0100
0000
0000
0000
0010
0000
0000
0001
0000
0000
0010
0000
,
0001
0000
1000
0000
0100
0000
0000
0000
0010
0000
0000
0010
0000
0000
0010
0000
,
0100
0000
1000
0000
0001
0000
0000
0000
1000
0000
0000
1000
0000
0000
1000
0000
,
0010
1000
0100
0000
0010
0001
0100
0001
,
0010
0000
0100
0000
0010
0000
0000
0000
0001
0000
0000
1000
0000
0000
0001
0000
,
1000
0100
1000
0010
1000
0000
0001
0200
,
0000
1000
0000
0301
0000
0100
0100
0000
,
0001
0010
0001
0100
0001
1000
0001
0010
,
0200
2300
3200
0320
,
0031
0101
1000
1100
,
0001
0100
0000
1001
0000
0020
0000
0030
,
1000
0100
0010
0001
0100
0010
1000
0002
,
0000
0010
0000
0010
0000
0010
0000
0013
,
1001
0000
0010
0000
1000
0100
0000
0002
,
0000
0203
0000
2300
0000
3000
0000
0000
,
1001
0000
0001
0100
0000
2000
0000
3200
,
0000
0302
0000
1003
0000
1001
0000
2000
,
0000
3020
0000
0032
0000
0023
0000
2030
,
0000
0002
0000
3003
0100
0100
0000
0110
,
0000
0010
0020
0000
0000
0000
0000
0000
,
0030
1000
0001
0100
0010
0100
0001
1000
,
0001
0010
0001
0000
0001
0010
0000
0100
,
1000
0100
1000
0100
0000
1000
0001
0000
,
0100
0000
0100
0000
0010
0010
0000
0010
,
1000
0001
1000
0010
0000
0100
0010
0000
,
1000
0100
1000
0000
1000
0100
0000
0010
,
0001
0100
0001
0010
0000
0002
0000
2000
,
0000
0000
0000
3003
0000
0100
0000
0110
,
0000
0010
0000
1000
0001
0100
0010
0000
,
0100
0001
0100
0000
0100
0001
0000
1000
,
0010
1000
0010
1000
0000
0001
1000
0000
,
0001
0000
0001
0000
1000
1000
0000
1000
,
0010
0100
0010
2000
0000
0010
3010
0000
,
0010
1000
0010
0000
0010
1000
0000
0001
,
0100
0010
0100
0002
0000
0023
0000
0230
,
0000
1000
0000
1300
0000
0000
0010
0100
,
0001
1000
0010
0100
0001
1000
0000
0100
,
0010
0000
0001
0000
0010
0000
0000
0000
0001
0000
0000
1000
0000
0000
0001
0000
,
1000
0000
0010
0000
1000
0000
0000
0000
0100
0000
0000
0010
0000
0000
0100
0000
,
1000
0010
1000
0000
0001
0100
0001
1000
,
0010
0000
0100
0000
0010
0000
0000
0000
0100
0000
0000
0001
0000
0000
1000
0000
,
0001
0000
0010
0000
0100
0000
0000
0000
0001
0000
0000
0010
0000
0000
0100
0000
,
1000
0000
0010
0000
0100
0000
0000
0000
1000
0000
0000
0010
0000
0000
0100
0000
,
0001
1000
0010
0000
0001
1000
0010
0100
,
0010
0000
0100
0000
0001
0000
0000
0000
0010
0000
0000
0100
0000
0000
1000
0000
,
0001
0000
0010
0000
0011
0000
0000
0001
,
0010
0100
0010
0001
0000
1000
0010
0000
,
1000
0000
0100
0000
1000
0010
0000
0100
,
0001
1000
0001
0100
0000
0001
1000
0000
,
0100
0000
1000
0000
1100
0000
0000
0010
,
1000
0100
1000
0010
0000
0100
0000
2002
,
0000
3003
0000
0000
0000
0100
0000
0100
,
0000
0001
0000
0001
1000
0001
1000
0000
,
0001
0000
0100
0000
0101
0000
0000
0001
,
0100
0010
0100
0001
0000
1000
0010
0000
,
0101
0000
1010
0000
1000
0010
0000
0100
,
0010
0001
0010
1000
0000
0001
1000
0000
,
0100
0000
0011
0000
1100
0000
0000
1000
,
0100
0001
0100
1000
0000
0002
0000
2000
,
0000
0000
0000
3003
0000
0000
0010
0100
,
0001
0000
1000
0000
0010
0000
0100
0000
0001
0000
0000
0001
0000
0000
0001
0000
,
0000
0000
1000
0000
0100
0010
0000
0100
,
0000
1000
0000
1100
0000
0001
0001
0000
,
0001
0000
0100
0010
0000
0100
0000
0001
,
0000
0010
0000
0011
0000
0100
0000
1000
,
0000
0010
0000
0100
0000
0001
0000
1000
,
0000
1001
0000
0000
0100
0020
0000
2030
,
0000
3002
2000
0000
0000
0000
0000
0000
,
3003
0010
1000
0100
0001
0100
1000
0010
,
0100
0001
0100
0000
0001
0100
0000
0010
,
1000
0010
1000
0010
0000
1000
0100
0000
,
0110
0000
0110
0000
1000
0001
0000
0001
,
1000
0001
1000
0001
0000
0100
0010
0000
,
0100
0001
0100
0000
0001
0100
0000
0010
,
1000
0010
1000
0020
0000
0130
0000
2002
,
0000
0000
0000
3003
0000
1000
0000
0100
,
0000
0010
0000
0001
0100
0010
1000
0000
,
0010
1000
0010
0000
1000
0100
0000
1000
,
0010
1000
0010
1000
0000
0001
0100
0000
,
0011
0000
0011
0000
0001
0100
0000
0010
,
0100
0001
0100
0010
0000
1000
0001
0000
,
0100
0001
1000
0000
0010
1000
0000
0100
,
0010
0100
0010
0200
0000
2300
0000
3002
,
0000
0003
0000
0000
0000
0000
0100
0010
,
0100
0001
1000
0010
0100
0020
0000
1030
,
0001
0000
0010
0000
0100
0000
0000
0000
1000
0000
0000
0100
0000
0000
0010
0000
,
0001
0000
0100
0000
0010
0000
0000
0000
1000
0000
0000
0010
0000
0000
0100
0000
,
0001
0010
0100
1000
0010
0100
0001
1000
,
0100
0000
0010
0000
0001
0000
1000
0000
0010
0000
0000
0100
0000
0000
0010
0000
,
1000
0000
0100
0000
0010
0000
0000
0000
0001
0000
0000
0010
0000
0000
0100
0000
,
1000
0000
0010
0000
0100
0000
0000
0000
0001
0000
0000
0100
0000
0000
0010
0000
,
1000
0001
0100
0010
0100
0001
1000
0010
,
0100
0000
0001
0000
0010
0000
0001
0000
1000
0000
0000
1000
0000
0000
1000
0000
,
0010
0000
1000
0000
0100
0000
0010
0000
0001
0000
0000
1000
0000
0000
0010
0000
,
0100
0000
0001
0000
1000
0000
0010
0000
0100
0000
0000
0010
0000
0000
1000
0000
,
0100
0001
0100
1000
0010
0001
0010
0100
,
0001
0000
0010
0000
0100
0000
1000
0000
0100
0000
0000
0010
0000
0000
0001
0000
,
0100
0000
0001
0000
1000
0000
0010
0000
0100
0000
0000
0010
0000
0000
1000
0000
,
0001
0000
0100
0000
0010
0000
1000
0000
0100
0000
0000
0010
0000
0000
0100
0000
,
1000
0010
0001
0010
1000
0100
0001
0100
,
0010
0000
1000
0000
0010
0000
0001
0000
1000
0000
0000
0010
0000
0000
0100
0000
,
0001
0000
0000
0000
;

//---------------dance-single - ----------------
#NOTES:
     dance-single:
     :
     Medium:
     12:
     0.488980,0.584127,0.054086,0.502225,0.007727,443.000000,436.000000,7.000000,65.000000,0.000000,0.000000,0.488980,0.584127,0.054086,0.502225,0.007727,443.000000,436.000000,7.000000,65.000000,0.000000,0.000000:
0000
0000
0000
0000
,
0000
0000
0000
0000
,
0000
0000
0000
0000
,
0000
0000
0000
0000
,
1000
0100
1000
0000
0002
0000
0000
0000
,
1003
0010
1000
0000
0002
0000
0000
0000
,
1003
0100
0010
0000
0001
0000
0100
0000
,
0010
0100
0001
0000
2000
0000
0000
0000
,
3001
0100
0001
0000
2000
0000
0000
0000
,
3001
0010
0001
0000
2000
0000
0000
0000
,
3010
0100
0001
0000
0100
0000
0010
0000
,
1000
0100
0010
0000
0200
0000
0000
0000
,
1300
0000
0010
0100
0010
0000
0100
0020
,
0000
2030
0000
3002
0000
0003
0000
0000
,
0000
0000
0100
0010
0100
0000
0001
2000
,
0000
0000
0000
3000
,
0010
1100
0010
1100
,
0010
0100
0000
1000
0000
0010
0000
0000
,
0100
0001
0100
0000
0001
0000
1000
0020
,
0000
0100
0000
0100
0000
0100
0030
0000
,
0000
0000
1000
0000
0001
1000
0000
0010
,
0000
0100
0000
0100
0000
0000
0000
0000
,
0001
0000
1000
0001
0000
0100
0000
0010
,
0000
0010
0000
1000
0000
0100
0000
0010
,
0000
0001
0000
1000
0000
0010
0000
0100
,
0000
0100
0000
0000
0010
2000
0000
3002
,
0000
0103
0020
0000
0000
0000
0000
0000
,
0230
0320
0230
0320
,
1030
0010
1000
0000
0010
0200
0000
0301
,
0010
0000
0100
1000
0000
0010
0100
0000
,
0010
0000
0010
0000
0100
0020
0000
0030
,
1000
0001
1000
0001
0000
0001
1000
0000
,
0001
0100
0001
0000
1000
0010
0000
0000
,
0100
0001
0100
0001
0000
0010
0000
0100
,
0000
1000
0000
0001
0000
0100
0000
0100
,
0000
0010
0000
0010
1000
0000
0001
0000
,
0001
0100
0001
0000
0100
0020
0000
1030
,
0100
0000
0010
0001
0000
0100
0010
0000
,
0100
0000
0100
0000
0010
0200
0000
0300
,
0001
1000
0001
1000
0000
1000
0001
0000
,
1000
0010
1000
0000
0001
0100
0000
0000
,
0010
1000
0010
1000
0000
0100
0000
0010
,
0000
0001
0000
1000
0000
0020
0200
0000
,
0000
0000
0000
0330
,
0100
0001
1010
0000
,
0010
1000
0101
0000
,
0001
0100
1000
0100
,
0001
0000
0010
0000
0100
1000
0100
0000
,
1000
0010
1100
0000
,
0001
0010
0101
0000
,
1000
0100
0001
0100
,
1000
0000
0000
0000
0100
0000
0000
0000
0010
0000
0000
0001
0000
0000
0010
0000
,
0002
2003
3002
0003
,
0100
0000
0100
0010
0000
0010
0100
0000
,
0001
0001
0002
0003
,
1000
0100
1000
0100
0000
0100
1000
0000
,
2000
3002
2003
3000
,
0010
0000
0010
0100
0000
0100
0000
0200
,
0000
0300
0000
0000
0000
0002
0000
2003
,
0000
3002
0000
0103
0020
0000
0000
0000
,
2030
3200
0320
0030
,
0001
0000
0100
0001
0000
0001
0100
0000
,
0010
0000
0010
0000
0010
0200
0000
0300
,
0001
0000
1000
0001
0000
0001
1000
0000
,
0002
0023
0230
0300
,
1000
0100
1000
0100
0000
0020
0000
0002
,
0000
0000
0000
0033
0000
0000
0001
1000
,
0001
0100
0020
0000
,
0030
0000
1000
0000
1000
0010
0000
0100
,
0000
0100
0000
0100
0000
0000
0000
0000
,
0001
0000
0001
0010
0000
0100
0000
0100
,
0000
0100
0000
0100
0000
1000
0000
0010
,
0000
0100
0000
0001
0000
0010
0000
0100
,
0000
1000
0000
0000
0010
0100
0000
0010
,
0000
0100
0020
0000
0000
0000
0030
0000
,
2002
0000
0000
3003
,
1000
0100
1000
0000
0010
1000
0000
0000
,
0010
0000
0100
0001
0000
0001
0100
0000
,
0002
0000
2003
0000
3002
1000
0003
0000
,
0100
0010
0100
0010
0000
0010
0100
0000
,
0001
0010
0001
0000
1000
0100
0000
0000
,
0100
1000
0000
0001
0000
0010
0000
0200
,
0000
0320
0000
0032
0000
1003
0000
1000
,
0000
0001
0000
0001
1000
0000
1000
0000
,
0001
0010
0001
0000
0100
0001
0000
0000
,
0010
0000
0100
1000
0000
1000
0100
0000
,
2000
0000
3002
0000
2003
0001
3000
0000
,
0010
0100
0010
0100
0000
0100
0010
0000
,
1000
0100
1000
0000
0001
0010
0000
0000
,
0010
0001
0000
1000
0000
0100
0000
0010
,
0000
0000
0000
0000
0000
0000
0002
2000
,
0000
0000
0000
3003
,
0001
0100
0001
0000
2000
0000
0000
0000
,
3001
0010
0001
0000
2000
0000
0000
0000
,
3100
0010
0001
0000
1000
0000
1000
0000
,
0010
0100
0001
0000
1000
0000
1000
0000
,
1000
0010
1000
0000
0002
0000
0000
0000
,
1003
0100
1000
0000
0002
0000
0000
0000
,
1003
0010
0100
0000
0001
0000
0001
0000
,
1000
0100
0010
0000
0002
0000
0000
0000
,
0103
0010
1000
0000
0010
0000
1000
0000
,
0001
0010
0100
0000
1000
0010
1000
0000
,
0010
0100
0010
0000
0100
0000
0001
0000
,
0100
0010
0100
0000
0010
0000
1000
0000
,
0001
0010
0100
0000
1000
0000
0010
0000
,
1000
0100
0010
0000
0001
0000
1000
0000
,
0010
1000
0001
0000
0100
0001
1000
0000
,
0010
0000
1000
0000
0010
0000
1000
0000
0100
0000
0000
0100
0000
0000
0100
0000
,
0010
0000
0000
0000
;

//---------------dance-single - ----------------
#NOTES:
     dance-single:
     :
     Beginner:
     4:
     0.193164,0.333787,0.146804,0.054086,0.000000,175.000000,156.000000,19.000000,7.000000,0.000000,0.000000,0.193164,0.333787,0.146804,0.054086,0.000000,175.000000,156.000000,19.000000,7.000000,0.000000,0.000000:
0000
0000
0000
0000
,
0000
0000
0000
0000
,
0000
0000
0000
0000
,
0000
0000
0000
0000
,
1000
0000
0000
0000
,
0100
0000
0000
0000
,
1000
0000
0100
0000
,
1000
0000
1000
0000
,
0001
0000
0000
0000
,
0100
0000
0000
0000
,
0001
0000
0100
0000
,
0001
0000
0001
0000
,
1000
0000
0000
0000
,
0000
0000
0000
0000
,
1000
0000
0000
0000
,
0000
0000
0000
0000
,
0010
0000
0010
0000
,
0010
0000
0000
0000
,
0100
0000
0100
0000
,
0100
0000
0000
0000
,
0000
0001
0001
0000
,
0000
0000
0000
0000
,
1000
1000
0000
0000
,
0000
0000
0000
0010
,
0010
0000
0000
0000
,
0000
0000
0100
0100
,
0000
0000
0000
0000
,
2002
0000
0000
3003
,
1001
0000
0000
0000
,
0010
0000
0000
0000
,
0100
0100
0100
0000
,
0010
0000
0000
0000
,
0110
0000
0000
0000
,
1000
0000
0000
0000
,
0000
0000
0001
0001
,
0000
0000
0000
0000
,
0110
0000
0000
0000
,
0100
0000
0000
0000
,
0010
0010
0010
0000
,
0000
0000
0100
0000
,
1001
0000
0000
0000
,
1000
0000
0000
0000
,
0000
0000
0000
0001
,
0001
0000
0000
0000
,
1000
0000
0100
0000
,
1000
0000
0010
0000
,
1000
0000
0100
0000
,
0100
0000
0010
0000
,
0001
0000
0100
0000
,
0001
0000
0010
0000
,
0001
0000
0100
0000
,
0100
0000
0010
0000
,
1000
1000
1000
0000
,
0000
0000
0000
0000
,
0001
0001
0001
0000
,
0000
0000
0000
0000
,
0100
0100
0100
0000
,
0010
0000
0000
0020
,
0000
0000
0030
0000
,
0000
0000
1001
0000
,
1000
1000
1000
0000
,
0000
0000
0000
0000
,
0100
0100
0100
0000
,
0000
0000
0000
0000
,
0010
0010
0010
0000
,
0001
0000
0000
0002
,
0000
0000
0003
0001
,
0000
0000
1000
0000
,
0000
0010
0010
0000
,
0000
0000
0000
0000
,
0100
0100
0000
0000
,
0000
0000
0000
0001
,
0001
0000
0000
0000
,
0000
0000
1000
1000
,
0000
0000
0000
0000
,
0220
0000
0000
0330
,
0110
0000
0000
0000
,
0010
0000
0000
0000
,
1000
1000
1000
0000
,
0001
0000
0000
0000
,
0110
0000
0000
0000
,
0001
0000
0000
0000
,
2000
3000
1000
1000
,
0000
0000
0000
0000
,
1001
0000
0000
0000
,
0010
0000
0000
0000
,
0100
0100
0100
0000
,
0001
0000
0010
0000
,
1001
0000
0000
0000
,
0100
0000
0000
1000
,
0000
0000
0000
0010
,
0010
0000
0000
0000
,
0100
0000
0001
0000
,
0100
0000
0010
0000
,
0110
0000
0100
0000
,
0110
0000
0010
0000
,
0010
0000
1000
0000
,
0010
0000
0100
0000
,
0110
0000
0100
0000
,
0110
0000
0001
0000
,
1000
0000
0100
0000
,
1000
0000
0010
0000
,
1001
0000
0100
0000
,
1001
0000
0100
0000
,
0001
0000
0100
0000
,
0001
0000
0010
0000
,
1001
0000
0010
0000
,
1001
0000
0010
0010
,
0010
0000
0000
0000
;

//---------------dance-single - ----------------
#NOTES:
     dance-single:
     :
     Easy:
     10:
     0.454762,0.542403,0.061812,0.231796,0.000000,412.000000,404.000000,8.000000,30.000000,0.000000,0.000000,0.454762,0.542403,0.061812,0.231796,0.000000,412.000000,404.000000,8.000000,30.000000,0.000000,0.000000:
0000
0000
0000
0000
,
0000
0000
0000
0000
,
0000
0000
0000
0000
,
0000
0000
0000
0000
,
1000
0100
0010
0000
0100
0000
0100
0000
,
0010
0001
0100
0000
0010
0000
0010
0000
,
1000
0001
1000
0000
0001
1000
0001
0000
,
0100
0001
0100
0000
0002
0000
0023
0000
,
0130
1000
0100
0000
1000
0000
1000
0000
,
0001
0010
0001
0000
1000
0000
1000
0000
,
0010
1000
0010
0000
1000
0010
1000
0000
,
0010
0100
0001
0000
0020
0000
0030
0000
,
0001
0000
0100
0000
0000
0000
0000
0001
,
0000
0100
0000
0010
0000
0000
0000
0000
,
0000
1000
0100
0020
,
0000
0000
0000
0030
,
0001
1001
1000
1001
,
0001
0010
0000
0100
0000
0100
0000
0000
,
1000
0010
1000
0010
1000
0010
1000
0020
,
0000
0100
0000
0100
0000
0130
0000
0000
,
0000
0000
0100
0000
0001
0010
0000
0100
,
0000
0010
0000
0100
0000
0000
0000
0000
,
1000
0000
0010
0100
0000
0010
0000
0100
,
0000
0010
0000
1000
0000
0001
0000
0100
,
0000
0100
0000
0001
0000
0001
0000
1000
,
0000
1000
0000
0000
0010
1000
0000
0001
,
0000
0010
0002
0000
0000
0000
0003
0000
,
0100
0010
1000
0000
0010
0100
0001
0000
,
0010
0000
0100
0000
1000
0001
0000
0001
,
1000
0100
0010
0001
,
1000
0000
1000
0000
0010
1000
0000
0010
,
0100
0010
0100
0010
0000
0100
0010
0000
,
0100
0000
0001
0000
1000
0010
0000
0100
,
0010
0000
0100
0001
0000
1000
0000
1000
,
0000
0000
0000
0000
0000
0001
0000
0001
,
0000
1000
0000
1000
0001
0000
1000
0000
,
0100
0000
0010
0000
0001
1000
0000
1000
,
0001
0010
0100
1000
,
0001
0000
0001
0000
0100
0001
0000
0100
,
0010
0100
0010
0100
0000
0010
0100
0000
,
0010
0000
1000
0000
0001
0100
0000
0010
,
0100
0000
0010
1000
0000
0001
0000
0001
,
0000
0000
0000
2000
,
0002
0000
0000
3003
,
0010
1000
0002
0013
,
0100
0010
0002
1003
,
0100
0100
2000
3010
,
0100
0100
0002
1003
,
0010
1000
0200
0310
,
0100
1000
0002
0013
,
0001
0100
1000
0100
,
0001
0010
0200
0000
,
1300
0100
1000
0000
,
1000
0010
0000
0000
,
1000
1000
1000
0000
,
0001
1000
0001
0000
,
0001
0100
0001
0000
,
0001
0000
0010
0000
0000
0010
0000
0001
,
0000
0000
0000
0000
0000
0100
0000
0100
,
0000
0100
0000
0100
0020
0000
0000
0000
,
1030
0010
1000
0000
,
1000
0100
0000
0010
,
0001
0001
0001
0000
,
0100
0010
0000
0110
,
0100
0001
0100
0000
,
0001
0000
0010
0000
0000
0200
0000
2000
,
0000
0000
3300
1000
,
1000
1000
0002
0000
,
0003
0000
0100
0000
0001
1000
0000
0100
,
0000
0100
0000
0100
0000
0000
0000
0000
,
0100
0000
1000
0001
0000
0100
0000
0100
,
0000
0100
0000
0100
0000
0010
0000
0100
,
0000
0001
0000
1000
0000
0100
0000
0100
,
0000
0100
0000
0000
0010
0100
0000
2000
,
0000
0002
0000
0000
0000
0000
3003
0000
,
0220
0000
0000
0330
,
0100
0001
0100
0000
0001
1000
0000
0010
,
0100
0010
0100
0010
0000
1000
0100
0000
,
0010
0000
0010
0000
0010
0001
0000
0000
,
0100
0000
0010
1000
0000
0010
0100
0000
,
0001
0010
0100
0000
1000
0000
0000
1000
,
0010
0100
0000
0001
0000
1000
0000
2002
,
0000
0000
0000
3003
0000
0010
0000
0010
,
0000
0100
0000
0100
1000
0000
1000
0000
,
0010
1000
0010
0000
1000
0001
0000
0100
,
0010
0100
0010
0100
0000
0001
0010
0000
,
0100
0000
0100
0000
0100
1000
0000
0000
,
0010
0000
0100
0001
0000
0100
0010
0000
,
1000
0100
0010
0000
0001
0000
0000
0001
,
0100
0010
0000
1000
0000
0001
0000
1001
,
0000
0000
0000
0000
0000
0000
0010
0100
,
0002
0000
0000
0003
,
1000
0010
0100
1000
,
0100
0001
0010
0100
,
0001
0001
0100
1000
,
0010
0000
0100
0000
0001
1000
0001
0000
,
0010
0100
0001
0100
,
1000
0010
0100
1000
,
0100
0100
0001
0010
,
0100
1000
0220
0330
,
0001
0010
0001
0000
1000
0000
0000
0000
,
0001
0100
0010
0000
1000
0000
0000
0000
,
1000
0100
0001
0100
,
1000
0010
0100
0001
,
1000
0010
1000
0000
0001
0000
0000
0000
,
1000
0100
0010
0000
0001
0000
0000
0000
,
1000
0100
0001
0100
,
1000
0001
0220
0330
,
1000
0000
0000
0000
;

//---------------dance-double - ----------------
#NOTES:
     dance-double:
     :
     Medium:
     13:
     0.600463,0.670664,0.084992,0.355421,0.023180,544.000000,533.000000,11.000000,46.000000,0.000000,0.000000,0.600463,0.670664,0.084992,0.355421,0.023180,544.000000,533.000000,11.000000,46.000000,0.000000,0.000000:
00000000
00000000
00000000
00000000
,
00000000
00000000
00000000
00000000
,
00000000
00000000
00000000
00000000
,
00000000
00000000
00000000
00000000
,
00100000
01000000
00100000
00000000
10000000
00000000
00010000
00000000
,
01000000
00100000
01000000
00000000
00010000
00000000
10000000
00000000
,
01000000
00010000
00001000
00010000
01000000
00010000
00001000
00000000
,
00000100
00001000
00010000
00001000
00000100
00000010
00001000
00000000
,
00000001
00000100
00000001
00000000
00001000
00000000
00000010
00000000
,
00001000
00000100
00001000
00000000
00000001
00000000
00000010
00000000
,
00001000
00010000
00100000
00010000
00001000
00010000
00100000
00000000
,
10000000
00000000
00100000
00000000
01000000
00000000
00010000
00000000
10000000
00000000
00000000
10000000
00000000
00000000
10000000
00000000
,
00010000
00100000
00010000
01000000
00010000
00000000
10000000
01000000
,
00000000
00010000
00000000
00001000
00000000
00000010
00000010
00000000
,
00000001
00000010
00000001
00000100
00000001
00001000
00000001
00000100
,
00000020
00000000
00000000
00000030
,
00010000
00011000
00010100
00011000
,
00001000
00100000
00000000
00110000
00000000
20020000
00000000
30030000
,
10000000
01000000
00100000
00010000
01000000
00100000
10000000
00020000
,
00000000
00100000
00000000
00100000
00000000
00100000
00000000
00130000
,
00010000
00000000
10000000
00000000
01000000
00010000
00000000
02000000
,
00000000
23000000
00000000
32000000
00000000
03010000
00001000
00000000
,
00000200
00000000
00000301
00000200
00000000
00002300
00000000
00023000
,
00000000
00230000
00000000
00320000
00000000
00032000
00000000
00013000
,
00000000
00010000
00000000
00000100
00000000
00000100
00000000
00000010
,
00000000
00000010
00000000
00000000
00000001
00001000
00000000
00000101
,
00000000
00000010
00001000
00000000
00000100
00000000
00000001
00000000
,
00000100
00001000
00010000
00001000
00000100
00001000
00010000
00100000
,
10000000
00010000
01010000
00000000
10000000
00010000
00000000
00010000
,
10000000
00100000
01000000
00010000
00000000
00100000
00100000
00000000
,
00020000
00000000
20030000
00000000
30010000
00010000
00000000
01000000
,
00100000
01000000
00100000
01000000
00000000
00010000
10000000
00000000
,
00010000
00100000
00101000
00000000
00010000
00000100
00000000
00000100
,
00001000
00000010
00000100
00000001
00000000
00001000
00000000
00000200
,
00000000
00000000
00000000
00000300
00000000
00000100
00000000
00001100
,
00000000
00001000
00000000
00000010
00000100
00000001
00001000
00000000
,
00000001
00001000
00001100
00000000
00000001
00000001
00000000
00001000
,
00000010
00000100
00000001
00000010
00000000
00000100
00001000
00000000
,
00000002
00000000
00002003
00000000
00003001
00000001
00000000
00000100
,
00000010
00000100
00000010
00000100
00000000
00000001
00001000
00000000
,
00000010
00010000
00011000
00000000
00100000
00100000
00000000
00010000
,
01000000
00010000
00100000
00020000
00000000
02030000
00000000
03200000
,
00000000
00000000
00000000
00000000
00300000
00000000
00100000
10000000
,
00020000
00000000
00000000
00030000
,
10000000
01000000
00100000
00000000
01000000
00000000
00100000
00000000
,
00001000
00010000
00000100
00000000
00010000
00000000
00000100
00000000
,
00001000
00000010
00000100
00000001
00000010
00000100
00001000
00000000
,
00001000
00000100
00000010
00000001
00000100
00000010
00001000
00000000
,
00000010
00010000
00001000
00000000
00010000
00000000
00001000
00000000
,
00100000
00010000
01000000
00000000
00100000
00000000
01000000
00000000
,
00010000
00100000
01000000
10000000
00100000
01000000
00010000
00000000
,
00010000
00000000
01000000
00000000
00100000
00000000
10000000
00000000
00010000
00000000
00000000
00010000
00000000
00000000
00010000
00000000
,
00100000
00000000
01000000
00000000
00100000
00000000
00000000
01000000
,
10000000
00000000
10000000
01000000
00000000
00100000
00010000
00000000
,
01000000
00000000
01000000
00000000
01000000
00001000
00000000
00001000
,
00010000
00000000
00000000
00000000
00000000
00000100
00000010
00000000
,
00000001
00000000
00000100
00000000
00000001
00000000
00000000
00001000
,
00000010
00000000
00000010
00001000
00000000
00000100
00000000
00002000
,
00000000
00000000
00000000
00003000
00000000
00000100
00000000
00000100
,
00000000
00000000
00010000
00000000
00000000
00000000
00001000
00000000
00100000
00000000
00000000
00100000
00000000
00000000
00100000
00000000
,
00010000
00000000
00100000
00000000
00010000
00000000
00000000
01000000
,
00010000
00000000
00010000
01000000
00000000
00010000
00100000
00000000
,
00001000
00000000
00010000
00000000
00010000
00001000
00000000
00010000
,
00000010
00000000
00000000
00000000
00000000
00000100
00000010
00000000
,
00000100
00000000
00000001
00000000
00000100
00000000
00000000
00000001
,
00000010
00000100
00010000
00002000
00000000
00023000
00000000
00032000
,
00000000
00000000
00000000
00000000
00000000
00003000
01000000
00100000
,
10000000
00000000
00010000
00000000
01000000
00000000
00100000
00000000
10000000
00000000
00000000
10000000
00000000
00000000
10000000
00000000
,
00010000
00000000
01000000
10000000
00000000
02000000
00000000
03020000
,
00000000
02030000
00000000
03200000
00000000
00300000
00000000
00000000
,
00100000
00000000
00010000
00001000
00000000
00000010
00000000
00000010
,
00000000
00000001
00000000
00000001
00000000
00002000
00000000
00003200
,
00000000
00000320
00000000
00002030
00000000
00023000
00000000
00030200
,
00000000
00020300
00000000
00000000
00030010
00000100
00000000
00000001
,
00000000
00000100
00000020
00000000
00000000
00000000
00000000
00000000
,
00001030
00000001
00000100
00000010
00001000
00000001
00000100
00000010
,
00000100
00000001
00000100
00000000
00000010
00001000
00000000
00001000
,
00000100
00000000
00000100
00010000
00000000
00010000
00001000
00000000
,
00100000
00000000
00100000
00000000
00100000
00100000
00000000
01000000
,
10000000
01000000
10000000
01000000
00000000
10000000
00010000
00000000
,
10000000
00100000
10000000
00000000
00010000
01000000
00000000
01000000
,
00100000
00000000
00100000
01000000
00000000
00002000
00000000
00023000
,
00000000
00000000
00000000
00030000
00000000
00010000
00000000
00000100
,
00000000
00000010
00000000
00000001
00001000
00000001
00001000
00000000
,
00000010
00000100
00000010
00000000
00001000
00000001
00000000
00000001
,
00000100
00000000
00000100
00000010
00000000
00000010
00010000
00000000
,
00001000
00000000
00001000
00000000
00001000
00001000
00000000
00100000
,
01000000
00100000
01000000
00100000
00000000
00010000
10000000
00000000
,
00100000
10000000
00100000
00000000
01000000
00010000
00000000
00010000
,
10000000
00000000
10000000
00200000
00000000
02300000
00000000
03200000
,
00000000
00300000
00000000
00000000
00000000
00000000
10000000
00010000
,
01000000
00100000
01000000
00010000
10000000
02000000
00000000
03100000
,
00001000
00010000
00001000
00000000
00010000
00000000
00010000
00000000
,
00000010
00000100
00000010
00000000
00000100
00000000
00000100
00000000
,
00000001
00000100
00000010
00000000
00000100
00000000
00001000
00000000
,
00010000
01000000
10000000
00000000
00100000
00000000
01000000
00000000
,
00010000
00100000
00010000
00000000
10000000
00000000
10000000
00000000
,
00010000
01000000
00010000
00000000
10000000
00000000
10000000
00000000
,
01000000
00010000
00001000
00000000
00010000
00000000
01000000
00000000
,
00010000
00000000
00001000
00000000
00000010
00000000
00000000
00000000
00000001
00000000
00000000
00000001
00000000
00000000
00000001
00000000
,
00001000
00000010
00000100
00000001
00001000
00000000
00001000
00000000
,
00000001
00000100
00000010
00001000
00000001
00000000
00000001
00000000
,
00000010
00001000
00010000
00100000
00010000
00001000
00000100
00000000
,
00010000
00100000
10000000
00000000
00100000
00010000
00001000
00000000
,
01000000
00100000
10000000
00100000
01000000
00010000
10000000
00000000
,
00100000
01000000
00010000
01000000
00100000
10000000
00010000
00000000
,
10000000
00100000
00010000
00001000
00010000
00100000
00010000
00000000
,
00100000
00000000
00010000
00000000
00001000
00000000
00000000
00000000
00000010
00000000
00000000
00000010
00000000
00000000
00000010
00000000
,
00000002
00000000
00000003
00000000
;

//---------------dance-double - ----------------
#NOTES:
     dance-double:
     :
     Easy:
     11:
     0.487876,0.542403,0.007727,0.139078,0.003863,442.000000,441.000000,1.000000,18.000000,0.000000,0.000000,0.487876,0.542403,0.007727,0.139078,0.003863,442.000000,441.000000,1.000000,18.000000,0.000000,0.000000:
00000000
00000000
00000000
00000000
,
00000000
00000000
00000000
00000000
,
00000000
00000000
00000000
00000000
,
00000000
00000000
00000000
00000000
,
10000000
01000000
00100000
00000000
00010000
00000000
00000000
00000000
,
00100000
01000000
00001000
00000000
00010000
00000000
00000000
00000000
,
00000100
00001000
00000100
00000000
00001000
00000000
00001000
00000000
,
00000001
00000010
00000001
00000000
00001000
00000000
00001000
00000000
,
00000001
00000100
00000010
00000000
00001000
00000000
00000000
00000000
,
00000100
00010000
00001000
00000000
00100000
00000000
00000000
00000000
,
00010000
01000000
00010000
00000000
10000000
00000000
10000000
00000000
,
00100000
10000000
00100000
00000000
20000000
00000000
00000000
00000000
,
31000000
00000000
00100000
00000000
00010000
00000000
00000000
01000000
,
00000000
01000000
00000000
01000000
00000000
00000000
00000000
00000000
,
00001000
00010000
00000100
00000010
,
00000002
00001000
00001003
00000000
,
00000002
00000103
00002000
00003100
,
00001000
00000010
00000000
00000100
00000000
00000100
00000000
00000000
,
00000010
00010000
00000010
00000000
00000100
00000000
00000002
00002000
,
00000000
00000000
00000000
00003003
,
00000000
00000000
00000001
00000000
00000100
00000010
00000000
00001000
,
00000000
00001000
00000000
00000100
00000000
00000000
00000000
00000000
,
00000100
00000000
00010000
00001000
00000000
00100000
00000000
00100000
,
00000000
00010000
00000000
01000000
00000000
00100000
00000000
10000000
,
00000000
00010000
00000000
01000000
00000000
01000000
00000000
00100000
,
00000000
00100000
00000000
00000000
10000000
00010000
00000000
00100000
,
00000000
00010000
20000000
00000000
00000000
00000000
30000000
00000000
,
00010000
01000000
00010000
00000000
10000000
01000000
10000000
00000000
,
00100000
01000000
00100000
00000000
01000000
00001000
00000000
00001000
,
00010000
00000000
00010000
00000010
00000000
00000010
00000100
00000000
,
00000001
00000000
00000001
00000000
00000001
00000001
00000000
00000000
,
00001000
00000001
00001000
00000001
00000000
00000001
00001000
00000000
,
00000001
00000100
00000001
00000000
00001000
00000010
00000000
00000010
,
00000100
00000000
00000100
00000001
00000000
00000001
00000000
00000001
,
00000000
00000000
00000000
00000000
00000000
00001000
00000000
00001000
,
00000000
00000100
00000000
00000100
00000010
00000000
00000010
00000000
,
00000100
00001000
00000100
00000000
00001000
00000100
00000000
00000100
,
00010000
00000000
00010000
00001000
00000000
00001000
01000000
00000000
,
00100000
00000000
00100000
00000000
00100000
00100000
00000000
00000000
,
10000000
00010000
10000000
00010000
00000000
00010000
10000000
00000000
,
00010000
01000000
00010000
00000000
10000000
00100000
00000000
00100000
,
01000000
00000000
01000000
00010000
00000000
00010000
00000000
00010000
,
00000000
00000000
00000000
00200000
,
00000000
00000000
00000000
00300000
,
00001000
00010000
00001000
00000000
00010000
00000000
00010000
00000000
,
00000100
00000010
00000100
00000000
00001000
00000000
00001000
00000000
,
00000010
00000100
00000001
00000000
00000100
00000010
00001000
00000000
,
00000001
00000010
00000100
00000000
00001000
00000000
00000001
00000000
,
00000100
00000010
00000100
00000000
00000001
00000000
00000001
00000000
,
00001000
00000100
00001000
00000000
00000100
00000000
00000100
00000000
,
00010000
00001000
00100000
00000000
00010000
01000000
00100000
00000000
,
10000000
00010000
01000000
00000000
00200000
00000000
00000000
00000000
,
10300000
00010000
01000000
00000000
,
00100000
00000000
00100000
00000000
00000000
01000000
00000000
00000000
,
00100000
00001000
00010000
00000000
,
00000100
00000000
00001000
00000000
00000000
00000010
00000010
00000000
,
00000100
00000001
00001000
00000000
,
00000100
00000000
00000000
00010000
00000000
00001000
00000000
00020000
,
00000000
00000000
00000000
00030000
00000000
00001000
00000000
00001000
,
00000000
00100000
00000000
00100000
02000000
00000000
00000000
00000000
,
13000000
01000000
00010000
00000000
,
00001000
00000010
00000001
00000000
,
00001000
00000000
00000001
00000000
00001000
00000001
00000000
00000000
,
00000100
00000000
00000010
00000000
00000000
00000100
00000100
00000000
,
00000001
00000100
00001000
00000000
,
00000000
00000000
00000000
00010000
00000000
00100000
00000000
20000000
,
00000000
00000000
00000000
30000000
,
00010000
01000000
00200000
00000000
,
00300000
00000000
10000000
00000000
00010000
10000000
00000000
01000000
,
00000000
00010000
00000000
01000000
00000000
00000000
00000000
00000000
,
10000000
00000000
00010000
00100000
00000000
00001000
00000000
00010000
,
00000000
00000100
00000000
00000100
00000000
00000010
00000000
00000001
,
00000000
00001000
00000000
00000010
00000000
00000100
00000000
00000010
,
00000000
00000010
00000000
00000000
00001000
00000001
00000000
00000100
,
00000000
00000001
00002000
00000000
00000000
00000000
00003000
00000000
,
00000100
00000010
00000100
00000000
00001000
00000001
00001000
00000000
,
00000001
00000100
00000001
00000000
00001000
00000010
00000000
00000010
,
00010000
00000000
00010000
00001000
00000000
00001000
01000000
00000000
,
00010000
00000000
00010000
00000000
00010000
00010000
00000000
00000000
,
10000000
00100000
10000000
00100000
00000000
01000000
00010000
00000000
,
01000000
00010000
10000000
00000000
10000000
01000000
00000000
01000000
,
00100000
00000000
00100000
00001000
00000000
00010000
00000000
00002000
,
00000000
00000000
00000000
00013000
00000000
00001000
00000000
01000000
,
00000000
00100000
00000000
01000000
00010000
00000000
10000000
00000000
,
00010000
01000000
00100000
00000000
10000000
01000000
00000000
01000000
,
00100000
00000000
00100000
00001000
00000000
00001000
00010000
00000000
,
00000100
00000000
00000100
00000000
00000100
00000100
00000000
00000000
,
00000010
00000001
00000010
00000001
00000000
00000001
00001000
00000000
,
00000010
00000100
00000010
00000000
00000100
00000001
00000000
00000001
,
00001000
00000000
00001000
00000100
00000000
00000010
00000000
00000100
,
00000000
00000000
00000000
00022000
,
00000000
00000000
00000000
00033000
,
00100000
00010000
01000000
00000000
00100000
00000000
10000000
00000000
,
01000000
00100000
00001000
00000000
00010000
00000000
00000100
00000000
,
00001000
00000010
00001000
00000000
00000001
00000100
00000001
00000000
,
00000010
00000001
00000010
00000000
00000100
00000000
00001000
00000000
,
00000100
00010000
00001000
00000000
00100000
00000000
00010000
00000000
,
01000000
00100000
10000000
00000000
00010000
00000000
01000000
00000000
,
00100000
10000000
00100000
00000000
01000000
00010000
01000000
00000000
,
00010000
00100000
00010000
00000000
20000000
00000000
00000000
00000000
,
31000000
00100000
00001000
00000000
00010000
00000000
00000100
00000000
,
00001000
00000010
00000100
00000000
00000001
00000000
00001000
00000000
,
00000100
00010000
00001000
00000000
00001000
00010000
00000100
00000000
,
00000100
00010000
00001000
00000000
00100000
00000000
00100000
00000000
,
00010000
01000000
00100000
00000000
10000000
00000000
01000000
00000000
,
00010000
00001000
00000100
00000000
00000001
00000000
00001000
00000000
,
00000010
00000100
00000010
00000000
00010000
00001000
00010000
00000000
,
00001000
00000000
00100000
00000000
01000000
00000000
00000000
00000000
10000000
00000000
00000000
00010000
00000000
00000000
01000000
00000000
,
00100000
00000000
00000000
00000000
;

//---------------dance-double - ----------------
#NOTES:
     dance-double:
     :
     Hard:
     15:
     0.769343,0.920038,0.386327,0.139078,0.204753,697.000000,647.000000,50.000000,18.000000,0.000000,0.000000,0.769343,0.920038,0.386327,0.139078,0.204753,697.000000,647.000000,50.000000,18.000000,0.000000,0.000000:
00000000
00000000
00000000
00000000
,
00000000
00000000
00000000
00000000
,
00000000
00000000
00000000
00000000
,
00000000
00000000
00000000
00000000
,
00001000
00000000
00000100
00000000
00000010
00000000
00000000
00000000
00000001
00000000
00000000
00001000
00000000
00000000
00000001
00000000
,
00000100
00000000
00001000
00000000
00010000
00000000
00000000
00000000
01000000
00000000
00000000
10000000
00000000
00000000
01000000
00000000
,
10000000
00010000
01000000
00000000
00010000
10000000
01000000
00000000
,
10000000
00000000
00100000
00000000
01000000
00000000
00000000
00000000
00010000
00000000
00000000
00100000
00000000
00000000
01000000
00000000
,
10000000
00000000
00100000
00000000
01000000
00000000
00000000
00000000
00010000
00000000
00000000
00100000
00000000
00000000
01000000
00000000
,
00010000
00000000
00001000
00000000
00000100
00000000
00000000
00000000
00000001
00000000
00000000
00001000
00000000
00000000
00000001
00000000
,
00001000
00000010
00000100
00000000
00000001
00000010
00000100
00000000
,
00001000
00000000
00000010
00000000
00000100
00000000
00000001
00000000
00001000
00000000
00000000
00001000
00000000
00000000
00001000
00000000
,
00000010
00000100
00000001
00000100
00000010
00000000
00001000
00000002
,
00000000
00000203
00000000
00002300
00000000
00013000
01000000
00000000
,
10000000
00010000
01000000
00010000
00100000
00010000
10000000
00010000
,
01000000
00200000
10000000
00300000
00100000
02000000
00010000
03000000
,
10000000
01010000
10000000
01010000
,
01000000
00010000
00000000
00001000
00000000
00000020
00000000
00000030
,
00000001
00001000
00000100
00001000
00000001
00000100
00000010
00002000
,
00000000
00000100
00000000
00000100
00000000
00000100
00000000
00003100
,
00001001
00000000
00000010
00000000
00000100
00000001
00000000
00001001
,
00000000
00001010
00000000
00000100
00000000
00001000
00010000
00000000
,
11000000
00000000
00100000
01000000
00000000
01010000
00000000
10100000
,
00000000
11000000
00000000
01010000
00000000
00100000
00000000
00010000
,
00001000
00000100
00000000
00001000
00000100
00000001
00000000
00001000
,
00000010
00000100
00000001
00000000
00001000
00000001
00000000
00000101
,
00000000
00001000
00000020
00000000
00000000
00000000
00000000
00000000
,
00000130
00001000
00010000
00100000
00010000
00001000
00010000
00100000
,
10000000
01000000
11000000
00000000
01000000
10000000
00000000
00010000
,
01000000
00100000
10000000
01000000
00000000
00100000
00010000
00000000
,
01010000
00000000
01001000
00000000
00001000
00010000
00000000
00010000
,
00000100
00000010
00000001
00001000
00000000
00001000
00000010
00000000
,
00000100
00000001
00001000
00000000
00000100
00000001
00000000
00000001
,
00001000
00000010
00000100
00001000
00000000
00110000
00000000
10100000
,
00010000
10000000
00000000
00010000
00000000
10000000
00000000
01000000
,
00000000
00010000
00000000
00001000
00000010
00000001
00000010
00000100
,
00000010
00000001
00000100
00000000
00000010
00010000
00000000
00010000
,
00001000
00000100
00000001
00000100
00000000
00001000
00010000
00000000
,
00011000
00000000
01010000
00000000
10000000
00100000
00000000
00100000
,
01000000
00010000
10000000
00010000
00000000
01000000
01000000
00000000
,
00100000
10000000
00100000
00000000
01000000
00010000
00000000
00100000
,
01000000
00010000
00001000
00000100
00000000
00000010
00000000
00000210
,
00000000
00001000
00000000
00000001
00000300
00000000
00000100
00000010
,
00001000
00000001
00000100
00000010
00001000
00000001
00000000
00000010
,
00000100
00000000
00001000
00000000
00000010
00000000
00000100
00000000
00000001
00000000
00000000
00001000
00000000
00000000
00000001
00000000
,
00000100
00000000
00001000
00000000
00010000
00000000
01000000
00000000
10000000
00000000
00000000
00100000
00000000
00000000
10000000
00000000
,
00010000
01000000
00100000
10000000
01000000
00100000
00100000
01000000
,
10000000
00000000
00010000
00000000
01000000
00000000
00100000
00000000
00010000
00000000
00000000
00001000
00000000
00000000
00000010
00000000
,
00000001
00000000
00000100
00000000
00000010
00000000
00001000
00000000
00000100
00000000
00000000
00000010
00000000
00000000
00000001
00000000
,
00000100
00000000
00000010
00000000
00001000
00000000
00000001
00000000
00000100
00000000
00000000
00000010
00000000
00000000
00000100
00000000
,
00001000
00010000
00100000
10000000
00010000
01000000
00100000
10000000
,
01000000
00000000
00100000
00000000
00010000
00000000
10000000
00000000
01000000
00000000
00000000
00010000
00000000
00000000
01000000
00000000
,
10000000
00000000
10010000
00000000
01001000
00000000
00000000
00100000
,
00001000
00001000
00010000
00000010
00000000
00000100
00001000
00000000
,
00011000
00000000
00001000
00000000
00000100
00000001
00000000
00001000
,
00000010
00000010
00000100
00001000
00000000
00010000
01000000
00000000
,
10000000
00000000
00110000
00000000
10000000
00000000
00000000
01000000
,
00010000
00010000
00001000
00000010
00000000
00000001
00000000
00002002
,
00000000
00003003
00000000
00000000
00000000
00000110
00000000
00001100
,
00000000
00010000
00000000
01000000
10000000
01000000
10000000
00000000
,
00010000
00000000
01100000
00000000
11000000
00000000
00000000
00100000
,
00010000
00010000
00001000
00000010
00000000
00000001
00000001
00000000
,
00001100
00000000
00000101
00000000
00001100
00001100
00000000
00000010
,
00000100
00001000
00010000
00100000
00000000
00010000
00001000
00000000
,
00000101
00000000
00001000
00000000
01010000
00000000
00000000
00100000
,
00010000
00001000
00000100
00002000
00000000
00023000
00000000
02030000
,
00000000
00000000
00000000
03000000
00000000
00000000
10000000
00010000
,
01000000
00000000
00100000
00000000
01000000
00000000
00010000
00000000
10000000
00000000
00000000
10000000
00000000
00000000
10000000
00000000
,
00010000
00000000
00000000
01000000
00100000
00000000
10000000
00000000
00000000
00000000
10000000
00000000
00010000
00000000
01000000
00000000
,
00100000
00000000
00000000
00010000
00001000
00000000
00000010
00000000
00000000
00000000
00000010
00000000
00000001
00000000
00000000
00000000
,
00001000
00000000
00000000
00000100
00000010
00000000
00000001
00000000
00000000
00000000
00000001
00000000
00001000
00000000
00000010
00000000
,
00000100
00000000
00000000
00001000
00010000
00000000
01000000
00000000
00000000
00000000
01000000
00000000
10000000
00000000
00000000
00000000
,
10000000
00000000
00000000
00100000
01000000
00000000
00010000
00000000
00000000
00010000
10000000
00010000
10000000
00000000
00000000
00000000
,
00010000
00000000
00000000
01000000
00100000
00000000
01000000
00000000
00000000
01000000
00001000
01000000
00001000
00000000
00000000
00000000
,
00001000
00000000
00000000
00010000
00000100
00000000
00000010
00000000
00000000
00000010
00000001
00000010
00000001
00000000
00001000
00000000
,
00000001
00000100
00001000
00010000
00001000
00000010
00001000
00010000
,
00100000
10000000
10100000
00000000
00010000
01000000
00000000
01000000
,
00100000
00010000
00001000
00000010
00000000
00000001
00000001
00000000
,
00001100
00000000
00000101
00000000
00000100
00001000
00000000
00010000
,
01000000
10000000
01000000
00010000
00000000
10000000
00010000
00000000
,
01000000
00100000
00110000
00000000
00010000
00001000
00000000
00000010
,
00000001
00000100
00000001
00000010
00000000
00001100
00000000
00000101
,
00000000
00001010
00000000
00000011
00000000
00000200
00000000
00002300
,
00000000
00023000
00000000
01030000
10000000
01000000
00010000
00000000
,
01000000
10000000
10100000
00000000
00010000
01000000
00000000
00100000
,
00010000
00010000
00001000
00000010
00000000
00000001
00001000
00000000
,
00000101
00000000
00011000
00000000
00101000
00101000
00000000
01000000
,
10000000
00100000
10000000
01000000
00000000
00010000
00001000
00000000
,
00100000
01000000
11000000
00000000
00010000
00001000
00000000
00000100
,
00000001
00000010
00000001
00000100
00000000
00001010
00000000
00000011
,
00000000
00000100
00000000
00001000
00000000
01000000
10000000
00010000
,
01000000
00100000
01000000
00010000
10000000
00100000
00000000
01000000
,
00010000
00000000
10000000
00010000
01000000
00000000
00100000
00000000
10000000
00000000
00000000
10000000
00000000
00000000
10000000
00000000
,
00010000
00000000
00100000
00000000
01000000
00000000
00010000
00000000
00001000
00000000
00000000
00000010
00000000
00000000
00000001
00000000
,
00001000
00000000
00000001
00000100
00000001
00000000
00001000
00000000
00000010
00000000
00000100
00000000
00001000
00000000
00010000
00000000
,
01000000
00000000
10000000
00000000
00010000
00000000
00100000
01000000
10000000
00000000
00000000
10000000
00000000
00000000
10000000
00000000
,
00010000
00000000
01000000
00100000
01000000
00000000
00010000
00000000
10000000
00000000
00000000
00100000
00000000
00000000
10000000
00000000
,
01000000
00000000
00010000
00000000
00001000
00000000
00000010
00000000
00000001
00000000
00000000
00000001
00000000
00000000
00000001
00000000
,
00001000
00000000
00000010
00000100
00000010
00000000
00001000
00000000
00000010
00000000
00000100
00000000
00001000
00000000
00010000
00000000
,
00100000
00000000
10000000
00000000
00010000
00000000
01000000
00000000
00100000
00000000
00000000
10000000
00000000
00000000
00100000
00000000
,
01000000
00000000
00010000
00000000
10000000
00000000
00100000
00000000
01000000
00000000
00010000
00100000
00000000
00010000
00100000
00000000
,
00010000
00000000
10000000
01000000
10000000
00000000
00010000
00000000
00100000
00000000
00000000
01000000
00000000
00000000
00010000
00000000
,
00001000
00000000
00000100
00000001
00000100
00000000
00000001
00000000
00001000
00000000
00000010
00000000
00000100
00000000
00000001
00000000
,
00000100
00000000
00001000
00000000
00010000
00000000
01000000
10000000
01000000
00000000
10000000
00010000
00000000
10000000
00010000
00000000
,
00100000
00000000
00010000
10000000
00010000
00000000
01000000
00000000
00100000
00000000
01000000
00001000
00000000
01000000
00001000
00000000
,
00010000
00000000
00000010
00000100
00000010
00000000
00001000
00000000
00000001
00000000
00000000
00000100
00000000
00000000
00000010
00000000
,
00001000
00000000
00000001
00000100
00000001
00000000
00001000
00000000
00000010
00000000
00000100
00000000
00001000
00000000
00010000
00000000
,
00100000
00000000
10000000
00000000
00010000
00000000
01000000
00100000
01000000
00000000
00000000
00010000
00000000
00000000
10000000
00000000
,
00020000
00030000
00000000
00000000
;

//---------------dance-double - ----------------
#NOTES:
     dance-double:
     :
     Challenge:
     18:
     0.896279,0.961858,0.509952,0.123625,0.455866,812.000000,746.000000,66.000000,16.000000,0.000000,0.000000,0.896279,0.961858,0.509952,0.123625,0.455866,812.000000,746.000000,66.000000,16.000000,0.000000,0.000000:
// measure 0
00000000
00000000
00000000
00000000
,  // measure 1
00000000
00000000
00000000
00000000
,  // measure 2
00000000
00000000
00000000
00000000
,  // measure 3
00000000
00000000
00000000
00000000
00000000
00000000
00000000
00000000
00011000
00000000
00000000
00100000
00000000
00000000
01000000
00000000
,  // measure 4
10000000
00000000
00010000
00000000
01000000
00000000
00100000
01000000
00010000
00000000
01000000
00100000
00000000
10000000
00100000
00000000
,  // measure 5
01000000
00010000
10000000
00000000
00100000
00000000
01000000
00000000
00010000
00000000
00100000
00001000
00000000
00010000
00000100
00000000
,  // measure 6
00001000
00000000
00000001
00000010
00000001
00000000
00001000
00000010
00001000
00000000
00000010
00000000
00000100
00000000
00001000
00000000
,  // measure 7
00010000
00000000
01000000
00000000
10000000
00000000
00010000
01000000
00010000
00000000
10000000
00100000
00000000
01000000
00010000
00000000
,  // measure 8
00100000
00000000
01000000
10000000
00010000
00000000
01000000
00000000
00010000
00000000
10000000
00100000
00000000
01000000
00010000
00000000
,  // measure 9
00100000
01000000
10000000
00000000
00010000
00000000
01000000
00000000
00100000
00000000
00010000
00001000
00000000
00000010
00000001
00000000
,  // measure 10
00001000
00000000
00000010
00000100
00000001
00000000
00000100
00000010
00001000
00000000
00000001
00000000
00000100
00000000
00001000
00000000
,  // measure 11
00010000
00000000
01000000
00000000
10000000
00000000
00010000
00100000
00010000
00000000
00000000
10010000
00000000
00000000
10000000
00000000
,  // measure 12
00100000
01000000
00100000
00010000
00002000
00000000
00003010
00000001
,  // measure 13
00000000
00001100
00000000
00000101
00000000
00001000
00001000
00000001
,  // measure 14
00000100
00001000
00010000
00100000
00010000
00001000
00000100
00001000
,  // measure 15
00010000
00000000
00100000
10000000
00100000
10000000
00100000
00000000
00010000
00000000
00001000
00000100
00001000
00000100
00001000
00000000
,  // measure 16
00010000
00000110
00001000
01100000
,  // measure 17
00010000
00001000
00000000
00000110
00000000
01100000
00000000
00000000
,  // measure 18
00001000
00010000
00100000
00010000
00001000
00000010
00001000
00020000
,  // measure 19
00000000
00100000
00000000
00000100
00000000
00100000
00000000
00030100
,  // measure 20
00011000
00000000
00100000
00000000
10000000
01000000
00000000
00011000
,  // measure 21
00000000
00000101
00000000
00011000
00000000
01000000
10000000
00000000
,  // measure 22
00010000
00000000
01000000
10000000
00000000
01010000
00000000
00011000
,  // measure 23
00000000
00001100
00000000
00000001
00000000
00001000
00000000
00001010
,  // measure 24
00000000
00010010
00000000
01001000
00000000
00010100
00000000
00001010
,  // measure 25
00000000
01010000
00000000
00000000
00100000
10000000
00000000
01010000
,  // measure 26
00000000
00000010
00000020
00000000
00000000
00000000
00000030
00000000
,  // measure 27
00000010
00001000
00100000
00010000
00000010
00001000
01000000
00100000
,  // measure 28
00010000
00100000
10100000
00000000
00010000
01000000
00000000
00100000
,  // measure 29
10000000
01000000
00010000
00001000
00000000
00000010
00000001
00000000
,  // measure 30
00001100
00000000
00012000
00000000
00000100
00003100
00000000
00000001
,  // measure 31
00001000
00000010
00000100
00001000
00000000
00010000
00100000
00000000
,  // measure 32
00010000
00001000
00001100
00000000
00000001
00001000
00000000
00000010
,  // measure 33
00000100
00001000
00010000
00100000
00000000
10000000
00010000
01000000
,  // measure 34
00200000
00010000
00302000
00000100
00023000
00100000
10030000
00010000
,  // measure 35
00000000
11000000
00000000
00010000
00100000
01000000
10000000
00000000
,  // measure 36
01000000
00010000
00011000
00000000
00000100
00001000
00000000
00000010
,  // measure 37
00000100
00000001
00000010
00001000
00000000
00010000
00100000
00000000
,  // measure 38
00110000
00000000
00012000
00000000
00000010
00003010
00000000
00001000
,  // measure 39
00010000
00100000
10000000
00100000
00000000
01000000
00010000
00000000
,  // measure 40
10000000
01000000
11000000
00000000
00100000
00010000
00000000
01000000
,  // measure 41
00100000
00010000
00001000
00000100
00000000
00000101
00000000
00001100
,  // measure 42
00000010
00000100
00000000
00022000
00000000
00033000
00100000
10000000
,  // measure 43
00100000
01000000
00100000
00010000
00100000
01000000
00000000
00010000
,  // measure 44
10000000
00000000
01000000
00000000
00100000
00000000
00010000
01000000
00010000
00000000
10000000
01000000
00000000
00100000
01000000
00000000
,  // measure 45
10000000
00010000
10000000
00000000
00010000
00000000
01000000
00100000
00010000
00000000
00001000
00000100
00000000
00000001
00000100
00000000
,  // measure 46
00001000
00000000
00000010
00000100
00000001
00000000
00000001
00000100
00000010
00000000
00000100
00000000
00001000
00000000
00010000
00000000
,  // measure 47
01000000
00000000
10000000
00000000
01000000
00000000
00100000
00010000
01000000
00000000
01000000
00010000
00000000
00010000
00100000
00000000
,  // measure 48
01000000
00000000
10000000
00000000
00100000
00000000
00010000
00001000
00010000
00000000
00001000
00000010
00000000
00000100
00000010
00000000
,  // measure 49
00000001
00000100
00000010
00000000
00000100
00000000
00001000
00010000
00100000
00000000
01000000
00010000
00000000
10000000
00100000
00000000
,  // measure 50
01000000
00000000
00010000
10000000
01000000
00000000
01000000
10000000
00010000
00000000
01000000
00000000
00100000
00000000
00010000
00000000
,  // measure 51
00001000
00000000
00000010
00000000
00000001
00000000
00000100
00000010
00001000
00000000
00000000
00001001
00000000
00000000
00000010
00000000
,  // measure 52
00001000
00000000
00010000
00000000
10001000
00000000
00000000
00100000
,  // measure 53
00010000
00000100
00010000
00100000
00000000
00000100
00001000
00000000
,  // measure 54
00000011
00000000
00010000
00000000
01100000
01100000
00000000
00010000
,  // measure 55
00000100
00000001
00000100
00010000
00000000
00000110
00000110
00000000
,  // measure 56
00010000
00000000
00001000
00000000
00010001
00000000
00000000
00000010
,  // measure 57
00000100
00001000
00100000
10000000
00000000
00010100
00000000
20000000
,  // measure 58
00000000
30000000
00000000
00000000
00000000
01000000
00000000
00000100
,  // measure 59
00000000
00000000
00011000
00000000
00000000
00000000
00000010
00000000
00000100
00000000
00000000
00000100
00000000
00000000
00000100
00000000
,  // measure 60
00000010
00000000
00100000
00000000
00100010
00000000
00000000
00010000
,  // measure 61
00000010
00010000
00100000
00010000
00000000
00001000
00000010
00000000
,  // measure 62
00000100
00000000
01000000
00000000
00000100
00000100
00000000
00010000
,  // measure 63
01000000
00010000
00000100
00010000
00000000
00001000
00001000
00000000
,  // measure 64
00000100
00000000
01000000
00000000
01000100
00000000
00000000
00001000
,  // measure 65
01000000
10000000
01000000
00002000
00000000
00003200
00000000
00000302
,  // measure 66
00000000
00000000
00000000
00000000
00000003
00000000
00000001
00000100
,  // measure 67
00001000
00000000
00010000
00000000
01000000
00000000
10000000
00000000
00010000
00000000
00000000
00001000
00000000
00000000
00000001
00000000
,  // measure 68
00001000
00000000
00000000
00000010
00000100
00000000
00000001
00000000
00000000
00000100
00000010
00000100
00000010
00000000
00000100
00000000
,  // measure 69
00001000
00000000
00000000
00010000
01000000
00000000
00100000
00000000
00000000
01000000
00010000
01000000
00010000
00000000
00001000
00000000
,  // measure 70
01000000
00000000
00000000
00100000
10000000
00000000
00010000
00000000
00000000
01000000
00100000
01000000
00100000
00000000
01000000
00000000
,  // measure 71
00010000
00000000
00000000
00100000
01000000
00000000
10000000
00000000
00000000
01000000
00100000
01000000
00100000
00000000
10000000
00000000
,  // measure 72
01000000
00000000
00000000
00010000
00001000
00000000
00000100
00000000
00000000
00000001
00000100
00001000
00000100
00000000
00000001
00000000
,  // measure 73
00000100
00000000
00000000
00001000
00010000
00000000
01000000
00000000
00000000
10000000
01000000
00010000
01000000
00000000
10000000
00000000
,  // measure 74
00100000
00000000
00000000
00010000
00001000
00000000
00000010
00000000
00000000
00000001
00000010
00001000
00000010
00000000
00000001
00000000
,  // measure 75
00000100
00001000
01000000
00010000
00000100
00001000
00100000
01000000
,  // measure 76
10000000
01000000
01010000
00000000
00100000
00100000
00000000
10000000
,  // measure 77
01000000
00010000
00001000
00001100
00000000
00000001
00001000
00000000
,  // measure 78
00001010
00000000
00000101
00000000
00010100
00010100
00000000
00010000
,  // measure 79
00001000
00000100
00001000
00010000
00000000
00100000
00100000
00000000
,  // measure 80
10000000
01000000
01010000
00000000
00100000
00100000
00000000
01000000
,  // measure 81
00010000
00001000
00000100
00000001
00000000
00001010
00000000
00120000
,  // measure 82
00000000
00001000
00000000
00000010
00000000
00130000
00000000
00011000
,  // measure 83
00000000
01001000
00000000
00100000
00010000
00001000
00000010
00000000
,  // measure 84
00000001
00000100
00001100
00000000
00000010
00000010
00000000
00000100
,  // measure 85
00001000
00010000
01000000
11000000
00000000
00010000
00010000
00000000
,  // measure 86
10100000
00000000
00110000
00000000
01001000
01001000
00000000
00001000
,  // measure 87
00010000
01000000
00010000
00001000
00000000
00000010
00000010
00000000
,  // measure 88
00000001
00000010
00001010
00000000
00000100
00000100
00000000
00001000
,  // measure 89
00010000
00000000
00100000
00000000
10000000
00000000
01000000
00000000
00000000
01000000
00100000
00000000
00000000
00100000
00010000
00000000
,  // measure 90
00000000
00001000
00000000
00000010
00000000
00000001
00000100
00000010
,  // measure 91
00000100
00000001
00001000
00000010
00000100
00000010
00000000
00001000
,  // measure 92
00000001
00000000
00000100
00000000
00000010
00000000
00010000
00001000
00000100
00000000
00001000
00010000
00000000
00100000
10000000
00000000
,  // measure 93
01000000
00100000
00010000
00000000
01000000
00000000
00100000
00000000
00010000
00000000
00001000
00010000
00000000
01000000
00010000
00000000
,  // measure 94
00001000
00000000
00000010
00000001
00000010
00000000
00000001
00000100
00000001
00000000
00001000
00000000
00000010
00000000
00000100
00000000
,  // measure 95
00001000
00000000
00010000
00000000
00000010
00000000
00000100
00000001
00001000
00000000
00000100
00000010
00000000
00001000
00010000
00000000
,  // measure 96
00100000
00000000
10000000
00000000
01000000
00000000
00010000
00001000
00000100
00000000
00001000
00010000
00000000
00100000
00010000
00000000
,  // measure 97
00001000
00000100
00000001
00000000
00000100
00000000
00001000
00010000
00100000
00000000
00010000
00001000
00000000
00000100
00000001
00000000
,  // measure 98
00001000
00000000
00000010
00000100
00000010
00000000
00000100
00001000
00000100
00000000
00001000
00000000
00010000
00000000
01000000
00000000
,  // measure 99
10000000
00000000
00010000
00000000
01000000
00000000
00100000
01000000
00100000
00000000
00000000
10010000
00000000
00000000
01000000
00000000
,  // measure 100
00010000
00000000
00100000
00000000
01000000
00000000
00010000
00001000
00000100
00000000
00000001
00000100
00000000
00001000
00010000
00000000
,  // measure 101
00100000
10000000
00100000
00000000
10000000
00000000
01000000
00010000
00001000
00000000
00010000
00000100
00000000
00000010
00000100
00000000
,  // measure 102
00001000
00000000
00010000
00100000
01000000
00000000
00010000
00001000
00000010
00000000
00000001
00000000
00000100
00000000
00001000
00000000
,  // measure 103
00010000
00000000
00001000
00000000
00000100
00000000
00000001
00001000
00000010
00000000
00000100
00001000
00000000
00010000
00100000
00000000
,  // measure 104
10000000
00000000
00010000
00000000
01000000
00000000
00100000
00010000
00001000
00000000
00010000
01000000
00000000
10000000
01000000
00000000
,  // measure 105
00010000
00001000
00000100
00000000
00000001
00000000
00001000
00000000
00000010
00000000
00000100
00001000
00000000
00010000
00100000
00000000
,  // measure 106
00010000
00000000
00001000
00000100
00000001
00000000
00000100
00001000
00010000
00000000
00100000
00000000
10000000
00000000
00100000
00000000
,  // measure 107
00010000
00000000
00001000
00000000
00000100
00000000
00000001
00000100
00001000
00000000
00000000
00011000
00000000
00000000
00010000
00000000
,  // measure 108
00200000
00300000
00000000
00000000
;
