#VERSION:0.83;
#TITLE:Neo Heritage;
#SUBTITLE:;
#ARTIST:kors k vs MAD CHILD;
#TITLETRANSLIT:;
#SUBTITLETRANSLIT:;
#ARTISTTRANSLIT:;
#GENRE:Rock;
#ORIGIN:;
#CREDIT:;
#BANNER:neoheritage-bn.png;
#BACKGROUND:neoheritage-bg.png;
#PREVIEWVID:;
#JACKET:;
#CDIMAGE:;
#DISCIMAGE:;
#LYRICSPATH:;
#CDTITLE:;
#MUSIC:Neo Heritage.ogg;
#OFFSET:0.000000;
#SAMPLESTART:25.539999;
#SAMPLELENGTH:12.000000;
#SELECTABLE:YES;
#BPMS:0.000=150.000;
#STOPS:;
#DELAYS:;
#WARPS:;
#TIMESIGNATURES:0.000=4=4;
#TICKCOUNTS:0.000=4;
#COMBOS:0.000=1;
#SPEEDS:0.000=1.000=0.000=0;
#SCROLLS:0.000=1.000;
#FAKES:;
#LABELS:0.000=Song Start;
#BGCHANGES:;
#KEYSOUNDS:;
#ATTACKS:
;

//---------------dance-single - ----------------
#NOTEDATA:;
#CHARTNAME:;
#STEPSTYPE:dance-single;
#DESCRIPTION:;
#CHARTSTYLE:;
#DIFFICULTY:Challenge;
#METER:16;
#RADARVALUES:0.790285,0.939460,0.224946,0.124970,1.074740,664.000000,637.000000,27.000000,15.000000,0.000000,0.000000,0.000000,0.000000,0.000000,0.790285,0.939460,0.224946,0.124970,1.074740,664.000000,637.000000,27.000000,15.000000,0.000000,0.000000,0.000000,0.000000,0.000000;
#CREDIT:;
#NOTES:
0000
0000
0000
0000
,
0000
0000
0000
0000
,
0000
0000
0000
0000
,
0000
0000
0000
0000
,
0001
0000
0000
0000
0010
0000
0000
0000
0100
0000
0000
1000
0000
0000
0000
0000
,
0001
0000
0001
0000
0010
0000
0010
0000
0100
1000
0000
1000
0000
0000
0000
0000
,
1000
0000
0000
0000
0001
0000
0000
0000
0100
0000
0000
0010
0000
0000
0000
0000
,
1000
0000
1000
0000
0001
0000
0001
0000
0100
0010
0000
0010
0000
0010
0100
0010
,
0100
0000
0000
0000
0101
0000
0000
0000
1001
0000
0000
0010
0000
0000
0000
0000
,
0100
0000
0100
0000
0001
0000
0001
0000
1001
0000
0000
0010
0000
0000
0000
0000
,
0100
0000
0000
0000
1100
0000
0000
0000
1001
0000
0000
0010
0000
0000
0000
0000
,
0100
0000
0100
0000
1000
0000
1000
0000
1001
0000
0000
0010
0000
0010
0100
0010
,
0100
0000
0000
0001
0000
0001
1000
0001
1000
0000
0000
0010
0000
0010
0100
0010
,
0100
0000
0000
0001
0000
0001
1000
0001
1000
0000
0000
0010
0000
0010
0100
0010
,
0100
0001
1000
0010
1000
0001
0100
0001
1000
0010
1000
0001
0100
0001
1000
0010
,
1000
0000
0000
0000
1000
0000
0000
0000
1000
0000
0000
2000
0000
0000
3000
0000
,
0001
0010
0001
0010
0001
0100
0001
0100
0010
1000
0000
0100
0000
0010
0001
1000
,
0001
0100
0001
0100
0001
0010
0001
0010
0100
0000
1000
0000
1000
0000
0100
0000
,
1000
0010
1000
0010
1000
0100
1000
0100
0010
0001
0000
0100
0000
0010
1000
0001
,
1000
0100
1000
0100
1000
0010
1000
0010
0100
0000
0001
0000
1000
0000
0010
0000
,
0100
0010
0100
0010
0100
0001
0100
0001
0100
0010
0000
1000
0000
0100
1000
0010
,
0100
0001
0100
0001
0100
0010
0100
0010
0100
0000
0001
0000
0001
0000
1000
0000
,
0010
0100
0010
0100
0010
1000
0010
1000
0001
0010
0000
0100
0000
1000
0001
0100
,
0010
1000
0100
0010
0001
0100
0010
1000
0000
0001
1000
0001
0000
1000
0001
1000
,
0010
0100
0010
0100
0001
0100
0001
0100
0001
0010
0000
1000
0000
0010
0001
0000
,
1000
0010
1000
0010
0100
0010
0100
0010
0100
0001
0100
0010
1000
0000
1000
0000
,
0001
0010
0001
0010
0100
1000
0100
1000
0100
0010
0000
0001
0000
0001
0100
0010
,
1000
0010
1000
0010
0100
0001
0100
0001
0100
0010
0000
1000
0000
0001
1000
0001
,
0100
0010
0100
0010
1000
0001
1000
0001
1000
0010
0000
0110
0000
0001
0010
0001
,
0100
0010
0100
0010
1000
0010
1000
0010
1000
0100
0010
0001
0000
1000
0001
1000
,
0002
0000
0010
0000
0010
0000
0013
0000
0001
0100
0000
0010
0000
1000
0100
0010
,
0001
0100
0001
1000
0010
1000
0001
0100
0001
1000
0010
1000
0001
0100
0001
1000
,
0020
0000
0100
0000
0031
0000
0110
1000
,
0100
0010
0000
0001
0000
0000
0010
0000
0001
0100
0000
0010
0000
0000
1000
0000
,
0120
1000
0100
0000
0130
0000
0110
0001
,
1000
0100
0000
0010
0000
0000
0100
0000
0010
0001
1000
0000
0010
0000
0100
0000
,
0002
0203
2300
3200
0301
0000
1100
0001
,
0100
0001
0000
1000
0000
0000
0001
0000
0100
0010
0000
1000
0000
0000
0100
0000
,
0010
0000
0001
0100
0010
0000
1000
0000
0100
0000
0000
1100
0000
0000
0101
0000
,
0020
0000
0000
0000
0230
0000
0000
0000
0310
0000
0000
0220
0000
0000
0330
0000
,
0001
1000
0000
0000
0001
0000
0000
0000
1000
0000
0000
0101
0000
0000
0000
0000
,
0010
0000
0010
0000
1000
0000
1000
0000
0100
0000
0000
1010
0000
0000
0000
0000
,
1000
0001
0000
0000
1000
0000
0000
0000
0001
0000
0000
1010
0000
0000
0000
0000
,
0010
0000
0010
0000
0100
0000
0100
0000
0001
0010
0100
1000
0010
0100
0010
0100
,
0010
0100
0000
0000
0010
0000
0000
0000
1000
0000
0000
0011
0000
0000
0000
0000
,
0100
0000
0100
0000
0001
0000
0001
0000
1000
0000
0000
0110
0000
0000
0000
0000
,
0010
1000
0000
0000
0010
0000
0000
0000
0100
0000
0000
1001
0000
0000
0000
0000
,
0010
0000
0010
0000
0100
0000
0100
0000
0001
1000
0000
0010
0100
0010
0100
0010
,
0100
0000
0001
0000
0000
0001
1000
0000
0000
1000
0001
0000
0000
0001
0100
0000
,
0000
0100
0001
0000
0000
0001
1000
0000
0000
1000
0100
0000
0000
0100
1000
0000
,
0000
1000
0010
0000
0000
0100
0001
0000
0000
0001
0010
0000
0000
0100
1000
0000
,
0000
1000
0001
0000
0000
0100
0010
0000
0000
0010
0100
0000
0000
0100
0001
0000
,
1010
0000
0000
0010
0000
0100
0001
0000
0011
0000
0000
0010
0000
0100
1000
0000
,
1010
0000
0000
0010
0000
0100
0001
0000
0011
0000
0000
0010
0000
0100
1000
0000
,
0010
0000
0100
0001
1000
0000
0010
1000
0001
0000
0100
0001
1000
0000
0010
1000
,
0001
0000
0000
0000
0001
0000
0000
0000
0001
0000
0000
0002
0000
0000
0003
0000
,
1000
0000
0100
0000
0001
0000
0100
0000
1000
0000
0001
1000
0000
0001
1000
0000
,
0001
0000
0100
0000
0010
0000
0100
0000
1000
0000
0100
0010
0000
0100
0001
0000
,
1000
0000
0010
0000
0001
0000
0010
0000
1000
0000
0001
1000
0000
0001
1000
0000
,
0100
0000
0010
0000
0100
0000
1000
0100
1000
0000
0001
0010
0000
0100
1000
0000
,
0001
0000
0100
0000
1000
0000
0100
0000
0001
0000
1000
0001
0000
1000
0001
0000
,
1000
0000
0100
0000
0010
0000
0100
0000
0001
0000
0100
0010
0000
0100
1000
0000
,
0001
0000
0101
0000
0010
0000
1100
0000
0100
0000
0010
0001
0000
1000
0010
0000
,
0100
0001
1000
0010
1000
0100
0010
0001
0100
0010
1000
0100
1000
0001
0010
0100
,
1000
0000
0100
0000
1000
0000
0010
0000
1000
0000
0100
0010
0000
0100
1000
0000
,
0001
0000
0100
0000
0001
0000
0010
0000
0001
0000
0100
0010
0000
0010
0100
0010
,
1000
0000
0010
0000
0100
0000
0010
0000
1000
0000
0010
0100
0000
0010
1000
0000
,
0001
0000
0100
0000
0001
0000
0010
0000
0001
0000
0100
0010
0000
0010
1000
0010
,
1000
0000
0000
0100
0000
0010
0001
0010
0001
0000
0000
0100
0000
0010
1000
0010
,
1000
0000
0000
0100
0000
0010
0001
0010
0001
0000
0000
0100
0000
0010
1000
0010
,
1000
0100
1000
0100
0010
0001
0010
0001
0100
0001
0100
0001
1000
0010
1000
0010
,
1000
0000
0000
0000
0001
0000
0000
0000
1000
0000
0000
0001
0000
0000
0000
0000
,
0220
0000
0000
0330
;

//---------------dance-single - ----------------
#NOTEDATA:;
#CHARTNAME:;
#STEPSTYPE:dance-single;
#DESCRIPTION:;
#CHARTSTYLE:;
#DIFFICULTY:Hard;
#METER:13;
#RADARVALUES:0.561769,0.636409,0.000000,0.099976,0.470720,472.000000,472.000000,0.000000,12.000000,0.000000,0.000000,0.000000,0.000000,0.000000,0.561769,0.636409,0.000000,0.099976,0.470720,472.000000,472.000000,0.000000,12.000000,0.000000,0.000000,0.000000,0.000000,0.000000;
#CREDIT:;
#NOTES:
0000
0000
0000
0000
,
0000
0000
0000
0000
,
0000
0000
0000
0000
,
0000
0000
0000
0000
,
0100
0000
0000
0000
0001
0000
0000
0000
0100
0000
0000
0010
0000
0000
0000
0000
,
0010
0000
0100
0000
0010
0000
1000
0000
0010
0000
0000
0100
0000
0000
0000
0000
,
0001
0000
0000
0000
0010
0000
0000
0000
0001
0000
0000
1000
0000
0000
0000
0000
,
1000
0000
0010
0000
1000
0000
0001
0000
1000
0000
0000
0001
0000
0000
0000
0000
,
1000
0000
0000
0000
0100
0000
0000
0000
0001
0000
0000
0100
0000
0000
0000
0000
,
1000
0000
0010
0000
0001
0000
0010
0000
1000
0000
0000
0001
0000
0000
0000
0000
,
0001
0000
0000
0000
0100
0000
0000
0000
1000
0000
0000
0100
0000
0000
0000
0000
,
0001
0000
0010
0000
1000
0000
0010
0000
0001
0000
0000
1000
0000
0000
0000
0000
,
0010
0000
0000
0100
0000
0000
0001
0000
0010
0000
0000
0100
0000
0000
1000
0000
,
0001
0000
0000
0010
0000
0000
0001
0000
1000
0000
0000
0010
0000
0000
0100
0000
,
0010
1000
0001
0010
1000
0001
0100
1000
,
0010
0000
0000
0000
0010
0000
0000
0000
0010
0000
0000
0010
0000
0000
0000
0000
,
0100
0000
0001
0000
0100
0000
0010
0000
0100
0001
0000
0001
0000
1000
0001
0000
,
1000
0010
0100
0001
0010
0010
0100
1000
,
0010
0000
0100
0000
0010
0000
1000
0000
0010
0100
0000
0100
0000
0001
1000
0000
,
0001
0100
1000
0100
0001
0001
1000
0010
,
1000
0000
0100
0000
1000
0000
0010
0000
1000
0100
0000
0100
0000
0010
0001
0000
,
0100
0010
1000
0001
0100
0100
0001
1000
,
0001
0000
0010
0000
0001
0000
1000
0000
0001
0010
0000
0010
0000
0100
1000
0000
,
0001
0100
1000
0100
0000
0001
0010
0100
,
1000
0000
0010
0000
1000
0000
0010
0000
0100
0001
0000
1000
0000
0001
0100
0000
,
0001
0000
0010
0000
0001
0000
0010
0000
0100
1000
0100
1000
0000
1000
0100
0000
,
1000
0000
0001
0000
1000
0000
0001
0000
0100
0010
0000
1000
0000
0001
0100
0000
,
0001
0000
1000
0000
0001
0000
1000
0000
0010
0100
0000
0001
0000
1000
0010
1000
,
0010
0000
0100
0000
0010
0000
0100
0000
0001
1000
0000
0010
0000
1000
0001
0000
,
0100
0000
0001
0000
0100
0000
0001
0000
1000
0100
1000
0100
0000
0010
0001
0000
,
0200
0010
0010
0310
1000
0001
0100
0010
,
1000
0100
0001
0100
1000
0100
0001
0100
,
1000
0000
1000
0000
1000
0000
1000
0001
,
0100
0010
0000
0100
0000
0000
0000
0000
0100
0010
0000
0100
0000
0000
0000
0000
,
0001
0001
0001
0000
0001
0000
0001
1000
,
0010
0100
0000
0010
0000
0000
0000
0000
0010
0100
0010
0000
0000
0000
0000
0000
,
1000
0100
0010
0001
0100
0000
0100
0010
,
1000
0100
0000
1000
0000
0000
0000
0000
1000
0100
0000
1000
0000
0000
0000
0000
,
0010
0000
1000
0000
0001
0000
0100
0000
0010
0000
0000
0010
0000
0000
0010
0000
,
0100
0000
0000
0000
0100
0000
0000
0000
0100
0000
0000
0100
0000
0000
0000
0000
,
0002
0000
0000
0000
0010
0000
0000
0000
0100
0000
0003
0010
0000
0000
0001
0000
,
1000
0000
0010
0000
0100
0000
0010
0000
0001
0000
0000
0010
0000
0000
0000
0000
,
2000
0000
0000
0000
0100
0000
0000
0000
3010
0000
0000
0100
0000
0000
1000
0000
,
0001
0000
0100
0000
0010
0000
0100
0000
1000
0000
0000
0100
0000
0000
0001
0000
,
0200
0000
0000
0000
0001
0000
0000
0000
1000
0000
0300
0001
0000
0000
0010
0000
,
0100
0000
0001
0000
0100
0000
1000
0000
0010
0000
0000
0100
0000
0000
0000
0000
,
0020
0000
0000
0000
1000
0000
0000
0000
0001
0000
0030
1000
0000
0000
0100
0000
,
0010
0000
0001
0000
1000
0000
0010
0000
0100
0000
0000
0010
0000
1000
0001
1000
,
0001
0000
1000
0000
0000
1000
0100
0000
0000
0100
0010
0000
0000
0010
0001
0000
,
0000
0001
0100
0000
0000
0100
0010
0000
0000
0010
1000
0000
0000
1000
0001
0000
,
0000
0001
0100
0000
0000
0100
0010
0000
0000
0010
0100
0000
0000
0100
0001
0000
,
0000
0001
1000
0000
0000
1000
0100
0000
0000
0100
0010
0000
0000
0010
0100
0000
,
1000
0000
0000
0010
0000
0000
0100
0000
0001
0000
0000
0010
0000
0000
0100
0000
,
1000
0000
0000
0010
0000
0000
0100
0000
0001
0000
0000
0010
0000
0000
0100
0000
,
1000
0001
0100
0010
0001
0010
1000
0001
,
1000
0000
0000
0000
1000
0000
0000
0000
1000
0000
0000
1000
0000
0000
0000
0000
,
0001
0000
1000
0000
0001
0000
1000
0000
0001
0000
1000
0001
0000
1000
0001
0000
,
0100
0000
0001
0000
0100
0000
0001
0000
0100
0000
0001
1000
0000
0001
0100
0000
,
0010
0000
1000
0000
0010
0000
1000
0000
0010
0000
1000
0010
0000
1000
0010
0000
,
0100
0000
0010
0000
0100
0000
0010
0000
0100
0000
0010
1000
0000
0010
0100
0000
,
0001
0000
0010
0000
0100
0000
1000
0000
0100
0000
0010
0001
0000
0010
0001
0000
,
1000
0000
0100
0000
0010
0000
0001
0000
0010
0000
0100
1000
0000
0001
1000
0000
,
0010
0000
0100
0000
0001
0000
1000
0000
0001
0000
0100
0010
0000
0100
0010
0000
,
0100
0000
0001
0000
1000
0000
0010
1000
0010
0000
1000
0001
0000
0001
0100
0000
,
0001
0000
0000
0000
0010
0000
0000
0000
0001
0000
0000
1000
0000
0000
0000
0000
,
0001
0000
1000
0000
0001
0000
0010
0000
0001
0000
0000
1000
0000
0000
0000
0000
,
1000
0000
0000
0000
0010
0000
0000
0000
1000
0000
0000
0001
0000
0000
0000
0000
,
1000
0000
0001
0000
1000
0000
0010
0000
2000
0000
0000
0002
0000
0000
3003
0000
,
0200
0000
0000
0010
0000
0000
0310
0000
2000
0000
0000
0010
0000
0000
3010
0000
,
0002
0000
0000
0010
0000
0000
0013
0000
0200
0000
0000
1000
0000
0000
0301
0000
,
0100
0010
1000
0001
1000
0010
0100
0000
,
0001
0000
0000
0000
0001
0000
0000
0000
0001
0000
0000
0001
0000
0000
0000
0000
,
0200
0000
0000
0300
;

//---------------dance-single - ----------------
#NOTEDATA:;
#CHARTNAME:;
#STEPSTYPE:dance-single;
#DESCRIPTION:;
#CHARTSTYLE:;
#DIFFICULTY:Medium;
#METER:10;
#RADARVALUES:0.418946,0.481550,0.258271,0.316590,0.091645,352.000000,321.000000,31.000000,38.000000,0.000000,0.000000,0.000000,0.000000,0.000000,0.418946,0.481550,0.258271,0.316590,0.091645,352.000000,321.000000,31.000000,38.000000,0.000000,0.000000,0.000000,0.000000,0.000000;
#CREDIT:;
#NOTES:
// measure 0
0000
0000
0000
0000
,  // measure 1
0000
0000
0000
0000
,  // measure 2
0000
0000
0000
0000
,  // measure 3
0000
0000
0000
0000
,  // measure 4
1000
0100
0011
0000
,  // measure 5
0001
0100
0001
0100
0101
0000
0000
0000
,  // measure 6
0010
0100
1001
0000
,  // measure 7
0010
0100
0010
0100
0110
0000
0000
0000
,  // measure 8
0001
0010
1100
0000
,  // measure 9
1000
0010
1000
0010
1010
0000
0000
0000
,  // measure 10
1000
0001
0110
0000
,  // measure 11
1000
0001
1000
0001
1001
0000
0000
0000
,  // measure 12
0022
0033
2200
3300
,  // measure 13
2020
3030
0202
0303
,  // measure 14
0001
1000
0010
0100
0001
1000
0010
0100
,  // measure 15
0010
0010
0020
0030
,  // measure 16
1000
0100
1000
0010
1000
0000
0011
0000
,  // measure 17
0001
0100
0001
0010
0001
0000
0001
0000
,  // measure 18
0100
0010
0100
0001
0100
0000
0110
0000
,  // measure 19
0020
2030
3002
0003
,  // measure 20
1000
0100
0010
0001
1000
0000
1001
0000
,  // measure 21
0001
0010
0100
1000
0001
0000
0001
0000
,  // measure 22
0100
0010
1000
0001
0100
0000
0110
0000
,  // measure 23
0200
0302
2003
3000
,  // measure 24
0001
0000
0001
0000
0010
0100
1000
0010
,  // measure 25
0100
0000
0100
0000
0001
1000
0010
1000
,  // measure 26
0001
0000
0001
1000
0000
0010
0000
0100
,  // measure 27
0002
0023
0230
0300
,  // measure 28
0010
0000
0010
0000
0001
1000
0100
0010
,  // measure 29
0100
0000
0100
0000
1000
0010
0000
0100
,  // measure 30
0001
1000
0001
1000
0020
0000
0230
0000
,  // measure 31
0301
0001
0002
0003
,  // measure 32
1000
0000
1000
0000
1000
0000
0100
0100
,  // measure 33
0200
0300
0200
0300
,  // measure 34
0010
0000
0010
0000
0010
0000
0001
0001
,  // measure 35
0002
0003
0002
0003
,  // measure 36
0002
0100
0203
0000
0310
0000
0010
1000
,  // measure 37
0020
0030
0020
0030
,  // measure 38
0100
0000
0100
0001
0200
0000
0000
0000
,  // measure 39
0310
1000
2002
3003
,  // measure 40
0010
0100
1001
0000
,  // measure 41
0010
0100
0010
0100
1001
0000
0000
0000
,  // measure 42
0100
0010
1001
0000
,  // measure 43
0100
0010
0100
0010
1001
0000
0000
0000
,  // measure 44
1000
0100
0011
0000
,  // measure 45
1000
0100
1000
0100
0011
0000
0000
0000
,  // measure 46
0001
0100
1010
0000
,  // measure 47
0001
0100
0001
0100
1010
0000
0000
0000
,  // measure 48
0000
0000
0010
0100
0000
0000
0010
0100
0000
0000
0010
0100
0000
0000
0001
0000
,  // measure 49
0000
0000
0100
0010
0000
0000
0100
0010
0000
0000
0100
0010
0000
0000
1000
0000
,  // measure 50
0000
0000
0001
0010
0000
0000
0001
0010
0000
0000
0001
0010
0000
0000
0100
0000
,  // measure 51
0000
0000
1000
0010
0000
0000
1000
0010
0000
0000
1000
0010
0000
0000
0100
0000
,  // measure 52
0002
0003
2000
3000
,  // measure 53
0020
0030
0200
0300
,  // measure 54
0001
1000
0010
0100
0001
1000
0010
0100
,  // measure 55
0010
0000
0000
0000
0100
0000
0000
0000
0010
0000
0000
0100
0000
0000
0000
0000
,  // measure 56
0001
0010
0001
0010
0001
0000
0001
0000
,  // measure 57
1000
0100
1000
0100
1000
0000
0101
0000
,  // measure 58
0100
0010
0100
0010
0100
0000
0100
0000
,  // measure 59
0010
1000
0010
1000
0010
0000
1100
0000
,  // measure 60
0001
1000
0010
1000
0001
0000
0011
0000
,  // measure 61
1000
0100
0001
0100
1000
0000
1001
0000
,  // measure 62
1000
0001
0010
0001
1000
0000
1001
0000
,  // measure 63
0001
0100
1000
0100
0001
0010
1000
0010
,  // measure 64
0001
0000
0000
0000
1000
0000
0000
0000
0001
0000
0000
1000
0000
0000
0000
0000
,  // measure 65
0001
0000
1000
0000
0010
0000
0100
0000
0001
0000
0000
1000
0000
0000
0000
0000
,  // measure 66
1000
0000
0000
0000
0001
0000
0000
0000
1000
0000
0000
0001
0000
0000
0000
0000
,  // measure 67
1000
0000
0001
0000
0100
0000
0010
0000
1000
0000
0000
0001
0000
0000
0000
0000
,  // measure 68
1000
0000
0000
0100
0000
0000
0000
0000
0010
0000
0000
0001
0000
0000
0000
0000
,  // measure 69
0001
0000
0000
0100
0000
0000
0000
0000
0010
0000
0000
1000
0000
0000
0000
0000
,  // measure 70
0010
0010
0010
0010
,  // measure 71
1000
0000
0000
0000
0001
0000
0000
0000
0010
0000
0000
0100
0000
0000
0000
0000
,  // measure 72
0220
0330
0000
0000
;

//---------------dance-single - ----------------
#NOTEDATA:;
#CHARTNAME:;
#STEPSTYPE:dance-single;
#DESCRIPTION:;
#CHARTSTYLE:;
#DIFFICULTY:Easy;
#METER:6;
#RADARVALUES:0.289216,0.329920,0.033325,0.333253,0.000000,243.000000,239.000000,4.000000,40.000000,0.000000,0.000000,0.000000,0.000000,0.000000,0.289216,0.329920,0.033325,0.333253,0.000000,243.000000,239.000000,4.000000,40.000000,0.000000,0.000000,0.000000,0.000000,0.000000;
#CREDIT:;
#NOTES:
0000
0000
0000
0000
,
0000
0000
0000
0000
,
0000
0000
0000
0000
,
0000
0000
0000
0000
,
1000
0100
0001
0000
,
1000
0010
0001
0000
,
0001
0100
1000
0000
,
0001
0010
1000
0000
,
1002
0100
0013
0000
,
0200
0010
0310
0000
,
2001
0010
3100
0000
,
0020
0100
0130
0000
,
0002
0000
0003
0000
,
2000
0000
3000
0000
,
0020
0000
0030
0000
,
0200
0010
0010
0310
,
1000
0100
0001
0100
,
1000
0010
0100
0100
,
0001
0010
1000
0010
,
0001
0100
0010
1000
,
0100
0010
1000
0010
,
0001
0100
0010
0010
,
0100
0010
0001
0010
,
1000
0100
0020
0130
,
1000
0001
0200
0000
,
0301
1000
0020
0000
,
1030
0100
0002
0000
,
0103
1000
0010
0100
,
0001
0010
0200
0000
,
1300
0010
0200
0000
,
0301
0010
0001
0010
0002
0000
0000
0000
,
1003
0010
0100
0001
,
1000
1000
1100
0000
,
0020
0001
0030
0000
0020
0001
0030
0000
,
0001
0100
0001
0000
0100
0000
0000
0000
,
0020
1000
0030
0000
0020
1000
0030
0000
,
0100
0100
0101
0000
,
0020
0100
0030
0000
0020
0100
0030
0000
,
1000
0001
1000
0001
2000
0000
0000
0000
,
3010
0010
0020
0030
,
0100
0001
1000
0000
,
0100
0100
0001
1000
,
0010
1000
0001
0000
,
0010
0010
1000
0001
,
1000
0100
0010
0000
,
1000
0100
0010
0010
,
0001
0100
0010
0000
,
0001
0100
0010
0010
,
1000
0100
1000
0100
,
0010
0001
0010
0001
,
0100
0010
0100
0010
,
1000
0001
1000
0001
,
2000
0000
3200
0000
,
0320
0000
0032
0000
,
0103
0100
0100
0100
,
0020
2030
3002
0003
,
1000
0001
1000
0001
,
1000
0100
0001
0100
,
1000
1000
0001
0001
,
0001
0100
1000
0200
,
0301
1000
0001
1000
,
0001
0010
1000
0010
,
0001
0001
1000
1000
,
0010
0100
0001
1000
,
0001
0010
0200
0000
,
1300
0010
0200
0000
,
0301
0100
0020
0000
,
1030
0010
0002
0013
,
2000
3100
0002
0103
,
2000
3100
0002
0103
,
1000
0000
0001
0000
1000
0001
1000
0001
,
0010
0010
0020
0000
,
0031
0000
0000
0000
;

//---------------dance-double - ----------------
#NOTEDATA:;
#CHARTNAME:;
#STEPSTYPE:dance-double;
#DESCRIPTION:;
#CHARTSTYLE:;
#DIFFICULTY:Challenge;
#METER:17;
#RADARVALUES:0.925967,0.969766,0.433229,0.416566,1.362171,778.000000,726.000000,52.000000,50.000000,0.000000,0.000000,0.000000,0.000000,0.000000,0.925967,0.969766,0.433229,0.416566,1.362171,778.000000,726.000000,52.000000,50.000000,0.000000,0.000000,0.000000,0.000000,0.000000;
#CREDIT:;
#NOTES:
00000000
00000000
00000000
00000000
,
00000000
00000000
00000000
00000000
,
00000000
00000000
00000000
00000000
,
00000000
00000000
00000000
00000000
,
01100000
00000000
00000000
01000000
00010000
00000000
00000000
10000000
00100000
00000000
00000000
00010000
00000000
00000000
00001000
00000000
,
00000010
00000001
00000010
00000001
00000010
00000000
00000001
00000000
00001000
00000010
00000000
00000100
00000000
00000001
00001000
00000000
,
00000101
00000000
00000000
00000001
00000100
00000000
00000000
00000010
00001000
00000000
00000000
00000010
00000000
00000000
00000100
00000000
,
00001000
00010000
00001000
00010000
00001000
00000000
00010000
00000000
01000000
10000000
00000000
00100000
00000000
01000000
00010000
01000000
,
00010000
00000000
00000000
00010000
10000000
00000000
00000000
00010000
10000000
00000000
00100000
00010000
00001000
00000000
00010000
00001000
,
00000010
00000001
00000010
00000001
00000010
00000000
00000001
00000000
00001000
00000010
00000000
00000101
00000000
00000010
00001000
00000000
,
00000001
00000000
00000000
00001000
00000001
00000000
00000000
00001000
00000001
00000000
00000100
00001000
00010000
00000000
00001000
00010000
,
01000000
10000000
01000000
10000000
01000000
00000000
10000000
00000000
00100000
01000000
00000000
10010000
00000000
00100000
01000000
00100000
,
01000000
00000000
00000000
00011000
00000000
00000010
00000100
00000010
00000100
00000000
00000000
00011000
00000000
01000000
00100000
01000000
,
00100000
00000000
00000000
00011000
00000000
00000010
00000100
00000010
00000100
00000000
00000000
00011000
00000000
01000000
00100000
01000000
,
00100000
10000000
00010000
01000000
00100000
00010000
00001000
00000100
00000001
00001000
00000010
00000100
00000001
00000010
00000100
00010000
,
00001000
00000000
00000000
00001000
00010000
00000000
00000000
00000000
00011000
00000000
00000000
00101000
00000000
00000000
01100000
00000000
,
01000000
10000000
01000000
10000000
00100000
10000000
00100000
10000000
01000000
00010000
00000000
00011000
00000000
00001000
00000100
00000000
,
00000001
00001000
00000001
00001000
00000001
00000100
00000001
00000100
00000001
00001000
00000010
00001000
00000010
00001000
00000010
00001000
,
00000010
00000100
00000010
00000100
00001000
00010000
00001000
00010000
01000000
10000000
00000000
11000000
00000000
10000000
00100000
01000000
,
00010000
00100000
01000000
10000000
00100000
01000000
00010000
10000000
00100000
00010000
00001000
00000000
00000010
00000000
00000001
00000000
,
00000100
00000001
00000100
00000001
00000100
00000010
00000100
00000010
00001000
00000100
00000000
00000011
00000000
00000100
00001000
00000000
,
00000001
00000100
00000001
00000100
00001000
00000100
00001000
00010000
01000000
10000000
01000000
10000000
01000000
10000000
01000000
10000000
,
00010000
00100000
00010000
00100000
00010000
10000000
00010000
10000000
00010000
01000000
00000000
10100000
00000000
01000000
00010000
00000000
,
10000000
01000000
00100000
00010000
00000000
01000000
00100000
00010000
00000000
00010000
00001000
00000100
00000000
00000100
00000001
00000100
,
00000001
00001000
00000010
00000100
00000001
00001000
00000010
00000100
00000001
00000020
00000000
00000230
00000000
00001300
00000010
00000100
,
00000001
00001000
00000010
00000100
00001000
00010000
00100000
10000000
00020000
00230000
02300000
23000000
00000000
30020000
00000000
00000000
,
01030000
00010000
10000000
00100000
01000000
00010000
10000000
00100000
02000000
03020000
00030000
01100000
00000000
00200000
20300000
30020000
,
01030000
00100000
01000000
00100000
00010000
00001000
00010000
00001000
00000020
00000032
00000003
00001001
00000000
00002000
00003020
00000230
,
00000301
00000010
00000100
00001000
00000001
00000010
00000100
00001000
00000020
00000230
00000300
00001100
00000000
00002000
00023000
02030000
,
13000000
01000000
00100000
00010000
10000000
01000000
00100000
00010000
02000000
03200000
02300000
03200000
00300000
20000000
30020000
20030000
,
30010000
01000000
00200000
00000000
01000000
00000000
01300000
00000000
00010000
10000000
00000000
01010000
00000000
10000000
01000000
00100000
,
00010000
01000000
00100000
10000000
01000000
00100000
00010000
01000000
00000000
00001000
00010000
00001000
00000000
00010000
00001000
00010000
,
00000010
00000100
00001001
00000000
00010010
00000000
00000010
00000100
,
00000001
00000100
00000000
00001000
00000000
00000000
00011000
00000000
00000001
00000100
00000000
00001000
00000000
00000000
00010000
00000000
,
02000000
00100000
13000000
00000000
10010000
00000000
01000000
00100000
,
10000000
01000000
00000000
00010000
00000000
00000000
00011000
00000000
10000000
01000000
00010000
00000000
00001000
00000000
00000100
00000000
,
00000002
00000013
00001200
00000010
00002300
00000000
00000010
00003010
,
00000100
00000001
00000000
00010010
00000000
00000000
00000100
00000000
00000100
00000001
00000000
00010010
00000000
00000000
00000010
00000000
,
00000100
00000000
00001000
00010000
01000000
00000000
10000000
00000000
00020000
00000000
00000000
00230000
00000000
00300000
00001100
00000000
,
00010000
00000000
00000000
00000000
00000010
00000000
00000000
00000000
00001000
00000001
00001000
00000001
00001000
00000001
00001000
00000000
,
00000001
00000000
00000100
00000000
00001000
00000000
00000100
00000000
00000001
00000010
00000000
00000010
00000000
00000100
00001000
00000100
,
00001000
00000000
00000010
00000000
00000100
00000000
00001000
00000000
00010000
00000000
00000000
01000000
00000000
10000000
00010000
10000000
,
00010000
00000000
00000000
00000000
10000000
00000000
00000000
00000000
01100000
00000000
00000000
01010000
00000000
00000000
00000000
00000000
,
10000000
00000000
00100000
00000000
00010000
00000000
00001000
00000000
00000010
00000001
00000000
00000011
00000000
00000001
00001000
00000001
,
00001000
00000000
00000000
00000000
00000010
00000000
00000000
00000000
00011000
00000000
00000000
00101000
00000000
00000000
00010000
00000000
,
01000000
00000000
00010000
00000000
10000000
00000000
00010000
00000000
01000000
00100000
00000000
10100000
00000000
00100000
01000000
00100000
,
01000000
00010000
00000000
00000000
10100000
00000000
00000000
00000000
01000000
00010000
00000000
10100000
00000000
00000000
00000000
00000000
,
20000000
00000000
32000000
00000000
03020000
00000000
00032000
00000000
00003100
00000001
00000000
00001010
00000000
00000100
00000001
00000100
,
00000001
00000000
00001000
00000010
00001000
00000000
00000001
00000100
00000001
00000000
00001000
00000010
00001000
00000000
00000001
00000100
,
00000001
00000000
00000100
00001000
00010000
00000000
00001000
00010000
01000000
00000000
00010000
01000000
10000000
00000000
00010000
10000000
,
00010000
00000000
10000000
00100000
10000000
00000000
00010000
01000000
00010000
00000000
10000000
00100000
10000000
00000000
00010000
01000000
,
00010000
00000000
01000000
00100000
00010000
00000000
00100000
00010000
00001000
00000000
00010000
00001000
00000010
00000000
00001000
00000010
,
00000001
00000000
00000000
00001001
00000000
00001000
00000010
00000100
00000001
00000000
00000000
00001001
00000000
00001000
00000010
00000100
,
00000001
00000000
00000000
00001001
00000000
00000001
00000010
00000100
00001000
00000000
00000000
00001001
00000000
00000001
00000010
00000100
,
00001000
00000000
00000010
00000100
00001000
00000000
00010000
01000000
10000000
00000000
00100000
01000000
00010000
00000000
10000000
00100000
,
02000000
00000000
03000000
00000000
02000000
00000000
03000000
00000000
02000000
00000000
03000000
20020000
00000000
00000000
30030000
00000000
,
10000000
00000000
01000000
00010000
01000000
00000000
10000000
00000000
00010000
00000000
00100000
00001000
00000000
00010000
00000010
00000000
,
00000100
00000001
00000100
00000001
00000100
00000001
00000100
00000001
00001000
00000000
00000001
00000010
00000000
00000100
00001000
00000000
,
00000001
00000000
00000100
00001000
00000100
00000000
00000001
00000000
00001000
00000000
00000100
00010000
00000000
00001000
01000000
00000000
,
00100000
10000000
00100000
10000000
00100000
10000000
00100000
10000000
00010000
00000000
01000000
00100000
00000000
00010000
00001000
00000010
,
00000001
00000000
00001000
00000010
00000100
00000000
00001000
00000000
00010000
00000000
01000000
10000000
00000000
01000000
10000000
00000000
,
00100000
00000000
00010000
00001000
00000010
00000000
00000001
00000000
00001000
00000000
00000010
00000100
00000000
00000010
00000100
00000000
,
00002000
00000000
00010000
00000000
02003000
00000000
10000000
00000000
03200000
00000000
00010000
00001000
00300000
00000010
00000001
00000000
,
00001000
00000010
00000100
00000001
00000010
00000100
00001000
00000010
00000100
00001000
00010000
01000000
10000000
00100000
01000000
00010000
,
10000000
01000000
00000000
00000000
01010000
00000000
00000000
00000000
10000000
01000000
00000000
00011000
00000000
00010000
00001000
00000100
,
00000001
00000010
00001000
00000010
00000001
00000000
00000100
00000000
00000010
00001000
00000000
00001010
00000000
00000010
00000100
00000001
,
00001000
00000100
00000000
00000000
00000101
00000000
00000000
00000000
00001000
00000100
00000000
00000101
00000000
00000001
00000100
00001000
,
00000010
00000100
00001000
00000100
00000010
00000000
00000100
00000000
00001000
00010000
00000000
01000000
00000000
10000000
00010000
10000000
,
00010000
00000000
00000000
01100000
00000000
01000000
00001000
01000000
00001000
00000000
00000000
00101000
00000000
00001000
00010000
00001000
,
00010000
00000000
00000000
00010010
00000000
00000010
00000100
00000010
00000100
00000000
00000000
00001001
00000000
00000010
00000100
00000001
,
00001000
00000010
00000100
00001000
00010000
00100000
10000000
01000000
00010000
00001000
00000100
00000001
00001000
00000010
00000100
00001000
,
00010000
00000000
00000000
00000000
00010000
00000000
00000000
00000000
00010000
00000000
00000000
01000000
00000000
00000000
00000000
00000000
,
22000000
00000000
00000000
33000000
;

//---------------dance-double - ----------------
#NOTEDATA:;
#CHARTNAME:;
#STEPSTYPE:dance-double;
#DESCRIPTION:;
#CHARTSTYLE:;
#DIFFICULTY:Hard;
#METER:13;
#RADARVALUES:0.507020,0.543619,0.066651,0.258271,0.379075,426.000000,418.000000,8.000000,31.000000,0.000000,0.000000,0.000000,0.000000,0.000000,0.507020,0.543619,0.066651,0.258271,0.379075,426.000000,418.000000,8.000000,31.000000,0.000000,0.000000,0.000000,0.000000,0.000000;
#CREDIT:;
#NOTES:
00000000
00000000
00000000
00000000
,
00000000
00000000
00000000
00000000
,
00000000
00000000
00000000
00000000
,
00000000
00000000
00000000
00000000
,
10000000
00000000
00000000
00000000
00010000
00000000
00000000
00000000
10000000
00000000
00000000
00010000
00000000
00000000
00000000
00000000
,
01000000
00000000
01000000
00000000
00100000
00000000
00100000
00000000
00010000
00000000
00000000
00000100
00000000
00000000
00000000
00000000
,
00001000
00000000
00000000
00000000
00000001
00000000
00000000
00000000
00001000
00000000
00000000
00000001
00000000
00000000
00000000
00000000
,
00000100
00000000
00000100
00000000
00000010
00000000
00000010
00000000
00001000
00000000
00000000
00100000
00000000
00000000
00000000
00000000
,
10000000
00000000
00000000
00000000
01000000
00000000
00000000
00000000
00010000
00000000
00000000
01000000
00000000
00000000
00000000
00000000
,
10000000
00000000
01000000
00000000
00010000
00000000
00001000
00000000
00000100
00000000
00000000
00001001
00000000
00000000
00000000
00000000
,
00000001
00000000
00000000
00000000
00000100
00000000
00000000
00000000
00001000
00000000
00000000
00000100
00000000
00000000
00000000
00000000
,
00000001
00000000
00000100
00000000
00001000
00000000
00010000
00000000
01000000
00000000
00000000
10010000
00000000
00000000
00000000
00000000
,
10000000
00000000
00000000
00010000
00000000
01000000
00100000
00000000
10000000
00000000
00000000
00010000
00000000
01000000
00100000
00000000
,
01000000
00000000
00000000
00001000
00000000
00010000
00001000
00000000
01000000
00000000
00000000
00001000
00000000
00010000
00001000
00000000
,
00010000
00000100
00000010
00001000
00010000
00100000
01000000
00001000
,
00010000
00000000
00000000
00000000
00010000
00000000
00000000
00000000
00001000
00000000
00000000
00002000
00000000
00000000
00000000
00000000
,
00013000
00000000
00000010
00000000
00010000
00000000
00000010
00000000
00010000
00000100
00000000
00000010
00000000
00000001
00000100
00000000
,
00000010
00010000
00000010
00010000
00001000
01000000
01000000
00100000
,
01000000
00000000
00001000
00000000
01000000
00000000
00001000
00000000
00100000
00001000
00000000
00010000
00000000
00000100
00010000
00000000
,
00001000
01000000
00001000
01000000
00100000
10000000
01000000
00010000
,
01000000
00000000
10000000
00000000
01000000
00000000
10000000
00000000
00100000
01000000
00000000
00001000
00000000
00010000
00000100
00000000
,
00000001
00000100
00000001
00000100
00000010
00000001
00000001
00001000
,
00000010
00000000
00000100
00000000
00000010
00000000
00000100
00000000
00000010
00010000
00000000
00001000
00000000
01000000
00100000
00000000
,
10000000
00000000
01000000
00100000
00000000
00000000
00010000
01000000
00000000
00000000
00100000
10000000
00000000
00000000
00010000
00000000
,
10000000
01000000
00010000
01000000
10000000
00010000
00000000
00001000
,
00000000
00000001
00000100
00000001
00000000
00001000
00000000
00010000
,
00000000
10000000
00100000
10000000
00000000
00010000
00000000
00001000
,
00000000
00000001
00000010
00000001
00000000
00001000
00000010
00001000
,
00000001
00000100
00001000
00000100
00000001
00001000
00000000
00010000
,
00000000
10000000
01000000
10000000
00000000
00010000
00000000
00001000
,
00000000
00000001
00000001
00000001
00001000
00000010
00000100
00000001
,
00000010
00000100
00010000
00001000
00000000
00001000
01000000
00100000
,
20000000
30000000
20000000
30000000
20000000
30000000
00010000
01000000
,
00010000
00100000
00000000
00010000
00000000
00000000
00000000
00000000
00010000
00100000
00000000
00010000
00000000
00000000
00000000
00000000
,
02000000
03001000
00010000
00000000
00000110
00000000
00010000
00001000
,
00000100
00000001
00000000
00000100
00000000
00000000
00000000
00000000
00000100
00000001
00000100
00000000
00000000
00000000
00000000
00000000
,
00000002
00000023
00002030
00013000
00110000
00000000
10100000
10100000
,
01000000
00100000
00000000
01000000
00000000
00000000
00000000
00000000
01000000
00100000
00000000
01000000
00000000
00000000
00000000
00000000
,
00200000
00000000
20300000
00000000
32000000
00000000
03020000
00000000
00032000
00000000
00000000
00003200
00000000
00000000
00000302
00000000
,
00001003
00000000
00000000
00000000
00000101
00000000
00000000
00000000
00000010
00000000
00000000
00000010
00000000
00000000
00000000
00000000
,
00001000
00000000
00000100
00000000
00000001
00000000
00000100
00000000
00001000
00000000
00000000
00001000
00000000
00000000
00000000
00000000
,
00000001
00000000
00000100
00000000
00001000
00000000
00010000
00000000
01000000
00000000
00000000
10000000
00000000
00000000
00000000
00000000
,
00010000
00000000
01000000
00000000
10000000
00000000
01000000
00000000
00010000
00000000
00000000
00010000
00000000
00000000
00000000
00000000
,
10000000
00000000
01000000
00000000
00010000
00000000
00001000
00000000
00000100
00000000
00000000
00000001
00000000
00000000
00000000
00000000
,
00001000
00000000
00000010
00000000
00000001
00000000
00000010
00000000
00001000
00000000
00000000
00000001
00000000
00000000
00000000
00000000
,
00000010
00000000
00001000
00000000
00010000
00000000
00100000
00000000
01000000
00000000
00000000
10000000
00000000
00000000
00000000
00000000
,
01000000
00000000
00100000
00000000
00010000
00000000
00100000
00000000
10000000
00000000
00000000
00010000
00000000
00000000
00000000
00000000
,
00100000
00000000
01000000
00000000
00010000
00000000
00001000
00000000
00000010
00000000
00000000
00000001
00000000
00000000
00000000
00000000
,
00001000
00000000
00000010
00001000
00000000
00000000
00001000
00000001
00000000
00000000
00000001
00000100
00000000
00000000
00000100
00001000
,
00000000
00000000
00001000
00010000
00000000
00000000
00010000
01000000
00000000
00000000
01000000
10000000
00000000
00000000
10000000
00100000
,
00000000
00000000
00100000
01000000
00000000
00000000
01000000
00100000
00000000
00000000
00100000
00010000
00000000
00000000
00010000
00001000
,
00000000
00000000
00001000
00000010
00000000
00000000
00000010
00000001
00000000
00000000
00000001
00001000
00000000
00000000
00001000
00000000
,
00000010
00000000
00000000
00000010
00000000
00000000
00000000
00000000
00100000
00000000
00000000
00100000
00000000
00000000
00000000
00000000
,
00000010
00000000
00000000
00000010
00000000
00000000
00000000
00000000
00100000
00000000
00000000
00100000
00000000
00000000
00000000
00000000
,
00000020
00000030
00200000
00300000
,
10000000
00000000
00000000
00000000
00010000
00000000
00000000
00000000
00100000
00000000
00000000
00000010
00000000
00000000
00000000
00000000
,
00001000
00000000
00000100
00000000
00001000
00000000
00000100
00000000
00000010
00000000
00000000
00000001
00000000
00000000
00000000
00000000
,
00001000
00000000
00000010
00000000
00001000
00000000
00000010
00000000
00000100
00000000
00000000
00000001
00000000
00000000
00000000
00000000
,
00000001
00000000
00000010
00000000
00000001
00000000
00000010
00000000
00000100
00000000
00000000
00001000
00000000
00000000
00000000
00000000
,
00000001
00000000
00000100
00000000
00000001
00000000
00000100
00000000
00000010
00000000
00000000
00010000
00000000
00001000
01000000
00000000
,
00100000
00000000
10000000
00000000
00100000
00000000
10000000
00000000
00010000
00000000
00000000
01000000
00000000
00000000
00000000
00000000
,
01000000
00000000
00010000
00000000
01000000
00000000
00010000
00000000
10000000
00000000
00000000
00100000
00000000
00000000
00000000
00000000
,
10000000
00000000
01000000
00000000
10000000
00000000
01000000
00000000
00100000
00000000
00000000
00010000
00000000
00000000
00000000
00000000
,
10000000
00000000
00100000
00000000
10000000
00000000
00100000
00000000
01000000
00000000
00000000
00001000
00000000
00000000
00010000
00000000
,
00000100
00000000
00000000
00000000
00001000
00000000
00000000
00000000
00000010
00000000
00000000
00000010
00000000
00000000
00000000
00000000
,
00000100
00000000
00000001
00000000
00001000
00000000
00000100
00000000
00020000
00000000
00000000
00032000
00000000
00000000
00003000
00000000
,
01000000
00000000
00000000
00000000
00010000
00000000
00000000
00000000
00100000
00000000
00000000
00100000
00000000
00000000
00000000
00000000
,
01000000
00000000
10000000
00000000
00100000
00000000
01000000
00000000
00002000
00000000
00000000
00020000
00000000
00000000
00033000
00000000
,
00000020
00000000
00000000
00000200
00000000
00000000
00000330
00000000
00000002
00000000
00000000
00000020
00000000
00000000
00000033
00000000
,
00002000
00000000
00000000
00020000
00000000
00000000
00033000
00000000
00200000
00000000
00000000
20000000
00000000
00000000
30300000
00000000
,
10000000
00010000
01000000
00100000
01000000
00001000
00010000
00000100
,
00001000
00000000
00000000
00000000
00001000
00000000
00000000
00000000
00000010
00000000
00000000
00100000
00000000
00000000
00000000
00000000
,
20020000
00000000
30030000
00000000
;

//---------------dance-double - ----------------
#NOTEDATA:;
#CHARTNAME:;
#STEPSTYPE:dance-double;
#DESCRIPTION:;
#CHARTSTYLE:;
#DIFFICULTY:Medium;
#METER:9;
#RADARVALUES:0.357057,0.393967,0.000000,0.258271,0.091645,300.000000,300.000000,0.000000,31.000000,0.000000,0.000000,0.000000,0.000000,0.000000,0.357057,0.393967,0.000000,0.258271,0.091645,300.000000,300.000000,0.000000,31.000000,0.000000,0.000000,0.000000,0.000000,0.000000;
#CREDIT:;
#NOTES:
00000000
00000000
00000000
00000000
,
00000000
00000000
00000000
00000000
,
00000000
00000000
00000000
00000000
,
00000000
00000000
00000000
00000000
,
10000000
00000000
00000000
00000000
00010000
00000000
00000000
00000000
10000000
00000000
00000000
00010000
00000000
00000000
00000000
00000000
,
01000000
00000000
00001000
00000000
01000000
00000000
00000000
00000000
00001000
00000000
00000000
01000000
00000000
00000000
00000000
00000000
,
00001000
00000000
00000000
00000000
00010000
00000000
00000000
00000000
00001000
00000000
00000000
00010000
00000000
00000000
00000000
00000000
,
00000100
00000000
00001000
00000000
00000100
00000000
00000000
00000000
00001000
00000000
00000000
00000100
00000000
00000000
00000000
00000000
,
00000010
00000001
00000000
00000100
00000000
00001000
00000000
00000100
,
00000000
00010000
00000000
00001000
00000000
01000000
00000000
00100000
,
00000000
10000000
00000000
01000000
00000000
00010000
00000000
01000000
,
00000000
00100000
00000000
00010000
00000000
00001000
00000000
00000010
,
00000001
00000000
00000000
00000100
00000000
00000000
00000000
00000000
00000010
00000000
00000000
00001000
00000000
00000000
00000000
00000000
,
00000100
00000000
00000000
00010000
00000000
00000000
00000000
00000000
00010000
00000000
00000000
00001000
00000000
00000000
00000000
00000000
,
01000000
00100000
10000000
00010000
01000000
00100000
10000000
00010000
,
01000000
00000000
00000000
00000000
01000000
00000000
00000000
00000000
00100000
00000000
00000000
00100000
00000000
00000000
00000000
00000000
,
10000000
00000000
10000000
00000000
00010000
01000000
00000000
00010000
,
10000000
10000000
02000000
03020000
,
00031000
00000000
00000100
00000000
00000001
00000010
00000000
00000001
,
00001000
00000000
00001000
00000000
00000010
00000100
00000001
00000000
,
00000100
00000000
00000100
00000000
00000010
00010000
00000000
00001000
,
00010000
00000000
00000100
00000000
00000010
00000001
00000000
00001000
,
00000001
00000100
00002000
00023000
,
01030000
10000000
00000000
00010000
00000000
10000000
00000000
01000000
,
10000000
00100000
10000000
00000000
00010000
00000000
00010000
00000000
,
10000000
01000000
10000000
00000000
00010000
00000000
00010000
00000000
,
01000000
00001000
00010000
00000000
00000100
00000000
00000010
00000000
,
00000001
00000100
00000010
00001000
00000000
00000001
00000000
00001000
,
00000001
00000010
00000001
00000000
00001000
00000000
00001000
00000000
,
00000001
00000100
00000001
00000000
00001000
00000000
00001000
00000000
,
00000020
00000100
00000100
00000130
00000010
00000000
00000010
00000000
,
00010000
00000000
00000000
00000000
00001000
00000000
00000000
00000000
00010000
00000000
00000000
00001000
00000000
00000000
00000000
00000000
,
02000000
03000000
02000000
03000000
02000000
03000000
00100000
00100000
,
20000000
30000000
00020000
00030000
,
10000000
01000000
00100000
00000000
00100000
00000000
00100000
00000000
,
00020000
00030000
20000000
30000000
,
00010000
01000000
00001000
00010000
00000100
00000000
00000100
00000100
,
00000020
00000030
00000020
00000030
,
00000001
00001000
00000001
00000000
00000200
00000000
00000000
00000000
,
00000320
00000000
00000030
00000000
,
00010000
00000000
00000000
00000000
00001000
00000000
00000000
00000000
00100000
00000000
00000000
00100000
00000000
00000000
00000000
00000000
,
00010000
00000000
10000000
00000000
00010000
00000000
00000000
00000000
00100000
00000000
00000000
00100000
00000000
00000000
00000000
00000000
,
00010000
00000000
00000000
00000000
01000000
00000000
00000000
00000000
00001000
00000000
00000000
00001000
00000000
00000000
00000000
00000000
,
00010000
00000000
00000100
00000000
00010000
00000000
00000000
00000000
00001000
00000000
00000000
00001000
00000000
00000000
00000000
00000000
,
00000100
00000000
00000000
00000000
00000100
00000000
00000000
00000000
00000010
00000000
00000000
00000010
00000000
00000000
00000000
00000000
,
00001000
00000000
00000010
00000000
00001000
00000000
00000000
00000000
00000001
00000000
00000000
00000001
00000000
00000000
00000000
00000000
,
00000100
00000000
00000000
00000000
00001000
00000000
00000000
00000000
00010000
00000000
00000000
00001000
00000000
00000000
00000000
00000000
,
01000000
00000000
00100000
00000000
01000000
00000000
00000000
00000000
00010000
00000000
00000000
10000000
00000000
00000000
00000000
00000000
,
00000000
00010000
00000000
10000000
00000000
00100000
00000000
01000000
,
00000000
00001000
00000000
00010000
00000000
00000100
00000000
00000010
,
00000000
00000001
00000000
00001000
00000000
00000010
00000000
00000100
,
00000000
00000010
00000000
00010000
00000000
00001000
00000000
00100000
,
02000000
03000000
20000000
30000000
,
00200000
00300000
00020000
00030000
,
00002000
00003020
00000032
00002003
,
00003010
00000000
00000000
00000000
00000010
00000000
00000000
00000000
00000010
00000000
00000000
00000010
00000000
00000000
00000000
00000000
,
00001000
00000100
00001000
00000100
00001000
00000000
00000100
00000000
,
00010000
00001000
00010000
00000000
00001000
00000000
00100000
00000000
,
01000000
10000000
01000000
10000000
01000000
00000000
00100000
00000000
,
00001000
00010000
00001000
00000000
00010000
00000000
00000100
00000000
,
00000010
00000001
00000010
00000001
00000010
00000000
00000001
00000000
,
00001000
00000100
00010000
00000000
00001000
00000000
01000000
00000000
,
00100000
10000000
00100000
10000000
00100000
00000000
01000000
00000000
,
00010000
00100000
00010000
00100000
00010000
00000000
10000000
00000000
,
00100000
00000000
00000000
00000000
01000000
00000000
00000000
00000000
00100000
00000000
00000000
00100000
00000000
00000000
00000000
00000000
,
01000000
00100000
01000000
00000000
00200000
00000000
00300000
00000000
,
00001000
00000000
00000000
00000000
00010000
00000000
00000000
00000000
00000010
00000000
00000000
00000010
00000000
00000000
00000000
00000000
,
00000100
00000010
00000100
00000000
00000002
00000000
00000003
00000000
,
00000020
00000030
00002000
00003000
,
00020000
00030000
00200000
00300000
,
10000000
00010000
01000000
00100000
,
00010000
00000000
00000000
00000000
00001000
00000000
00000000
00000000
00000010
00000000
00000000
00000010
00000000
00000000
00000000
00000000
,
00000002
00000000
00000000
00000003
;

//---------------dance-single - ----------------
#NOTEDATA:;
#CHARTNAME:;
#STEPSTYPE:dance-single;
#DESCRIPTION:;
#CHARTSTYLE:;
#DIFFICULTY:Beginner;
#METER:3;
#RADARVALUES:0.152344,0.211407,0.008331,0.033325,0.000000,128.000000,127.000000,1.000000,4.000000,0.000000,0.000000,0.000000,0.000000,0.000000,0.152344,0.211407,0.008331,0.033325,0.000000,128.000000,127.000000,1.000000,4.000000,0.000000,0.000000,0.000000,0.000000,0.000000;
#CREDIT:;
#NOTES:
0000
0000
0000
0000
,
0000
0000
0000
0000
,
0000
0000
0000
0000
,
0000
0000
0000
0000
,
0100
0000
0010
0000
,
0010
0010
0010
0000
,
1000
0000
0010
0000
,
0010
0010
0010
0000
,
0100
0000
0010
0000
,
0100
0000
0010
0000
,
0100
0000
0010
0000
,
0100
0000
0010
0000
,
0010
0000
0010
0000
,
0010
0000
0010
0000
,
0010
0000
0000
0000
,
0010
0010
0010
0000
,
1000
0000
0001
0000
,
1000
0000
0000
0000
,
0001
0000
1000
0000
,
0001
0000
0000
0000
,
0100
0000
0010
0000
,
0100
0000
0000
0000
,
0010
0000
0100
0000
,
0010
0000
0000
0000
,
1000
0000
0100
0000
,
1000
0000
0001
0000
,
1000
0000
0100
0000
,
1000
0000
0001
0000
,
0001
0000
0010
0000
,
0001
0000
1000
0000
,
0001
0000
1000
0000
,
0010
0010
0010
0000
,
0100
0100
0100
0000
,
0100
0000
0100
0000
,
0000
0000
0000
0000
,
0001
0000
0001
0000
,
0000
0000
0000
0000
,
1000
0000
1000
0000
,
0000
0000
0000
0000
,
0010
0010
0010
0000
,
0100
0000
0000
0000
,
0100
0100
0000
0000
,
1000
0000
0010
0000
,
0010
0010
0010
0000
,
0100
0000
0010
0000
,
0010
0010
0010
0000
,
0001
0000
0010
0000
,
0010
0010
0010
0000
,
1000
0000
0001
0000
,
1000
0000
0001
0000
,
0100
0000
0010
0000
,
0100
0000
0010
0000
,
2000
3000
1000
0000
,
0002
0003
0001
0000
,
1000
1000
1000
1000
,
1000
0000
0000
0000
,
0001
0000
0000
0000
,
0100
0000
0000
0000
,
1000
0000
0000
0000
,
0100
0000
0000
0000
,
0001
0000
0010
0000
,
1000
0000
0010
0000
,
0001
0000
0100
0000
,
1000
0000
0100
0000
,
0001
0000
0000
0000
,
0010
0000
0000
0000
,
0100
0000
0000
0000
,
1000
0000
0000
0000
,
0010
0000
0010
0000
,
0010
0000
0010
0000
,
0010
0000
0000
0000
,
0010
0010
0010
0000
,
2002
0000
3003
0000
;

//---------------dance-double - ----------------
#NOTEDATA:;
#CHARTNAME:;
#STEPSTYPE:dance-double;
#DESCRIPTION:;
#CHARTSTYLE:;
#DIFFICULTY:Easy;
#METER:5;
#RADARVALUES:0.246369,0.303052,0.024994,0.124970,0.000000,207.000000,204.000000,3.000000,15.000000,0.000000,0.000000,0.000000,0.000000,0.000000,0.246369,0.303052,0.024994,0.124970,0.000000,207.000000,204.000000,3.000000,15.000000,0.000000,0.000000,0.000000,0.000000,0.000000;
#CREDIT:;
#NOTES:
00000000
00000000
00000000
00000000
,
00000000
00000000
00000000
00000000
,
00000000
00000000
00000000
00000000
,
00000100
00000010
00010000
00000000
,
00010000
00000000
00001000
00000000
,
01000000
00001000
00010000
00000000
,
00100000
00000000
00100000
00000000
,
01000000
00000000
00100000
00000000
,
00001000
00000000
00010000
00000000
,
00000010
00000000
00000100
00000000
,
00000010
00000000
00001000
00000000
,
00000001
00000000
00000100
00000000
,
00000010
00000000
00000010
00000000
,
00000010
00000000
00000010
00000000
,
00000010
00000010
00000010
00000010
,
00000010
00000000
00000000
00000000
,
00010000
00001000
01000000
00000000
,
00001000
00010000
00000010
00000000
,
00010000
00001000
00100000
00000000
,
00001000
00010000
00000010
00000010
,
00000100
00000001
00001000
00000000
,
00000100
00010000
00001000
00000000
,
01000000
00010000
10000000
00000000
,
00010000
01000000
00100000
00100000
,
10000000
01000000
00200000
00000000
,
01300000
00100000
00002000
00000000
,
00013000
00000010
00000200
00000000
,
00000301
00001000
00000010
00000010
,
00000100
00000001
00002000
00000000
,
00003010
00010000
00002000
00000000
,
00103000
02000000
00000000
00000000
13000000
00000000
00010000
00000000
,
10000000
01000000
00010000
00001000
,
00000100
00000100
00000100
00000000
,
00000002
00000003
00002000
00003000
,
00000010
00000000
00000100
00000000
,
00000200
00000300
00020000
00030000
,
00001000
01000000
00001000
00000000
00000000
00000000
00000000
00000000
,
00200000
00300000
02000000
03000000
,
10000000
00010000
00020000
00000000
,
10030000
00010000
00100000
00100000
,
00010000
00000000
01000000
00000000
,
00010000
01000000
00010000
00000000
,
00100000
00000000
00001000
00000000
,
00100000
00001000
00100000
00000000
,
00001000
00000000
00010000
00000000
,
00001000
00010000
00001000
00000000
,
00000100
00000000
00000010
00000000
,
00000100
00000010
00000100
00000000
,
00000010
00000001
00000010
00000100
,
00010000
00010000
00001000
00001000
,
00100000
01000000
10000000
00000000
,
01000000
01000000
00100000
00100000
,
00100000
00000000
00100000
00000000
,
00100000
00000000
00100000
00000000
,
00100000
00100000
00100000
00100000
,
00001000
00010000
00000010
00000010
,
00000100
00000001
00000100
00000001
,
00001000
00000010
00001000
00000010
,
00010000
00001000
00010000
00001000
,
01000000
00001000
01000000
00001000
,
00100000
01000000
00100000
01000000
,
10000000
00010000
10000000
00010000
,
10000000
00100000
10000000
00100000
,
01000000
00010000
01000000
00010000
,
10000000
00010000
00110000
00000000
,
10000000
00010000
00100000
00100000
,
00001000
00010000
00010010
00000000
,
00001000
00010000
00000010
00000010
,
00000010
00000000
00000000
00000000
,
00100000
00000000
00000000
00000000
,
00000010
00000010
00000010
00000010
,
00000010
00000000
00000000
00000000
,
20020000
00000000
00000000
30030000
;
