#TITLE:夏風邪デスコ;
#SUBTITLE:;
#ARTIST:TORIENA;
#TITLETRANSLIT:Natsukaze disco;
#SUBTITLETRANSLIT:;
#ARTISTTRANSLIT:;
#GENRE:Techno;
#CREDIT:;
#BANNER:;
#BACKGROUND:;
#LYRICSPATH:;
#CDTITLE:;
#MUSIC:夏風邪デスコ.ogg;
#OFFSET:0.000000;
#SAMPLESTART:87.160004;
#SAMPLELENGTH:12.000000;
#SELECTABLE:YES;
#BPMS:0.000000=165.000000
;
#STOPS:
;
#BGCHANGES:;
#KEYSOUNDS:;
#ATTACKS:;

//---------------dance-single - ----------------
#NOTES:
     dance-single:
     :
     Hard:
     14:
     0.698718,0.748309,0.367483,0.122494,0.406856,559.000000,517.000000,42.000000,14.000000,0.000000,0.000000,0.698718,0.748309,0.367483,0.122494,0.406856,559.000000,517.000000,42.000000,14.000000,0.000000,0.000000:
0000
0000
0000
0000
,
0000
0000
0000
0000
,
0000
0000
0000
0000
,
0000
0000
0000
0000
,
0010
1000
0010
0000
0100
0000
0001
0000
0010
0000
0000
0000
0100
0000
0100
0000
,
1000
1100
1001
0000
,
0010
0001
0010
0000
0001
0000
1000
0000
0100
0000
0000
0000
0010
0000
0010
0000
,
0001
0011
1001
1100
,
0001
0000
0000
0001
0000
0000
0010
0000
0001
0000
0000
0001
0000
0000
0100
0000
,
0001
0000
0000
0001
0000
0000
0001
1000
0001
0000
0000
0000
1000
0001
1000
0001
,
1000
0000
0000
1000
0000
0000
0010
0000
1000
0000
0000
1000
0000
0000
0100
0000
,
1000
0000
0000
1000
0000
0000
0001
0000
1000
0100
0010
0001
2000
0000
0000
0000
,
3000
0001
0010
0001
1000
0100
1000
0010
,
0100
0000
0010
0000
1000
0000
0001
0000
1000
0000
1000
0000
0100
0010
0100
0010
,
0100
0000
1000
0001
1000
0000
0010
0000
0000
0000
0100
0000
0001
0000
0010
0000
,
0000
0000
0001
0000
0100
0000
1000
0000
0100
0001
0100
0001
0100
0000
0001
0000
,
0000
1000
0100
1000
0001
0010
0001
0100
,
0010
0100
0001
1000
0001
0000
1000
0010
,
1020
0000
0130
0100
0001
1000
0001
0010
,
0100
1000
0100
1000
0100
0000
1000
0000
0001
0000
0000
0000
0000
0000
0000
0000
,
1000
0000
0100
0000
0010
0000
0000
0000
0100
0000
1000
0000
0000
0000
0010
0100
,
0010
0100
0001
1000
1000
0001
0100
0010
,
0100
0000
0001
0010
1000
0000
0010
0001
,
0100
0000
0010
1000
0100
0000
0101
0000
,
1100
0000
0010
0100
0001
1000
0010
1000
,
0001
0000
0000
0001
0100
0000
0000
0100
0010
0000
0000
0000
1010
0000
0000
0000
,
0102
0000
1000
1000
1003
0000
0011
0000
,
2100
0000
0010
0000
0010
0000
3010
0000
1000
0001
1000
0001
1000
0000
0000
1000
,
0001
0000
0000
0000
0010
0000
0001
1000
0000
0000
0010
0000
1000
0000
0000
0000
,
1001
0000
0000
0000
0010
0000
0001
1000
0000
0000
0000
0000
0100
0000
0100
0000
,
1000
0000
0001
0000
0010
0000
0001
0000
0100
0000
1000
0000
0100
0000
0001
1000
,
0001
0000
0000
1000
0010
0000
0000
0000
0202
0000
0000
0000
0303
0000
0000
0001
,
1000
0000
0000
0000
0100
0000
1000
0001
0000
0000
0100
0000
0001
0000
0010
0000
,
0001
0000
0000
0000
0010
0000
0100
1000
0000
0000
0000
0000
1000
0000
1000
0000
,
0001
0000
1000
0100
1000
0000
0010
0000
0001
0000
0010
0000
1000
0000
0000
0000
,
2000
0000
0000
0100
0000
0000
0010
0000
3001
0000
0100
0000
0010
0000
0000
0100
,
0010
0000
0000
0000
1000
0000
0010
0100
0000
0000
0001
0000
0100
0000
0000
0000
,
0110
0000
0000
0000
1000
0000
0010
0100
0000
0000
0000
0000
0001
0000
0001
0000
,
0100
0000
0010
0000
1000
0000
0010
0000
0100
0000
0010
0000
0001
0000
0010
0100
,
0010
0000
0000
1000
0001
0000
0000
0000
1001
0000
0000
0000
0000
0000
0000
0010
,
0100
0000
0000
0000
0001
0000
0100
0010
0000
0000
0001
0000
0010
0000
0000
0000
,
0110
0000
0000
0000
0001
0000
0100
0010
0000
0000
0000
0000
1000
0000
1000
0000
,
0100
0000
0010
0001
0010
0000
0001
1000
0100
0000
1000
0100
1000
0000
0000
0100
,
0010
0000
0000
0010
0001
0000
1000
0000
0001
0000
0000
0000
1001
0000
0000
0001
,
0100
0000
0010
0001
0010
1000
0010
0100
,
0010
0000
0000
0000
1001
0000
0010
0100
0000
0000
0000
0000
0000
0000
0001
0000
,
1000
0100
0010
0100
0001
0100
0010
0100
,
1000
0000
0010
1000
0010
0000
0100
0001
0200
0000
0300
0000
0100
0000
0100
0000
,
0001
0000
0010
0001
0010
0000
1000
0100
1000
0000
0010
0000
0001
0000
0010
0000
,
1000
0000
0100
1000
0100
0000
1000
0010
1000
0000
0000
0000
0001
0100
0001
0100
,
0001
0010
0100
1000
0010
0100
0001
1000
,
0010
0010
0100
0100
1001
0010
0100
0001
,
0100
0010
1000
0000
0001
0010
0000
0101
,
0000
1010
0000
1100
0000
0010
0001
0010
,
1200
0000
0310
0000
0001
1000
0001
0120
,
0000
1030
0100
0010
0001
0000
1100
0000
,
0011
0000
0100
0010
0100
0001
0100
0010
,
1010
1100
1010
0101
,
0020
0000
0000
0031
,
2000
0000
0000
0000
0000
0000
0000
0000
3100
0000
0000
0000
1001
0000
0000
0001
,
0010
0000
0000
0001
0100
0000
0000
0010
1000
0000
0010
0000
0100
0000
0000
0000
,
0101
0000
0000
0100
0001
0000
1000
0010
0000
0000
0000
0000
0100
0000
0100
0000
,
0001
0000
0010
0000
1000
0000
0001
0000
0100
0000
1000
0000
0010
0000
0100
0001
,
0100
0000
0000
0100
0010
0000
0000
0010
1000
0000
0000
0000
0001
0000
0001
1000
,
0001
0000
0000
0100
0010
0000
0000
0010
1000
0000
0000
1000
0100
0000
0000
0000
,
0110
0000
0000
0000
0011
0000
0001
1000
0000
0000
0000
0000
0010
0000
0100
0000
,
1000
0100
0001
0000
0010
0000
1000
0000
0001
0000
0100
0000
0010
0000
0000
0000
,
0002
0000
0000
1000
0000
0000
0100
0000
0013
0000
0001
0000
1001
0000
0000
1000
,
0100
0000
0000
1000
0010
0000
0000
0100
0001
0000
0100
0000
0010
0000
0000
0000
,
1010
0000
0000
0010
1000
0000
0001
0100
0000
0000
0000
0000
0010
0000
0010
0000
,
1000
0000
0010
0000
0001
0000
1000
0000
0100
0000
0001
0000
0100
0000
0010
1000
,
0100
0000
0000
0100
0010
0000
0000
0010
0001
0000
0000
0000
1000
0000
1000
0001
,
1000
0000
0000
0001
0100
0000
0000
0100
0010
0000
0000
0010
1000
0000
0000
0000
,
0110
0000
0000
0000
1010
0000
0100
0001
0000
0000
0000
0000
0100
0000
0010
0000
,
1000
0000
0100
0010
0001
0000
0100
0010
0100
0000
0010
1000
0001
0000
0000
0001
,
2000
0000
0000
0000
3010
0000
0100
0000
0001
0000
1000
0000
1001
0000
0000
0001
,
0100
0000
0010
0000
0001
0000
0010
0000
1000
0000
0000
0000
1001
0000
0001
1000
,
0100
0000
0000
0010
0000
0000
0100
0000
1100
0000
0000
0000
0001
0000
0000
0000
;

//---------------dance-single - ----------------
#NOTES:
     dance-single:
     :
     Medium:
     11:
     0.503727,0.544225,0.253738,0.428730,0.056872,403.000000,374.000000,29.000000,49.000000,0.000000,0.000000,0.503727,0.544225,0.253738,0.428730,0.056872,403.000000,374.000000,29.000000,49.000000,0.000000,0.000000:
0000
0000
0000
0000
,
0000
0000
0000
0000
,
0000
0000
0000
0000
,
0000
0000
0000
0000
,
0100
0001
0100
0010
0100
0000
0001
1000
,
0001
1001
1010
0000
,
0010
1000
0010
0100
0010
0000
1000
0100
,
0010
0011
1100
1000
,
0001
0000
0000
0001
0000
0000
0001
0000
1000
0000
0000
1000
0000
0000
1000
0000
,
0001
0000
0000
0001
0000
0000
0001
0000
1000
0000
0000
0000
1001
0000
0000
0000
,
0010
0000
0000
0010
0000
0000
0010
0000
0100
0000
0000
0100
0000
0000
0100
0000
,
0010
0000
0000
0010
0000
0000
0010
0000
0100
0000
0000
0000
0110
0000
0000
0000
,
0000
0001
0100
0001
1000
0001
0100
0001
,
1000
0100
1000
0010
2000
0000
3002
0000
,
0003
0100
0001
0100
0000
0100
0001
0100
,
0000
0010
1000
0010
1000
0000
1000
0000
,
0000
1000
0100
1000
0001
1000
0100
1000
,
0001
0010
0001
0100
0001
0000
1000
0001
,
2000
3200
0320
0032
,
0203
0000
0310
0100
0010
0000
0000
0000
,
0000
0100
0001
0000
0100
0001
0000
0010
,
0000
0100
0000
1000
0000
0001
1000
0001
,
2000
0000
3002
0000
0203
0000
0310
0100
,
0020
0000
0130
0010
0100
0000
0001
0000
,
0001
0000
0100
0010
0100
0010
0100
0010
,
1000
1000
1000
0001
,
0202
0000
0303
1000
,
2020
0000
3030
0000
,
0002
0000
1003
0000
0001
0100
0001
0000
,
2000
0000
3001
0100
0001
0000
0100
0000
,
0100
0000
0010
0000
0010
0000
1000
0001
,
1000
0100
0011
0000
,
2000
0000
3001
0000
1000
0100
1000
0000
,
0002
0000
1003
0100
1000
0000
0001
0100
,
0001
0001
0010
0010
,
2200
0000
3300
0000
,
2000
0000
3010
0000
0100
0001
0100
0000
,
0020
0000
0130
0001
0100
0000
0001
0000
,
0001
0000
1000
0000
1000
0000
0010
0100
,
0001
1000
0110
0000
,
0002
0000
0103
0000
0010
1000
0010
0000
,
0200
0000
0310
1000
0010
0000
1000
0000
,
0100
0010
0001
1001
,
0200
0000
0310
0110
,
0100
0000
0001
1000
0010
0000
0100
0000
,
0010
0000
0000
0000
1000
0000
0010
1000
0000
0000
0000
0000
0000
0000
0010
0000
,
0010
0100
0001
0100
0010
1000
0010
0000
,
1000
0000
0100
0010
0002
0000
1003
1000
,
1000
0000
0010
0100
0001
1000
0100
1000
,
0010
0100
0001
0010
0002
0000
2003
0000
,
3100
0010
0100
0010
0100
0000
1000
0000
,
0001
1000
0001
1000
0001
0100
0010
1000
,
0000
0001
0100
0000
0001
0100
0000
0010
,
0000
1000
0000
0100
0000
0010
0001
0010
,
0200
0000
2300
0000
3001
0100
0001
0200
,
0000
0310
1000
0010
0100
0000
0001
0000
,
0010
0000
0001
1000
0001
1000
0100
1000
,
0020
0230
0320
0130
,
2002
0000
3003
0010
,
2002
0000
3003
0000
,
0002
0000
1003
0100
0010
0001
2000
0000
,
3001
0000
1000
0100
0010
0000
0001
1000
,
0001
0000
0000
0000
0101
0000
0000
0000
1010
0000
0000
0000
0101
0000
0000
0001
,
0010
0000
0000
0100
1000
0000
0000
0000
1001
0000
0000
0000
0000
0000
0000
0000
,
0002
0000
1003
0100
0010
0001
2000
0000
,
3001
0000
1000
0100
0010
0000
0001
1000
,
0001
0101
1000
1100
,
0001
0000
0000
1000
0000
0000
0001
0000
1000
0000
0000
0000
0000
0000
0000
0000
,
0020
0000
0130
0010
1000
0001
0200
0000
,
0310
0000
1000
0001
0100
0000
0001
0010
,
0001
0000
0000
0000
0110
0000
0000
0000
1001
0000
0000
0000
0110
0000
0000
0100
,
0001
0000
0000
1000
0010
0000
0000
0000
0110
0000
0000
0000
0000
0000
0000
0000
,
0200
0000
0310
1000
0001
0100
0020
0000
,
0230
0000
0310
1000
0001
0000
0100
0001
,
0100
0011
0100
1010
,
2000
0000
3100
0010
0001
0100
0010
1000
,
0100
1000
0010
0100
0001
0000
0011
0010
,
0001
0000
0000
0100
0000
0000
0010
0000
1000
0000
0000
0000
0011
0000
0000
0000
;

//---------------dance-single - ----------------
#NOTES:
     dance-single:
     :
     Easy:
     7:
     0.379982,0.442183,0.209990,0.472478,0.000000,304.000000,280.000000,24.000000,54.000000,0.000000,0.000000,0.379982,0.442183,0.209990,0.472478,0.000000,304.000000,280.000000,24.000000,54.000000,0.000000,0.000000:
0000
0000
0000
0000
,
0000
0000
0000
0000
,
0000
0000
0000
0000
,
0000
0000
0000
0000
,
1000
0100
1000
0000
0010
0000
0100
0001
,
0100
0100
0100
0000
,
0001
0010
0001
0000
1000
0000
0010
1000
,
0010
0010
0100
0100
,
0202
0303
2020
3030
,
0202
0303
1010
0000
,
2200
3300
0022
0033
,
2200
3300
0011
0000
,
0000
0001
0100
0000
0010
0000
1000
0000
,
0010
0000
0100
0001
0100
0010
0200
0000
,
0300
0001
0100
0001
0000
1000
0100
1000
,
0000
0010
0100
0000
0100
0000
0100
0000
,
0000
0010
1000
0000
0100
0000
1000
0000
,
0010
0000
0100
0001
0100
0000
0001
0010
,
0002
0000
0003
1000
0001
0000
1000
0100
,
2000
0000
3010
1000
0010
0000
0000
0000
,
0000
0100
0001
0000
0100
0001
0000
0100
,
0000
0010
0000
0100
0000
0001
0010
0000
,
0010
0100
1000
0010
,
1000
0100
0010
0001
,
2000
3001
0100
0001
,
1000
1000
0010
0100
,
0002
0000
0003
1000
,
0020
0000
0030
0000
,
2000
3100
2000
3010
,
1000
0100
1100
0010
,
0001
0001
0100
0100
,
0002
0023
0032
0003
,
0002
0103
0002
0013
,
0001
0100
0101
0010
,
1000
1000
0001
0001
,
2000
0000
3000
0000
,
0020
0130
0020
1030
,
0010
0100
0101
0001
,
0010
0100
1000
0010
,
2000
3200
0320
0030
,
0200
0310
0200
1300
,
0010
0100
0110
0010
,
1000
1000
0001
0001
,
2002
0000
3003
0000
,
1000
0000
0100
0010
0100
0000
1000
0000
,
0001
0000
0100
0010
0100
0000
0000
0000
,
0010
0010
1000
1000
,
0001
0010
0011
0000
,
1000
0010
1010
0000
,
0100
0001
0101
0000
,
0001
1000
1000
0001
,
0100
0000
0010
0000
0100
0010
0010
0100
,
0000
0001
1000
0000
0001
1000
0000
0010
,
0000
0100
0000
0001
0000
0010
0100
0000
,
1000
0001
1000
2000
,
0000
3001
0002
0103
,
0100
0010
1000
0010
,
0100
0001
0100
0001
,
0022
0000
0033
0100
,
2200
0000
3300
0000
,
0020
0000
1030
0000
0010
1000
0010
0000
,
0200
0301
0100
0000
,
0001
0001
1000
1000
,
0010
0100
0110
0000
,
0200
0000
0301
0000
0100
0001
0100
0000
,
0020
1030
0010
0100
,
0001
0001
1000
1000
,
2002
0000
3003
0000
,
0002
0000
0013
0001
0010
0000
0001
0000
,
0010
0000
0001
0010
0001
0000
1000
0000
,
0100
0010
0100
1000
,
1100
0011
1100
0000
,
2000
0000
3010
1000
0010
0000
1000
0000
,
0010
0000
1000
0010
1000
0000
0010
0000
,
0100
0100
0001
0001
,
0200
0302
2003
3020
,
0130
0100
0010
0010
,
0200
0000
0310
1001
;

//---------------dance-single - ----------------
#NOTES:
     dance-single:
     :
     Beginner:
     4:
     0.178742,0.340141,0.174992,0.000000,0.000000,143.000000,123.000000,20.000000,0.000000,0.000000,0.000000,0.178742,0.340141,0.174992,0.000000,0.000000,143.000000,123.000000,20.000000,0.000000,0.000000,0.000000:
0000
0000
0000
0000
,
0000
0000
0000
0000
,
0000
0000
0000
0000
,
0000
0000
0000
0000
,
0010
0000
0000
0000
,
1000
1000
1000
0000
,
0100
0000
0000
0000
,
0001
0001
0001
0000
,
1001
0000
0110
0000
,
1001
0000
0110
0000
,
0110
0000
1001
0000
,
0110
0000
1001
0000
,
0000
1000
0000
0001
,
0000
1000
0000
0010
,
0000
0100
0000
0100
,
0000
0100
0000
0001
,
0000
0010
0000
0100
,
0000
0010
0000
0001
,
0000
0000
1000
0000
,
1000
1000
1000
0000
,
0000
0001
0000
0000
,
0100
0000
0000
0000
,
0001
0000
0000
0000
,
0010
0010
0010
0000
,
0100
0000
0000
0000
,
1000
1000
1000
0000
,
1001
0000
0000
0000
,
0110
0000
0000
0000
,
1000
0000
1000
0000
,
1000
0000
1000
0000
,
1000
0000
0000
0000
,
0000
0000
0000
0000
,
0001
0000
0001
0000
,
0001
0000
0001
0000
,
0001
0000
0000
0000
,
0000
0000
0000
0000
,
0100
0000
0100
0000
,
0100
0000
0100
0000
,
0100
0000
0000
0000
,
0000
0000
0000
0000
,
0010
0000
0010
0000
,
0010
0000
0010
0000
,
0010
0000
0000
0000
,
0000
0000
0000
0000
,
1001
0000
0000
0000
,
0110
0000
0000
0000
,
1001
0000
0000
0000
,
0100
0100
0100
0000
,
1000
1000
1000
0000
,
0001
0001
0001
0000
,
0010
0010
0010
0010
,
0010
0000
1001
0000
,
0100
0000
0100
0000
,
1000
0000
0000
0000
,
0001
0000
0000
0000
,
0010
0000
0000
0000
,
0001
0000
0001
0000
,
1000
0000
0000
0000
,
1001
0000
0000
0000
,
0110
0000
0000
0000
,
1000
0000
1000
0000
,
0010
0000
0010
0000
,
1000
0000
0100
0000
,
1000
0000
0000
0000
,
0001
0000
0001
0000
,
0010
0000
0010
0000
,
0001
0000
0100
0000
,
1001
0000
0000
0000
,
0100
0000
0100
0000
,
0001
0000
0001
0000
,
0100
0000
0010
0000
,
0100
0000
0000
0000
,
0010
0000
0010
0000
,
1000
0000
1000
0000
,
0010
0000
0100
0000
,
1001
0000
0000
0000
,
0110
0000
0000
0000
,
1000
0000
0000
0110
;

//---------------dance-double - ----------------
#NOTES:
     dance-double:
     :
     Hard:
     13:
     0.619971,0.646267,0.428730,0.096246,0.209990,496.000000,447.000000,49.000000,11.000000,0.000000,0.000000,0.619971,0.646267,0.428730,0.096246,0.209990,496.000000,447.000000,49.000000,11.000000,0.000000,0.000000:
00000000
00000000
00000000
00000000
,
00000000
00000000
00000000
00000000
,
00000000
00000000
00000000
00000000
,
00000000
00000000
00000000
00000000
,
00010000
01000000
00010000
00100000
00010000
00000000
10000000
01000000
,
00010000
00001000
01010000
00000000
,
00000100
00001000
00000100
00000010
00000100
00000000
00001000
00000010
,
00001000
00000001
00010100
00011000
,
00010000
00000000
00000000
00001000
00000000
00000000
01000000
00000000
00001000
00000000
00000000
00010000
00000000
00000000
00000010
00000000
,
00010000
00000000
00000000
00001000
00000000
00000000
01000000
00000000
00001000
00000000
00000000
00000000
00000000
00000000
00000000
00000000
,
00100000
00000000
00000000
00001000
00000000
00000000
00010000
00000000
00000100
00000000
00000000
00010000
00000000
00000000
00001000
00000000
,
01000000
00000000
00000000
00001000
00000000
00000000
00010000
00000000
00000100
00000000
00000000
00000000
00011000
00000000
00000000
00000000
,
00000010
00001000
00000001
00000100
00000001
00001000
00000010
00000100
,
00001000
00010000
00100000
10000000
00010000
01000000
00020000
00000000
,
10030000
00100000
10000000
00010000
00000000
00010000
01000000
00100000
,
00000000
00100000
10000000
01000000
00100000
00010000
10000000
10000000
,
00100000
10000000
00010000
00100000
00010000
10000000
00100000
01000000
,
00100000
00010000
00001000
00000100
00000001
00000000
00001000
00000010
,
00000100
00000001
00000100
00000001
00000010
00000100
00001000
00000100
,
00001000
00000001
00001000
00000001
00000101
00000000
00000000
00000000
,
00000010
00010000
00001000
00000000
00000100
00000001
00000000
00000011
,
00000000
00001010
00000000
00011000
00000000
00010000
00100000
10000000
,
00100000
01000000
00010000
00000000
00110000
00000000
11000000
01000000
,
10000000
00000000
00100000
00010000
00001000
00000000
00011000
00000000
,
00010000
00000100
00000010
00000001
00000100
00000010
00010000
00000100
,
00000110
00000011
00001100
00000001
,
00002200
00000000
00003300
00010000
,
02020000
00000000
03030000
10010000
,
00100000
00000000
00000000
01000000
00100000
00000000
00000000
00100000
01000000
00000000
00000000
00000000
01010000
00000000
00000000
00000000
,
10100000
00000000
00000000
00000000
00100000
00000000
01000000
00010000
00000000
00000000
00000000
00000000
10000000
00000000
00100000
00000000
,
00010000
00000000
00001000
00000000
00000010
00000000
00000001
00000000
00000100
00000000
00000010
00000000
00001000
00000000
00000100
00000010
,
00000001
00001100
00000011
00000000
,
00001001
00000000
00000000
00000000
00000010
00000000
00000000
00000001
00000100
00000000
00000000
00000100
00000001
00000000
00000000
00000000
,
00001010
00000000
00000000
00000000
00000001
00000000
00000100
00000010
00000000
00000000
00000000
00000000
00000100
00000000
00001000
00000000
,
00010000
00100000
10000000
01000000
00100000
00010000
01000000
00100000
,
00010000
00000000
00000000
00001000
00000000
00000000
00000100
00000000
00000001
00000000
00000000
00000000
00001000
00000000
00000010
00000000
,
00000101
00000000
00000000
00000000
00000010
00000000
00000000
00001000
00000100
00000000
00000000
00000100
00001000
00000000
00000000
00000000
,
00000101
00000000
00000000
00000000
00000010
00000000
00000100
00000001
00000000
00000000
00000000
00000000
00000010
00000000
00001000
00000000
,
00010000
00000000
00100000
00000000
10000000
00000000
00010000
00000000
01000000
00000000
00100000
00000000
01000000
00000000
00010000
10000000
,
00010000
00000000
00000000
00010000
10000000
00000000
00000000
10000000
00010000
00000000
00000000
00000000
00000000
00000000
00000000
00000000
,
10010000
00000000
00000000
00000000
01000000
00000000
00000000
00010000
00100000
00000000
00000000
00100000
00010000
00000000
00000000
00000000
,
11000000
00000000
00000000
00000000
00100000
00000000
01000000
00010000
00000000
00000000
00000000
00000000
10000000
00000000
01000000
00000000
,
00010000
00001000
00000100
00100000
00001000
00010000
00000100
00000000
,
00001000
00000000
00000000
00001000
00000000
00000000
00001000
00000000
00000001
00000000
00000000
00000000
00000101
00000000
00000000
00000000
,
00000010
00000000
00001000
00000001
00000100
00000000
00000110
00000000
,
00001000
00000000
00000000
00000000
00000001
00000000
00000010
00000001
00000000
00000000
00000000
00000000
00000000
00000000
00000100
00000000
,
00000100
00001000
00010000
00100000
10000000
01000000
00100000
00001000
,
00010000
00100000
01000000
10000000
10000000
00000000
00010000
00010000
,
01000000
00001000
00100000
01000000
00010000
00001000
00000100
00001000
,
00010000
00000000
00000010
00000000
00000100
00000000
00000001
00000000
00001000
00000000
00000000
00000000
00000001
00000010
00000001
00000010
,
00000001
00001000
00000100
00000010
00000001
00000100
00000010
00001000
,
00001010
00000000
00000101
00000000
00000001
00000001
00001000
00000100
,
00010000
00000010
00000100
00000000
00000100
00000001
00000000
00001000
,
00000000
00000010
00000000
00000100
00000000
00001000
00010000
00100000
,
10000000
00000000
00010000
00000000
10000000
00100000
01000000
00020000
,
00000000
00130000
01000000
10000000
00020000
00000000
10030000
00000000
,
00110000
00000000
01000000
00100000
00010000
00001000
00000100
00000001
,
00001000
00000010
00000101
00000001
,
00020200
00000000
00030300
00001000
,
00202000
00000000
00303000
01010000
,
10100000
00000000
00000000
00000000
01000000
00000000
00000000
00010000
10000000
00000000
00000000
10000000
00010000
00000000
00000000
00000000
,
01100000
00000000
00000000
00000000
01000000
00000000
00010000
00100000
00000000
00000000
00000000
00000000
01000000
00000000
10000000
00000000
,
01000000
00000000
00100000
00000000
00010000
00000000
00100000
00000000
01000000
00000000
10000000
00000000
00100000
00000000
00000000
00010000
,
00001000
00000100
00000001
00001010
,
00000011
00000000
00000000
00000000
00001000
00000000
00000000
00000010
00000100
00000000
00000000
00000100
00000010
00000000
00000000
00000000
,
00001100
00000000
00000000
00000000
00000010
00000000
00000100
00000001
00000000
00000000
00000000
00000000
00001000
00000000
00000010
00000000
,
00000100
00000001
00000010
00001000
00010000
00100000
10000000
00000000
,
00100000
00000000
00000000
01000000
00000000
00000000
00010000
00000000
10000000
00000000
00000000
00000000
10010000
00000000
00000000
00000000
,
01010000
00000000
00000000
00000000
00100000
00000000
00000000
00100000
01000000
00000000
00000000
01000000
00010000
00000000
00000000
00000000
,
10100000
00000000
00000000
00000000
01000000
00000000
00010000
10000000
00000000
00000000
00000000
00000000
01000000
00000000
00010000
00000000
,
00001000
00000000
00100000
00000000
01000000
00000000
00010000
00000000
00001000
00000000
00000100
00000000
00000001
00000000
00000000
00000001
,
00001000
00000000
00000000
00001000
00000010
00000000
00000000
00000010
00000100
00000000
00000000
00000000
00000001
00000000
00000010
00000000
,
00000011
00000000
00000000
00000000
00000100
00000000
00000000
00001000
00000010
00000000
00000000
00000100
00000001
00000000
00000000
00000000
,
00001001
00000000
00000000
00000000
00000010
00000000
00000100
00000010
00000000
00000000
00000000
00000000
00000100
00000000
00001000
00000000
,
00010000
00000000
00100000
00000000
10000000
00000000
00010000
01000000
00100000
00000000
10000000
00000000
00010000
00000000
01000000
00100000
,
10000000
00000000
01000000
00010000
00001000
00100000
00101000
00010000
,
00000010
00000000
00010000
00000000
00000100
00000000
00000010
00000001
00000100
00000000
00000000
00000000
00000101
00000000
00001000
00000000
,
00000010
00000000
00000000
00000100
00000000
00000000
00000010
00000000
00001000
00000000
00000000
00000000
00000011
00000000
00000000
00000000
;

//---------------dance-double - ----------------
#NOTES:
     dance-double:
     :
     Challenge:
     15:
     0.814962,0.952393,0.559974,0.043748,0.573098,652.000000,588.000000,64.000000,5.000000,0.000000,0.000000,0.814962,0.952393,0.559974,0.043748,0.573098,652.000000,588.000000,64.000000,5.000000,0.000000,0.000000:
00000000
00000000
00000000
00000000
,
00000000
00000000
00000000
00000000
,
00000000
00000000
00000000
00000000
,
00000000
00000000
00000000
00000000
,
00010000
00001000
00100000
00000000
00010000
00000000
01000000
00000000
10100000
00000000
00000000
00000000
01000000
00000000
00100000
00000000
,
00011000
00010010
00101000
00000000
,
00010000
00000010
00000100
00000000
00000010
00000000
00010000
00000000
00001000
00000000
00000000
00000000
00000010
00000000
00000100
00000000
,
00001100
00000000
00011000
00000000
00110000
00000000
10100000
10000000
,
00010000
00000000
00000000
01000000
00000000
00000000
01000000
00000000
00010000
00000000
00000000
00100000
00000000
00000000
00100000
00000000
,
00010000
00000000
00000000
01000000
00000000
00000000
00100000
00000000
00010000
00000000
00000000
00000000
00001000
00000010
00000001
00000010
,
00000100
00000000
00000000
00000100
00000000
00000000
00001000
00000000
00000010
00000000
00000000
00000010
00000000
00000000
00000100
00000000
,
00000001
00000000
00000000
00001000
00000000
00000000
00000010
00000000
00000210
00000000
00000000
00000000
00000001
00000000
00000000
00000000
,
00000310
00000000
00001000
00000010
00001000
00000000
00000001
00000100
00000001
00000000
00001000
00000010
00001000
00000000
00000010
00000000
,
00000100
00000000
00000001
00000000
00001000
00000000
00000010
00000000
00000100
00000000
00001000
00000000
00010000
01000000
00010000
01000000
,
00010000
00000000
01000000
10000000
01000000
10000000
01000000
00000000
00000000
00000000
10000000
00000000
00100000
00000000
01010000
00000000
,
00000000
00000000
00100000
00000000
10000000
00000000
01010000
00000000
00100000
00010000
00100000
00010000
00100000
00000000
00010000
00000000
,
00001000
00000000
00000010
00000001
00000010
00000000
00000001
00000100
00000001
00000000
00000010
00000001
00000010
00000000
00000001
00000000
,
00000010
00000100
00001000
00000010
00000101
00000000
00000001
00001000
,
00000010
00000100
00000010
00000100
00000010
00000000
00000100
00000000
00001000
00000000
00010000
00000000
01000000
00000000
10000000
00000000
,
00010000
01000000
00010000
01000000
00010000
00000000
10000000
00000000
10100000
00000000
00000000
00000000
10010000
00000000
00000000
00000000
,
01010000
00000000
00010000
00000000
10000000
00000000
00000000
00000000
00100000
00000000
01000000
00000000
00000000
00000000
00100000
00010000
,
00000000
00001000
00000000
00000010
00000000
00000001
00001000
00000011
,
00001100
00000010
00000100
00000001
00001000
00000000
00000010
00000100
,
00011000
00000000
00110000
00001000
01000000
00000000
00110000
00000000
,
11000000
10000000
00100000
01000000
00010000
10000000
01000000
10000000
,
11000000
00000000
00000000
10000000
01000000
00000000
00000000
01000000
00100000
00000000
00000000
00000000
00110000
00000000
00000000
00000000
,
01020000
10000000
01000000
00130000
,
00011000
00000000
00001000
00000000
00010000
00000000
00010000
00000000
00001000
00010000
00001000
00010000
00001000
00000000
00000000
00010000
,
00000100
00000000
00000000
00010000
00000010
00000000
00000000
00000100
00000001
00001000
00000010
00000100
00000001
00000000
00000000
00000000
,
00000101
00000000
00000000
00000000
00000010
00000000
00010000
00001000
00000000
00000000
00000000
00000000
00000010
00000000
00000010
00000000
,
00000001
00000000
00000100
00000000
00001000
00000000
00010000
00000000
00100000
00000000
10000000
00000000
00010000
00000000
01000000
00010000
,
10000000
00000000
00000000
00100000
01000000
00000000
00000000
00010000
10000000
00000000
00100000
00000000
00100000
00000000
00000000
00100000
,
01000000
00000000
00000000
01000000
00001000
00000000
00000000
00001000
00010000
00100000
01000000
10000000
00100000
00000000
00000000
00000000
,
11000000
00000000
00000000
00000000
00100000
00000000
00001000
00010000
00000000
00000000
00000000
00000000
00001000
00000000
00000100
00000000
,
00000001
00000001
00000010
00000010
00000100
00000100
00001100
00000000
,
00000010
00000000
00000000
00000100
00000000
00000000
00000001
00000000
00001000
00000000
00000010
00000000
00001000
00000000
00000001
00000100
,
00000001
00000000
00000000
00001000
00000010
00000000
00000000
00000100
00000001
00000000
00001000
00000000
00001010
00000000
00000010
00000100
,
00000001
00000000
00000000
00000000
00000010
00000000
00000001
00001000
00000000
00000000
00000000
00000000
00000010
00000000
00000100
00000000
,
00001000
00000000
00010000
00000000
00100000
00000000
10000000
00000000
01000000
00000000
00100000
00000000
00010000
00000000
01000000
00100000
,
10000000
00000000
00000000
10000000
00010000
00000000
00000000
00000000
01010000
00000000
01000000
00000000
00010000
00000000
00010000
00100000
,
00010000
00000000
00000000
00010000
00100000
00000000
00000000
00100000
01000000
00000000
00000000
00000000
11000000
00000000
10000000
00100000
,
01000000
00000000
00000000
00000000
01000000
00000000
00010000
10000000
00000000
00000000
00000000
00000000
00100000
00000000
01000000
00000000
,
00100000
00000000
00000000
00000000
00000000
00000000
00010000
00000000
00000000
00001000
00000000
00000000
00000010
00000000
00000000
00000000
00000000
00000000
00000001
00000000
00001000
00000000
00000001
00000000
00001000
00000000
00000000
00000000
00000000
00000000
00000010
00000000
00000000
00000000
00000000
00000000
00000100
00000000
00000000
00000000
00000000
00000000
00000001
00000000
00000000
00000010
00000000
00000000
,
00000001
00000000
00000000
00001001
00000000
00000000
00001000
00000000
00001001
00000000
00000000
00000001
00000100
00000000
00000000
00000010
,
00001000
00000000
00000000
00001000
00000100
00000000
00000000
00000100
00000010
00000000
00000000
00000010
00000001
00000000
00000000
00000000
,
00010010
00000000
00000000
00000000
00000010
00000000
00000100
00000001
00000000
00000000
00000000
00000000
00000000
00000000
00000100
00000000
,
00000100
00001000
00010000
00100000
10000000
00010000
01000000
01000000
,
00100000
00010000
00001000
00001000
00100000
01000000
11000000
11000000
,
10000000
00100000
00010000
00001000
01000000
00001000
00100000
00001000
,
00000100
00000000
00000001
00000000
00000101
00000000
00001000
00000000
00000010
00000000
00000100
00000000
00000001
00001000
00000001
00001000
,
00000001
00001000
00000010
00000100
00001000
00010000
00100000
10000000
,
01010000
00100000
10000000
01000000
00010000
00001000
00000100
00000001
,
00001000
00000010
00000100
00000000
00000010
00000100
00000000
00000011
,
00000000
00001100
00000000
00000101
00000000
00001100
00001000
00010000
,
00200000
00000000
00000000
00000000
10300000
00000000
00000000
00010000
01000000
00000000
00100000
00000000
00010000
00000000
00001000
00000000
,
00000100
00000000
00000001
00000010
00000100
00000000
00001000
00000000
00001100
00000000
00000000
00000000
00000011
00000000
00000010
00000000
,
00000001
00000000
00000100
00000010
00001000
00000000
00000100
00010000
00001000
00000000
00100000
00010000
01000000
00000000
00100000
10000000
,
01000000
00100000
00010000
01000000
00100000
10000000
01000000
00100000
00010000
01000000
00100000
10000000
00010000
00000000
00000000
00000000
,
10010000
00000000
10000000
00010000
01000000
00000000
01000000
00010000
10000000
00000000
10000000
00100000
00010000
00000000
00010000
00001000
,
00000010
00000000
00000010
00000001
00001000
00000000
00001000
00000010
00000100
00000000
00000000
00000000
00000101
00000000
00000000
00000000
,
00001010
00000000
00000000
00001000
00000010
00000000
00000000
00000010
00000100
00000000
00000000
00000100
00001000
00000000
00000000
00010000
,
01000000
00000000
00000000
00000000
11000000
00000000
10000000
00010000
00000000
00000000
00000000
00000000
01010000
00000000
00010000
00000000
,
10000000
00000000
00100000
00000000
00010000
00000000
00001000
00000000
00000010
00000000
00000001
00000000
00001000
00000000
00000010
00000100
,
00000001
00000000
00000000
00001000
00000010
00000000
00000000
00000100
00000001
00000000
00001000
00000000
00001010
00000000
00000100
00000001
,
00001000
00000000
00000000
00000010
00000100
00000000
00000000
00000100
00000010
00000000
00000000
00000010
00000100
00000000
00000000
00000000
,
00000101
00000000
00000000
00000000
00001100
00000000
00001000
00020000
00000000
00000000
00030000
00000000
01000000
00000000
10000000
00000000
,
10100000
00000000
01000000
00000000
00010000
00000000
00100000
00000000
01000000
00000000
10000000
00000000
10100000
00000000
01000000
00001000
,
00010000
00000000
00000000
00100000
00000000
00000000
10000000
00000000
00010000
00000000
00010000
00000000
00010000
00000000
01000000
00100000
,
00010000
00000000
00001000
00000100
00000001
00000000
00001000
00000010
00000100
00000000
00000001
00000010
00000100
00000000
00000000
00000000
,
00010100
00000000
00000000
00000000
00001010
00000000
00000010
00001000
00000001
00000000
00000000
00000000
00000001
00000000
00000100
00001000
,
00010000
00000000
00100000
00000000
10100000
00000000
01000000
00000000
00010000
00000000
00100000
00000000
01000000
00000000
10000000
01000000
,
00100000
00000000
00000000
00100000
00001000
00000000
00000000
00001000
00010000
00000000
00001000
00000000
00011000
00000000
00010000
00000100
,
00000010
00000000
00000010
00000001
00000100
00000000
00000100
00000010
00001000
00000000
00001000
00000001
00000100
00000000
00000000
00000000
,
00001001
00000000
00000000
00000000
00000011
00000000
00000001
00001000
00000010
00000000
00000100
00000000
00000110
00000000
00000010
00000000
,
00000100
00000000
00000000
00000000
00000000
00000000
00001000
00000000
00000000
00010000
00000000
00000000
00000000
00000000
00000000
00000000
00000000
00000000
00100000
00000000
10000000
00000000
00100000
00000000
10000000
00000000
00000000
00000000
00000000
00000000
00010000
00000000
00000000
00000000
00000000
00000000
01000000
00000000
00000000
00000000
00000000
00000000
00001000
00000000
00010000
00000000
00001000
00000000
,
00010000
00000000
00000000
00000100
00000000
00000000
00000010
00000000
00000001
00000000
00000100
00000000
00001000
00000000
00010000
00000000
,
00001100
00000000
00000000
00000000
00000000
00000000
00010000
00000000
00000000
00100000
00000000
00000000
00000000
00000000
00000000
00000000
00000000
00000000
10000000
00000000
00010000
00000000
10000000
00000000
00010000
00000000
00000000
00000000
00000000
00000000
01000000
00000000
00000000
00000000
00000000
00000000
00010000
00000000
00000000
00000000
00000000
00000000
20000000
00000000
30010000
00000000
10000000
00000000
,
00010000
00000000
00000000
01000000
00000000
00000000
00100000
00000000
10010000
00000000
00000000
00000000
01100000
00000000
00000000
00000000
;

//---------------dance-double - ----------------
#NOTES:
     dance-double:
     :
     Easy:
     4:
     0.173742,0.272112,0.139994,0.061247,0.000000,139.000000,123.000000,16.000000,7.000000,0.000000,0.000000,0.173742,0.272112,0.139994,0.061247,0.000000,139.000000,123.000000,16.000000,7.000000,0.000000,0.000000:
00000000
00000000
00000000
00000000
,
00000000
00000000
00000000
00000000
,
00000000
00000000
00000000
00000000
,
00000000
00000000
00000000
00000000
,
01000000
00000000
00000000
00000000
,
00001000
00000000
00010000
00000000
,
00000100
00000000
00010000
00000000
,
00001000
00000000
00100000
00000000
,
00101000
00000000
00011000
00000000
,
00010100
00000000
00000000
00000000
,
00010100
00000000
00011000
00000000
,
00101000
00000000
00000000
00000000
,
00100000
00000000
00000000
00000000
,
00001000
00000000
00000000
00010000
,
00010000
00000000
00000000
00000010
,
00000000
00000000
00000100
00000100
,
00000000
00000100
00000000
00000000
,
00000001
00000000
00000000
00000000
,
00001001
00000000
00000000
00000000
,
00000010
00000000
00010000
00000000
,
00000000
00000100
00000000
00000000
,
00000100
00000000
00000000
00000000
,
00010000
00001000
00010000
00000000
,
00001000
00010000
00001000
00000000
,
01000000
00000000
00000000
00000000
,
00010000
00100000
00010000
00000000
,
20000000
00000000
30000000
00010000
,
20000000
00000000
30000000
00000000
,
00100000
00000000
00000000
00000000
,
00100000
10000000
00100000
00000000
,
01000000
00000000
00000000
00000000
,
01000000
00000000
00001000
00000000
,
00010000
00000000
00000100
00000000
,
00001000
00000010
00001000
00000000
,
00000010
00000000
00000010
00000000
,
00000010
00000000
00000000
00000000
,
00001000
00000000
00000000
00000000
,
00000001
00000100
00000001
00000000
,
00001000
00000000
00000000
00000000
,
00000001
00000000
00000000
00000000
,
00000100
00000000
00000100
00000000
,
00000100
00000010
00000100
00000000
,
00000010
00000000
00000010
00000000
,
00000010
00000000
00000000
00000000
,
00010000
00000000
00000000
00000000
,
00001000
00000000
00000000
00000000
,
00010000
00000000
00000000
00000000
,
00001000
00000000
00000000
00000000
,
00001000
00000000
00000000
00000000
,
01000000
00000000
00000000
00000000
,
01010000
00000000
00000000
00000000
,
00101000
00000000
00000000
00000000
,
00100000
00000000
00000000
00000000
,
00010000
00000000
00000000
01000000
,
01000000
00000000
00000000
00000000
,
01000000
00000000
00000000
00000000
,
00001000
00000000
00000000
00000000
,
00010000
00000000
00000000
00000000
,
00020200
00000000
00030300
00000000
,
00020020
00000000
00030030
00000000
,
00000010
00000000
00000100
00000000
,
00000110
00000000
00000010
00000000
,
00010000
00000000
00001000
00000000
,
00010000
00000000
00011000
00000000
,
01000000
00000000
00100000
00000000
,
01100000
00000000
01000000
00000000
,
01000000
00000000
01000000
00000000
,
00001000
00000000
00000000
00000000
,
00010000
00000000
00000100
00000000
,
00011000
00000000
00000000
00000000
,
00000100
00000000
00000100
00000000
,
00010000
00000000
00001000
00000000
,
01000000
00000000
00001000
00000000
,
00011000
00000000
00000000
00000000
,
00010000
00001000
00010000
00000000
,
00000100
00001000
00000100
00000000
,
00001000
00000010
00001000
00000000
,
00000002
00000000
00001003
00000100
;

//---------------dance-single - ----------------
#NOTES:
     dance-single:
     :
     Challenge:
     16:
     0.831212,1.054436,0.411231,0.131244,0.621221,665.000000,618.000000,47.000000,15.000000,0.000000,0.000000,0.831212,1.054436,0.411231,0.131244,0.621221,665.000000,618.000000,47.000000,15.000000,0.000000,0.000000:
0000
0000
0000
0000
,
0000
0000
0000
0000
,
0000
0000
0000
0000
,
0000
0000
0000
0000
,
0010
0100
0001
0000
0010
0000
1000
0000
1010
0000
0000
0000
0010
0000
0001
0000
,
0201
0010
1000
0300
,
0100
0010
0001
0000
0010
0000
1000
0000
1100
0000
0000
0000
0010
0000
0001
0000
,
0021
1000
0100
0031
,
1010
0000
0000
1000
0000
0000
0001
0000
0101
0000
0000
0001
0000
0000
1000
0000
,
1010
0000
0000
1000
0000
0000
0001
0000
0101
0000
0000
0000
0001
0010
0100
0000
,
1100
0000
0000
1000
0000
0000
0001
0000
0011
0000
0000
0001
0000
0000
1000
0000
,
1100
0000
0000
1000
0000
0000
0001
0000
0010
0001
0100
0000
1010
0000
0000
0000
,
1000
0000
1000
0100
0010
0000
0010
0100
1000
0000
1000
0100
0010
0000
0010
0100
,
1000
0000
1000
0100
0010
0000
0001
0000
0010
0000
0100
0000
1000
0100
0010
0001
,
1000
0000
0001
0100
0001
0100
0001
0000
0000
0000
1000
0000
0100
0000
1000
0000
,
0000
0000
0001
0000
0100
0000
0001
0000
1000
0010
1000
0010
0100
0001
0100
0000
,
0001
0000
0001
0010
0100
0000
0100
0010
0001
0000
0001
0010
0100
0000
0100
0010
,
0001
0000
0001
0010
0100
0000
0100
0010
0001
0000
0000
0000
0001
0000
1000
0000
,
0010
0100
0010
0100
0010
0000
1000
0000
0001
0000
1000
0000
0010
0000
0100
0000
,
0001
1000
0001
1000
0001
0000
1000
0000
0010
0000
0000
0000
0110
0000
0000
0000
,
0200
0001
0301
0200
1000
1300
0100
0002
,
0100
2003
0100
3002
0000
1003
0010
0100
,
0001
0000
1000
0010
1000
0000
0001
0000
0100
0000
0000
0000
0010
0000
0001
0000
,
0010
0000
0010
1000
0010
0000
1100
0000
,
1000
0100
0001
1000
0010
0001
1000
0010
,
0100
0000
0001
0010
0001
0000
0100
0000
0010
0000
0000
0000
0101
0000
0000
0000
,
0020
0100
0100
0100
0130
0000
0110
0000
,
0200
0000
0010
0000
0010
0000
0010
0000
0310
1000
0001
1000
0010
0000
0000
1000
,
0001
0000
0100
0010
0001
0000
0001
0010
1000
0000
1000
0010
0100
0000
0000
0000
,
0110
0000
0000
0000
1001
0000
0001
1000
0000
0000
0000
0000
0010
0000
0100
0000
,
0010
0000
0001
0000
0010
0000
0100
0000
0010
0000
1000
0000
0010
0000
0100
0001
,
1000
0000
0000
1000
0001
0000
0000
0001
1000
0000
0010
0000
0010
0000
0010
0100
,
0010
0000
0100
0001
0010
0000
1000
0001
0100
0000
1000
0001
0010
0000
0000
0000
,
0011
0000
0000
0000
1100
0000
0100
1000
0000
0000
0000
0000
0100
0000
0010
0000
,
0100
0001
0100
1000
0100
0010
0001
0000
,
0201
0000
0000
1000
0000
0000
0001
0000
0310
0000
0010
0000
0010
0000
0010
0100
,
1000
0000
0010
0100
1000
0000
1000
0100
0001
0000
0001
0100
0010
0000
0000
0000
,
0110
0000
0000
0000
1001
0000
1000
0001
0000
0000
0000
0000
0100
0000
1000
0000
,
0100
0000
0001
0000
0100
0000
1000
0000
0100
0000
0010
0000
0100
0000
0001
1000
,
0010
0000
0000
0010
0100
0000
0000
0100
0001
0000
0100
0000
0100
0000
0100
0010
,
0100
0000
0010
1000
0100
0000
0001
1000
0010
0000
0001
1000
0100
0000
0000
0000
,
1100
0000
0000
0000
0011
0000
0010
0001
0000
0000
0000
0000
0010
0000
1000
0000
,
0010
0001
0010
1000
0010
0001
0100
0000
,
1010
0000
0000
0101
0000
0000
0010
0000
1000
0000
0000
0000
1001
0000
0000
1000
,
0100
0000
0000
0100
0010
0000
0000
0010
0001
0100
0001
0010
0001
0000
0000
0000
,
0110
0000
0000
0000
1100
0000
1000
0001
0000
0000
0000
0000
0000
0000
0100
0000
,
0100
0010
0001
0010
1000
0100
0010
0010
,
1000
0010
0001
0100
0020
0000
0031
0001
,
0010
1000
0100
0001
1000
0010
0100
0010
,
0001
0000
0100
0000
1000
0000
0100
0000
0002
0000
0000
0000
1003
0010
0001
0010
,
1000
0100
0010
1000
0010
0001
0200
0310
,
0001
0010
1000
0001
0100
0110
0101
1010
,
0001
0000
0100
0000
0010
0000
0000
0000
0100
0000
0010
0000
0000
0010
1000
0000
,
0000
1000
0100
0000
0000
0100
0010
0000
0000
0010
0001
0000
0100
0000
0010
0000
,
0001
0010
0100
0010
1000
0100
0010
0200
,
0000
0000
0301
0100
1000
0000
0010
0000
0110
0000
0000
0000
1001
0000
0000
0000
,
0001
0100
0001
0100
0010
0100
0010
0100
1000
0100
1000
0100
0010
0100
0010
0100
,
0001
0010
1000
0010
0001
0010
1000
0010
0001
0010
1000
0010
0001
0000
0000
0000
,
1000
0100
1000
0100
1000
0100
1000
0100
1000
0100
1000
0000
1001
0000
0000
0000
,
0001
0100
0001
0100
0001
0100
0001
0100
0001
0000
0000
0000
1100
0000
0000
0010
,
0100
0000
0010
0001
0010
0000
0010
0100
0010
0000
0010
1000
0010
0000
0000
0000
,
1100
0000
0000
0000
0011
0000
0100
1000
0000
0000
0000
0000
0001
0000
0010
0000
,
0100
0000
0001
0000
0100
0000
1000
0000
0010
0000
0100
0000
1000
0000
0100
0001
,
0010
0000
0000
0010
0100
0000
0000
0100
1000
0000
0100
0000
0100
0000
0100
0010
,
0001
0000
0010
0001
0010
0000
0010
0100
0010
0000
0010
1000
0010
0000
0000
0000
,
1010
0000
0000
0000
0101
0000
0010
1000
0000
0000
0000
0000
0001
0000
1000
0000
,
0100
0001
1000
0010
0001
0100
0010
0000
,
2010
0000
0000
0100
0000
0000
0001
0000
3010
0000
0010
0000
0010
0000
0010
0001
,
1000
0000
0100
0001
0100
0000
0100
0010
0100
0000
0100
1000
0100
0000
0000
0000
,
1010
0000
0000
0000
0101
0000
0010
1000
0000
0000
0000
0000
0001
0000
0100
0000
,
0010
0000
0001
0000
0010
0000
1000
0000
0100
0000
0010
0000
1000
0000
0010
0001
,
0100
0000
0000
0100
0010
0000
0000
0010
1000
0000
0001
0000
0001
0000
0001
1000
,
0010
0000
0100
1000
0100
0000
0100
0010
0100
0000
0100
0001
0100
0000
0000
0000
,
0101
0000
0000
0000
1010
0000
1000
0001
0000
0000
0000
0000
0100
0000
0010
0000
,
1000
0000
0000
0000
0000
0000
0100
0000
0000
0010
0000
0000
0001
0000
0000
0000
0000
0000
0100
0000
0010
0000
1000
0000
0001
0000
0000
0000
0000
0000
0100
0000
0000
0010
0000
0000
1000
0000
0000
0000
0000
0000
0010
0000
0100
0000
0001
0000
,
1000
0000
0010
0100
0001
0000
0010
0100
1000
0000
0001
0000
1000
0000
0010
0000
,
0100
0000
0000
0000
0000
0000
0001
0000
0000
1000
0000
0000
0010
0000
0000
0000
0000
0000
0100
0000
0001
0000
1000
0000
0010
0000
0000
0000
0000
0000
0100
0000
0000
0010
0000
0000
1000
0000
0000
0000
0000
0000
0001
0000
0010
0000
0100
0000
,
1000
0000
0000
0010
0000
0000
1000
0000
0001
0000
0000
0000
0110
0000
0000
0000
;

//---------------dance-double - ----------------
#NOTES:
     dance-double:
     :
     Medium:
     8:
     0.401231,0.476197,0.069997,0.131244,0.030624,321.000000,313.000000,8.000000,15.000000,0.000000,0.000000,0.401231,0.476197,0.069997,0.131244,0.030624,321.000000,313.000000,8.000000,15.000000,0.000000,0.000000:
// measure 0
00000000
00000000
00000000
00000000
,  // measure 1
00000000
00000000
00000000
00000000
,  // measure 2
00000000
00000000
00000000
00000000
,  // measure 3
00000000
00000000
00000000
00000000
,  // measure 4
10000000
00010000
10000000
01000000
10000000
00000000
00010000
01000000
,  // measure 5
00010000
00100000
00001000
00000000
,  // measure 6
00010000
00000100
00010000
00001000
00010000
00000000
00000100
00001000
,  // measure 7
00000010
00000010
00000100
00000100
,  // measure 8
00000001
00000000
00000000
00000001
00000000
00000000
00000000
00000000
00000001
00000000
00000000
00000001
00000000
00000000
00000000
00000000
,  // measure 9
00000001
00000000
00000000
00000001
00000000
00000000
00000000
00000000
00001000
00000000
00000000
00000000
00000100
00000000
00010000
00000000
,  // measure 10
00001000
00000000
00000000
00001000
00000000
00000000
00000000
00000000
00001000
00000000
00000000
00001000
00000000
00000000
00000000
00000000
,  // measure 11
00001000
00000000
00000000
00001000
00000000
00000000
00000000
00000000
00001000
00000000
00000000
00000000
00100000
00000000
00000000
00000000
,  // measure 12
00010000
01000000
00010000
00000000
01000000
00100000
01000000
00000000
,  // measure 13
00100000
10000000
00100000
00000000
10000000
00000000
00010000
10000000
,  // measure 14
00010000
01000000
00010000
00000000
00000000
00010000
01000000
00010000
,  // measure 15
00000000
01000000
00010000
00000000
00100000
00000000
00010000
00000000
,  // measure 16
01000000
00001000
01000000
00000000
00001000
00010000
00001000
00000000
,  // measure 17
00010000
00000100
00010000
00000100
00010000
00000000
00000100
00000000
,  // measure 18
00001000
00000010
00000100
00000001
,  // measure 19
00000020
00000000
00000130
00001000
00000100
00000000
00000000
00000000
,  // measure 20
00000000
00001000
00000100
00000000
00001000
00000100
00000000
00000010
,  // measure 21
00000000
00000001
00000000
00000100
00000000
00001000
00010000
01000000
,  // measure 22
10000000
00000000
10000000
00000000
00010000
00000000
00010000
01000000
,  // measure 23
00010000
00000000
01000000
00100000
01000000
00000000
00100000
00000000
,  // measure 24
10000000
00000000
10000000
00010000
10000000
00010000
10000000
01000000
,  // measure 25
00010000
00001000
00000010
00000001
,  // measure 26
00002000
00000000
00000000
00003010
,  // measure 27
00000200
00000000
00000000
00000300
,  // measure 28
00000001
00001000
00000001
00000100
,  // measure 29
00000101
00000000
00000010
00001000
00000010
00000000
00001000
00000000
,  // measure 30
00000100
00000100
00010000
00010000
,  // measure 31
00001000
01000000
00010000
00000000
,  // measure 32
10000000
00010000
10000000
01000000
,  // measure 33
11000000
00000000
00100000
00010000
00100000
00000000
00010000
00000000
,  // measure 34
01000000
01000000
00001000
00001000
,  // measure 35
00020000
00000000
00030000
00000000
,  // measure 36
00000100
00001000
00000100
00000010
,  // measure 37
00000011
00000000
00000001
00000100
00000001
00000000
00001000
00000000
,  // measure 38
00000010
00000010
00010000
00010000
,  // measure 39
00001000
01000000
00100000
00000000
,  // measure 40
01000000
00010000
01000000
00100000
,  // measure 41
10100000
00000000
10000000
00010000
10000000
00000000
00010000
00000000
,  // measure 42
01000000
00010000
10000000
00100000
,  // measure 43
02000000
00000000
03000000
00010000
,  // measure 44
10000000
00000000
01000000
00000000
10000000
01000000
10000000
00000000
,  // measure 45
00010000
00000000
01000000
00010000
00000000
00000000
00000000
00000000
,  // measure 46
00100000
00100000
00001000
00001000
,  // measure 47
00010000
00000100
00010000
00000000
,  // measure 48
00000010
00010000
00000010
00000000
,  // measure 49
00000100
00000001
00000100
00000000
,  // measure 50
00000001
00001000
00000100
00010000
,  // measure 51
00001000
00001000
00100000
00000000
,  // measure 52
00000000
00010000
01000000
00000000
00010000
01000000
00000000
00100000
,  // measure 53
00000000
10000000
00000000
00100000
00000000
01000000
00010000
00000000
,  // measure 54
00100000
00000000
00100000
00000000
00001000
00000000
00001000
00010000
,  // measure 55
00000000
00010000
00000100
00000000
00000100
00000000
00001000
00000000
,  // measure 56
00000020
00000230
00000302
00002003
,  // measure 57
00000100
00000100
00003100
00000010
,  // measure 58
00000022
00000000
00000033
00000100
,  // measure 59
00020200
00000000
00030300
00011000
,  // measure 60
00100000
00000000
00010000
00000000
01000000
00010000
10000000
00000000
,  // measure 61
00100000
00000000
01000000
00010000
10000000
00000000
00100000
00000000
,  // measure 62
01000000
01000000
00001000
00001000
,  // measure 63
00010000
00000000
00000000
00010000
00000100
00000000
00000000
00000000
00001000
00000000
00000000
00000000
00000000
00000000
00000000
00000000
,  // measure 64
00000010
00000000
00000001
00000000
00001000
00000100
00000010
00000000
,  // measure 65
00000001
00000000
00001000
00000100
00000010
00000000
00000001
00000000
,  // measure 66
00001000
00001000
00000010
00000010
,  // measure 67
00000200
00000000
00000300
00000000
,  // measure 68
00000010
00000000
00001000
00000000
00000001
00000100
00000010
00000000
,  // measure 69
00001000
00000000
00000001
00000100
00000010
00000000
00000100
00000000
,  // measure 70
00001000
00001000
00010000
00010000
,  // measure 71
01000000
10000000
00100000
00000000
,  // measure 72
10000000
00000000
00010000
00000000
01000000
00010000
00100000
00000000
,  // measure 73
00010000
00000000
01000000
00010000
00100000
00000000
00010000
00000000
,  // measure 74
01000000
01000000
00001000
00001000
,  // measure 75
00010000
00000000
00000100
00001000
00000010
00000100
00000001
00000000
,  // measure 76
00001000
00000010
00000100
00000001
00000010
00000000
00000100
00001000
,  // measure 77
00000200
00000000
00010300
00011000
;
