#TITLE:Muchas;
#SUBTITLE:;
#ARTIST:Myd feat. Cola Boyy;
#TITLETRANSLIT:;
#SUBTITLETRANSLIT:;
#ARTISTTRANSLIT:;
#GENRE:House;
#CREDIT:;
#BANNER:muchas-bn.png;
#BACKGROUND:muchas-bg.png;
#LYRICSPATH:;
#CDTITLE:;
#MUSIC:Muchas.ogg;
#OFFSET:0.012000;
#SAMPLESTART:44.661999;
#SAMPLELENGTH:12.000000;
#SELECTABLE:YES;
#BPMS:0.000000=129.000000
;
#STOPS:
;
#BGCHANGES:;
#KEYSOUNDS:;
#ATTACKS:;

//---------------dance-single - ----------------
#NOTES:
     dance-single:
     :
     Hard:
     10:
     0.443143,0.507043,0.275325,0.550651,0.050476,338.000000,308.000000,30.000000,60.000000,0.000000,0.000000,0.443143,0.507043,0.275325,0.550651,0.050476,338.000000,308.000000,30.000000,60.000000,0.000000,0.000000:
// measure 0
0000
0000
0000
0000
,  // measure 1
0000
0000
0000
0000
,  // measure 2
0000
0000
0000
0000
,  // measure 3
0000
0000
0000
0000
,  // measure 4
0000
0000
0000
0000
,  // measure 5
1200
0000
0310
0100
1000
1000
0100
0000
,  // measure 6
0012
0000
0103
0010
1000
1000
0010
0000
,  // measure 7
2001
0000
3010
0100
0001
0001
0100
0000
,  // measure 8
0010
1000
0010
0000
1000
0100
1000
0000
0001
0100
0001
0000
2000
0000
0001
0000
,  // measure 9
3001
0000
0100
0100
0010
0100
0010
0010
,  // measure 10
2000
0000
0000
0001
3001
0100
0001
1000
,  // measure 11
0010
0010
0100
0010
0100
0010
0100
0100
,  // measure 12
0002
0000
0000
1000
1003
0100
0001
0100
,  // measure 13
1000
2000
0000
3000
0000
0101
0000
1001
,  // measure 14
0000
2200
0000
3300
0000
1000
0100
0010
,  // measure 15
0002
0000
0003
0100
0100
0010
0010
0000
,  // measure 16
0220
0000
0330
1000
1000
0001
0002
1000
,  // measure 17
1003
0000
0001
0010
0100
0000
0010
0100
,  // measure 18
2000
0000
0000
0001
3001
0100
0010
1000
,  // measure 19
0100
0010
0001
0100
0010
1000
0100
0010
,  // measure 20
0002
0000
0000
1000
1003
0010
0001
0010
,  // measure 21
1000
1000
0000
0000
0000
0011
0000
1001
,  // measure 22
0000
2020
0000
3030
0000
0001
0100
0010
,  // measure 23
2000
0000
0000
3010
0100
0001
1000
0000
,  // measure 24
0010
0100
0001
0000
1000
0000
0010
0100
,  // measure 25
0220
0000
0330
1000
0100
0001
0100
0000
,  // measure 26
2002
0000
3003
0001
0010
1000
0010
0000
,  // measure 27
2002
0000
3003
1000
0100
0001
0100
0000
,  // measure 28
2002
0000
3003
0010
0010
0100
0100
0000
,  // measure 29
0202
0000
0303
0010
0001
0010
1000
0000
,  // measure 30
2200
0000
3300
0010
1000
0010
0001
0000
,  // measure 31
0202
0000
0303
0010
0001
0010
1000
0000
,  // measure 32
0001
0100
0010
0000
1000
0100
0010
0000
0001
0000
0001
0000
1000
0000
1000
0000
,  // measure 33
0001
0001
0000
1000
0001
1000
0001
0000
,  // measure 34
1000
0000
0000
0000
0000
0000
0001
0100
0010
0000
0100
0000
0001
0000
0000
0000
,  // measure 35
0001
0000
0000
0000
0000
0000
1000
0100
0010
0000
0100
0000
1000
0000
0000
0000
,  // measure 36
0010
0010
0000
0100
0010
0100
0001
0000
,  // measure 37
1000
1000
0000
0001
1000
0001
1000
0000
,  // measure 38
0001
0000
0000
0100
1000
0100
0001
0000
,  // measure 39
1000
0000
0000
0100
0001
0100
1000
0000
,  // measure 40
1000
0100
0001
0000
1000
0000
0001
0100
,  // measure 41
2000
0000
3000
0001
0010
0100
1000
0000
,  // measure 42
0202
0000
0303
1000
0100
0010
0001
0000
,  // measure 43
2200
0000
3300
0001
1000
0010
0100
0000
,  // measure 44
0022
0000
0033
0100
0010
1000
0001
0000
,  // measure 45
2200
0000
3300
1000
1000
0001
0001
0000
,  // measure 46
0202
0000
0303
0001
0001
0100
0100
0000
,  // measure 47
2020
0000
3030
0010
0010
1000
1000
0000
,  // measure 48
0001
0100
0001
0000
1000
0000
1000
0000
0100
0000
0100
0000
0010
0000
0010
0000
,  // measure 49
0022
0000
0033
1000
0100
0001
0100
0000
,  // measure 50
2020
0000
3030
0001
0100
1000
0100
0000
,  // measure 51
0022
0000
0033
1000
0010
0001
0010
0000
,  // measure 52
2200
0000
3300
0001
0010
1000
0010
0000
,  // measure 53
2002
0000
3003
0001
0100
0010
0001
0000
,  // measure 54
0022
0000
0033
0001
0010
1000
0100
0000
,  // measure 55
0202
0000
0303
0100
1000
0010
0100
0000
,  // measure 56
0001
0100
0001
0000
0010
0100
0010
0000
0100
0000
0100
0000
1000
0000
1000
0000
,  // measure 57
0010
0000
0010
0000
0100
0001
0100
0000
0001
0000
0001
0000
2000
0000
0000
0000
,  // measure 58
0000
0000
0000
0000
0000
3000
0000
0000
0000
0000
0000
0000
0000
0000
0000
0000
0000
0000
0000
0000
0000
0000
0000
0000
0000
0000
0000
0000
0000
0000
0000
0000
;

//---------------dance-single - ----------------
#NOTES:
     dance-single:
     :
     Medium:
     8:
     0.346123,0.373611,0.192728,0.339568,0.000000,264.000000,243.000000,21.000000,37.000000,0.000000,0.000000,0.346123,0.373611,0.192728,0.339568,0.000000,264.000000,243.000000,21.000000,37.000000,0.000000,0.000000:
0000
0000
0000
0000
,
0000
0000
0000
0000
,
0000
0000
0000
0000
,
0000
0000
0000
0000
,
0000
0000
0000
0000
,
2000
0000
3000
1000
0100
1000
0100
0000
,
0200
0000
0300
0100
0010
0100
0010
0000
,
0020
0000
0030
0010
0001
0010
0001
0000
,
2002
0000
3003
0001
1000
0001
0000
0100
,
0010
0000
0100
0010
0100
0000
0010
0100
,
0000
0000
0000
0000
0000
0001
1000
0001
,
1000
0000
0001
1000
0001
0000
1000
0001
,
0000
0000
0000
0000
0000
1000
0100
1000
,
0001
0010
0000
0000
0000
0011
0000
1001
,
0000
1010
0000
0000
0000
0001
0010
0001
,
1000
0000
0000
1000
0001
1000
0001
0000
,
0000
0000
0000
0100
0010
0100
0000
0001
,
0010
0000
0001
0010
0001
0000
0010
0001
,
0000
0000
0000
0000
0000
1000
0100
1000
,
0100
0000
1000
0100
1000
0000
0100
1000
,
0000
0000
0000
0000
0000
0001
0010
0001
,
1000
0100
0000
0000
0000
1100
0000
1001
,
0000
0101
0000
0000
0000
1000
0100
1000
,
0001
0000
0000
0000
,
0100
0100
0010
0000
1000
0000
0001
0001
,
2000
0000
3000
0010
0100
0010
0100
0000
,
0002
0000
0003
0100
0010
0100
0010
0000
,
2000
0000
3000
0010
0100
0001
1000
0000
,
0002
0000
0003
0100
0010
1000
0001
0000
,
0200
0000
0300
0001
1000
0010
0100
0000
,
0020
0000
0030
0100
0010
1000
0001
0000
,
2000
0000
3000
1000
0100
0010
0001
0000
,
1000
1000
0001
0001
,
0100
0010
0000
0000
1000
0000
1000
0000
,
0110
0000
0001
0001
,
0110
0000
1000
1000
,
0010
0100
0000
0001
1000
0001
0100
0000
,
0001
1000
0000
0000
0010
0000
0010
0000
,
1001
0000
0100
0100
,
1001
0000
0000
0010
0100
0010
0100
0000
,
0001
0001
1000
0000
0010
0000
0100
0100
,
0020
0000
0030
0010
1000
0010
0100
0000
,
0200
0000
0300
0100
0001
0100
0010
0000
,
2000
0000
3000
1000
0001
0100
0001
0000
,
0002
0000
0003
0001
0100
0010
1000
0000
,
2002
0000
3003
1000
0010
1000
0001
0000
,
2002
0000
3003
0001
0010
0001
1000
0000
,
0220
0000
0330
0010
1000
0010
0100
0000
,
0001
1000
0001
1000
,
2200
0000
3300
1000
0010
1000
0100
0000
,
0220
0000
0330
0010
0001
0010
0100
0000
,
0022
0000
0033
0001
0100
0010
1000
0000
,
2020
0000
3030
1000
0010
0100
0001
0000
,
2002
0000
3003
0100
0100
0001
0001
0000
,
2002
0000
3003
0010
0010
1000
1000
0000
,
2002
0000
3003
0010
0100
0001
1000
0000
,
0010
0100
0001
1000
,
0010
0010
0100
0200
,
0000
0000
0000
0000
0000
0300
0000
0000
0000
0000
0000
0000
0000
0000
0000
0000
0000
0000
0000
0000
0000
0000
0000
0000
0000
0000
0000
0000
0000
0000
0000
0000
;

//---------------dance-single - ----------------
#NOTES:
     dance-single:
     :
     Easy:
     4:
     0.180928,0.213492,0.064243,0.146840,0.000000,138.000000,131.000000,7.000000,16.000000,0.000000,0.000000,0.180928,0.213492,0.064243,0.146840,0.000000,138.000000,131.000000,7.000000,16.000000,0.000000,0.000000:
0000
0000
0000
0000
,
0000
0000
0000
0000
,
0000
0000
0000
0000
,
0000
0000
0000
0000
,
0000
0000
0000
0000
,
0100
0000
0010
0010
,
1000
0000
0100
0100
,
0010
0000
0001
0001
,
1000
0000
1000
0001
,
1000
0000
0010
0100
,
0001
0000
0000
0000
,
1000
0010
0100
0001
,
0000
0000
0000
0001
,
1000
0000
0000
1000
,
0001
0000
0000
0001
,
1000
0000
0010
0010
,
0000
0000
0100
0100
,
0001
0010
0100
1000
,
0001
0000
0000
0000
,
0001
0100
0010
1000
,
0001
0000
0000
0100
,
0010
0000
0000
0010
,
0100
0000
0000
0100
,
0010
0000
0000
0000
,
1000
1000
1000
1000
,
0001
0000
1000
1000
,
0001
0000
0100
0100
,
0010
0000
0010
0010
,
1000
0000
0001
0001
,
0100
0000
0001
1000
,
0100
0000
1000
0001
,
0100
0000
0001
1000
,
0020
0000
0000
0030
,
0110
0000
0000
0000
,
1001
0000
0000
0000
,
0110
0000
0000
0000
,
1001
0000
0000
0000
,
1010
0000
0000
0000
,
1100
0000
0000
0000
,
0011
0000
0000
0000
,
0100
0100
0100
0100
,
0020
0000
1000
1030
,
2000
0000
0100
3100
,
0200
0000
0010
0310
,
0020
0000
0001
0031
,
0002
0000
1003
0001
,
0200
0000
0310
1000
,
0020
0000
0130
0001
,
1000
0000
0000
0000
,
0002
0003
0001
0010
,
0200
0300
0100
1000
,
0020
0030
0010
0100
,
0002
0003
0001
1000
,
2000
3000
1000
0100
,
0020
0030
0010
0001
,
2000
3000
1000
0001
,
0100
0000
0010
0000
,
1000
0000
0001
0002
,
0000
0000
0000
0000
0000
0003
0000
0000
0000
0000
0000
0000
0000
0000
0000
0000
0000
0000
0000
0000
0000
0000
0000
0000
0000
0000
0000
0000
0000
0000
0000
0000
;

//---------------dance-single - ----------------
#NOTES:
     dance-single:
     :
     Beginner:
     2:
     0.077353,0.133432,0.009178,0.110130,0.000000,59.000000,58.000000,1.000000,12.000000,0.000000,0.000000,0.077353,0.133432,0.009178,0.110130,0.000000,59.000000,58.000000,1.000000,12.000000,0.000000,0.000000:
0000
0000
0000
0000
,
0000
0000
0000
0000
,
0000
0000
0000
0000
,
0000
0000
0000
0000
,
0000
0000
0000
0000
,
2000
3000
0000
0000
,
0002
0003
0000
0000
,
2000
3000
0000
0000
,
0002
0003
0000
0000
,
0100
0000
0000
0000
,
0000
0000
0000
0000
,
0010
0000
0000
0000
,
0000
0000
0000
1000
,
1000
0000
0000
0001
,
0001
0000
0000
1000
,
1000
0000
0000
0000
,
0000
0000
0000
0000
,
0001
0000
0000
0000
,
0000
0000
0000
0000
,
1000
0000
0000
0000
,
0000
0000
0000
0010
,
0010
0000
0000
0100
,
0100
0000
0000
0010
,
0010
0000
0000
0000
,
0110
0000
0000
0000
,
0200
0300
0000
0000
,
0020
0030
0000
0000
,
0200
0300
0000
0000
,
0020
0030
0000
0000
,
2000
3000
0000
0000
,
0200
0300
0000
0000
,
0020
0030
0000
0000
,
0001
0000
0000
0000
,
1000
0000
0000
0000
,
1000
0000
0000
0000
,
1000
0000
0000
0000
,
1000
0000
0000
0000
,
0001
0000
0000
0000
,
0001
0000
0000
0000
,
0001
0000
0000
0000
,
0001
0001
0001
0001
,
0000
0000
0100
0000
,
0000
0000
0010
0000
,
0000
0000
0100
0000
,
0000
0000
0010
0000
,
0000
0000
1000
0000
,
0000
0000
0001
0000
,
0000
0000
1000
0000
,
0001
0000
0000
0000
,
0000
0000
0100
0000
,
0000
0000
0010
0000
,
0000
0000
1000
0000
,
0000
0000
0001
0000
,
0000
0000
0001
0000
,
0000
0000
1000
0000
,
0000
0000
0010
0000
,
0100
0000
0000
0000
,
0010
0000
0000
2000
,
0000
0000
0000
0000
0000
3000
0000
0000
0000
0000
0000
0000
0000
0000
0000
0000
0000
0000
0000
0000
0000
0000
0000
0000
0000
0000
0000
0000
0000
0000
0000
0000
;

//---------------dance-double - ----------------
#NOTES:
     dance-double:
     :
     Easy:
     5:
     0.195350,0.240178,0.000000,0.247793,0.000000,149.000000,149.000000,0.000000,27.000000,0.000000,0.000000,0.195350,0.240178,0.000000,0.247793,0.000000,149.000000,149.000000,0.000000,27.000000,0.000000,0.000000:
00000000
00000000
00000000
00000000
,
00000000
00000000
00000000
00000000
,
00000000
00000000
00000000
00000000
,
00000000
00000000
00000000
00000000
,
00000000
00000000
00000000
00000000
,
20000000
30000000
10000000
00010000
,
00020000
00030000
00010000
10000000
,
02000000
03000000
00010000
00001000
,
00000200
00000300
00000001
00000000
,
00000001
00001000
00000001
00001000
,
00000000
00000000
00000000
00000000
,
00001000
00000001
00001000
00000001
,
00000000
00000000
00000000
00001000
,
00000100
00010000
00000000
00010000
,
00001000
01000000
00000000
01000000
,
00100000
00000000
10000000
10000000
,
00000000
00000000
00100000
00100000
,
10000000
00010000
10000000
00010000
,
00000000
00000000
00000000
00000000
,
00010000
10000000
00010000
10000000
,
00000000
00000000
00000000
00010000
,
01000000
00001000
00000000
00001000
,
00010000
00000010
00000000
00000010
,
00000100
00000000
00000000
00000000
,
00000001
00001000
00000010
00000100
,
00000002
00000003
00000001
00001000
,
00002000
00003000
00001000
00000001
,
00000002
00000003
00000100
00001000
,
00020000
00030000
01000000
10000000
,
00200000
00300000
01000000
00100000
,
02000000
03000000
00100000
01000000
,
00200000
00300000
10000000
00010000
,
00100000
00100000
00001000
00001000
,
00010000
00000000
00001000
00000000
,
00010000
00000000
00000100
00000000
,
00010000
00000000
00000010
00000000
,
00010000
00000000
00002000
00013000
,
00001000
00000000
00010000
00000000
,
00001000
00000000
00100000
00000000
,
00001000
00000000
01000000
00000000
,
00100000
10000000
00010000
01000000
,
00200000
00300000
10000000
00010000
,
02000000
03000000
00010000
10000000
,
02000000
03000000
00010000
00001000
,
00000200
00000300
00000001
00001000
,
00000020
00000030
00000100
00000010
,
00002000
00003000
00000001
00000100
,
00002000
00003000
00010000
01000000
,
10000000
10000000
00010000
00010000
,
02000000
03000000
00100000
10000000
,
02000000
03000000
00010000
00001000
,
00000200
00000300
00000001
00001000
,
00000020
00000030
00000010
00000010
,
00000200
00000300
00000001
00001000
,
00000020
00000030
00000100
00001000
,
00020000
00030000
01000000
10000000
,
00100000
00010000
00001000
00000010
,
00000001
00000100
00001000
00020000
,
00000000
00000000
00000000
00000000
00000000
00030000
00000000
00000000
00000000
00000000
00000000
00000000
00000000
00000000
00000000
00000000
00000000
00000000
00000000
00000000
00000000
00000000
00000000
00000000
00000000
00000000
00000000
00000000
00000000
00000000
00000000
00000000
;

//---------------dance-double - ----------------
#NOTES:
     dance-double:
     :
     Medium:
     8:
     0.306791,0.373611,0.036710,0.238615,0.000000,234.000000,230.000000,4.000000,26.000000,0.000000,0.000000,0.306791,0.373611,0.036710,0.238615,0.000000,234.000000,230.000000,4.000000,26.000000,0.000000,0.000000:
00000000
00000000
00000000
00000000
,
00000000
00000000
00000000
00000000
,
00000000
00000000
00000000
00000000
,
00000000
00000000
00000000
00000000
,
00000000
00000000
00000000
00000000
,
20000000
00000000
30000000
00010000
01000000
00000000
00010000
00000000
,
20000000
00000000
30000000
00100000
00010000
00000000
00001000
00000000
,
00000020
00000000
00000030
00000001
00001000
00000000
00000001
00000000
,
00000200
00000000
00000300
00000010
00001000
00000010
00000000
00000100
,
00000001
00000000
00000100
00000000
00000001
00000000
00000100
00001000
,
00000100
00000000
00001000
00010000
00001000
00000000
00100000
00000000
,
01000000
00000000
00100000
00000000
01000000
10000000
01000000
10000000
,
00000000
00000000
00000000
00000000
00000000
10000000
01000000
10000000
,
00100000
10000000
00000000
00000000
00000000
00100000
00000000
00010000
,
00000000
00001000
00000000
00000000
00000000
00000010
00000000
00000001
,
00000000
00000000
00000000
00000100
00001000
00000000
00010000
00000000
,
00000000
00000000
00000000
01000000
10000000
01000000
00000000
10000000
,
10000000
00000000
00100000
00000000
10000000
00000000
00100000
00010000
,
00100000
00010000
00001000
00000010
,
00000100
00000000
00000010
00000000
00000100
00000010
00000100
00000010
,
00000000
00000000
00000000
00000000
00000000
00000001
00000010
00000001
,
00000100
00000001
00000000
00000000
00000000
00000100
00000000
00001000
,
00000000
00010000
00000000
00000000
00000000
01000000
00000000
10000000
,
00000000
00000000
00000000
00100000
01000000
00000000
01000000
00000000
,
00100000
00010000
00001000
00000010
,
00000002
00000000
00000003
00001000
00000100
00000000
00000010
00000000
,
00000002
00000000
00000003
00000100
00001000
00000000
00010000
00000000
,
00200000
00000000
00300000
10000000
00010000
00000000
10000000
00000000
,
02000000
00000000
03000000
10000000
00010000
00000000
10000000
00000000
,
00200000
00000000
00300000
00010000
00001000
00000000
00000010
00000000
,
00000002
00000000
00000003
00000100
00000010
00000000
00000100
00000000
,
00002000
00000000
00003000
00010000
01000000
00000000
10000000
00000000
,
00100000
00100000
01000000
01000000
00010000
00010000
10000000
10000000
,
00100000
01000000
00000000
00000000
00001000
00000000
00010000
00000000
,
00011000
00000000
00000010
00000010
,
00000110
00000000
00010000
00001000
,
00010000
00001000
00000000
00000000
00100000
00000000
01000000
00000000
,
10000000
00010000
00000000
01000000
00100000
00000000
01000000
00000000
,
00011000
00000000
00010000
00000100
,
00000110
00000000
00000000
00000010
00000001
00001000
00000010
00000000
,
00000100
00000100
00000010
00000000
00001000
00000000
00000001
00000001
,
00002000
00000000
00003000
00000010
00000100
00000010
00000100
00000000
,
00000002
00000000
00000003
00000100
00000010
00000100
00000010
00000000
,
00002000
00000000
00003000
00000010
00000100
00000000
00001000
00000000
,
00020000
00000000
00030000
01000000
10000000
00000000
00100000
00000000
,
20000000
00000000
30000000
00100000
01000000
00100000
01000000
00000000
,
00020000
00000000
00030000
01000000
00100000
01000000
00100000
00000000
,
20000000
00000000
30000000
01000000
00010000
00000000
00001000
00000000
,
00000010
00000001
00000010
00000000
00000001
00001000
00001000
00000000
,
00000002
00000000
00000003
00000100
00000010
00000100
00000001
00000000
,
00000020
00000000
00000030
00001000
00010000
00000000
00100000
00000000
,
20000000
00000000
30000000
01000000
00100000
01000000
00010000
00000000
,
00002000
00000000
00003000
00000100
00000001
00000000
00001000
00000000
,
00000002
00000000
00000003
00001000
00000010
00001000
00000001
00000000
,
00000200
00000000
00000300
00001000
00010000
00000000
01000000
00000000
,
20000000
00000000
30000000
00010000
00100000
00010000
10000000
00000000
,
01000000
00010000
00001000
00000100
,
00000001
00000000
00000010
00000000
00001000
00010000
00200000
00000000
,
00000000
00000000
00000000
00000000
00000000
00300000
00000000
00000000
00000000
00000000
00000000
00000000
00000000
00000000
00000000
00000000
00000000
00000000
00000000
00000000
00000000
00000000
00000000
00000000
00000000
00000000
00000000
00000000
00000000
00000000
00000000
00000000
;

//---------------dance-double - ----------------
#NOTES:
     dance-double:
     :
     Hard:
     10:
     0.399877,0.480357,0.256970,0.541473,0.032121,305.000000,277.000000,28.000000,59.000000,0.000000,0.000000,0.399877,0.480357,0.256970,0.541473,0.032121,305.000000,277.000000,28.000000,59.000000,0.000000,0.000000:
00000000
00000000
00000000
00000000
,
00000000
00000000
00000000
00000000
,
00000000
00000000
00000000
00000000
,
00000000
00000000
00000000
00000000
,
00000000
00000000
00000000
00000000
,
22000000
00000000
33000000
10000000
00010000
00010000
10000000
00000000
,
02020000
00000000
03030000
00010000
10000000
10000000
00010000
00000000
,
22000000
00000000
33000000
01000000
00010000
00001000
00000100
00000000
,
00000001
00000100
00000001
00000000
00001000
00000100
00001000
00000000
00000001
00000100
00000001
00000000
00000200
00000000
00000000
00000000
,
00000310
00000000
00001000
00000001
00000100
00000010
00000010
00000100
,
00000001
00000000
00000000
00000100
00001000
00010000
01000000
10000000
,
00010000
10000000
00100000
00100000
01000000
00100000
10000000
00010000
,
20000000
00000000
30000000
01000000
00010000
00001000
00000100
00000001
,
00002000
00000010
00000000
00003000
00000000
00000002
00000000
00000100
,
00000000
00001003
00000000
00000000
00000000
00000001
00000010
00001000
,
00020000
00000000
00030000
00100000
00100000
10000000
10000000
00000000
,
00000000
00000000
00000000
01000000
01000000
00100000
00200000
00010000
,
00310000
00000000
10000000
01000000
00010000
00000000
00001000
00000100
,
00000001
00000000
00000000
00000000
00000000
00000100
00001000
00010000
,
01000000
10000000
00010000
00010000
10000000
01000000
00100000
00010000
,
02000000
00000000
03000000
00100000
00010000
00001000
00000010
00000001
,
00002000
00000010
00000000
00003000
00000000
00000002
00000000
00000100
,
00000000
00001003
00000000
00000000
00000000
00000001
00000100
00001000
,
00020000
00000000
00030000
01000000
10000000
01000000
10000000
00000000
,
10000000
00010000
00001000
00000001
,
00002002
00000000
00003003
00000100
00000010
00000100
00000010
00000000
,
00002002
00000000
00003003
00000010
00000100
00000010
00000100
00000000
,
00022000
00000000
00033000
00100000
00001000
00010000
00000010
00000000
,
00022000
00000000
00033000
00000100
00010000
00001000
01000000
00000000
,
02020000
00000000
03030000
00100000
10000000
00100000
10000000
00000000
,
22000000
00000000
33000000
00100000
00010000
00100000
00010000
00000000
,
00202000
00000000
00303000
00100000
00001000
00010000
00000100
00000000
,
00001000
00000010
00001000
00000000
00000010
00000000
00000100
00000000
00000001
00000000
00000010
00000000
00000100
00000000
00001000
00000000
,
00000001
00001000
00000000
00000000
00000000
00000000
00000000
00000000
,
00011000
00000000
00000000
00000000
,
00011000
00000000
00000000
00000000
,
00010000
10000000
00000000
00000000
00000000
00000000
00000000
00000000
,
10000000
00010000
00000000
01000000
00100000
01000000
00001000
00000000
,
00011000
00000000
00000000
00001000
00010000
00000100
00010000
00000000
,
00011000
00000000
00000000
00001000
00000100
00000010
00000001
00000000
,
00000001
00001000
00010000
10000000
,
20020000
00000000
30030000
10000000
01000000
00010000
00001000
00000000
,
00022000
00000000
00033000
00010000
00001000
00000100
00000001
00000000
,
00002002
00000000
00003003
00000001
00000100
00001000
00010000
00000000
,
00022000
00000000
00033000
00001000
00010000
01000000
10000000
00000000
,
20020000
00000000
30030000
10000000
00100000
00010000
00100000
00000000
,
20020000
00000000
30030000
10000000
01000000
00010000
00001000
00000000
,
00022000
00000000
00033000
00001000
00000010
00000001
00000010
00000000
,
00001000
00010000
00001000
00000000
00010000
00000000
00000100
00000000
00000010
00000000
00000001
00000000
00000100
00000000
00000010
00000000
,
00000202
00000000
00000303
00000001
00000100
00001000
00010000
00000000
,
00022000
00000000
00033000
00001000
00010000
01000000
10000000
00000000
,
20020000
00000000
30030000
01000000
00010000
00001000
00000010
00000000
,
00002002
00000000
00003003
00000100
00001000
00010000
00100000
00000000
,
20020000
00000000
30030000
10000000
01000000
00010000
01000000
00000000
,
20020000
00000000
30030000
00100000
00010000
00001000
00000010
00000000
,
00002002
00000000
00003003
00000001
00000010
00001000
00000010
00000000
,
00000001
00000100
00000001
00000000
00000100
00000000
00001000
00000000
00010000
00000000
01000000
00000000
10000000
00000000
00010000
00000000
,
10000000
00000000
01000000
00000000
00010000
00001000
00010000
00000000
00001000
00000000
00000100
00000000
00000002
00000000
00000000
00000000
,
00000000
00000000
00000000
00000000
00000000
00000003
00000000
00000000
00000000
00000000
00000000
00000000
00000000
00000000
00000000
00000000
00000000
00000000
00000000
00000000
00000000
00000000
00000000
00000000
00000000
00000000
00000000
00000000
00000000
00000000
00000000
00000000
;
