#VERSION:0.83;
#TITLE:三毛猫JIVE&ジャイブ;
#SUBTITLE:;
#ARTIST:小野秀幸;
#TITLETRANSLIT:Mikeneko JIVE&Jive;
#SUBTITLETRANSLIT:;
#ARTISTTRANSLIT:Hideyuki Ono;
#GENRE:Jazz;
#ORIGIN:;
#CREDIT:;
#BANNER:mikenekojiveandjive-bn.png;
#BACKGROUND:mikenekojiveandjive-bg.png;
#PREVIEWVID:;
#JACKET:;
#CDIMAGE:;
#DISCIMAGE:;
#LYRICSPATH:;
#CDTITLE:;
#MUSIC:三毛猫JIVE&ジャイブ.ogg;
#OFFSET:-0.054000;
#SAMPLESTART:7.766000;
#SAMPLELENGTH:12.000000;
#SELECTABLE:YES;
#BPMS:0.000=246.000;
#STOPS:;
#DELAYS:;
#WARPS:;
#TIMESIGNATURES:0.000=4=4;
#TICKCOUNTS:0.000=4;
#COMBOS:0.000=1;
#SPEEDS:0.000=1.000=0.000=0;
#SCROLLS:0.000=1.000;
#FAKES:;
#LABELS:0.000=Song Start;
#BGCHANGES:;
#KEYSOUNDS:;
#ATTACKS:
;

//---------------dance-single - ----------------
#NOTEDATA:;
#CHARTNAME:;
#STEPSTYPE:dance-single;
#DESCRIPTION:;
#CHARTSTYLE:;
#DIFFICULTY:Challenge;
#METER:16;
#RADARVALUES:0.901138,1.255639,1.281306,0.216836,1.153175,640.000000,510.000000,130.000000,22.000000,0.000000,0.000000,0.000000,0.000000,0.000000,0.901138,1.255639,1.281306,0.216836,1.153175,640.000000,510.000000,130.000000,22.000000,0.000000,0.000000,0.000000,0.000000,0.000000;
#CREDIT:;
#NOTES:
// measure 0
0000
0000
0000
0000
,  // measure 1
0000
0000
0000
0000
,  // measure 2
0000
0000
0000
0000
,  // measure 3
0000
0000
0000
0000
,  // measure 4
1010
0000
0000
1001
0000
0000
0011
0000
,  // measure 5
0000
0000
0000
0000
0000
0000
1001
0000
0000
0000
1000
0000
0001
0000
0000
0100
0000
0000
0000
0000
0000
0000
0000
0000
,  // measure 6
0101
0000
0000
1001
0000
0000
1100
0000
,  // measure 7
1001
0000
0000
0000
0000
0000
0110
0000
0000
0000
0100
0000
0001
0000
0000
1000
0000
0000
0000
0000
0000
0000
1010
0000
,  // measure 8
0000
0000
1000
0001
0000
0000
1001
0000
0000
0101
0000
0000
,  // measure 9
1001
0000
0000
0011
0000
0000
1000
0000
1100
0000
0000
0101
,  // measure 10
0000
0000
0001
1000
0000
0000
1001
0000
0000
1100
0000
0000
,  // measure 11
1001
0000
0000
1100
0000
0000
0001
0000
0101
0000
0000
1010
,  // measure 12
0000
0000
1000
0001
0000
0000
1001
0000
0000
1010
0000
0000
,  // measure 13
1001
0000
0000
0011
0000
0000
0001
0000
0011
0000
0000
0110
,  // measure 14
0000
0000
0100
1000
0100
1000
0001
0000
0001
0100
0000
0100
,  // measure 15
0010
0000
0010
1000
0000
0010
0001
0000
0010
1000
0000
1001
,  // measure 16
0000
0000
1000
0010
0000
0000
0011
0000
0000
1010
0000
0000
,  // measure 17
1001
0000
0000
0101
0000
0000
1000
0000
1010
0000
0000
1001
,  // measure 18
0000
0000
0001
0010
0000
0000
1010
0000
0000
0011
0000
0000
,  // measure 19
1010
0000
0000
0011
0000
0000
0001
0000
0011
0000
0000
1001
,  // measure 20
0000
0000
1000
0100
0000
0000
0101
0000
0000
1100
0000
0000
,  // measure 21
1001
0000
0000
0110
0000
0000
1000
0000
1001
0000
0000
0110
,  // measure 22
0000
0010
0100
0010
0100
0010
0100
0000
0000
1001
0000
0000
,  // measure 23
0100
0010
0100
0010
0100
0010
0100
0000
1100
0000
0000
0011
,  // measure 24
0000
0000
0000
1001
0000
0001
1000
0000
0010
0000
0000
0000
,  // measure 25
0100
0000
0001
1000
0000
0001
1000
0000
0000
0100
0000
0020
,  // measure 26
0000
0001
1000
0031
,  // measure 27
0100
0000
0100
0010
0000
1000
0000
0000
1001
0000
0000
0100
,  // measure 28
0020
0001
0000
1000
,  // measure 29
0000
0001
0000
1000
,  // measure 30
0000
0001
0000
1000
,  // measure 31
0000
0000
0000
0031
0000
0000
0000
0000
0100
0010
0000
0000
,  // measure 32
0210
0001
0000
1000
,  // measure 33
0000
0001
0000
1000
,  // measure 34
0300
0000
0001
1000
0000
0000
1001
0000
0000
0110
0000
0010
,  // measure 35
0100
0000
0000
0001
0010
0100
1000
0100
0010
0001
1000
0010
,  // measure 36
0100
0000
0000
0001
0000
0000
0101
0000
0000
0001
1000
0010
,  // measure 37
0100
0000
0010
1000
0000
0000
1010
0000
0000
1000
0001
0100
,  // measure 38
0010
0000
0100
0001
0000
0000
0101
0000
0000
0010
0000
0100
,  // measure 39
0010
1000
0001
1000
0010
0100
0010
1000
0001
2000
0000
0000
,  // measure 40
3002
0000
0000
0103
0000
0010
1000
0000
0100
0010
0000
0001
,  // measure 41
1000
0000
0001
0100
0000
0001
0000
0000
1000
0010
0000
1000
,  // measure 42
0000
0000
0001
0100
0000
0001
0000
0000
1000
0100
0000
1000
,  // measure 43
0000
0000
0001
0010
0000
0001
1000
0000
0000
1001
0000
0000
,  // measure 44
1000
0100
0001
0100
1000
0100
0010
0001
0010
1000
0010
0100
,  // measure 45
1000
0010
0001
0010
1000
0010
0100
1000
0100
0001
0100
0010
,  // measure 46
2000
3200
0302
0203
,  // measure 47
2300
3200
0302
0203
,  // measure 48
1300
0000
0000
1000
0000
0100
0010
0000
0001
0000
0000
0000
,  // measure 49
1000
0000
0100
0010
0000
0001
0000
0000
0000
1000
0000
0100
,  // measure 50
0010
0000
0001
0000
0000
0101
0000
0000
1010
0000
0000
0000
,  // measure 51
0000
0000
0000
0000
,  // measure 52
0000
0000
0000
0001
0000
0100
0010
0000
1000
0000
0000
0000
,  // measure 53
0001
0000
0100
0010
0000
1000
0000
0000
1100
0000
0000
0011
,  // measure 54
0000
0000
0000
1000
0000
1000
0100
0000
0100
0010
0000
0010
,  // measure 55
0001
0000
0001
1000
0000
1000
0001
0000
0000
0110
0000
0000
,  // measure 56
1001
0000
0000
0001
0000
0100
0010
0000
0110
0000
0000
0000
,  // measure 57
1000
0000
0010
0100
0000
0110
0000
0000
0000
0001
0000
0100
,  // measure 58
0010
0000
0110
0000
0000
1010
0000
0000
1100
0000
0000
0000
,  // measure 59
2000
0000
0000
3002
0000
0000
0103
0010
0100
0010
0000
0000
,  // measure 60
1000
0000
0000
0001
0000
1000
0100
0000
1100
0000
0000
0000
,  // measure 61
1000
0000
0001
0100
0000
0101
0000
0000
0110
0000
0000
1001
,  // measure 62
0000
0000
0000
0100
0000
0100
0010
0000
0010
0100
0000
0001
,  // measure 63
1000
0000
0010
0100
0000
0001
1000
0000
0000
1001
0000
0000
,  // measure 64
0010
0000
0000
0100
0000
0001
1000
0000
0010
0000
0000
0010
,  // measure 65
0100
0001
1000
0010
1000
0100
0010
0001
0100
0010
1000
0000
,  // measure 66
0000
0000
0000
0010
0000
1000
0100
0000
0010
0000
0000
1001
,  // measure 67
0000
0000
0001
0100
0000
0220
0000
0000
0000
0000
0000
0330
,  // measure 68
1100
0000
0000
1001
0000
0000
0101
0000
,  // measure 69
0000
0000
0000
0000
0000
0000
1001
0000
0000
0000
0001
0000
1000
0000
0000
0010
0000
0000
0000
0000
0000
0000
0000
0000
,  // measure 70
0101
0000
0000
1001
0000
0000
1100
0000
,  // measure 71
0000
0000
0000
0000
0000
0000
1001
0000
0000
0000
0001
0000
1000
0000
0000
0010
0000
0000
0000
0000
0000
0000
0000
0000
,  // measure 72
1001
0000
0000
1001
0000
0000
1001
0000
,  // measure 73
0000
0000
0000
0000
0000
0000
0110
0000
0000
0000
0010
0000
1000
0000
0000
0001
0000
0000
0000
0000
0000
0000
0001
0000
,  // measure 74
0100
1000
0100
0001
0100
1000
0100
0001
0100
0010
0000
0110
,  // measure 75
0000
0000
0010
1000
0000
0000
1100
0000
0000
0110
0000
0000
,  // measure 76
0011
0000
0000
1001
0000
0000
0010
0000
1001
0000
0000
0110
,  // measure 77
0000
0000
0100
0001
0000
0000
0011
0000
0000
0101
0000
0000
,  // measure 78
0011
0000
0000
0101
0000
0000
0010
0000
0101
0000
0000
0110
,  // measure 79
0000
0000
0100
0001
0000
0000
0011
0000
0000
0110
0000
0000
,  // measure 80
1100
0000
0000
1001
0000
0000
0010
0000
1001
0000
0000
0110
,  // measure 81
0000
0000
1000
0100
0010
0001
0100
0010
1000
0001
0000
0001
,  // measure 82
0010
0100
1000
0010
0100
0001
0100
0010
1000
0000
0000
1100
,  // measure 83
0000
0000
1000
0010
0000
0000
1010
0000
0000
0110
0000
0000
,  // measure 84
1010
0000
0000
0110
0000
0000
1000
0000
0011
0000
0000
0101
,  // measure 85
0000
0000
0010
0100
0000
0000
0110
0000
0000
0101
0000
0000
,  // measure 86
0110
0000
0000
0101
0000
0000
0001
0000
1100
0000
0000
1001
,  // measure 87
0000
0000
0010
1000
0000
0000
1100
0000
0000
0101
0000
0000
,  // measure 88
1100
0000
0000
0110
0000
0000
1000
0000
0110
0000
0000
1001
,  // measure 89
0000
0000
0001
0100
0010
1000
0010
0100
0001
0100
0010
1000
,  // measure 90
0010
0100
0001
0100
0010
1000
0010
0100
0001
0000
0000
1001
,  // measure 91
0000
0000
0000
0010
0000
0100
0001
0000
1000
0000
0000
0000
,  // measure 92
0110
0000
0100
0010
0000
1000
0001
0000
0000
0100
0000
0020
,  // measure 93
0000
0000
1030
0001
0100
0001
1000
0010
1000
0001
0100
0001
,  // measure 94
1000
0010
1000
0001
0100
0001
1000
0001
1000
0001
1000
0001
,  // measure 95
1000
0001
1000
0001
0000
0000
0000
0000
0000
0000
0000
0020
,  // measure 96
0200
0000
0000
0000
,  // measure 97
0000
0000
0000
0000
,  // measure 98
0000
0000
0000
0000
,  // measure 99
0000
0000
0000
0000
,  // measure 100
0330
0000
0000
0000
,  // measure 101
0220
0000
0000
0000
0000
0000
0000
0000
0000
0000
0000
0330
;

//---------------dance-single - ----------------
#NOTEDATA:;
#CHARTNAME:;
#STEPSTYPE:dance-single;
#DESCRIPTION:;
#CHARTSTYLE:;
#DIFFICULTY:Hard;
#METER:13;
#RADARVALUES:0.649101,1.256665,0.315398,0.344967,0.887058,461.000000,429.000000,32.000000,35.000000,0.000000,0.000000,0.000000,0.000000,0.000000,0.649101,1.256665,0.315398,0.344967,0.887058,461.000000,429.000000,32.000000,35.000000,0.000000,0.000000,0.000000,0.000000,0.000000;
#CREDIT:;
#NOTES:
0000
0000
0000
0000
,
0000
0000
0000
0000
,
0000
0000
0000
0000
,
0000
0000
0000
0000
,
2000
0000
0000
0020
0000
3030
1010
0000
,
0000
0000
0000
1000
0000
0100
0010
0000
0001
0000
0000
0000
,
0002
0000
0000
0200
0000
0303
0101
0000
,
0000
0000
0000
0001
0000
0010
0100
0000
1000
0000
0000
0010
,
0000
0000
0010
1000
0000
0000
0010
0000
0000
0100
0000
0000
,
0010
0000
0000
1000
0000
0000
0010
0000
0100
0000
0000
0001
,
0000
0000
0100
0010
0000
0000
0100
0000
0000
0010
0000
0000
,
0100
0000
0000
0010
0000
0000
0100
0000
0001
0000
0000
0010
,
0000
0000
0100
1000
0000
0000
0100
0000
0000
0010
0000
0000
,
0100
0000
0000
1000
0000
0000
0100
0000
0010
0000
0000
0001
,
0000
0000
0000
0000
,
0000
0000
0000
0000
0000
0000
0000
0000
0000
0000
0000
1001
,
0000
0000
1000
0010
0000
0000
1000
0000
0000
0100
0000
0000
,
1000
0000
0000
0010
0000
0000
1000
0000
0001
0000
0000
1001
,
0000
0000
0001
0100
0000
0000
0001
0000
0000
1000
0000
0000
,
0001
0000
0000
1000
0000
0000
0001
0000
0100
0000
0000
0110
,
0000
0000
0010
1000
0000
0000
0010
0000
0000
0100
0000
0000
,
0010
0000
0000
1000
0000
0000
0010
0000
0100
0000
0000
0110
,
0000
0000
0100
0001
0000
0000
1000
0000
0000
0010
0000
0000
,
0000
0000
0010
0100
0000
0000
0010
0000
1000
0000
0000
1001
,
0000
0000
0000
0001
0000
0100
0010
0000
0100
0000
0000
0000
,
0010
0000
1000
0100
0000
1000
0010
0000
0000
0100
0000
0001
,
0000
0010
1000
0010
,
1000
0000
0000
0010
0000
0000
1000
0000
0000
0010
0000
0001
,
1000
0200
0000
0302
,
0000
0203
0000
2300
,
0000
3200
0000
0302
,
0000
0000
0000
0103
0000
0000
0000
0000
1000
0001
0000
0000
,
0100
2000
0000
3200
,
0000
0302
0000
0203
,
0000
0000
0310
0100
0000
0000
0100
0000
0000
0001
0000
0100
,
0010
2000
3002
2003
,
3001
0000
0000
0100
0000
0000
0010
0000
0000
0100
0000
0001
,
0010
0100
1000
0100
,
0010
0001
1000
0001
,
0100
0000
0010
1000
0000
0100
0010
0000
0001
1000
0000
0000
,
0100
0010
0100
1000
,
0010
0000
0100
0001
0000
0100
0001
0000
0100
0001
0000
0010
,
0100
0000
0010
0100
0000
0010
0100
0000
1000
0001
0000
1000
,
0001
0000
1000
0001
0000
0100
0010
0000
1000
0001
0000
0000
,
0010
0100
0010
0100
0000
0000
0100
1000
0100
1000
0000
0000
,
1000
0010
1000
0010
0000
0000
0010
0100
0010
0100
0000
0000
,
0100
0001
0100
0001
1000
0001
1000
0010
1000
0010
1000
0100
,
1000
0100
1000
0001
1000
0001
0100
0010
0100
0010
0100
0010
,
0100
0000
0000
0001
0000
0010
0001
0000
1000
0000
0000
0000
,
0001
0000
0010
0001
0000
1000
0000
0000
0000
0001
0000
0010
,
0001
0000
1000
0000
0000
0010
0000
0000
0010
0000
0000
0000
,
0000
0000
0000
0000
,
0000
0000
0000
1000
0000
0010
1000
0000
0001
0000
0000
0000
,
1000
0000
0010
1000
0000
0001
0000
0000
0100
0000
0000
0100
,
0000
0000
0000
0000
,
0000
0000
0000
0110
,
0000
0000
0000
0100
0000
0001
0010
0000
0001
0000
0000
0000
,
0100
0000
0001
0010
0000
0001
0000
0000
0000
0100
0000
0001
,
0010
0000
0001
0000
0000
0101
0000
0000
1010
0000
0000
0000
,
0000
0000
0000
0000
,
0000
0000
0000
0010
0000
1000
0100
0000
1000
0000
0000
0000
,
0010
0000
1000
0100
0000
1000
0000
0000
1010
0000
0000
0101
,
0000
0000
0000
0000
,
0000
0000
0000
0000
,
0000
0000
0000
0000
0000
0000
0001
0000
0000
0000
1000
0000
0100
0000
0000
0000
1000
0000
0000
0000
0000
0001
0000
0000
,
1000
0000
0001
0100
0000
0001
1000
0000
0100
1000
0000
0001
,
0000
0000
0000
0100
0000
0010
1000
0000
0001
0000
0000
1001
,
0000
0000
0000
0000
0100
0000
0010
0000
0000
0000
2000
0000
0002
0000
0000
0000
0000
0000
0000
0000
0000
3003
0000
0000
,
2000
0000
0000
0020
0000
3030
2020
0000
,
3030
0000
0000
0010
0000
1000
0001
0000
0100
0000
0000
0000
,
0002
0000
0000
0020
0000
0033
0011
0000
,
0000
0000
0000
0001
0000
1000
0010
0000
0100
0000
0000
0000
,
2020
0000
3030
0202
0000
0303
2002
0000
,
3003
0000
0000
0100
0000
0001
1000
0000
0010
0000
0000
0000
,
0000
0000
0000
0000
0000
0000
0000
0000
0000
0000
0000
1010
,
0000
0000
1000
0100
0000
0000
0010
0000
0000
0100
0000
0000
,
1000
0000
0000
0100
0000
0000
0010
0000
0011
0000
0000
1001
,
0000
0000
0001
0100
0000
0000
0010
0000
0000
0100
0000
0000
,
0010
0000
0000
0100
0000
0000
0010
0000
1010
0000
0000
1001
,
0000
0000
1000
0100
0000
0000
0001
0000
0000
0100
0000
0000
,
1000
0000
0000
0100
0000
0000
0010
0000
0011
0000
0000
1001
,
0000
1000
0100
0010
,
0001
0000
0000
0100
0000
0000
0010
0000
0000
1000
0000
1001
,
0000
0000
0001
0010
0000
0000
1000
0000
0000
0010
0000
0000
,
0001
0000
0000
0100
0000
0000
0010
0000
1010
0000
0000
1100
,
0000
0000
0100
0010
0000
0000
0001
0000
0000
0010
0000
0000
,
0001
0000
0000
0010
0000
0000
0001
0000
1001
0000
0000
1010
,
0000
0000
0010
0100
0000
0000
0010
0000
0000
0001
0000
0000
,
0010
0000
0000
1000
0000
0000
0001
0000
1001
0000
0000
0100
,
0010
1000
0010
1000
0010
1000
0010
1000
0010
1000
0010
1000
,
0001
0100
0001
0100
0001
0100
0001
0100
0001
0100
0001
0100
,
0000
0000
0000
0100
0000
0010
1000
0000
0001
0000
0000
0000
,
0001
0000
0010
0100
0000
1000
0001
0000
0000
0100
0000
0010
,
0000
0000
1000
0100
0010
0001
1000
0100
0010
0001
1000
0100
,
0010
0001
1000
0100
0010
0001
1000
0001
1000
0001
1000
0001
,
1000
0001
1000
0001
0000
0000
0000
0000
0000
0000
0000
0200
,
0020
0000
0000
0000
,
0000
0000
0000
0000
,
0000
0000
0000
0000
,
0000
0000
0000
0000
,
0330
0000
0000
0000
,
2002
0000
0000
0000
,
3003
0000
0000
0000
;

//---------------dance-single - ----------------
#NOTEDATA:;
#CHARTNAME:;
#STEPSTYPE:dance-single;
#DESCRIPTION:;
#CHARTSTYLE:;
#DIFFICULTY:Medium;
#METER:11;
#RADARVALUES:0.373127,0.502666,0.029569,0.256261,0.241477,265.000000,262.000000,3.000000,26.000000,0.000000,0.000000,0.000000,0.000000,0.000000,0.373127,0.502666,0.029569,0.256261,0.241477,265.000000,262.000000,3.000000,26.000000,0.000000,0.000000,0.000000,0.000000,0.000000;
#CREDIT:;
#NOTES:
0000
0000
0000
0000
,
0000
0000
0000
0000
,
0000
0000
0000
0000
,
0000
0000
0000
0000
,
0010
0000
0000
0010
0000
0000
0010
0000
,
0000
1000
0001
0000
,
0100
0000
0000
0100
0000
0000
0100
0000
,
0000
0000
0000
0001
0000
0000
1000
0000
0000
0000
0000
0010
,
0000
0000
0010
1000
0000
0000
0100
0000
0000
1000
0000
0000
,
0010
0000
0000
1000
0000
0000
0100
0000
0000
0000
0000
0010
,
0000
0000
0010
0001
0000
0000
0100
0000
0000
0001
0000
0000
,
0100
0000
0000
0001
0000
0000
0100
0000
0000
0000
0000
0010
,
0000
0000
0010
0100
0000
0000
0010
0000
0000
1000
0000
0000
,
0010
0000
0000
0100
0000
0000
0010
0000
1000
0000
0000
0001
,
0000
0000
0000
0000
,
0000
0000
0000
0000
0000
0000
0000
0000
0000
0000
0000
0100
,
0000
0000
0100
0001
0000
0000
1000
0000
0000
0001
0000
0000
,
0100
0000
0000
0001
0000
0000
1000
0000
0010
0000
0000
0010
,
0000
0000
0010
1000
0000
0000
0100
0000
0000
1000
0000
0000
,
0100
0000
0000
1000
0000
0000
0010
0000
0100
0000
0000
0100
,
0000
0000
0100
0001
0000
0000
0010
0000
0000
0001
0000
0000
,
0100
0000
0000
0001
0000
0000
0010
0000
0001
0000
0000
0001
,
0000
0000
0000
0000
,
0000
0000
0000
0000
0000
0000
0000
0000
1000
0000
0000
1000
,
0000
0000
0000
0000
,
0001
0000
0000
0000
,
0100
0010
1000
0001
,
0100
0010
1000
0001
,
0100
0020
0000
2030
,
0000
3002
0000
0203
,
0000
0320
0000
0230
,
0000
0302
0000
1003
,
0010
0200
0000
0320
,
0000
2030
0000
3001
,
0000
0100
0010
1000
,
0001
0200
0000
0000
,
0310
1000
0000
0001
,
0000
0010
0000
0001
,
0000
1000
0000
0010
,
1000
0100
1000
0010
,
0100
0002
0000
0023
,
0000
0032
0000
2003
,
0000
3020
0000
2030
,
0000
3200
0000
0310
,
0100
1000
0100
1000
,
0001
1000
0001
1000
,
0001
0010
0100
0000
,
1000
0100
0010
0000
,
0000
0001
0100
0000
,
0001
0100
0000
0001
,
0100
0000
0000
0000
0000
0001
0000
0000
1000
0000
0000
0000
,
0000
0000
0000
0000
,
0000
1000
0100
0000
,
1000
0000
0000
0100
0000
0000
0000
0000
1000
0000
0000
0001
,
0000
0000
0000
0000
,
0000
0000
0000
0000
,
0000
0100
0010
0000
,
0100
0010
0000
0100
,
0010
0000
0000
0000
0000
1000
0000
0000
0001
0000
0000
0000
,
0000
0000
0000
0000
,
0000
0001
0010
0000
,
0001
0000
0000
0010
0000
0000
0000
0000
0001
0000
0000
1000
,
0000
0000
0000
0000
,
0000
0000
0100
1000
,
0000
0000
0000
0100
0000
0000
0010
0000
0000
0000
0000
0001
,
0000
0000
1000
0000
0000
0000
0010
0000
0000
0100
0000
0000
,
0000
0000
0000
0001
0000
0000
1000
0000
0000
0000
0000
0010
,
0000
0000
1000
0000
0000
0100
0000
0000
0000
0000
0000
0000
,
0010
0000
0000
0001
0000
0000
0020
0000
,
0000
0130
1000
0000
,
1000
0000
0000
0010
0000
0000
2000
0000
,
0000
3001
0100
0000
,
0010
0000
0000
1000
0000
0000
2020
0000
,
3030
0100
0001
0000
,
0000
0000
0000
0000
0000
0000
0000
0000
0000
0000
0000
1000
,
0000
0000
1000
0010
0000
0000
0100
0000
0000
0010
0000
0000
,
1000
0000
0000
0010
0000
0000
0100
0000
0000
0000
0000
0100
,
0000
0000
0100
0001
0000
0000
0010
0000
0000
0001
0000
0000
,
0010
0000
0000
0001
0000
0000
0100
0000
0000
0000
0000
0001
,
0000
0000
0001
1000
0000
0000
0001
0000
0000
0100
0000
0000
,
0001
1000
0010
0000
,
0010
0100
0001
0000
,
0100
0000
0000
0010
0000
0000
1000
0000
0000
0000
0000
0100
,
0000
0000
0100
1000
0000
0000
0010
0000
0000
1000
0000
0000
,
0010
0000
0000
1000
0000
0000
0010
0000
0100
0000
0000
0100
,
0000
0000
0100
0001
0000
0000
0010
0000
0000
0001
0000
0000
,
0010
0000
0000
0001
0000
0000
0010
0000
0100
0000
0000
0100
,
0000
0000
0100
1000
0000
0000
0010
0000
0000
1000
0000
0000
,
0100
0000
0000
0010
0000
0000
0001
0000
1000
0000
0000
0000
,
0010
0100
0010
0100
,
0010
0100
0010
0100
,
0000
0000
0000
0000
,
0101
0000
0000
0000
,
0000
0001
0010
0100
,
1000
0001
1000
0001
,
1000
0000
0000
0001
0000
0000
0000
0000
0000
0000
0000
0200
,
0020
0000
0000
0000
,
0000
0000
0000
0000
,
0000
0000
0000
0000
,
0000
0000
0000
0000
,
0330
0000
0000
0000
,
2002
0000
0000
0000
,
3003
0000
0000
0000
;

//---------------dance-double - ----------------
#NOTEDATA:;
#CHARTNAME:;
#STEPSTYPE:dance-double;
#DESCRIPTION:;
#CHARTSTYLE:;
#DIFFICULTY:Challenge;
#METER:16;
#RADARVALUES:0.941971,1.256665,1.370012,0.335111,1.276378,669.000000,530.000000,139.000000,34.000000,0.000000,0.000000,0.000000,0.000000,0.000000,0.941971,1.256665,1.370012,0.335111,1.276378,669.000000,530.000000,139.000000,34.000000,0.000000,0.000000,0.000000,0.000000,0.000000;
#CREDIT:;
#NOTES:
00000000
00000000
00000000
00000000
,
00000000
00000000
00000000
00000000
,
00000000
00000000
00000000
00000000
,
00000000
00000000
00000000
00000000
,
20000000
00000000
00000000
02000000
00000000
33000000
00110000
00000000
,
00000000
00000000
00000000
10000000
00000000
01000000
00100000
00000000
00001000
00000000
00000000
00000000
,
00020000
00000000
00000000
00000200
00000000
00030300
00000011
00000000
,
00000000
00000000
00000000
00000001
00000000
00000100
00000010
00000000
00001000
00000000
00000000
00001001
,
00000000
00000000
00010000
00000100
00000000
00000000
00010010
00000000
00000000
00000100
00000000
00000000
,
00011000
00000000
00000000
00000100
00000000
00000000
00010000
00000000
00000110
00000000
00000000
00011000
,
00000000
00000000
00001000
01000000
00000000
00000000
00110000
00000000
00000000
01000000
00000000
00000000
,
00011000
00000000
00000000
01000000
00000000
00000000
00100000
00000000
10010000
00000000
00000000
11000000
,
00000000
00000000
00100000
00010000
00000000
00000000
01010000
00000000
00000000
00100000
00000000
00000000
,
00011000
00000000
00000000
00000010
00000000
00000000
00001000
00000000
00000101
00000000
00000000
00010010
,
00000000
00000000
00000100
00000001
00000000
00000001
00000010
00000000
00000001
00000100
00000000
00000001
,
00001000
00000000
00000100
00000010
00000000
00000100
00001000
00000000
00000100
00010000
00000000
00011000
,
00000000
00000000
00001000
01000000
00000000
00000000
10100000
00000000
00000000
01000000
00000000
00000000
,
00110000
00000000
00000000
01000000
00000000
00000000
10100000
00000000
01001000
00000000
00000000
00011000
,
00000000
00000000
00010000
00000100
00000000
00000000
00000011
00000000
00000000
00000100
00000000
00000000
,
00001010
00000000
00000000
00000100
00000000
00000000
00000011
00000000
00010100
00000000
00000000
00011000
,
00000000
00000000
00100000
00010000
00000000
00000000
01010000
00000000
00000000
01001000
00000000
00000000
,
00011000
00000000
00000000
00010010
00000000
00000000
00000010
00000000
00000100
00000000
00000000
00000101
,
00000000
00000000
00000001
00000010
00000100
00001000
00001001
00000000
00000000
00000000
00000000
00000000
,
00000000
00000000
10000000
01000000
00100000
00010000
10010000
00000000
01100000
00000000
00000000
01100000
,
00000000
00000000
00000000
10000000
00000000
00010000
01000000
00000000
01100000
00000000
00000000
00000000
,
00100000
00000000
00010000
00001000
00000000
00000010
00000001
00000000
00000000
00001001
00000000
00000020
,
00000000
00001000
00000100
00000001
,
00000130
00000000
00001001
00000000
00000000
00000110
00000000
00000000
00011000
00000000
00000000
00100000
,
00010000
00000000
12000000
00000000
00000000
03000000
02010000
00000000
,
00000000
03000000
12000000
00000000
00000000
03000000
02010000
00000000
,
00000000
03000000
12000000
00000000
00000000
03000000
02010000
00000000
,
00000000
00000000
00000000
03000000
00000000
00000000
12000000
00000000
00000000
00000000
00000000
00000000
00000000
00000000
00000000
03000000
00010000
00000000
00001000
00000000
00000000
00000000
00000000
00000000
,
00000100
00000000
00000201
00000000
00000000
00000300
00001200
00000000
,
00000000
00000300
00000201
00000000
00000000
00000300
00001200
00000000
,
00000000
00000000
00000000
00000300
00000010
00000000
00000100
00000000
00000000
00000000
00000000
00000000
00000101
00000000
00000000
00000000
00000000
00000000
00000010
00000000
00000000
00000000
00001100
00000000
,
00000000
00000000
00000100
00010000
00000000
00010000
00001000
00010000
00001000
00010000
00001000
00010000
,
00001000
00000000
00001000
00100000
00000000
00100000
00010000
00000000
00010000
10000000
00000000
00000000
,
01100000
00000000
01000000
00100000
00000000
00100000
00010000
00000000
00000000
00011000
00000000
00001100
,
00000000
00000000
00000100
00001000
00000000
00001000
00000010
00000000
00000010
00000100
00000000
00000100
,
00000001
00000000
00000001
00001000
00000010
00000100
00000001
00000100
00000000
00000101
00000000
00000000
,
00001001
00000000
00001000
00000010
00000000
00000010
00010000
00000000
00010000
00001000
00000000
00001000
,
01000000
00000000
01000000
00100000
00000000
00100000
00010000
00000000
00010000
00100000
00000000
00100000
,
10000000
00000000
10000000
01000000
00000000
01000000
00100000
00010000
01000000
00100000
10000000
01000000
,
00010000
10000000
00100000
01000000
00100000
00010000
01000000
00100000
00010000
00001000
00000010
00000100
,
00000001
00000010
00000001
00001000
00000001
00000010
00000100
00010000
00000100
00001000
00000100
00010000
,
00001000
00010000
00100000
00010000
00001000
00010000
00100000
01000000
00010000
01000000
00100000
01000000
,
00010000
00100000
01000000
10000000
01000000
00100000
00010000
01000000
00100000
10000000
00100000
01000000
,
00010000
00100000
01000000
00010000
00001000
00000100
00000001
00001000
00000010
00000100
00001000
00010000
,
01000000
00000000
00000000
10000000
00000000
00100000
10000000
00000000
01010000
00000000
00000000
00000000
,
10000000
00000000
00100000
10000000
00000000
01010000
00000000
00000000
00000000
10000000
00000000
00100000
,
10000000
00000000
01010000
00000000
00000000
00101000
00000000
00000000
00010100
00000000
00000000
00000000
,
00000000
00000000
00000000
00000000
,
00000000
00000000
00000000
00000001
00000000
00000010
00000001
00000000
00001100
00000000
00000000
00000000
,
00000001
00000000
00000010
00000001
00000000
00001100
00000000
00000000
00010100
00000000
00000000
00101000
,
00000000
00000000
00000000
00100000
00000000
00010000
01000000
00000000
00100000
10000000
00000000
01000000
,
00100000
00000000
00001000
00010000
00000000
00100000
10000000
00000000
10000000
00010000
00000000
00000000
,
01100000
00000000
00000000
10000000
00000000
01000000
00010000
00000000
00011000
00000000
00000000
00000000
,
00010000
00000000
00001000
00000100
00000000
00000101
00000000
00000000
00000000
00000001
00000000
00000100
,
00001000
00000000
00011000
00000000
00000000
01010000
00000000
00000000
11000000
00000000
00000000
00000000
,
10100000
00000000
00000000
01010000
00000000
00000000
00010000
00100000
01000000
10000000
00000000
00000000
,
00000000
00000000
00000000
00010000
00000000
00100000
00010000
00000000
01001000
00000000
00000000
00000000
,
00010000
00000000
00100000
00010000
00000000
01001000
00000000
00000000
00010100
00000000
00000000
00001010
,
00000000
00000101
00001100
00011000
,
01010000
00000000
00000000
11000000
00000000
00000000
10010000
00000000
10000000
00010000
00000000
00000000
,
01100000
00000000
00000000
00100000
00000000
00010000
00001000
00000000
00001010
00000000
00000000
00001001
,
00000000
00000000
00000010
00001000
00000000
00010000
00100000
00000000
10000000
00010000
00000000
10010000
,
00000000
00000000
00000000
00100000
00000000
00010000
00001000
00000000
00000011
00000000
00000000
00001000
,
00000000
00000000
00010000
00100000
00000000
20200000
00000000
00000000
00000000
30300000
00000000
00000000
,
20000000
00000000
30000000
02000000
00000000
03000000
00011000
00000000
,
00000000
00000000
00000000
00010000
00000000
00001000
00000100
00000000
00000001
00000000
00000000
00000000
,
00000002
00000000
00000003
00000200
00000000
00000300
00011000
00000000
,
00000000
00000000
00000000
00001000
00000000
00010000
01000000
00000000
10000000
00000000
00000000
00000000
,
20020000
00000000
30030000
02200000
00000000
03300000
00011000
00000000
,
00000000
00000000
00000000
00011000
00000000
00010000
00001000
00000000
00000010
00000000
00000000
00000010
,
00000100
00000001
00001000
00000010
00001000
00000100
00000010
00000001
00000100
00000010
00000000
00000110
,
00000000
00000000
00001000
00000001
00000000
00000000
00000101
00000000
00000000
00001010
00000000
00000000
,
00000101
00000000
00000000
00001010
00000000
00000000
00000100
00000000
00011000
00000000
00000000
01100000
,
00000000
00000000
00100000
01000000
00000000
00000000
00110000
00000000
00000000
11000000
00000000
00000000
,
00110000
00000000
00000000
11000000
00000000
00000000
00100000
00000000
00011000
00000000
00000000
00010010
,
00000000
00000000
00000010
00000100
00000000
00000000
00000101
00000000
00000000
00001100
00000000
00000000
,
00000101
00000000
00000000
00000110
00000000
00000000
00011000
00000000
01100000
00000000
00000000
00100000
,
10000000
01000000
00010000
01000000
10000000
01000000
00010000
01000000
10000000
01000000
00010000
00100000
,
10000000
00100000
00010000
00100000
10000000
00100000
00010000
01000000
00100000
10000000
00000000
10100000
,
00000000
00000000
01000000
00010000
00000000
00000000
10100000
00000000
00000000
11000000
00000000
00000000
,
10100000
00000000
00000000
11000000
00000000
00000000
01000000
00000000
00011000
00000000
00000000
00000110
,
00000000
00000000
00000100
00000001
00000000
00000000
00000011
00000000
00000000
00000101
00000000
00000000
,
00000011
00000000
00000000
00000101
00000000
00000000
00000100
00000000
00011000
00000000
00000000
00101000
,
00000000
00000000
00100000
00010000
00000000
00000000
01010000
00000000
00000000
10100000
00000000
00000000
,
11000000
00000000
00000000
00110000
00000000
00000000
01000000
00000000
00011000
00000000
00000000
00000010
,
00001000
00000100
00001000
00000100
00001000
00000100
00001000
00000100
00001000
00000100
00001000
00000100
,
00100000
00010000
00100000
00010000
00100000
00010000
00100000
00010000
00100000
00010000
00000000
02020000
,
00000000
03030000
00000000
01100000
00000000
00100000
10000000
00000000
20020000
00000000
30030000
00000000
,
01010000
00000000
00100000
00001000
00000000
00010000
00000100
00000000
00000000
00001000
00000000
00000010
,
00000000
00000000
00001000
00000001
00001000
00000001
00001000
00000001
00001000
00000001
00001000
00000001
,
00001000
00000001
00001000
00000010
00000100
00000010
00000100
00000010
00000100
00000010
00000100
00000010
,
00000100
00000010
00000100
00000010
00000000
00000000
00000000
00000000
00000000
00000000
00000000
02000000
,
00200000
00000000
00000000
00000000
,
00000000
00000000
00000000
00000000
,
00000000
00000000
00000000
00000000
,
00000000
00000000
00000000
00000000
,
03300000
00000000
00000000
00000000
,
00022000
00000000
00000000
00000000
,
00033000
00000000
00000000
00000000
;

//---------------dance-single - ----------------
#NOTEDATA:;
#CHARTNAME:;
#STEPSTYPE:dance-single;
#DESCRIPTION:;
#CHARTSTYLE:;
#DIFFICULTY:Easy;
#METER:8;
#RADARVALUES:0.285830,0.402133,0.108418,0.266117,0.000000,203.000000,192.000000,11.000000,27.000000,0.000000,0.000000,0.000000,0.000000,0.000000,0.285830,0.402133,0.108418,0.266117,0.000000,203.000000,192.000000,11.000000,27.000000,0.000000,0.000000,0.000000,0.000000,0.000000;
#CREDIT:;
#NOTES:
0000
0000
0000
0000
,
0000
0000
0000
0000
,
0000
0000
0000
0000
,
0000
0000
0000
0000
,
1000
0000
0000
0001
0000
0000
1000
0000
,
0000
0010
0100
0000
,
0001
0000
0000
1000
0000
0000
0001
0000
,
0000
0100
0010
0000
,
1000
0000
0100
0000
,
0010
0000
1001
0000
,
0001
0000
0100
0000
,
0001
0000
0100
0000
,
1001
0000
1000
0000
,
0010
0000
0100
0000
,
1001
0000
0000
0000
,
0000
0000
0000
0000
,
0010
0000
0010
0000
,
0010
0000
1001
0000
,
0100
0000
0100
0000
,
0100
0000
1000
0000
,
0110
0000
0100
0000
,
0001
0000
0100
0000
,
1000
0001
0000
0000
,
0000
0100
0000
0000
,
1010
0000
0010
0000
,
0101
0000
0100
0000
,
0002
0000
0000
0000
,
2003
0000
0000
0000
,
3010
0200
0300
0200
,
0300
0200
0300
0200
,
0300
0200
0300
0200
,
0300
0200
0300
0010
,
1000
0020
0030
0020
,
0030
0020
0030
0020
,
0030
0100
0001
1000
,
0010
0100
0020
0000
,
1030
0100
1000
0000
,
0001
0100
0001
1000
,
1000
0010
1000
0000
,
0001
0010
0001
0100
,
0100
0010
0100
0000
,
0001
0010
0100
0000
,
1000
0010
0100
0001
,
0020
0000
0000
0130
,
2000
0000
3002
0000
,
0203
0000
0320
0000
,
1030
0100
1000
0100
,
0010
0001
0010
0001
,
0000
1000
0100
0000
,
1000
0100
0000
1000
,
0100
0000
1000
0000
,
0000
0000
0000
0000
,
0000
0001
0100
0000
,
0001
0100
0000
0001
,
0000
0000
0000
0000
,
0000
0000
0000
0000
,
0000
0100
0010
0000
,
0100
0010
0000
0100
,
0010
0000
1000
0000
,
0000
0000
0000
0000
,
0000
0001
0100
0000
,
0001
0100
0000
0010
,
0000
0000
0000
0000
,
0000
0000
0000
0000
,
0000
0100
0010
0000
,
0100
0010
0100
0010
,
0000
1000
0001
0000
,
1000
0001
0000
0000
,
0100
0000
0000
0010
0000
0000
0100
0000
,
0000
0001
1000
0000
,
0010
0000
0000
0100
0000
0000
0010
0000
,
0000
1000
0001
0000
,
1000
0000
0000
0001
0000
0000
1001
0000
,
0000
0001
1000
0000
,
0000
0000
0000
0000
,
0001
0000
0010
0000
,
0001
0000
1000
0000
,
0100
0000
0100
0000
,
1000
0000
1000
0000
,
0001
0000
0010
0000
,
0001
0000
1000
0000
,
0020
0000
0000
0000
,
0230
0000
0000
0000
,
0301
0000
0010
0000
,
0100
0000
1100
0000
,
1000
0000
0010
0000
,
0100
0000
0001
0000
,
1000
0000
0001
0000
,
0100
0000
0010
0000
,
1000
0100
1000
0000
,
0001
0100
0001
0000
,
2000
0000
3000
0000
,
0002
0000
0003
0000
,
0100
0000
0010
0000
,
0100
0000
0001
0000
,
0001
0000
0000
0000
,
2002
0000
0000
0000
,
0000
0000
0000
0000
,
0000
0000
0000
0000
,
0000
0000
0000
0000
,
3003
0000
0000
0000
,
0220
0000
0000
0000
,
0330
0000
0000
0000
;

//---------------dance-single - ----------------
#NOTEDATA:;
#CHARTNAME:;
#STEPSTYPE:dance-single;
#DESCRIPTION:;
#CHARTSTYLE:;
#DIFFICULTY:Beginner;
#METER:4;
#RADARVALUES:0.192900,0.300860,0.088706,0.098562,0.000000,137.000000,128.000000,9.000000,10.000000,0.000000,0.000000,0.000000,0.000000,0.000000,0.192900,0.300860,0.088706,0.098562,0.000000,137.000000,128.000000,9.000000,10.000000,0.000000,0.000000,0.000000,0.000000,0.000000;
#CREDIT:;
#NOTES:
0000
0000
0000
0000
,
0000
0000
0000
0000
,
0000
0000
0000
0000
,
0000
0000
0000
0000
,
0010
0000
0000
0010
,
0000
0000
0000
0000
,
1000
0000
0000
1000
,
0000
0000
0000
0000
,
0001
0000
0001
0000
,
0001
0000
0001
0000
,
1000
0000
1000
0000
,
1000
0000
1000
0000
,
0001
0000
0001
0000
,
0001
0000
0001
0000
,
0200
0000
0000
0300
,
0000
0000
0000
0000
,
0010
0000
0010
0000
,
0010
0000
1000
0000
,
0100
0000
0100
0000
,
0100
0000
0100
0000
,
0010
0000
0001
0000
,
1000
0000
0010
0000
,
0100
0000
0000
0000
,
0000
0001
0000
0000
,
1000
0000
0000
0000
,
0001
0000
0000
0000
,
2000
0000
0000
0000
,
0000
0000
3000
0000
,
0000
0001
0000
0001
,
0000
0001
0000
0001
,
0000
0001
0000
0001
,
0000
0001
0000
0001
,
0000
1000
0000
1000
,
0000
1000
0000
1000
,
0000
1000
0000
0000
,
0000
0000
0000
0000
,
0010
0010
0000
0000
,
0100
0100
0000
0001
,
0001
0000
0000
1000
,
0000
0001
0000
1000
,
1000
0000
0010
0000
,
0100
0000
0010
0000
,
1000
0000
0001
0000
,
0010
0000
0100
0000
,
1000
0000
1000
0000
,
0010
0000
0010
0000
,
0100
0000
0100
0000
,
0100
0000
0100
0000
,
0000
0001
0000
0000
,
0001
0000
0000
0001
,
0000
0000
0001
0000
,
0000
0000
0000
0000
,
0000
0100
0000
0000
,
0100
0000
0000
0010
,
0000
0000
0000
0000
,
0000
0000
0000
0000
,
0000
1000
0000
0000
,
1000
0000
0000
1000
,
0000
0000
1000
0000
,
0000
0000
0000
0000
,
0000
0100
0000
0000
,
0100
0000
0000
0100
,
0000
0000
0000
0000
,
0000
0000
0000
0000
,
0000
0010
0000
0000
,
0001
0000
0000
0000
,
0000
1000
0000
0000
,
1000
0000
0000
0000
,
0010
0000
0000
0000
,
0000
0000
0110
0000
,
0100
0000
0000
0000
,
0000
0000
0110
0000
,
1001
0000
0000
0000
,
0000
0000
0110
0000
,
0000
0000
0000
0000
,
1000
0000
0100
0000
,
0010
0000
0100
0000
,
1000
0000
1000
0000
,
0001
0000
0001
0000
,
0001
0000
0100
0000
,
0010
0000
0100
0000
,
0001
0000
0000
0000
,
0000
0000
0000
0000
,
0100
0000
0001
0000
,
1000
0000
0010
0000
,
0010
0000
0010
0000
,
1000
0000
1000
0000
,
0001
0000
0100
0000
,
0010
0000
1000
0000
,
0200
0000
0300
0000
,
0020
0000
0030
0000
,
1001
0000
0000
0000
,
0110
0000
0000
0000
,
2002
0000
0000
0000
,
0000
0000
0000
0000
,
0000
0000
3003
0000
,
0220
0000
0000
0000
,
0000
0000
0000
0000
,
0000
0000
0000
0000
,
0000
0000
0000
0000
,
0000
0330
0000
0000
,
2002
0000
0000
3003
;

//---------------dance-double - ----------------
#NOTEDATA:;
#CHARTNAME:;
#STEPSTYPE:dance-double;
#DESCRIPTION:;
#CHARTSTYLE:;
#DIFFICULTY:Hard;
#METER:13;
#RADARVALUES:0.550539,1.256665,0.187268,0.266117,0.566731,391.000000,372.000000,19.000000,27.000000,0.000000,0.000000,0.000000,0.000000,0.000000,0.550539,1.256665,0.187268,0.266117,0.566731,391.000000,372.000000,19.000000,27.000000,0.000000,0.000000,0.000000,0.000000,0.000000;
#CREDIT:;
#NOTES:
00000000
00000000
00000000
00000000
,
00000000
00000000
00000000
00000000
,
00000000
00000000
00000000
00000000
,
00000000
00000000
00000000
00000000
,
20000000
00000000
00000000
00200000
00000000
30300000
10100000
00000000
,
00000000
01000000
00001000
00000000
,
00020000
00000000
00000000
00000020
00000000
00030030
00010010
00000000
,
00000000
00000010
00000100
00000000
,
00000001
00001000
00000001
00000100
,
00000001
00000000
00000000
00000010
00000000
00000000
00000001
00000000
00001000
00000000
00000000
00000000
,
00000100
00010000
00000100
00000010
,
00000100
00000000
00000000
00000010
00000000
00000000
00000100
00000000
00010000
00000000
00000000
00000000
,
00001000
01000000
00100000
10000000
,
00100000
00000000
00000000
01000000
00000000
00000000
00001000
00000000
00010000
00000000
00000000
00011000
,
00000000
00001000
00000100
00001000
,
00010000
00100000
00010000
00001000
,
00000010
00000100
00000010
00001000
,
00000010
00000000
00000000
00000100
00000000
00000000
00000010
00000000
00001010
00000000
00000000
00000000
,
00100000
00010000
01000000
00010000
,
01000000
00000000
00000000
00010000
00000000
00000000
00100000
00000000
00110000
00000000
00000000
00000000
,
00001000
00010000
00000100
00000010
,
00001000
00000000
00000000
00010000
00000000
00000000
01000000
00000000
00100000
00000000
00000000
01100000
,
00000000
20000000
00000000
30000000
,
00020000
00000000
00000000
00000000
00000000
00000000
00030000
00000000
10000000
00000000
00000000
00010000
,
00000000
00000000
00000000
01000000
00000000
00100000
01000000
00000000
00100000
00000000
00000000
00000000
,
10000000
00000000
00010000
10000000
00000000
00010000
01000000
00000000
00000000
01000000
00000000
01001000
,
00000000
00001000
00010000
00010000
,
00000100
00000000
00000000
00000010
00000000
00000100
00000000
00000000
00001000
00000000
00000000
00000100
,
00000010
00002000
00000000
00023000
,
00000000
00230000
00000000
00320000
,
00000000
00032000
00000000
00003020
,
00000000
00000000
00000000
00000000
00000000
00000000
00002030
00000000
00000000
00000000
00000000
00000000
00000000
00000000
00000000
00003000
00010000
00000000
00001000
00000000
00000000
00000000
00000000
00000000
,
00001000
00020000
00000000
02030000
,
00000000
03020000
00000000
00032000
,
00003000
00000000
00000010
00000001
00000000
00000000
00001000
00000000
00000000
00000001
00000000
00000100
,
00000010
00001000
00001000
00001000
,
00001000
00000100
00000010
00000100
,
00001000
00000001
00000100
00000001
,
00001000
00000100
00010000
00001000
,
01000000
00000000
00100000
10000000
00000000
00010000
01000000
00000000
00100000
10000000
00000000
00000000
,
10000000
01000000
00100000
01000000
,
10000000
00010000
10000000
00010000
,
00100000
00010000
01000000
00010000
,
00100000
01000000
10000000
00010000
,
10000000
01000000
10000000
01000000
10000000
01000000
00100000
00010000
00100000
00010000
00100000
00010000
,
01000000
00001000
01000000
00001000
01000000
00001000
00010000
00000010
00010000
00000010
00010000
00000010
,
00000100
00000100
00000010
00000010
,
00001000
00000000
00001000
00000100
00000000
00000100
00000010
00000000
00000010
00000001
00000000
00000000
,
00000000
00000000
00000000
00000001
00000000
00000100
00000001
00000000
00000100
00000000
00000000
00000000
,
00000001
00000000
00000100
00000001
00000000
00000100
00000000
00000000
00000000
00000001
00000000
00000100
,
00000001
00000000
00000100
00000000
00000000
00001000
00000000
00000000
00010000
00000000
00000000
00000000
,
00000000
00000000
00000000
00000000
,
00000000
00000000
00000000
00100000
00000000
10000000
00100000
00000000
10000000
00000000
00000000
00000000
,
00100000
00000000
10000000
00100000
00000000
10000000
00000000
00000000
01000000
00000000
00000000
00010000
,
00000000
00000000
00000000
00000000
,
00000000
00000000
00000000
00000101
,
00001001
00000000
00000000
00001000
00000000
00000010
00001000
00000000
00000010
00000000
00000000
00000000
,
00000100
00000000
00000001
00000100
00000000
00000001
00000000
00000000
00000000
00001000
00000000
00000010
,
00001000
00000000
00000010
00000000
00000000
00000100
00000000
00000000
00001000
00000000
00000000
00000000
,
00010000
00100000
20000000
30000000
,
10010000
00000000
00000000
00010000
00000000
00100000
00010000
00000000
00100000
00000000
00000000
00000000
,
10000000
00000000
01000000
10000000
00000000
01000000
00000000
00000000
00100000
00000000
00000000
00010000
,
00000000
01000000
01000000
00001000
,
00001000
00010000
00010000
00010100
,
00001010
00000000
00000000
00000100
00000000
00000001
00001000
00000000
00000010
00000000
00000000
00000100
,
00000000
00000000
00000010
00001000
00000000
00000001
00000100
00000000
00000001
00001000
00000000
00000000
,
00000000
00000000
00000000
00000100
00000000
00010000
00001000
00000000
01000000
00000000
00000000
01010000
,
00000000
00000000
00100000
10000000
00000000
10100000
00000000
00000000
00000000
00000000
00000000
00000000
,
02000000
00000000
00000000
00002000
00000000
03003000
01001000
00000000
,
00000000
00100000
00001000
00000000
,
00020000
00000000
00000000
00000020
00000000
00030030
00010010
00000000
,
00000000
00000100
00010000
00000000
,
00002000
00000000
00000000
00200000
00000000
00303000
00101000
00000000
,
00000000
00010000
00001000
00000000
,
00000000
00000000
00000000
00000000
00000000
00000000
00000000
00000000
00000000
00000000
00000000
01100000
,
00000000
00000000
01000000
00010000
00000000
00000000
01000000
00000000
00000000
00010000
00000000
00000000
,
10000000
00000000
00000000
00010000
00000000
00000000
01000000
00000000
00010000
00000000
00000000
00100000
,
00000000
00000000
00001000
00010000
00000000
00000000
00001000
00000000
00000000
00010000
00000000
00000000
,
00001000
00000000
00000000
00010000
00000000
00000000
00000100
00000000
00000010
00000000
00000000
00000001
,
00000000
00000000
00001000
00000010
00000000
00000000
00000100
00000000
00000000
00000010
00000000
00000000
,
00000100
00000000
00000000
00000010
00000000
00000000
00001000
00000000
00000001
00000000
00000000
00000000
,
00000100
00001000
00010000
00100000
,
00010000
00000000
00000000
00001000
00000000
00000000
00010000
00000000
00000000
00100000
00000000
10000000
,
00000000
00000000
10000000
00100000
00000000
00000000
01000000
00000000
00000000
00010000
00000000
00000000
,
00100000
00000000
00000000
00010000
00000000
00000000
01000000
00000000
00110000
00000000
00000000
00100000
,
00000000
00000000
00001000
00010000
00000000
00000000
00000100
00000000
00000000
00010000
00000000
00000000
,
00000100
00000000
00000000
00010000
00000000
00000000
00000100
00000000
00001000
00000000
00000000
00000010
,
00000000
00000000
00000100
00000010
00000000
00000000
00001000
00000000
00000000
00000100
00000000
00000000
,
00010000
00000000
00000000
00001000
00000000
00000000
00100000
00000000
00010000
00000000
00000000
10000000
,
00100000
01000000
00100000
01000000
,
00100000
00000000
00000000
01000000
00000000
00000000
00100000
00000000
01000000
00000000
00000000
00100000
,
00000000
00000000
00000000
00010000
00000000
00001000
00000010
00000000
00000001
00000000
00000000
00000000
,
00001000
00000000
00000010
00000100
00000000
00000010
00000100
00000000
00000000
00000001
00000000
00001000
,
00000000
00000000
00000010
00000000
00000000
00000100
00000000
00000000
00001000
00000000
00000000
00010000
,
00000000
00000000
00100000
00000000
00000000
10000000
00000000
00000000
00000000
00000000
00000000
00000000
,
00000000
00000000
00000000
00000000
00000000
00000000
00000000
00000000
00000000
00000000
00000000
20000000
,
00020000
00000000
00000000
00000000
,
00000000
00000000
00000000
00000000
,
00000000
00000000
00000000
00000000
,
00000000
00000000
00000000
00000000
,
00000000
00000000
30030000
00000000
,
00000020
00000000
00000000
00000000
,
00000030
00000000
00000000
00000000
;

//---------------dance-double - ----------------
#NOTEDATA:;
#CHARTNAME:;
#STEPSTYPE:dance-double;
#DESCRIPTION:;
#CHARTSTYLE:;
#DIFFICULTY:Medium;
#METER:11;
#RADARVALUES:0.356231,0.452399,0.059137,0.266117,0.000000,253.000000,247.000000,6.000000,27.000000,0.000000,0.000000,0.000000,0.000000,0.000000,0.356231,0.452399,0.059137,0.266117,0.000000,253.000000,247.000000,6.000000,27.000000,0.000000,0.000000,0.000000,0.000000,0.000000;
#CREDIT:;
#NOTES:
00000000
00000000
00000000
00000000
,
00000000
00000000
00000000
00000000
,
00000000
00000000
00000000
00000000
,
00000000
00000000
00000000
00000000
,
00000020
00000000
00000030
00002000
00000000
00003000
00000020
00000000
,
00000030
00000000
00010000
00001000
,
00200000
00000000
00300000
00020000
00000000
00030000
00200000
00000000
,
00300000
00001000
00010000
00000000
,
00000000
00000010
00000100
00000010
,
00001000
00000010
00000100
00000000
,
00000100
00000001
00000100
00000001
,
00000100
00000010
00000100
00000000
,
00000010
00001000
00000010
00001000
,
00000100
00010000
00001000
00100000
,
00000000
00000000
00000000
00000000
,
00000000
00000000
00000000
00000000
,
00000000
01000000
10000000
01000000
,
00100000
01000000
10000000
00000000
,
00100000
00010000
00100000
00010000
,
00100000
01000000
10000000
00000000
,
00010000
01000000
00010000
10000000
,
00010000
01000000
00001000
00010000
,
00000000
00000000
00000000
00000000
,
00000000
00000000
00000000
00000010
,
00000100
00000000
00000000
00000000
,
00001001
00000000
00000000
00000000
,
00000100
00000010
00000010
00000100
,
00010000
00001000
00000010
00000001
,
00002000
00000010
00000000
00000010
,
00000000
00000010
00000000
00000010
,
00000000
00000010
00000000
00000010
,
00000000
00003010
00000000
00010000
,
00002000
00100000
00000000
00100000
,
00000000
00100000
00000000
00100000
,
00000000
00103000
01000000
00000000
,
10000000
00010000
10000000
00010000
,
01000000
00100000
10000000
00000000
,
00010000
00100000
00010000
00000000
,
01000000
00010000
10000000
00000000
,
00100000
01000000
00100000
00100000
,
01000000
00001000
00010000
00000000
,
00000100
00001000
00000100
00000000
,
00000010
00000001
00001000
00000010
,
00000100
00000010
00000100
00000000
,
00000002
00000000
00002003
00000000
,
00003020
00000000
00000230
00000000
,
00000310
00001000
00000010
00001000
,
00000100
00001000
00000100
00001000
,
00000000
00001000
00000001
00000000
,
00001000
00000001
00000000
00001000
,
00000001
00000000
00000100
00000010
,
00000000
00000000
00000000
00000000
,
00000000
00010000
00001000
00000000
,
00010000
00001000
00000000
00001000
,
00100000
00000000
00000000
00000000
,
00000000
00000000
00000000
00000000
,
00000000
01000000
10000000
00000000
,
01000000
10000000
00000000
01000000
,
10000000
00000000
01000000
00100000
,
00000000
00000000
00000000
00000000
,
00000000
00001000
00010000
00000000
,
00001000
00010000
00000000
00010000
,
00000100
00000000
00000000
00000000
,
00000000
00000000
00000000
00000000
,
00000000
00001000
00000010
00000000
,
00000100
00000001
00000100
00000001
,
00000000
00001000
00000010
00000000
,
00001000
00000100
00010000
00000000
,
00000020
00000000
00000030
00000200
00000000
00000300
00000020
00000000
,
00000030
00010000
00001000
00000000
,
02000000
00000000
03000000
00200000
00000000
00300000
02000000
00000000
,
03000000
00001000
00010000
00000000
,
00002020
00000000
00003030
00002002
00000000
00003003
00002020
00000000
,
00003030
00000010
00010000
00000000
,
00000000
00000000
00000000
00001000
,
01000000
00100000
01000000
00010000
,
01000000
00100000
01000000
00000000
,
00100000
10000000
00100000
10000000
,
00100000
01000000
00100000
00000000
,
10000000
00010000
10000000
00100000
,
10000000
00010000
01000000
00100000
,
00010000
00001000
00000010
00000000
,
00000001
00001000
00000100
00000000
,
00001000
00000010
00000100
00000010
,
00001000
00000010
00000100
00000000
,
00000001
00000010
00000001
00000010
,
00000100
00000010
00000001
00000000
,
00001000
00000010
00001000
00000001
,
00001000
00000010
00001000
00000000
,
00000100
00010000
00000100
00010000
,
00000100
00010000
00000100
00010000
,
00001000
00000000
00000000
00000000
,
00011000
00000000
00000000
00000000
,
00100000
00010000
10000000
00100000
,
01000000
00100000
01000000
00100000
,
01000000
00100000
00000000
00000000
,
20020000
00000000
00000000
00000000
,
00000000
00000000
00000000
00000000
,
00000000
00000000
00000000
00000000
,
00000000
00000000
00000000
00000000
,
30030000
00000000
00000000
00000000
,
00000020
00000000
00000000
00000000
,
00000030
00000000
00000000
00000000
;

//---------------dance-double - ----------------
#NOTEDATA:;
#CHARTNAME:;
#STEPSTYPE:dance-double;
#DESCRIPTION:;
#CHARTSTYLE:;
#DIFFICULTY:Easy;
#METER:8;
#RADARVALUES:0.295686,0.452399,0.059137,0.335111,0.000000,210.000000,204.000000,6.000000,34.000000,0.000000,0.000000,0.000000,0.000000,0.000000,0.295686,0.452399,0.059137,0.335111,0.000000,210.000000,204.000000,6.000000,34.000000,0.000000,0.000000,0.000000,0.000000,0.000000;
#CREDIT:;
#NOTES:
00000000
00000000
00000000
00000000
,
00000000
00000000
00000000
00000000
,
00000000
00000000
00000000
00000000
,
00000000
00000000
00000000
00000000
,
00200000
00000000
00300000
00200000
00000000
00300000
00200000
00000000
,
00300000
00001000
00010000
00000000
,
00000020
00000000
00000030
00000020
00000000
00000030
00000020
00000000
,
00000030
00010000
00001000
00000000
,
00100000
00010000
00100000
00000000
,
00010000
00000000
10000000
00000000
,
00100000
10000000
00100000
10000000
,
00100000
00000000
01000000
00000000
,
00010000
00100000
00010000
00000000
,
01000000
00000000
00001000
00000000
,
00010000
00000000
00000000
00000000
,
00000000
00000000
00000000
00000000
,
00000010
00001000
00000010
00000000
,
00000100
00000000
00000010
00000000
,
00001000
00000100
00001000
00000100
,
00001000
00000000
00000001
00000000
,
00000100
00000010
00000100
00000000
,
00000010
00000000
00010000
00000000
,
00001000
00000000
00000000
00000000
,
00000000
00000000
00000000
00000000
,
01000000
00000000
00000000
00000000
,
01100000
00000000
00000000
00000000
,
00100000
00000000
00100000
00000000
,
00100000
00000000
00100000
00000000
,
10000000
00020000
00000000
02030000
,
00000000
03020000
00000000
00230000
,
00000000
00320000
00000000
02030000
,
00000000
03020000
00000000
00130000
,
00001000
00020000
00000000
00030200
,
00000000
00020300
00000000
00030020
,
00000000
00010030
00001000
00000000
,
00001000
00010000
00000000
00000000
,
00000100
00000000
00000010
00000000
,
00000100
00001000
00000001
00000100
,
00000010
00000000
00010000
00000000
,
00001000
00000000
01000000
00100000
,
10000000
00010000
00100000
00000000
,
00010000
01000000
00010000
00000000
,
10000000
01000000
00100000
00010000
,
00100000
01000000
10000000
00000000
,
00020000
00000000
02030000
00000000
,
03002000
00000000
00023000
00000000
,
00030010
00000100
00000010
00000100
,
00000001
00001000
00000001
00001000
,
00000000
00000001
00001000
00000000
,
00000001
00001000
00000000
00000001
,
00001000
00000000
00000010
00000000
,
00000000
00000000
00000000
00000000
,
00000000
00010000
00001000
00000000
,
00010000
00001000
00000000
00100000
,
00000000
00000000
00000000
00000000
,
00000000
00000000
00000000
10010000
,
00000000
00010000
10000000
00000000
,
00010000
10000000
00000000
00010000
,
10000000
00000000
00100000
00000000
,
00000000
00000000
00000000
00000000
,
00000000
01000000
00001000
00000000
,
01000000
00001000
00000000
00010000
,
00000000
00000000
00000000
00000000
,
00000000
00000000
00000000
00000000
,
00000000
00000010
00001000
00000000
,
00000100
00000000
00000000
00000000
,
00000000
00001000
00000010
00000000
,
00000100
00000000
00000000
00000000
,
00000020
00000000
00000030
00000020
00000000
00000030
00000020
00000000
,
00000030
00010000
00001000
00000000
,
00200000
00000000
00300000
00200000
00000000
00300000
00200000
00000000
,
00300000
00001000
00010000
00000000
,
00000020
00000000
00000030
00000020
00000000
00000030
00000020
00000000
,
00000030
00010000
00001000
00000000
,
00000000
00000000
00000000
00000000
,
01000000
00010000
01000000
00000000
,
00100000
00000000
10000000
00000000
,
00010000
01000000
00010000
01000000
,
00010000
00000000
00100000
00000000
,
00001000
00010000
00001000
00000000
,
00010000
00000000
00000010
00000000
,
00000100
00000000
00000100
00000000
,
00000100
00000000
00000100
00000000
,
00000010
00001000
00000010
00000000
,
00000100
00000000
00000001
00000000
,
00001000
00000100
00001000
00000100
,
00001000
00000000
00000100
00000000
,
00010000
00001000
00010000
00000000
,
00001000
00000000
00100000
00000000
,
00010000
00000000
01000000
00000000
,
00010000
00000000
00100000
00000000
,
10010000
00000000
00000000
00000000
,
01001000
00000000
00000000
00000000
,
00010000
00000010
00010000
00000010
,
00010000
00000010
00010000
00000010
,
00010000
00000010
00000000
00000000
,
00000220
00000000
00000000
00000000
,
00000000
00000000
00000000
00000000
,
00000000
00000000
00000000
00000000
,
00000000
00000000
00000000
00000000
,
00000330
00000000
00000000
00000000
,
02200000
00000000
00000000
00000000
,
03300000
00000000
00000000
00000000
;
