#TITLE:Majestaria;
#SUBTITLE:;
#ARTIST:onoken;
#TITLETRANSLIT:;
#SUBTITLETRANSLIT:;
#ARTISTTRANSLIT:;
#GENRE:Trance;
#CREDIT:;
#BANNER:majestaria-bn.png;
#BACKGROUND:majestaria-bg.png;
#LYRICSPATH:;
#CDTITLE:;
#MUSIC:Majestaria.ogg;
#OFFSET:-0.418163;
#SAMPLESTART:39.599998;
#SAMPLELENGTH:12.000000;
#SELECTABLE:YES;
#BPMS:0.000000=147.000000
,127.000000=73.500000
,127.500000=220.500000
,129.000000=147.000000
,259.000000=73.500000
,260.000000=147.000000
,267.000000=294.000000
,269.000000=147.000000
;
#STOPS:
;
#BGCHANGES:;
#KEYSOUNDS:;
#ATTACKS:;

//---------------dance-single - ----------------
#NOTES:
     dance-single:
     :
     Challenge:
     18:
     1.006162,1.189153,0.357984,0.074927,1.573466,846.000000,803.000000,43.000000,9.000000,0.000000,0.000000,1.006162,1.189153,0.357984,0.074927,1.573466,846.000000,803.000000,43.000000,9.000000,0.000000,0.000000:
0000
0000
0000
0000
,
0000
0000
0000
0000
,
0000
0000
0000
0000
,
0000
0000
0000
0000
,
0000
0000
0000
0000
0000
0000
0000
0000
1000
0000
0100
0000
0010
0000
0000
0000
0000
0000
0000
0000
0000
0110
0000
0000
0000
0000
0000
0000
0000
0000
1000
0000
0000
0000
0000
0000
0000
0000
0000
0000
0000
0000
1001
0000
0000
0000
0000
0000
,
0000
0000
0000
0000
0000
0000
0000
0000
0001
0000
0100
0000
0010
0000
0000
0000
0000
0000
0001
0000
0000
0000
0000
0000
0000
0000
0000
0010
0000
0000
0000
0000
0000
0000
0000
0000
0100
0000
0000
0000
0000
0000
0001
0000
0000
0000
0000
0000
,
0011
0000
0000
0000
0000
0000
0000
0000
0010
0000
0100
0000
1000
0000
0000
0000
0000
0000
0000
0000
0000
0011
0000
0000
0000
0000
0000
0000
0000
0000
0100
0000
0000
0000
0000
0000
0000
0000
0000
0000
0000
0000
1010
0000
0000
0000
0000
0000
,
1000
0000
0010
0000
0100
0010
0001
0010
1000
0100
0010
0000
1000
0010
0001
0000
,
1000
0100
0010
0001
1000
0000
0001
0010
0100
0010
0100
1000
0100
0010
0100
1000
,
0100
0000
0010
0001
1000
0000
0010
0100
1000
0000
0100
0001
0010
0000
0100
0001
,
0010
0100
0010
0001
0010
0100
0010
1000
0010
0001
0010
0100
0010
0000
0001
0100
,
0010
0000
1000
0010
0100
0000
0010
0100
0001
0010
0001
1000
0100
1000
0010
0100
,
0001
0010
0100
0010
0001
0000
0100
0010
1000
0010
1000
0001
0100
0001
1000
0100
,
0010
0100
1000
0010
0100
0001
0010
0100
1000
0010
1000
0100
0010
0001
0100
0010
,
1000
0010
1000
0010
1000
0100
1000
0100
0010
0001
0010
0001
0100
0001
0100
0001
,
0100
0010
1000
0010
0100
0001
0010
0001
0100
0010
1000
0010
0100
0001
0010
0001
,
1000
0000
0000
0000
0000
0000
0000
0000
0010
0000
1000
0000
0001
0000
0000
0000
0000
0000
0000
0000
0000
0110
0000
0000
0000
0000
0000
0000
0000
0000
1000
0000
0000
0000
0000
0000
0000
0000
0000
0000
0000
0000
0001
0000
0000
0000
0000
0000
,
0000
0000
0000
0000
0000
0000
0000
0000
0100
0000
0001
0000
1000
0000
0000
0000
0000
0000
0010
0000
0000
0000
0000
0000
0000
0000
0000
0100
0000
0000
0000
0000
0000
0000
0000
0000
1000
0000
0000
0000
0000
0000
0100
0000
0000
0000
0000
0000
,
0000
0000
0000
0000
0000
0000
0000
0000
0001
0000
0010
0000
0100
0000
0000
0000
0000
0000
0000
0000
0000
1010
0000
0000
0000
0000
0000
0000
0000
0000
0100
0000
0000
0000
0000
0000
0000
0000
0000
0000
0000
0000
0011
0000
0000
0000
0000
0000
,
0000
0000
0000
0000
0000
0000
0000
0000
0100
0000
1000
0000
0001
0000
0000
0000
0000
0000
0100
0000
0000
0000
0000
0000
0000
0000
0000
0010
0000
0000
0000
0000
0000
0000
0000
0000
0001
0000
0000
0000
0000
0000
0010
0000
0000
0000
0000
0000
,
1010
0000
0000
0000
0000
0000
0000
0000
1000
0000
0100
0000
0010
0000
0000
0000
0000
0000
0000
0000
0000
0011
0000
0000
0000
0000
0000
0000
0000
0000
0100
0000
0000
0000
0000
0000
0000
0000
0000
0000
0000
0000
1100
0000
0000
0000
0000
0000
,
0000
0000
0000
0000
0000
0000
0000
0000
0001
0000
0100
0000
0010
0000
0000
0000
0000
0000
0000
0000
0000
1000
0000
0000
0000
0000
0000
0000
0000
0000
0010
0000
0000
0000
0000
0000
0000
0000
0000
0000
0000
0000
0101
0000
0000
0000
0000
0000
,
1001
0000
0000
0000
1000
0010
0001
0010
1000
0000
0000
0000
0001
0100
1000
0100
,
0001
0000
1000
0000
0000
0010
0100
0000
0010
0000
0001
0000
0010
1000
0010
0000
,
1000
0100
0001
0000
0000
0000
1000
0010
0001
0000
0000
0000
1000
0001
0100
0001
,
1000
0010
1000
0010
1000
0000
0001
0100
0010
0100
0001
0010
0001
0010
0001
0100
,
0010
0001
0010
1000
0010
0100
0010
0000
0000
0000
1000
0100
0010
0001
0100
0010
,
0100
1000
0100
0010
0100
0001
0000
1010
0000
0100
0001
0000
1010
0000
0001
1000
,
0001
0100
1000
0000
0000
0000
0001
0010
1000
0000
0000
0000
0001
0010
0100
0010
,
0001
0010
0001
0010
0100
1000
0100
1000
0010
1000
0010
1000
0010
0001
0010
1000
,
0100
0010
1000
0010
0100
0001
0100
1000
0010
0100
1000
0100
0001
0010
0100
1000
,
0010
0000
0100
0000
0001
0010
0000
1100
0000
0010
0100
0000
0011
0000
2000
0000
,
0000
0000
0000
0000
3001
0000
1000
0010
0001
0000
0001
0010
1000
0000
1000
0010
,
0100
0000
0001
0100
1000
0000
1000
0100
0001
0000
0001
0100
0010
0000
1000
0100
,
0010
0001
0000
0001
1000
0000
1000
0010
0000
0010
0100
0000
0100
0000
0001
1000
,
0001
0100
0000
0100
0010
0000
0010
1000
0000
1000
0100
0000
0100
0010
0001
1000
,
0010
0000
1000
0010
0100
0000
0100
0010
0001
0000
0001
0010
1000
0000
1000
0100
,
0010
0000
0010
1000
0001
0000
0001
0100
1000
0000
1000
0010
0100
0001
0010
0100
,
1000
0010
0100
0001
0010
0100
1000
0010
0100
0001
0010
0100
1000
0001
1000
0001
,
0100
0010
0100
0010
1000
0010
1000
0010
0100
0001
0100
0001
0020
0000
0000
0000
,
0031
0000
0000
0000
0100
0000
0010
0000
0001
0000
0010
0000
1000
0000
0010
0100
0001
0000
1000
0000
0000
0000
1000
0010
,
0100
0000
0000
0000
0100
0000
1000
0000
0100
0001
0010
0000
0100
0000
1000
0000
0010
0000
0100
0000
0000
0000
0100
0000
,
0001
0000
0000
0000
0001
0000
0010
0000
1000
0000
0001
0000
0100
0000
1000
0010
0100
0000
0001
0000
0000
0000
0001
0000
,
1000
0000
0100
0000
0001
0100
0010
0000
0100
0000
1000
0100
0010
0000
0001
0000
1000
0000
0001
0000
0000
0000
0000
0000
,
1001
0000
0000
0000
1000
0000
0100
0000
0001
0100
1000
0000
0010
0000
0001
0010
1000
0000
0100
0000
0000
0000
0010
0000
,
0001
0000
0000
0000
0100
0000
0010
0001
0010
1000
0100
0000
0010
0000
0001
0000
0100
0000
0010
0000
0000
0000
0010
0000
,
0100
0000
0000
0000
0001
0100
0010
0000
0001
0010
1000
0000
0100
0000
0010
0000
1000
0000
0010
0000
0000
0000
0001
0000
,
1000
0000
0100
0000
0001
0000
1000
0000
0010
0001
1000
0100
0010
0000
0001
0000
0010
0000
0100
0000
0000
0000
1000
0000
,
1010
0000
0000
0000
0100
0000
0010
0000
0001
0000
0010
0000
1000
0000
0100
0001
0100
0000
1100
0000
0000
0000
1000
0000
,
0010
0000
0000
0000
0010
0000
0100
0000
0001
0010
1000
0000
0001
0000
0100
0000
0010
0000
1100
0000
0000
0000
0000
0000
,
0101
0000
0000
0000
0010
0000
0001
0000
0010
0000
1000
0000
0001
0000
0100
1000
0100
0000
0101
0000
0000
0000
0010
0000
,
1000
0000
0100
0000
0010
0000
1000
0000
0010
0001
0100
0010
0001
0000
0010
0000
1000
0000
1010
0000
0000
0000
0000
0000
,
1001
0000
0001
0000
0100
0000
0101
0000
0001
0000
1000
0000
1100
0000
0100
0000
0010
0000
0110
0000
0000
0010
0001
1000
,
0010
0000
0100
0000
0001
0000
0101
0000
0100
0000
0010
0000
0110
0000
0100
0000
0010
0000
1010
0000
0000
0100
0001
1000
,
0100
0000
1000
0000
0100
0000
0110
0000
0010
0001
0100
0010
1000
0000
0001
0000
0100
0000
0110
0000
0000
1000
0100
0010
,
0001
0000
0100
0010
1000
0001
0100
0000
0010
0100
0001
1000
0100
0000
0010
0001
1000
0010
0100
0010
0100
0010
0100
0000
,
2002
0000
0000
0000
3003
0010
0110
0000
,
1000
0100
0001
0000
0100
0000
0010
0100
0001
0100
1000
0000
0000
0000
0010
0100
,
0001
0010
1000
0010
0100
0010
0001
0010
0100
0000
1000
0010
0100
0001
0100
0010
,
1000
0100
0001
0100
1000
0100
0010
0000
0000
0000
0001
1000
0010
0000
0100
0001
,
1000
0000
0010
0000
1000
0001
0000
0110
0000
1001
0000
0010
0100
0000
0001
1000
,
0001
0100
1000
0000
0100
0000
0010
0100
1000
0100
0001
0000
0000
0000
0100
0010
,
1000
0100
0001
0100
0010
0100
1000
0100
0010
0001
0100
0010
0001
0010
1000
0100
,
0010
0000
0001
0100
1000
0100
0001
0000
1000
0100
0001
0100
1000
0000
0010
1000
,
0100
0000
0000
0000
0010
0000
0000
0000
0001
0000
1000
0000
0000
0000
0110
0000
0000
0000
1001
0000
0000
0000
0100
0000
0010
0000
0000
0000
0000
0000
0100
0010
,
1000
0000
0000
1000
0100
0000
0000
0100
0001
0000
0000
0001
0010
0000
0000
0010
,
1000
0100
1000
0010
1000
0100
1000
0000
0001
0100
0001
0000
2002
0000
0000
0000
,
0000
0000
3003
0000
0101
0000
0100
0001
1000
0000
1000
0010
0200
0000
0000
0300
,
0110
0000
0010
1000
0010
1000
0100
0010
0100
0010
0001
0100
0001
0100
0010
1000
,
0100
0010
0100
1000
0100
0010
0100
1000
0100
0010
0100
1000
0010
0100
0001
0010
,
0001
0100
0000
0010
0001
0000
0010
1000
0000
0100
0010
0000
1000
0010
0001
0000
,
0100
0010
0001
0010
0100
1000
0100
0001
0010
1000
0010
0100
0001
0100
1000
0000
,
0010
0000
0100
0000
0000
0010
0001
0000
0010
0000
1000
0000
0001
0100
0010
0000
,
2020
3030
0000
0000
;

//---------------dance-single - ----------------
#NOTES:
     dance-single:
     :
     Medium:
     13:
     0.616066,0.701295,0.108228,0.141529,0.553627,518.000000,505.000000,13.000000,17.000000,0.000000,0.000000,0.616066,0.701295,0.108228,0.141529,0.553627,518.000000,505.000000,13.000000,17.000000,0.000000,0.000000:
0000
0000
0000
0000
,
0000
0000
0000
0000
,
0000
0000
0000
0000
,
0000
0000
0000
0000
,
0000
0000
0000
0000
0100
0000
0000
1000
0000
0000
0010
0000
0000
0000
0100
0000
,
0000
0000
0000
0000
0001
0000
0010
0000
0000
0100
0000
0000
0010
0000
0001
0000
,
1000
0000
0000
0000
0010
0000
0000
0100
0000
0000
0010
0000
0000
0000
1000
0000
,
0001
0100
0010
0010
1000
0010
0001
0010
,
1000
0000
0100
0010
0000
0000
0100
1000
0000
0000
0100
0010
0000
0000
0100
1000
,
0000
0000
0001
0100
0000
0000
0001
0010
0000
0000
0001
0100
0000
0000
0001
0010
,
0000
0000
0010
0100
0000
0000
0010
0001
0000
0000
0010
0100
0000
0000
0010
0001
,
0000
0000
1000
0010
0000
0000
1000
0100
0000
0000
1000
0010
0000
0000
1000
0000
,
0100
0010
0001
0100
0000
0010
1000
0100
,
0000
1000
0010
0001
0000
0001
0010
1000
,
0001
0100
0010
1000
0100
0010
0001
1000
,
0000
0020
0030
0020
0030
0020
0030
0020
,
1030
0000
0000
0000
0001
0000
0000
0010
0000
0000
0100
0000
0000
0000
1000
0000
,
0000
0000
0000
0000
1000
0000
0100
0000
0000
0010
0000
0000
0001
0000
1000
0000
,
0000
0000
0000
0000
0010
0000
0000
0100
0000
0000
0001
0000
0000
0000
0010
0000
,
0000
0000
0000
0000
0100
0000
1000
0000
0000
0010
0000
0000
0100
0000
0001
0000
,
1001
0000
0001
0100
0010
0100
0001
0100
,
0010
1000
0100
1000
0010
1000
0100
1000
,
1010
0000
0000
0000
0100
0000
0001
0000
1001
0000
0000
0000
0010
0100
0010
0100
,
0010
1000
0000
1000
0001
0000
0001
0100
,
0010
1000
0000
0100
1000
0100
0000
0001
,
0010
1000
0001
0100
1000
0010
0100
0001
,
0010
0001
0100
0000
0010
1000
0100
0000
,
1000
1000
0001
0001
0100
0010
0110
0000
,
0100
0001
0000
0010
0001
0010
0000
0001
,
0100
1000
0001
0010
1000
0100
0010
0001
,
0100
0010
1000
0001
0100
0001
1000
0010
,
1000
0000
1000
0000
0100
0010
0000
0010
0000
0010
0001
0000
1000
0000
0020
0000
,
0000
0000
1030
0100
0001
0100
0010
0100
,
1000
0100
0001
0100
1000
0100
0001
0100
,
0010
0000
0000
0001
0000
0000
0100
0000
0000
0010
0000
0000
1000
0000
0001
1000
,
0001
0000
0000
1000
0000
0000
0010
0000
0000
0100
0000
0000
0001
0000
0000
1000
,
0001
0000
0100
0000
0010
0000
0100
0000
1000
0000
0100
0000
0001
0000
0010
0001
,
0000
0000
1000
0010
0000
0000
0100
0001
0000
0000
1000
0010
0000
0000
0100
0000
,
0010
1000
0001
0100
0001
1000
0010
0100
,
0010
1000
0000
1000
0100
0010
0011
0000
,
0100
0000
0000
0001
0010
0001
0010
0100
0010
0200
0000
0000
,
0300
0000
0000
1000
0010
1000
0010
0100
0010
0200
0000
0000
,
0300
0000
0000
0001
1000
0010
1000
0001
0100
0002
0000
0000
,
0003
0000
0100
0010
1000
0010
0100
0001
0010
0200
0000
0000
,
0300
0000
0000
1000
0100
1000
0100
0010
0100
0010
0000
0011
,
0000
0000
0001
0100
0010
0100
0010
1000
0001
1000
0000
1010
,
0000
0000
1000
0010
0001
0010
1000
0100
0010
0001
0000
0101
,
0000
0000
0001
0100
0010
0001
0010
1000
0100
0010
0000
0011
,
0000
0000
0010
0100
1000
0100
1000
0010
1000
0020
0000
0000
,
0030
0000
0000
0100
0001
0100
0001
0010
0001
0020
0000
0000
,
0030
0000
0100
1000
0010
1000
0001
0100
0001
2000
0000
0000
,
3000
0000
0010
1000
0001
0100
0010
0100
0001
1000
0000
0000
,
1000
0100
0001
0100
1000
0100
0001
0100
1000
0100
0000
0010
,
0001
0100
1000
0100
0001
0100
1000
0100
0001
0100
0000
0010
,
1000
0100
0001
0100
0000
0010
0100
0010
0001
0010
0000
0010
,
0001
0100
0010
0001
0000
0010
1000
0100
0010
1000
0000
0010
,
0001
0000
1000
0000
0001
0000
2000
0000
0000
0000
0000
0000
0000
0000
0000
0001
0000
0000
3001
0000
0000
0000
0000
0000
,
0001
0010
0000
0100
1000
0010
0001
0010
,
1000
0100
1000
0100
0010
0001
0010
0000
,
0001
0100
0000
0010
1000
0010
0100
0001
,
1000
1000
0001
0001
0100
0100
0110
0000
,
0010
1000
0000
0001
0100
0000
0010
0001
,
0010
1000
0010
0100
0001
0010
1000
0010
,
0001
0100
0010
1000
0100
0010
0001
1000
,
0010
0100
0000
0001
0000
1000
0000
0010
0000
0100
0010
0000
1001
0000
0010
0100
,
0020
0000
1000
0000
0001
0000
1030
0001
,
0010
0100
1001
0010
0100
1000
0002
0000
,
0000
0000
0103
0001
0000
1000
0010
0000
,
0010
0100
0001
0001
0010
0010
0100
0100
,
1000
0001
0100
1000
0100
0001
0100
1000
,
0100
0010
0100
0001
1000
0010
0100
0001
,
0010
0100
1000
0000
0010
0100
0001
0000
1000
0100
0010
0000
0100
0000
1000
0000
,
0001
0010
0000
0100
1000
0010
0100
0001
,
0022
0033
0000
0000
;

//---------------dance-single - ----------------
#NOTES:
     dance-single:
     :
     Hard:
     16:
     0.845604,1.006206,0.174830,0.133203,1.223807,711.000000,690.000000,21.000000,16.000000,0.000000,0.000000,0.845604,1.006206,0.174830,0.133203,1.223807,711.000000,690.000000,21.000000,16.000000,0.000000,0.000000:
0000
0000
0000
0000
,
0000
0000
0000
0000
,
0000
0000
0000
0000
,
0000
0000
0000
0000
,
0000
0000
0000
0010
1000
0000
0000
1100
0000
0000
0010
0000
0000
0000
0001
0000
,
0000
0000
0000
0100
0001
0000
0101
0000
0000
0010
0000
0000
0100
0000
1000
0000
,
1010
0000
0000
0100
0001
0000
0000
1001
0000
0000
0010
0000
0000
0000
1000
0000
,
1001
0000
0001
0000
0100
0010
0100
0000
0010
0001
0010
0000
0010
1000
0010
0000
,
1000
0100
1000
0010
1000
0000
0001
0100
0001
0010
0001
1000
0001
0100
0001
1000
,
0010
0000
0100
0001
1000
0000
0010
1000
0100
0000
0010
0001
0100
0000
0010
1000
,
0001
0000
0100
0001
0010
0000
0001
1000
0100
0000
1000
0010
0100
0000
0001
0010
,
0100
0000
1000
0010
1000
0100
1000
0010
0100
0001
0100
0010
0100
0001
0010
0100
,
1000
0000
0001
0010
0001
1000
0001
0100
0010
1000
0010
0100
0010
1000
0001
0100
,
0001
1000
0010
0100
0001
0010
0100
1000
0010
0100
0001
0010
0001
1000
0100
1000
,
0010
0100
0001
1000
0001
0100
0010
1000
0001
0010
0100
1000
0100
0010
0001
0100
,
0010
0000
1000
0100
1000
0000
0001
0100
0001
0000
1000
0100
1000
0000
0001
0100
,
0001
0000
0000
1000
0100
0000
0000
1100
0000
0000
0001
0000
0000
0000
1000
0000
,
0000
0000
0000
1000
0010
0000
1010
0000
0000
0100
0000
0000
0001
0000
1000
0000
,
0000
0000
0000
0001
0100
0000
0000
0101
0000
0000
1000
0000
0000
0000
0001
0000
,
0000
0000
0000
0010
0001
0000
0011
0000
0000
1000
0000
0000
0010
0000
0100
0000
,
0101
0000
0000
0001
1000
0000
0000
1010
0000
0000
0100
0000
0000
0000
0001
0000
,
0000
0000
0000
0010
0100
0000
0000
1100
0000
0000
1000
0000
0000
0000
0010
0100
,
0001
0000
0000
0000
0010
0100
1000
0100
0010
0000
0000
0000
0001
0100
1000
0100
,
0001
0000
1000
0000
0000
0010
0100
0000
0001
0000
0010
0000
0100
1000
0100
0000
,
1000
0010
1000
0000
0000
0000
1000
0100
1000
0000
0000
0000
0000
0000
1000
0010
,
0100
0001
0100
0000
0000
0000
0001
0010
0001
0000
0000
0000
0001
0100
0010
1000
,
0010
0100
0001
0000
0000
0000
0100
0010
0100
0000
0000
0000
0010
1000
0010
0100
,
0001
1000
0001
0000
1000
0001
0000
0100
0000
0001
1000
0000
1001
0000
0010
0100
,
0001
1000
0010
0000
0000
0000
0100
0001
1000
0000
0000
0000
0000
0000
0010
0100
,
0001
1000
0001
0100
0010
0000
1000
0001
0100
0010
0100
0001
1000
0100
0010
0001
,
1000
0010
1000
0010
1000
0000
0001
0100
0001
0100
0001
0000
0000
0000
0000
0000
,
0100
0000
0010
0100
0010
0100
0010
1000
0000
0001
0000
0100
0020
0000
0230
0000
,
0000
0000
0000
0000
0301
0000
0010
0001
0010
0000
0001
0010
0001
0000
0010
0001
,
0010
0000
0001
0100
0001
0000
0100
0001
0100
0000
0001
0100
0001
0000
0100
0001
,
0100
0000
0000
0010
0000
0000
1000
0000
0000
0100
0000
0000
0010
0000
0001
0100
,
0010
0000
0000
1000
0000
0000
0001
0000
0000
1000
0000
0000
0010
0000
0100
0001
,
1000
0000
0010
1000
0010
0000
1000
0010
1000
0000
0010
1000
0001
0000
1000
0001
,
1000
0000
0001
0100
0001
0000
1000
0010
1000
0000
0010
0100
0001
1000
0001
0100
,
0010
1000
0100
1000
0010
0100
0001
0100
0010
1000
0100
0010
0001
0010
0100
1000
,
0001
0010
0001
0010
0001
0000
1000
0000
0100
1000
0100
1000
0100
0000
0000
0000
,
0010
0000
0100
1000
0100
0010
0001
0100
0010
1000
0000
1000
,
0010
0000
0010
0100
0001
1000
0010
1000
0100
0010
0000
0000
,
0011
0000
0001
1000
0010
0100
0001
0000
0010
0100
0000
0010
,
0001
0000
1000
0010
0100
0010
0001
0010
1000
0100
0000
0000
,
1100
0000
1000
0001
0000
0100
1000
0100
0010
0100
0000
0001
,
1000
0000
1000
0010
0100
1000
0100
0001
0010
0100
0000
1000
,
0001
0000
0001
0100
0010
1000
0010
0100
0001
1000
0000
0010
,
0100
0000
0001
1000
0000
0100
0010
0001
0010
0100
0000
1000
,
0010
0000
0000
0000
0100
0000
0001
0000
0010
0000
0001
0000
0100
0000
0001
0010
0001
0000
0100
0000
0000
0000
0010
0000
,
1000
0000
0000
0000
0100
0000
1000
0000
0010
0000
1000
0000
0100
0000
1000
0010
1000
0000
0100
0000
0000
0000
0000
0000
,
0010
0000
0000
0000
0001
0000
1000
0000
0010
0000
0100
0000
0001
0000
1000
0001
1000
0000
0010
0000
0000
0000
0100
0000
,
0001
0000
0010
0000
1000
0000
0010
0000
0001
1000
0001
0000
0100
0000
0010
0100
0010
0000
1000
0000
0000
0000
0000
0000
,
1000
0010
0001
0010
1000
0010
0001
0010
1000
1001
0000
1000
,
0001
0100
1000
0100
0001
0100
1000
0100
0001
1001
0000
0001
,
1000
0000
1000
0010
0000
0010
0100
0000
0100
0001
0000
0001
,
0010
0100
0001
0100
1000
0010
0100
1000
0100
0002
0000
0000
,
2000
0000
0000
0000
3003
0010
1001
0000
,
1000
0100
0001
0000
0000
0000
0001
0100
0010
0100
1000
0000
0000
0000
1000
0010
,
0100
0001
0010
0001
0010
0000
0100
1000
0010
1000
0010
1000
0010
0000
0100
0001
,
1000
0010
0100
0010
1000
0000
0001
0000
0000
0000
0010
0000
0100
0000
1000
0000
,
0010
0000
0100
0000
0001
1000
0000
0110
0000
1000
0001
0000
0110
0000
0000
0000
,
0001
0100
1000
0000
0000
0000
1000
0100
0010
0100
0001
0000
0000
0000
0001
0100
,
0010
1000
0100
1000
0100
0000
0010
0001
0010
0001
0100
0001
0100
0010
1000
0100
,
0010
0000
0001
0010
0100
1000
0010
0100
0001
0010
0001
0010
0001
0100
0001
0100
,
0010
0100
0010
0100
0010
1000
0010
1000
0000
0100
0000
0010
0001
0000
0110
0000
,
2000
3200
0320
0032
,
0103
0010
1000
0010
0100
0001
0010
0000
0001
0100
0010
0000
2000
0000
0000
0000
,
0000
0000
0000
0000
3001
0000
0100
0001
0100
0000
0001
0100
0002
0000
0000
0000
,
1003
0000
0001
0100
0001
0000
0100
0010
0100
0000
0010
1000
0010
0000
1000
0100
,
1000
1000
0100
0100
0010
0010
0002
0000
,
0203
0000
0000
0320
0000
0000
2030
0000
0000
3002
0000
0000
0103
0000
0010
0000
,
1000
0000
0010
0100
0001
0000
0010
0100
1000
0000
0010
0100
0001
1000
0010
0100
,
0001
0000
1000
0000
0000
0010
0001
0000
0010
0000
1000
0000
0100
0001
0100
0000
,
2000
3000
0000
0000
;

//---------------dance-single - ----------------
#NOTES:
     dance-single:
     :
     Easy:
     11:
     0.460266,0.640313,0.108228,0.291383,0.283057,387.000000,374.000000,13.000000,35.000000,0.000000,0.000000,0.460266,0.640313,0.108228,0.291383,0.283057,387.000000,374.000000,13.000000,35.000000,0.000000,0.000000:
0000
0000
0000
0000
,
0000
0000
0000
0000
,
0000
0000
0000
0000
,
0000
0000
0000
0000
,
0000
0000
0000
0000
0010
0000
0000
1000
0000
0000
0100
0000
0000
0000
1000
0000
,
0000
0000
0000
0000
0010
0000
0100
0000
0000
0001
0000
0000
0100
0000
0010
0000
,
1000
0000
0000
0000
0001
0000
0000
0100
0000
0000
2000
0000
0000
0000
3100
0000
,
0001
0010
0001
0000
1000
0100
0010
0001
,
1000
0000
0010
0000
0100
0000
0001
0010
,
0100
1000
1000
1000
,
0010
0010
0010
0010
,
0100
0001
1000
0000
0010
1000
0001
1000
,
0100
0010
0001
0000
0100
0010
0100
0010
,
0100
0001
0100
0001
0100
0000
0010
0000
,
1000
0100
1000
0100
1000
0010
1000
0010
,
0000
0100
0000
0100
0000
0100
0000
0100
,
0000
0000
0000
0000
0001
0000
0000
0100
0000
0000
0010
0000
0000
0000
1000
0000
,
0000
0000
0000
0000
1000
0000
0100
0000
0000
0010
0000
0000
0001
0000
0010
0000
,
0000
0000
0000
0000
0100
0000
0000
1000
0000
0000
0010
0000
0000
0000
0100
0000
,
0000
0000
0000
0000
0001
0000
1000
0000
0000
0010
0000
0000
0100
0000
0010
0000
,
0000
0000
0000
0000
1000
0000
0000
0100
0000
0000
0010
0000
0000
0000
0001
0000
,
0000
0000
0000
0000
0100
0000
0000
0001
0000
0000
1000
0000
0000
0000
0110
0000
,
0000
0000
0000
0000
0010
0000
0000
1000
0000
0000
0000
0000
0001
0000
0100
0000
,
0010
1000
0000
0100
0010
0000
0001
1000
,
0001
0100
0000
0001
0100
0000
0000
0010
,
1000
0100
1000
0010
0000
0000
0000
0100
,
0001
1000
0000
0010
0000
0000
0000
0100
,
0001
1000
0000
0010
0000
0000
0000
0000
,
1000
0100
0000
1000
0100
0000
0000
1000
,
0010
0100
0010
1000
000F
0F00
000F
F000
,
0010
0100
0001
0100
0010
1000
0100
1000
,
0001
0000
1000
0000
0010
0100
0000
0001
0000
0100
0000
0010
0200
0000
0000
0000
,
0000
0302
0000
0003
,
2000
0000
0000
3000
,
0020
0000
0000
2030
0000
0000
3002
0000
0000
0203
0000
0000
0302
0000
0013
0100
,
2000
0000
0000
3020
0000
0000
0230
0000
0000
0302
0000
0000
2003
0000
0001
3010
,
0200
0000
0000
2300
,
3002
0000
0000
2003
0000
0000
3020
0000
0000
0230
0000
0000
0301
0000
0010
0000
,
0002
0000
0000
0003
,
1000
0010
0000
0100
0001
0100
0010
0000
,
1200
0010
0010
0310
,
2000
0001
0100
3001
,
0020
0100
0100
0130
,
2000
0010
0100
3001
,
0200
0001
0010
0301
,
0020
0100
1000
0130
,
2000
0010
0100
3001
,
0002
0010
0100
1003
,
1010
0000
0000
0100
0001
0100
0001
0100
0001
0100
0000
0000
,
0011
0000
0000
0100
1000
0100
1000
0100
1000
0100
0000
0000
,
1001
0000
0000
0010
0100
0001
0100
0010
0100
0001
0000
0000
,
1001
0000
0000
0100
0010
1000
0010
0100
0010
1000
0000
0000
,
0001
0100
0001
0100
0001
0100
0001
0100
0001
0100
0000
0000
,
0010
1000
0010
1000
0010
1000
0010
1000
0010
1000
0000
0000
,
1000
0010
0100
0010
0000
0000
0100
0001
0010
0001
0000
0000
,
0100
0010
0100
0001
1000
0001
0100
0010
0100
0001
0000
0000
,
2002
0000
0000
0000
3003
0010
0100
0000
,
0001
0010
0000
0001
1000
0000
0000
0010
,
1000
0100
1000
0000
0010
0100
0001
0000
,
0010
0100
0000
0010
0001
0000
0000
0000
,
0001
0000
0100
0000
0010
1000
0000
1010
0000
0100
0001
0000
0101
0000
0000
0000
,
0010
1000
0000
0100
0010
0000
0000
0100
,
1000
0010
0100
0001
0010
0100
1000
0010
,
1000
0100
0001
0100
1000
0010
0001
0010
,
1000
0000
0100
0000
0010
0001
0000
0011
0000
1100
0000
0100
1000
0000
0000
0000
,
0020
0000
0000
0200
,
0000
0000
0330
0001
,
1000
1001
0100
0001
,
0100
1000
1000
0010
0010
0100
0100
0001
,
0001
0010
0100
1000
0100
0010
0001
0000
,
1000
0100
1000
0010
0100
0001
1000
0010
,
0100
0001
0100
0001
,
1000
0000
0010
0000
0000
0100
0001
0000
0100
0000
0010
0000
1000
0000
0000
0000
,
2020
3030
0000
0000
;

//---------------dance-double - ----------------
#NOTES:
     dance-double:
     :
     Easy:
     12:
     0.495945,0.640313,0.099903,0.274732,0.312196,417.000000,405.000000,12.000000,33.000000,0.000000,0.000000,0.495945,0.640313,0.099903,0.274732,0.312196,417.000000,405.000000,12.000000,33.000000,0.000000,0.000000:
00000000
00000000
00000000
00000000
,
00000000
00000000
00000000
00000000
,
00000000
00000000
00000000
00000000
,
00000000
00000000
00000000
00000000
,
00000000
00000000
00000000
00000000
00010000
00000000
00000000
00000100
00000000
00000000
00010000
00000000
00000000
00000000
00001000
00000000
,
00000000
00000000
00000000
00000000
00010000
00000000
00001000
00000000
00000000
01000000
00000000
00000000
00001000
00000000
00010000
00000000
,
00000000
00000000
00000000
00000000
00000100
00000000
00000000
00000010
00000000
00000000
00000001
00000000
00000000
00000000
00001000
00000000
,
00000000
00000000
00000100
00010000
00001000
00010000
00000100
00000100
,
00010000
00001000
01000000
00001000
,
00100000
00010000
00100000
00000000
00010000
01000000
00010000
00000000
,
01000000
00100000
10000000
00100000
01000000
00100000
10000000
00000000
,
00010000
10000000
00100000
00000000
00100000
10000000
00010000
00000000
,
01000000
00010000
01010000
00000000
00100000
00001000
00101000
00000000
,
00010000
00000100
00001000
00000100
00010000
00000100
00001000
00000000
,
00000010
00000100
00000110
00000000
00001000
00000001
00001001
00000000
,
00000020
00010000
00000000
00010000
00000000
00010000
00000000
00010030
,
00000000
00000000
00000000
00000000
00001000
00000000
00000000
01000000
00000000
00000000
00010000
00000000
00000000
00000000
00100000
00000000
,
00000000
00000000
00000000
00000000
00001000
00000000
00010000
00000000
00000000
00000100
00000000
00000000
00000010
00000000
00000001
00000000
,
00000000
00000000
00000000
00000000
00001000
00000000
00000000
00000100
00000000
00000000
00010000
00000000
00000000
00000000
00001000
00000000
,
00000000
00000000
00000000
00000000
00100000
00000000
00010000
00000000
00000000
01000000
00000000
00000000
00010000
00000000
10000000
00000000
,
00000000
00000000
00000000
00000000
00100000
00000000
00000000
10000000
00000000
00000000
00010000
00000000
00000000
00000000
01000000
00000000
,
00000000
00000000
00000000
00000000
00010000
00000000
00000000
00100000
00000000
00000000
00001000
00000000
00000000
00000000
00010000
00000000
,
00002000
00000000
00010000
00010000
00023000
00000000
00000100
00000100
,
00030100
00000000
00000010
00000000
00000000
00000001
00001000
00000000
00000001
00000000
00000100
00000000
00000010
00000000
00001000
00000000
,
00000100
00010000
00000000
00000100
00010000
00000000
00000000
00001000
,
00100000
00010000
00100000
00000000
00001000
00010000
00001000
00000000
,
00010000
00000100
00000000
00010000
00000000
00000000
00000000
00000000
,
00001000
00000000
01000000
00000000
00100000
10000000
00000000
00100000
00000000
10000000
00000000
00100000
10000000
00000000
00000000
00000000
,
00010000
00100000
00000000
00010000
00100000
00000000
00000000
00001000
,
00010000
00000100
00010000
00000000
00000010
00000100
00000001
00000000
,
00001000
00000100
00001000
00000010
00001000
00000100
00001000
00000000
,
00000100
00000000
00010000
00000000
00000010
00010000
00000000
00001000
00000000
00010000
00000000
00001000
00200000
00000000
00000000
00000000
,
00000000
00000000
00301000
00010000
00001000
00010000
00001000
00010000
,
00000100
00001000
00000100
00001000
00000100
00001000
00000100
00001000
,
00000010
00000000
00000000
00000100
00000000
00000000
00000001
00000000
00000000
00001000
00000000
00000000
00000100
00000000
00010000
00000000
,
00001000
00000000
00000000
00100000
00000000
00000000
00010000
00000000
00000000
10000000
00000000
00000000
00100000
00000000
01000000
00000000
,
00010000
00100000
00010000
00100000
00010000
00100000
00010000
00000000
,
10000000
00000000
00000000
01000000
00000000
00000000
00100000
00000000
00000000
00001000
00000000
00000000
00010000
00000000
00100000
00000000
,
01000000
10000000
00100000
01000000
00001000
00010000
00000010
00000100
,
00000001
00000100
00000101
00000000
00001000
00000010
00001010
00000000
,
00000200
00000000
00000000
00010300
00001000
00010000
00001000
00000000
00000000
00100000
00000000
00000000
,
00020000
00000000
00000000
01030000
00100000
01000000
00100000
00000000
00000000
10000000
00000000
00000000
,
00020000
01030000
00100000
01010000
,
00100000
00100000
00001000
00001000
,
00020000
00000000
00000000
00030100
00000010
00000100
00000010
00000000
00000000
00000100
00000000
00000000
,
00002000
00000000
00000000
00003001
00000100
00000001
00000100
00000000
00000000
00000010
00000000
00000000
,
00020000
00000000
00000000
00031000
01000000
00100000
10000000
00000000
00000000
00010000
00000000
00000000
,
01000000
00100000
10000000
00010000
00000000
00000000
10010000
00000000
00000000
00100000
00000000
00000000
,
01000000
00000000
01000000
00010000
00000000
00010000
01000000
00000000
01000000
00010000
00000000
00000000
,
00100000
00000000
00100000
00001000
00000000
00001000
00100000
00000000
00100000
00001000
00000000
00000000
,
00010000
00000000
00010000
00001000
00000000
00001000
00010000
00000000
00010000
00001000
00000000
00000000
,
00010000
00000000
00000100
00000010
00000000
00000000
00000001
00000000
00000100
00000010
00000000
00000000
,
00010000
00001000
00010000
00001000
00010000
00001000
00010000
00001000
00010000
00001000
00000000
00000000
,
00001000
00010000
00001000
00010000
00001000
00010000
00001000
00010000
00001000
00010000
00000000
00000000
,
00001000
01000000
00001000
01000000
00000000
00000000
01000000
00100000
01000000
00100000
00000000
00000000
,
00200000
20300000
30020000
02030000
,
03002000
00000000
00000000
00000000
00000000
00010000
00013000
00000000
,
00001000
00010000
00000000
00000100
00010000
00000000
00000000
00000100
,
00001000
00000010
00000100
00000000
00000001
00000010
00000100
00000000
,
00010000
00001000
01000000
00000000
00001000
00000000
01000000
00000000
,
00100000
00000000
10000000
00000000
00010000
01000000
00000000
00010000
00000000
01000000
00000000
00010000
01000000
00000000
00000000
00000000
,
00100000
10000000
00000000
00010000
01000000
00000000
00000000
00010000
,
00100000
00001000
00100000
00000000
00001000
00010000
00000100
00010000
,
00001000
00100000
00001000
00010000
00000100
00000010
00000001
00000100
,
00000001
00000000
00001000
00000000
00000010
00001000
00000000
00000010
00000000
00001000
00000000
00000010
00001000
00000000
00000000
00000000
,
00000200
00000000
00000300
00010000
,
00001000
00010000
00001000
02000000
,
03100000
00000000
20020000
30030000
22000000
33000000
00220000
00330000
,
01000000
00000000
00000000
00002000
00000000
00000000
00020000
00000000
00000000
00000000
00033000
00000000
00000100
00000000
00001000
00000000
,
00000020
00000000
00000000
00000230
,
00000302
00000000
00000000
00002003
00000000
00000000
00003020
00000000
00000000
00000230
00000000
00000000
00000310
00000000
00001000
00000000
,
00000100
00000010
00000001
00000100
00000010
00001000
00000100
00010000
,
00001000
00000000
00100000
00000000
00000000
00010000
10000000
00000000
00010000
00000000
01000000
00000000
00100000
00000000
10000000
00000000
,
20020000
30030000
00000000
00000000
;

//---------------dance-double - ----------------
#NOTES:
     dance-double:
     :
     Medium:
     14:
     0.654124,0.823260,0.191480,0.191480,0.715969,550.000000,527.000000,23.000000,23.000000,0.000000,0.000000,0.654124,0.823260,0.191480,0.191480,0.715969,550.000000,527.000000,23.000000,23.000000,0.000000,0.000000:
00000000
00000000
00000000
00000000
,
00000000
00000000
00000000
00000000
,
00000000
00000000
00000000
00000000
,
00000000
00000000
00000000
00000000
,
00110000
00000000
00000000
00000000
00100000
00000000
00000000
00001000
00000000
00000000
00010000
00000000
00000000
00000000
00010000
00000000
,
00000000
00000000
00000000
00000000
00000010
00000000
00010000
00000000
00000000
00001000
00000000
00000000
00001000
00000000
00100000
00000000
,
00000000
00000000
00000000
00000000
00010000
00000000
00000000
01000000
00000000
00000000
00001000
00000000
00000000
00000000
00001000
00000000
,
00010000
00000000
00000010
00000000
00000100
00000001
00000100
00000001
00001000
00000010
00001000
00000000
00000001
00000010
00000001
00000000
,
00001000
00000000
00000100
00000010
00000100
00000000
00000100
00001000
00000100
00000010
00000100
00001000
00000100
00000010
00000100
00001000
,
00000001
00000000
00000100
00000010
00000000
00000010
00001000
00000000
00001000
00000001
00000000
00000001
00000100
00000000
00000100
00001000
,
00010000
00000000
00001000
00010000
01000000
00000000
00010000
01000000
10000000
00000000
00100000
01000000
00010000
00000000
01000000
00100000
,
10000000
00000000
00100000
01000000
00010000
00000000
10000000
00010000
10000000
00100000
10000000
00010000
10000000
00100000
10000000
00010000
,
01000000
00000000
00010000
00000000
00101000
00000000
00000000
00000000
00010000
00000100
00001000
00000100
00000010
00000000
00000001
00001000
,
00000100
00000000
00001000
00000000
00000110
00000000
00000000
00000000
00001000
00000010
00000100
00000000
00000001
00000010
00000100
00000000
,
00010000
00001000
00010000
00001000
00010000
00000000
00001000
00010000
00001000
00010000
00001000
00010000
00001000
00000000
01000000
00010000
,
10000000
00200000
00300000
00200000
00300000
00200000
00300000
00100000
,
01100000
00000000
00000000
00000000
00010000
00000000
00000000
01000000
00000000
00000000
00001000
00000000
00000000
00000000
00010000
00000000
,
00000000
00000000
00000000
00000100
00001000
00000000
00000010
00000000
00000000
00000010
00000000
00000000
00010000
00000000
00010000
00000000
,
00000000
00000000
00000000
00000000
00001000
00000000
00000000
01000000
00000000
00000000
00100000
00000000
00000000
00000000
00100000
00000000
,
00000000
00000000
00000000
00000000
00100000
00000000
01000000
00000000
00000000
00001000
00000000
00000000
00010000
00000000
00001000
00000000
,
00011000
00000000
00000000
00000000
00010000
00000000
00000000
00000200
00000000
00000000
00001000
00000000
00000000
00000000
00000310
00000000
,
00000000
00000000
00000000
00000000
00020000
00000000
00000000
00000100
00000000
00000000
00001000
00000000
00000000
00000000
00130000
00000000
,
00011000
00000000
00000000
00000000
01000000
00001000
01000000
00001000
01000000
00000000
00000000
00000000
00000100
00010000
00000100
00010000
,
00000100
00010000
00000000
00001000
00001000
00100000
00010000
00010000
,
01000000
00000000
00010000
00000000
00000000
00000000
01000000
00000000
00100000
00000000
00000000
00000000
00000000
00000000
10000000
00010000
,
10000000
00010000
10000000
00000000
00100000
00000000
01000000
00000000
00010000
00000000
10000000
00000000
10010000
00000000
00000000
00000000
,
00100000
00001000
00100000
00001000
00100000
00000000
00001000
00000000
00100000
00000000
00000000
00000000
00000000
00000000
00000000
00000000
,
00000100
00010000
00000100
00010000
00000100
00010000
00000000
00001000
00000000
00010000
00000100
00000000
00001010
00000000
00000000
00000000
,
00000100
00000000
00000001
00000000
00000000
00000000
00001000
00000000
00000010
00000000
00000000
00000000
00000000
00000000
00000100
00000010
,
00000100
00000010
00000100
00000000
00000001
00000000
00001000
00000000
00000010
00000000
00000100
00000000
00000001
00000000
00001000
00000000
,
00000001
00000100
00001000
00010000
01000000
10000000
00100000
01000000
,
00010000
00000000
10000000
00000000
00010000
10000000
00000000
00010000
00000000
10000000
00000000
00010000
20000000
00000000
00000000
00000000
,
00000000
30200000
00000000
00000000
,
02300000
00000000
00000000
00000000
,
03020000
00000000
00000000
00230000
00000000
00000000
00320000
00000000
00000000
02030000
00000000
00000000
03100000
00000000
10000000
01000000
,
00020000
00000000
00000000
00032000
00000000
00000000
00003020
00000000
00000000
00000032
00000000
00000000
00001003
00000000
00000001
00000100
,
00000002
00000000
00000000
00000000
00000000
00000003
00001001
00000000
,
00000200
00000000
00000000
00010000
00000000
00000000
00001000
00000000
00000000
00010000
00000300
00000000
00000100
00000000
00010000
00000000
,
00001000
00100000
00001000
00100000
00010000
01000000
00010000
01000000
00010000
10000000
00010000
10000000
00010000
00000000
00000000
00000000
,
10000000
01000000
00010000
01000000
10000000
01000000
00100000
00000000
,
00110000
00000000
00100000
00010000
01000000
00010000
00100000
00010000
01000000
00010000
00000000
00000000
,
11000000
00000000
01000000
10000000
00010000
10000000
01000000
00010000
00001000
00000100
00000000
00000000
,
00001001
00000000
00000010
00001000
00000100
00001000
00000010
00001000
00000100
00001000
00000000
00000000
,
00000010
00000000
00000010
00001000
00000000
00001000
00000001
00000000
00000001
00000100
00000000
00000000
,
00000011
00000000
00000010
00000001
00000100
00000001
00000010
00000001
00000100
00000001
00000000
00001000
,
00000001
00000000
00000001
00001000
00000100
00001000
00000001
00000100
00001000
00010000
00000000
01000000
,
10000000
00000000
00100000
01000000
00010000
01000000
00100000
01000000
00010000
01000000
00000000
00000000
,
00010000
00000000
00010000
00100000
00000000
00100000
01000000
00000000
01000000
10000000
00000000
00000000
,
11000000
00000000
10000000
01000000
00100000
00010000
10000000
01000000
00100000
00010000
00000000
00000000
,
01001000
00000000
00000000
01000000
00001000
00010000
00000100
00010000
00001000
01000000
00000000
00000000
,
00010100
00000000
00000100
00001000
00000010
00000100
00000001
00000010
00000100
00001000
00000000
00000000
,
00000010
00000100
00000001
00001000
00000010
00000100
00000001
00001000
00000010
00000100
00000000
00000000
,
00000001
00000010
00000001
00000010
00000001
00000010
00000001
00000010
00000001
00000010
00000000
00001000
,
00010000
00100000
00010000
00100000
00010000
00100000
00010000
00100000
00010000
00100000
00000000
00010000
,
00001000
00000100
00001000
00000100
00000000
00001000
00010000
01000000
00010000
01000000
00000000
00000000
,
10010000
01001000
00011000
00010010
,
00000200
00000000
00000000
00000000
00000000
00000010
00000310
00000000
,
00001000
00000000
00000100
00000000
00000000
00000000
00001000
00000000
00000001
00000000
00000000
00000000
00000000
00000000
00000100
00000010
,
00001000
00000010
00000100
00000000
00000001
00000000
00000010
00000000
00000100
00000000
00001000
00000000
00001001
00000000
00000000
00000000
,
00000001
00000100
00000010
00001000
00000000
00000000
00000000
00000000
,
00000100
00010000
00000100
00010000
00001000
00100000
00000000
00010000
00000000
01000000
00000000
00100000
10000000
00000000
00000000
00000000
,
00100000
00000000
01000000
00000000
00000000
00000000
00010000
00000000
10000000
00000000
00000000
00000000
00000000
00000000
00010000
00100000
,
01000000
00100000
00010000
00000000
10000000
00000000
01000000
00000000
00100000
00000000
00010000
00000000
01000000
00000000
00100000
00000000
,
00010000
00001000
00000100
00000001
00001000
00000010
00000100
00000001
,
00000010
00000000
00000100
00000000
00001000
00000001
00000000
00000100
00000000
00000010
00000000
00010000
00002000
00000000
00000000
00000000
,
00010000
00010000
00010000
00013000
,
00000100
00010000
00001000
01000000
00001000
00010000
00000200
00000000
,
00000000
00000000
00000310
00000001
00000010
00000001
00000011
00000000
,
00000001
00000100
00000001
00000100
00001000
00000100
00001000
00010000
,
01000000
10000000
01000000
10000000
01000000
10000000
00010000
00100000
,
01000000
10000000
00100000
00010000
00001000
00000100
00000001
00001000
,
00000010
00000010
00000010
00000010
00000010
00000010
00000010
00000000
,
00010000
00000000
00001000
00000000
00000000
00001000
00010000
00000000
00000100
00000000
00001000
00000000
00000010
00000100
00000010
00000000
,
00002200
00003300
00000000
00000000
;

//---------------dance-single - ----------------
#NOTES:
     dance-single:
     :
     Beginner:
     4:
     0.152233,0.274420,0.074927,0.133203,0.000000,128.000000,119.000000,9.000000,16.000000,0.000000,0.000000,0.152233,0.274420,0.074927,0.133203,0.000000,128.000000,119.000000,9.000000,16.000000,0.000000,0.000000:
0000
0000
0000
0000
,
0000
0000
0000
0000
,
0000
0000
0000
0000
,
0000
0000
0000
0000
,
0000
0010
0000
0000
,
0000
0100
0000
0100
,
0000
0010
0000
0000
,
1001
0000
0000
0000
,
1000
0000
0100
0000
,
1000
0000
1000
0000
,
1000
0000
1000
0000
,
0001
0000
0010
0000
,
0001
0001
0000
1000
,
0000
0010
0000
0100
,
0000
0010
0000
1000
,
2000
0000
0000
3000
,
0000
0010
0000
0000
,
0000
0100
0000
0010
,
0000
0010
0000
0000
,
0000
1000
0000
0001
,
0001
0001
0000
0000
,
0000
0100
0000
0010
,
0010
0000
1000
0000
,
1001
0000
0000
0000
,
1000
0000
0100
0000
,
1000
0000
1000
0000
,
0001
0000
0100
0000
,
0001
0000
0000
0000
,
0001
0000
0010
0000
,
0001
0000
0001
0000
,
1000
0000
0100
0000
,
1000
0000
0000
0000
,
0000
2000
3000
0000
,
0200
0000
0300
0000
,
0020
0000
0030
0000
,
0002
0000
0003
0000
,
0200
0300
0000
0020
,
0000
0000
0030
0000
,
2000
0000
0000
3000
,
1000
0000
0000
0000
,
0000
0001
0001
0000
,
0000
0100
0100
0000
,
0010
0010
0000
0000
,
0000
1000
1000
0000
,
0000
1000
1000
0000
,
0000
0100
0100
0000
,
0000
0010
0010
0000
,
0000
0001
0001
0000
,
0100
0100
0100
0000
,
0010
0010
0010
0000
,
1000
1000
1000
0000
,
0001
0001
0001
0000
,
1001
0000
0010
0000
,
0110
0000
1000
0000
,
1001
0000
0110
0000
,
1001
0000
0110
0000
,
0200
0000
0000
0300
,
0100
0000
0010
0000
,
0100
0000
0100
0000
,
0001
0000
1000
0000
,
0010
0010
0010
0000
,
1000
0000
0100
0000
,
1000
0000
0100
0000
,
1000
0000
1000
0000
,
0100
0000
0010
0020
,
0000
0030
0000
0002
,
0000
0000
0000
0000
,
0000
0000
0003
0000
,
2000
0000
3000
0000
,
0200
0300
0000
0020
,
0000
0000
0000
0030
,
0010
0000
0000
0000
,
0001
0000
1000
0000
,
2002
3003
0000
0000
;

//---------------dance-double - ----------------
#NOTES:
     dance-double:
     :
     Challenge:
     18:
     1.045409,1.219644,0.374635,0.183155,1.640068,879.000000,834.000000,45.000000,22.000000,0.000000,0.000000,1.045409,1.219644,0.374635,0.183155,1.640068,879.000000,834.000000,45.000000,22.000000,0.000000,0.000000:
// measure 0
00000000
00000000
00000000
00000000
,  // measure 1
00000000
00000000
00000000
00000000
,  // measure 2
00000000
00000000
00000000
00000000
,  // measure 3
00000000
00000000
00000000
00000000
,  // measure 4
00000000
00000000
00000000
00000000
00000000
00000000
00000000
00000000
00010000
00000000
01000000
00000000
00100000
00000000
00000000
00000000
00000000
00000000
00000000
00000000
00000000
10100000
00000000
00000000
00000000
00000000
00000000
00000000
00000000
00000000
01010000
00000000
00000000
00000000
00000000
00000000
00000000
00000000
00000000
00000000
00000000
00000000
00101000
00000000
00000000
00000000
00000000
00000000
,  // measure 5
00000000
00000000
00000000
00000000
00000000
00000000
00000000
00000000
00010000
00000000
00000100
00000000
00001000
00000000
00000000
00000000
00000000
00000000
00001100
00000000
00000000
00000000
00000000
00000000
00000000
00000000
00000000
00001010
00000000
00000000
00000000
00000000
00000000
00000000
00000000
00000000
00000010
00000000
00000000
00000000
00000000
00000000
00000100
00000000
00000000
00000000
00000000
00000000
,  // measure 6
00000101
00000000
00000000
00000000
00000000
00000000
00000000
00000000
00000001
00000000
00001000
00000000
00000100
00000000
00000000
00000000
00000000
00000000
00000000
00000000
00000000
00001100
00000000
00000000
00000000
00000000
00000000
00000000
00000000
00000000
00010100
00000000
00000000
00000000
00000000
00000000
00000000
00000000
00000000
00000000
00000000
00000000
00011000
00000000
00000000
00000000
00000000
00000000
,  // measure 7
00010000
00000000
00001000
00000000
00010000
00001000
00000010
00001000
00010000
00100000
10000000
00000000
00010000
01000000
00100000
00000000
,  // measure 8
10000000
01000000
00100000
01000000
10000000
00000000
00010000
00100000
01000000
10000000
01000000
00100000
00010000
01000000
00100000
10000000
,  // measure 9
00100000
01000000
00010000
10000000
00100000
01000000
00010000
10000000
00010000
00100000
01000000
10000000
00010000
00100000
01000000
10000000
,  // measure 10
01000000
00100000
00001000
00010000
00000100
00001000
00000010
00000100
00000001
00000010
00000100
00001000
00000010
00000100
00000001
00001000
,  // measure 11
00000010
00000100
00000001
00000010
00000100
00000000
00001000
00000100
00000010
00000001
00001000
00000100
00000010
00000001
00000100
00000010
,  // measure 12
00001000
00000100
00000010
00000100
00001000
00000000
00000001
00000010
00000100
00001000
00000100
00000010
00000100
00000001
00000100
00000010
,  // measure 13
00000100
00000000
00010000
00001000
01000000
00010000
01000000
10000000
01000000
00010000
01000000
00100000
10000000
01000000
00100000
00010000
,  // measure 14
01000000
00010000
10000000
00100000
01000000
00010000
00100000
01000000
10000000
00010000
01000000
00100000
10000000
01000000
00100000
00010000
,  // measure 15
01000000
00000000
00001000
01000000
00001000
00000000
01000000
00001000
01000000
00000000
00001000
01000000
00001000
00000000
01000000
00001000
,  // measure 16
01000000
00000000
00000000
00000000
00000000
00000000
00000000
00000000
00001000
00000000
00010000
00000000
00000100
00000000
00000000
00000000
00000000
00000000
00000000
00000000
00000000
00001100
00000000
00000000
00000000
00000000
00000000
00000000
00000000
00000000
00010100
00000000
00000000
00000000
00000000
00000000
00000000
00000000
00000000
00000000
00000000
00000000
00011000
00000000
00000000
00000000
00000000
00000000
,  // measure 17
00000000
00000000
00000000
00000000
00000000
00000000
00000000
00000000
00010000
00000000
00001000
00000000
01000000
00000000
00000000
00000000
00000000
00000000
01001000
00000000
00000000
00000000
00000000
00000000
00000000
00000000
00000000
01100000
00000000
00000000
00000000
00000000
00000000
00000000
00000000
00000000
10100000
00000000
00000000
00000000
00000000
00000000
10000000
00000000
00000000
00000000
00000000
00000000
,  // measure 18
00000000
00000000
00000000
00000000
00000000
00000000
00000000
00000000
10000000
00000000
01000000
00000000
00100000
00000000
00000000
00000000
00000000
00000000
00000000
00000000
00000000
00101000
00000000
00000000
00000000
00000000
00000000
00000000
00000000
00000000
00011000
00000000
00000000
00000000
00000000
00000000
00000000
00000000
00000000
00000000
00000000
00000000
00010100
00000000
00000000
00000000
00000000
00000000
,  // measure 19
00000000
00000000
00000000
00000000
00000000
00000000
00000000
00000000
00000100
00000000
00010000
00000000
00001000
00000000
00000000
00000000
00000000
00000000
00011000
00000000
00000000
00000000
00000000
00000000
00000000
00000000
00000000
00010100
00000000
00000000
00000000
00000000
00000000
00000000
00000000
00000000
00000110
00000000
00000000
00000000
00000000
00000000
00000011
00000000
00000000
00000000
00000000
00000000
,  // measure 20
00001001
00000001
00000001
00000001
00000001
00000001
00000001
00000001
,  // measure 21
00000001
00000000
00000001
00000000
00000001
00000000
00000001
00000000
00000001
00000000
00000001
00000000
00000001
00000100
00001000
00010000
,  // measure 22
01000000
00000000
00000000
00000000
10000000
01000000
00010000
01000000
10000000
00000000
00000000
00000000
01000000
00010000
00001000
00000100
,  // measure 23
00000001
00000000
00001000
00000000
00000000
00000010
00000100
00000000
00001001
00000000
00000010
00000000
00001000
00000010
00000100
00000000
,  // measure 24
00000001
00000100
00001000
00000000
00000000
00000000
00010000
01000000
10000000
00000000
00000000
00000000
00000000
00000000
00100000
01000000
,  // measure 25
00010000
00100000
00010000
10000000
01000000
00100000
01000000
10000000
00010000
00100000
01000000
00010000
00001000
00000100
00000001
00001000
,  // measure 26
00000010
00000100
00000010
00000100
00000010
00000000
00001000
00000001
00001000
00000000
00000001
00000000
00000100
00000000
00000010
00001000
,  // measure 27
00000001
00000010
00000100
00001000
00000100
00000010
00000000
00000011
00000000
00001100
00000000
00000100
00010000
00000000
00001000
00010000
,  // measure 28
00100000
10000000
01000000
00000000
00000000
00000000
00010000
00001000
00000100
00000000
00000000
00000000
00000000
00000000
00000001
00001000
,  // measure 29
00000010
00000100
00000001
00000010
00000100
00010000
00001000
00100000
00010000
01000000
00010000
10000000
00100000
01000000
00100000
01000000
,  // measure 30
00010000
10000000
00100000
10000000
01000000
00100000
00010000
00100000
01000000
10000000
00100000
01000000
00010000
00100000
01000000
10000000
,  // measure 31
01000000
00000000
00010000
00000000
00001000
00010000
00000000
00010100
00000000
00010010
00000000
00000010
00000100
00000000
00000002
00000000
,  // measure 32
00000000
00000000
00000000
00000000
00000013
00000000
00000100
00001000
00010000
00000000
00001000
00000100
00000001
00000000
00000010
00000100
,  // measure 33
00001000
00000000
00000100
00000010
00000001
00000000
00000100
00001000
00010000
00000000
00100000
10000000
00010000
00000000
01000000
00010000
,  // measure 34
10000000
00100000
10000000
01000000
00100000
00010000
00100000
01000000
00100000
00010000
10000000
00100000
01000000
00100000
10000000
01000000
,  // measure 35
00010000
00001000
00000100
00000010
00001000
00000100
00000010
00000001
00000100
00000010
00001000
00000100
00000010
00000001
00000100
00000010
,  // measure 36
00001000
00000000
00000010
00000100
00000001
00000000
00000010
00000100
00001000
00000000
00000010
00000100
00000001
00000010
00000100
00001000
,  // measure 37
00000010
00000100
00000001
00000010
00000001
00000100
00000010
00001000
00000100
00001000
00000010
00000100
00000001
00000010
00000001
00001000
,  // measure 38
00000100
00000000
00000100
00010000
00001000
00000000
00001000
01000000
00010000
00000000
00010000
00100000
01000000
00000000
01000000
10000000
,  // measure 39
00100000
01000000
00100000
01000000
00100000
10000000
00100000
10000000
01000000
00100000
00010000
00100000
02000000
00000000
03000000
00000000
,  // measure 40
11000000
00000000
00000000
00000000
10000000
00000000
00100000
00000000
00010000
00000000
00001000
00000000
00000100
00000010
00001000
00000000
00000100
00000000
00020000
00000000
00000000
00000000
00031000
00000000
,  // measure 41
00020000
00000000
00000000
00000000
00030010
00000000
00001000
00000000
00000010
00001000
00000100
00000000
00000010
00000000
00000001
00000000
00000100
00000000
00002000
00000000
00000000
00000000
00013000
00000000
,  // measure 42
01000000
00000000
00000000
00000000
00100000
00000000
00010000
00000000
10000000
00000000
00010000
00000000
01000000
00000000
00100000
10000000
01000000
00000000
00100000
00000000
00000000
00000000
00010000
00000000
,  // measure 43
10000000
00000000
01000000
00000000
00010000
01000000
00100000
00000000
10000000
00000000
01000000
00100000
00010000
00000000
01000000
00000000
00001000
00000000
00020000
00000000
00000000
00000000
00030000
00000000
,  // measure 44
00011000
00000000
00000000
00000000
00001000
00000000
00000100
00000000
00000001
00001000
00000010
00000000
00001000
00000000
00000100
00001000
00000001
00000000
00000010
00000000
00000000
00000000
00000001
00000000
,  // measure 45
00002000
00000000
00000000
00000000
00000000
00000000
00000000
00000000
00000100
00003000
00000000
00000000
00000010
00000000
00001000
00000000
00010000
00000000
00100000
00000000
10000000
00000000
00000000
00000000
02000000
00000000
00000000
00000000
00100000
00000000
03000000
00000000
00010000
00000000
00000000
00000000
02000000
00000000
00000000
00000000
00000000
00000000
00000000
00000000
03100000
00000000
00000000
00000000
,  // measure 46
01000000
00000000
00000000
00000000
00100000
10000000
00010000
00000000
01000000
00010000
10000000
00000000
01000000
00000000
00100000
00000000
00010000
00000000
20000000
00000000
00000000
00000000
30010000
00000000
,  // measure 47
10000000
00000000
01000000
00000000
00010000
00000000
00001000
00000000
00000010
00000001
00001000
00000100
00000010
00000000
00010000
00000000
00100000
00000000
02000000
00000000
00000000
00000000
13000000
00000000
,  // measure 48
10010000
00000000
00000000
00000000
01000000
00000000
00010000
00000000
00001000
00000000
00000100
00000000
00000001
00000000
00000010
00001000
00000010
00000000
00000001
00000000
00000000
00000000
00001000
00000000
,  // measure 49
00001200
00000000
00000000
00000000
00000010
00000300
00001000
00000000
00010000
00100000
00010000
00000000
00001000
00000000
01000000
00000000
00100000
00000000
20100000
00000000
00000000
00000000
30000000
00000000
,  // measure 50
00020000
00000000
00000000
00000000
00130000
00000000
01000000
00000000
00100000
00000000
00010000
00000000
10000000
00000000
01000000
00010000
01000000
00000000
21000000
00000000
00000000
00000000
30100000
00000000
,  // measure 51
10000000
00000000
01000000
00000000
00010000
00000000
00001000
00000000
00000100
00000001
00001000
00000010
00000100
00000000
00000001
00000000
00000100
00000000
00000102
00000000
00000000
00000003
00000000
00000000
,  // measure 52
00001001
00000000
00000010
00000000
00000100
00000000
00000010
00000000
00001000
00000100
00010000
00000000
00011000
00000000
00001000
00000000
00100000
00000000
00020000
00000000
00000000
00000000
01030000
00010000
,  // measure 53
01000000
00000000
00100000
00000000
10000000
00000000
10100000
00000000
01000000
00000000
00100000
00010000
10000000
00000000
00100000
00000000
01000000
00000000
01020000
00000000
00000000
01030000
00010000
01000000
,  // measure 54
00010000
00000000
00100000
00000000
01000000
00000000
10000000
00000000
00010000
00100000
10000000
00100000
00010000
00000000
01000000
00000000
00100000
00000000
00010000
00000000
00001000
00000100
00000001
00000010
,  // measure 55
00000100
00000000
00001000
00000010
00000100
00000010
00000100
00000001
00001000
00000010
00000100
00000010
00010000
00001000
00100000
00010000
01000000
00100000
10000000
01000000
00100000
00010000
01000000
00100000
,  // measure 56
20000000
00000000
00000000
00000000
00000000
00010000
30010000
00000000
,  // measure 57
10000000
01000000
00010000
00000000
00000000
00000000
01000000
00010000
00001000
00000100
00000001
00000000
00000000
00000000
00000100
00000010
,  // measure 58
00001000
00000010
00001000
00000010
00000100
00000000
00000001
00000010
00000001
00000010
00000100
00000010
00000100
00010000
00001000
00010000
,  // measure 59
01000000
10000000
01000000
00010000
01000000
10000000
01000000
00010000
01000000
00000000
00000000
00000000
00000000
00000000
10000000
00100000
,  // measure 60
00010000
00001000
00000010
00000001
00000100
00000010
00000000
00001010
00000000
00000101
00000000
00000010
00001000
00000000
00000001
00001000
,  // measure 61
00000001
00000100
00001000
00000000
00000000
00000000
00000100
00001000
00010000
01000000
10000000
00000000
00000000
00000000
01000000
00100000
,  // measure 62
00010000
00100000
00010000
00100000
10000000
00000000
10000000
01000000
10000000
01000000
00100000
01000000
00100000
00001000
00010000
00001000
,  // measure 63
00000010
00000000
00000001
00000100
00000010
00001000
00000010
00000100
00000001
00000010
00000100
00001000
00000100
00000010
00000001
00000100
,  // measure 64
00001000
00000000
00010000
00000000
01000000
00000000
00100000
00000000
10000000
00000000
00100000
00000000
00000000
00000000
10100000
00000000
00000000
00000000
01010000
00000000
00000000
00000000
00100000
00000000
10000000
00000000
00000000
00000000
00000000
00000000
10000000
00100000
,  // measure 65
00010000
00000000
00010000
00001000
00000010
00000000
00001000
00000010
00000001
00000000
00000010
00000001
00001000
00000000
00000010
00000100
,  // measure 66
00001000
00000000
00010000
01000000
10000000
01000000
00010000
00000000
00010000
10000000
00010000
10000000
00010000
00000000
10000000
00000000
,  // measure 67
00010000
00000000
10000000
00000000
00010000
00000000
00010000
01000000
00100000
00000000
00100000
00010000
00002000
00000000
00000000
00000000
,  // measure 68
00003010
00000001
00000010
00000001
00000100
00000001
00000100
00000001
00001000
00000010
00001000
00000010
00001000
00000100
00001000
00000100
,  // measure 69
00010000
00001000
00010000
00001000
00010000
00001000
00010000
00001000
00010000
00001000
00010000
00001000
01000000
00010000
10000000
00010000
,  // measure 70
01000000
00100000
10000000
00100000
01000000
00010000
00100000
00010000
01000000
00010000
10000000
00010000
01000000
00100000
01000000
00010000
,  // measure 71
01000000
00001000
00010000
00000100
00001000
00000010
00000100
00000001
00000010
00000100
00010000
00001000
01000000
00010000
10000000
00100000
,  // measure 72
10000000
00000000
01000000
00000000
00000000
00100000
00001000
00000000
00011000
00000000
00100000
00000000
01000000
10000000
00010000
00000000
,  // measure 73
20020000
30030000
00000000
00000000
;

//---------------dance-double - ----------------
#NOTES:
     dance-double:
     :
     Hard:
     16:
     0.906259,1.067189,0.374635,0.116553,1.365335,762.000000,717.000000,45.000000,14.000000,0.000000,0.000000,0.906259,1.067189,0.374635,0.116553,1.365335,762.000000,717.000000,45.000000,14.000000,0.000000,0.000000:
// measure 0
00000000
00000000
00000000
00000000
,  // measure 1
00000000
00000000
00000000
00000000
,  // measure 2
00000000
00000000
00000000
00000000
,  // measure 3
00000000
00000000
00000000
00000000
,  // measure 4
10010000
00000000
00000000
00000000
00000000
00000000
00000000
00000000
01000000
00000000
00010000
00000000
10000000
00000000
00000000
00000000
00000000
00000000
00000000
00000000
00000000
00100000
00000000
00000000
00000000
00000000
00000000
00000000
00000000
00000000
01000000
00000000
00010000
00000000
10000000
00000000
00000000
00000000
00000000
00000000
00000000
00000000
01100000
00000000
00000000
00000000
00000000
00000000
,  // measure 5
00000000
00000000
00000000
00000000
00000000
00000000
00000000
00000000
01000000
00000000
00001000
00000000
00010000
00000000
00000000
00000000
00000000
00000000
00011000
00000000
00000000
00000000
00000000
00000000
00000000
00000000
00000000
01010000
00000000
00000000
00000000
00000000
00000000
00000000
00000000
00000000
00011000
00000000
00000000
00000000
00000000
00000000
00000100
00000000
00000000
00000000
00000000
00000000
,  // measure 6
00000101
00000000
00000000
00000000
00000000
00000000
00000000
00000000
00000010
00000000
00001000
00000000
00000001
00000000
00000000
00000000
00000000
00000000
00000000
00000000
00000000
00000110
00000000
00000000
00000000
00000000
00000000
00000000
00000000
00000000
00010100
00000000
00000000
00000000
00000000
00000000
00000000
00000000
00000100
00000000
00000010
00000000
00000001
00000000
00000000
00000000
00000000
00000000
,  // measure 7
00001001
00000000
00000010
00000000
00000100
00000001
00001000
00000000
00000010
00001000
00000100
00000000
00000010
00000001
00001000
00000000
,  // measure 8
00000010
00000000
00000010
00000100
00000001
00000000
00000001
00000010
00000100
00001000
00000100
00000010
00000001
00000000
00000001
00000100
,  // measure 9
00001000
00000000
00001000
00010000
01000000
00000000
01000000
10000000
00010000
00000000
00010000
01000000
00100000
00000000
00100000
10000000
,  // measure 10
00010000
00000000
00010000
01000000
00100000
00000000
00100000
01000000
00010000
10000000
01010000
00100000
01000000
00010000
10000000
00100000
,  // measure 11
10000000
01000000
00010000
00001000
00000100
00000001
00001000
00000010
00001000
00000100
00000010
00000001
00000100
00000010
00001000
00000100
,  // measure 12
00000010
00000000
00000001
00001000
00000100
00000000
00001000
00000001
00000100
00000010
00010000
00000010
00000100
00000001
00000010
00000001
,  // measure 13
00000100
00001000
00010000
00001000
00000100
00010000
00001000
00010000
00001000
00010000
00100000
10000000
01000000
00100000
00010000
01000000
,  // measure 14
00100000
10000000
01000000
10000000
00100000
01000000
00010000
01000000
00100000
10000000
01000000
10000000
00100000
01000000
00010000
10000000
,  // measure 15
00000000
00000000
00000000
00200000
00000000
00000000
00300000
00000000
00000000
02000000
00000000
00000000
03000000
00000000
00000000
00200000
00000000
00000000
00300000
00000000
00000000
02000000
00000000
03000000
,  // measure 16
10010000
00000000
00000000
00000000
00000000
00000000
00000000
00000000
00100000
00000000
10000000
00000000
00010000
00000000
00000000
00000000
00000000
00000000
00000000
00000000
00000000
01000000
00000000
00000000
00000000
00000000
00000000
00000000
00000000
00000000
00011000
00000000
00000000
00000000
00000000
00000000
00000000
00000000
00000000
00000000
00000000
00000000
01000000
00000000
00000000
00000000
00000000
00000000
,  // measure 17
00000000
00000000
00000000
00000000
00000000
00000000
00000000
00000000
01000000
00000000
00010000
00000000
10000000
00000000
00000000
00000000
00000000
00000000
00100000
00000000
00000000
00000000
00000000
00000000
00000000
00000000
00000000
00011000
00000000
00000000
00000000
00000000
00000000
00000000
00000000
00000000
00000100
00000000
00000000
00000000
00000000
00000000
00001000
00000000
00000000
00000000
00000000
00000000
,  // measure 18
00000000
00000000
00000000
00000000
00000000
00000000
00000000
00000000
00000010
00000000
00001000
00000000
00000001
00000000
00000000
00000000
00000000
00000000
00000000
00000000
00000000
00000010
00000000
00000000
00000000
00000000
00000000
00000000
00000000
00000000
00011000
00000000
00000000
00000000
00000000
00000000
00000000
00000000
00000000
00000000
00000000
00000000
00000010
00000000
00000000
00000000
00000000
00000000
,  // measure 19
00000000
00000000
00000000
00000000
00000000
00000000
00000000
00000000
00000100
00000000
00000001
00000000
00001000
00000000
00000000
00000000
00000000
00000000
00000010
00000000
00000000
00000000
00000000
00000000
00000000
00000000
00000000
00011000
00000000
00000000
00000000
00000000
00000000
00000000
00000000
00000000
00100000
00000000
00000000
00000000
00000000
00000000
00010000
00000000
00000000
00000000
00000000
00000000
,  // measure 20
10000000
00000000
00010000
01000000
00100000
00010000
00001000
00000100
,  // measure 21
00000001
00000000
00000000
00000000
00001000
00000000
00000010
00000000
00000100
00000000
00001000
00000000
00010000
00000000
00100000
10000000
,  // measure 22
00010000
00000000
00000000
00000000
00000000
00000000
00000000
00000000
00010000
00000000
10000000
00000000
00010000
00000000
10000000
00000000
00010000
00000000
00000000
00000000
00000000
00000000
00000000
00000000
10000000
00000000
00010000
00000000
10000000
00010000
10000000
00010000
,  // measure 23
10000000
00000000
00100000
00000000
00000000
01000000
00010000
00000000
01100000
00000000
10000000
00000000
00010000
10000000
00010000
00000000
,  // measure 24
10000000
01000000
00010000
00000000
00000000
00000000
01000000
00010000
00001000
00000100
00000001
00000000
00000000
00000000
00001000
00000010
,  // measure 25
00001000
00000010
00001000
00000010
00001000
00000000
00000001
00000100
00000001
00000100
00000001
00000100
00000001
00000000
00001000
00000000
,  // measure 26
00000010
00000000
00000100
00000000
00000010
00000000
00001000
00000001
00000000
00000000
00000000
00000000
00000000
00000000
00000100
00000000
,  // measure 27
00000010
00000000
00000100
00000000
00000001
00000010
00000000
00000100
00000000
00001000
00000000
00000100
00000010
00000000
00001001
00000000
,  // measure 28
00000001
00000100
00001000
00000000
00000000
00000000
00000100
00001000
00010000
01000000
10000000
00000000
00000000
00000000
00100000
10000000
,  // measure 29
00100000
10000000
00100000
10000000
00100000
00000000
01000000
00010000
01000000
00010000
01000000
00010000
01000000
00000000
00010000
00000000
,  // measure 30
10000000
00000000
01000000
00000000
00100000
00000000
00010000
00000000
00100000
00000000
01000000
10000000
00000000
00000000
00000000
00000000
,  // measure 31
00010000
00000000
01000000
00000000
00100000
10000000
00000000
00100000
00000000
01000000
00000000
00010000
20000000
00000000
00000000
00000000
,  // measure 32
00000000
30020000
00000000
00000000
,  // measure 33
00230000
00000000
00000000
00000000
,  // measure 34
00310000
00000000
00000000
01000000
00000000
00000000
01001000
00000000
00000000
00010000
00000000
00000000
00010100
00000000
00001000
00000010
,  // measure 35
00000100
00000000
00000000
00000101
00000000
00000000
00000010
00000000
00000000
00010010
00000000
00000000
00011000
00000000
00001000
01000000
,  // measure 36
00200000
00000000
00000000
20300000
,  // measure 37
30010000
00000000
00000000
01010000
00000000
00000000
00101000
00000000
00000000
00010100
00000000
00000000
00011000
00000000
00010010
00000000
,  // measure 38
00000100
00000001
00000100
00000010
00000100
00001000
00000100
00000010
00000100
00000001
00000100
00000010
00000100
00000000
00000001
00001000
,  // measure 39
00000010
00000100
00000010
00001000
00000001
00000000
00000100
00001000
00010000
01000000
10000000
00100000
01000000
00000000
00000000
00000000
,  // measure 40
01010000
00000000
00010000
00100000
00010000
01000000
00010000
10000000
00010000
00100000
00000000
01000000
,  // measure 41
10000000
00000000
10000000
01000000
10000000
00100000
10000000
00010000
10000000
01000000
00000000
00100000
,  // measure 42
00001000
00000000
00001000
00010000
00000100
00001000
00000010
00000100
00000001
00000010
00000000
00000100
,  // measure 43
00001000
00000010
00001000
00000010
00000100
00000001
00000100
00000001
00001000
00000001
00000000
00000000
,  // measure 44
00001001
00000000
00000001
00000010
00000001
00000100
00000001
00001000
00000001
00000010
00000000
00000100
,  // measure 45
00001000
00000000
00001000
00000100
00001000
00000010
00001000
00000001
00001000
00000100
00000000
00000100
,  // measure 46
00010000
00001000
00100000
00010000
01000000
00100000
10000000
01000000
00100000
00010000
00000000
00010000
,  // measure 47
01000000
00100000
00010000
00100000
00000000
10000000
01000000
00100000
10000000
00100000
00000000
00010000
,  // measure 48
01000000
00000000
00100000
00000000
10000000
00000000
00010000
00000000
01000000
00000000
00100000
00000000
10000000
00000000
00100000
01000000
00010000
00000000
10000000
00000000
00000000
00000000
00100000
00000000
,  // measure 49
01100000
00000000
00000000
00000000
01000000
00000000
00001000
00000000
00010000
00000100
00001000
00000000
00000010
00000000
00000100
00000000
00000001
00000000
00001000
00000000
00000000
00000000
00000010
00000000
,  // measure 50
00000100
00000000
00000001
00000100
00000010
00000100
00001000
00000100
00000001
00000100
00000000
00000010
,  // measure 51
00001000
00000000
00000100
00000010
00000001
00000000
00000100
00000000
00000010
00001000
00000001
00000000
00000100
00000000
00000010
00000000
00001000
00000000
00001001
00000000
00000000
00000000
00000000
00000000
,  // measure 52
00010010
00000010
00000100
00001000
00010000
00100000
10000000
01000000
00100000
00110000
00000000
01000000
,  // measure 53
00100000
00000000
00010000
00000000
00001000
00000000
01000000
00000000
00010000
00000000
00001000
00000000
00000100
00000000
00000001
00000000
00001000
00000000
00001010
00000000
00000000
00000010
00000100
00000010
,  // measure 54
00000100
00000000
00000000
00000000
00000000
00000000
00000000
00000000
00000000
00000000
00000000
00000000
00000000
00000000
00000000
00000000
00001000
00000000
00000000
00000000
00000000
00000000
00000000
00000000
00000000
00000000
00000000
00000000
00000000
00000000
00000000
00000000
00010000
00000000
00000000
00000000
00000000
00000000
00000000
00000000
00000000
00000000
00000000
00000000
00000000
00000000
00000000
00000000
00100000
00000000
00000000
00000000
00000000
00000000
00000000
00000000
00000000
00000000
00000000
00000000
00000000
00000000
00000000
00000000
10000000
00000000
10000000
00000000
00000000
00000000
00000000
00000000
00010000
00000000
00000000
00000000
00000000
00000000
00000000
00000000
01000000
00000000
00000000
00000000
00000000
00000000
00000000
00000000
00100000
00000000
00000000
00000000
00000000
00000000
00000000
00000000
10000000
00000000
00000000
00000000
00000000
00000000
00000000
00000000
00000000
00000000
00000000
00000000
00000000
00000000
00000000
00000000
01000000
00000000
00000000
00000000
00000000
00000000
00000000
00000000
00000000
00000000
00000000
00000000
00000000
00000000
00000000
00000000
00010000
00000000
00000000
00000000
00000000
00000000
00000000
00000000
00000000
00000000
00000000
00000000
00000000
00000000
00000000
00000000
01010000
00000000
00000000
00000000
00000000
00000000
00000000
00000000
00000000
00000000
00000000
00000000
00000000
00000000
00000000
00000000
00000000
00000000
00000000
00000000
00000000
00000000
00000000
00000000
01000000
00000000
00000000
00000000
00000000
00000000
00000000
00000000
00100000
00000000
00000000
00000000
00000000
00000000
00000000
00000000
01000000
00000000
00000000
00000000
00000000
00000000
00000000
00000000
,  // measure 55
00100000
00000000
00010000
00000000
00001000
00000000
00000010
00000000
00000001
00001000
00000001
00001000
00000010
00000000
00000100
00000000
00000001
00000000
00001001
00000000
00000000
00000000
00000010
00000000
,  // measure 56
00002002
00000000
00000000
00000000
00003003
00000100
00110000
00000000
,  // measure 57
00010000
01000000
00100000
00000000
00000000
00000000
00010000
00001000
00000100
00000001
00001000
00000010
00000100
00000000
00000001
00001000
,  // measure 58
00000010
00000100
00000001
00001000
00000010
00000000
00000100
00001000
00010000
00100000
10000000
00010000
01000000
00000000
00100000
10000000
,  // measure 59
00010000
10000000
00010000
10000000
00010000
00000000
01000000
00100000
00000000
00000000
00000000
00000000
00000000
00000000
00100000
01000000
,  // measure 60
00010000
10000000
00010000
10000000
00000000
00100000
00000000
01010000
00000000
10100000
00000000
10000000
00010000
00000000
01000000
00100000
,  // measure 61
10000000
01000000
00100000
00000000
00000000
00000000
10000000
00100000
00010000
00001000
00000010
00000000
00000000
00000000
00000001
00000100
,  // measure 62
00000010
00001000
00000010
00001000
00000010
00000000
00000100
00000001
00000010
00000001
00001000
00000001
00000100
00000010
00001000
00000100
,  // measure 63
00000001
00000000
00000001
00000100
00001000
00000000
00001000
00010000
01000000
10000000
00100000
01000000
00010000
10000000
00100000
01000000
,  // measure 64
00010000
00000000
00000000
00000000
00000000
00000000
00000000
00000000
00000000
00000000
00000000
00000000
00000000
00000000
00000000
00000000
00000000
00000000
00000000
00000000
00000000
00000000
00000000
00000000
00100000
00000000
00000000
00000000
00000000
00000000
00000000
00000000
00000000
00000000
00000000
00000000
01000000
00000000
00000000
00000000
00000000
00000000
00000000
00000000
00000000
00000000
00000000
00000000
00000000
00000000
00000000
00000000
00000000
00000000
00000000
00000000
00000000
00000000
00000000
00000000
11000000
00000000
00000000
00000000
00000000
00000000
00000000
00000000
00000000
00000000
00000000
00000000
00000000
00000000
00000000
00000000
00000000
00000000
00000000
00000000
00000000
00000000
00000000
00000000
00110000
00000000
00000000
00000000
00000000
00000000
00000000
00000000
00000000
00000000
00000000
00000000
00000000
00000000
00000000
00000000
00000000
00000000
00000000
00000000
00000000
00000000
00000000
00000000
11000000
00000000
00000000
00000000
00000000
00000000
00000000
00000000
00000000
00000000
00000000
00000000
00000000
00000000
00000000
00000000
00000000
00000000
00000000
00000000
00000000
00000000
00000000
00000000
10000000
00000000
00000000
00000000
00000000
00000000
00000000
00000000
00000000
00000000
00000000
00000000
00010000
00000000
00000000
00000000
00000000
00000000
00000000
00000000
00000000
00000000
00000000
00000000
00000000
00000000
00000000
00000000
00000000
00000000
00000000
00000000
00000000
00000000
00000000
00000000
02000000
00000000
00000000
00000000
00000000
00000000
00000000
00000000
00000000
00000000
00000000
00000000
00100000
00000000
00000000
00000000
03000000
00000000
10000000
00000000
00000000
00000000
00000000
00000000
,  // measure 65
00100000
00000000
01000000
00010000
01000000
00000000
00100000
10000000
00100000
00000000
01000000
00010000
01000000
00000000
00100000
10000000
,  // measure 66
01000000
00100000
00001000
00100000
00010000
01000000
00010000
00000000
00100000
00001000
00100000
00000000
00001000
00000000
00010000
00000000
,  // measure 67
00000100
00000000
00000000
00000000
00000010
00000001
00000100
00000000
00000010
00010000
00001000
00000000
00010000
00000100
00001000
00000010
,  // measure 68
00000100
00000010
00000100
00000001
00000100
00000001
00001000
00000010
00001000
00000010
00001000
00000100
00001000
00000000
00000100
00010000
,  // measure 69
00001000
00100000
00001000
00100000
00001000
00100000
00001000
00100000
00001000
00100000
00001000
00100000
00010000
01000000
00100000
10000000
,  // measure 70
01000000
00100000
00001000
00010000
00001000
01000000
00100000
10000000
00010000
01000000
00100000
10000000
00100000
01000000
00010000
00100000
,  // measure 71
01000000
00010000
00001000
00000100
00000001
00001000
00000010
00000100
00000001
00000010
00000100
00001000
00000010
00000100
00000001
00001000
,  // measure 72
00000010
00000000
00000100
00000000
00000000
00000001
00001000
00000000
00010010
00000000
00000100
00000000
00010000
00001000
00100000
00000000
,  // measure 73
02020000
03030000
00000000
00000000
;
