#TITLE:Look;
#SUBTITLE:;
#ARTIST:Doss;
#TITLETRANSLIT:;
#SUBTITLETRANSLIT:;
#ARTISTTRANSLIT:;
#GENRE:House;
#CREDIT:;
#BANNER:look-bn.png;
#BACKGROUND:look-bg.png;
#LYRICSPATH:;
#CDTITLE:;
#MUSIC:Look.ogg;
#OFFSET:0.036000;
#SAMPLESTART:95.920006;
#SAMPLELENGTH:12.000000;
#SELECTABLE:YES;
#BPMS:0.000000=130.000000
;
#STOPS:
;
#BGCHANGES:;
#KEYSOUNDS:;
#ATTACKS:;

//---------------dance-single - ----------------
#NOTES:
     dance-single:
     :
     Hard:
     13:
     0.524996,0.618581,0.078525,0.047115,0.514339,468.000000,458.000000,10.000000,6.000000,0.000000,0.000000,0.524996,0.618581,0.078525,0.047115,0.514339,468.000000,458.000000,10.000000,6.000000,0.000000,0.000000:
0000
0000
0000
0000
,
0000
0000
0000
0000
,
0000
0000
0000
0000
,
0000
0000
0000
0000
,
0010
0000
1000
0010
0000
0000
0000
0000
0100
0000
0001
0100
0000
0000
0000
0000
,
0001
0000
1000
0000
0001
0000
0100
0000
0010
0000
1000
0010
0000
0000
0000
0000
,
0100
0001
0100
0001
1000
0010
0100
0000
,
0000
0000
0001
0000
0001
0000
0000
0000
0010
0000
0100
1000
0000
0000
0000
0000
,
1000
0000
1000
0000
0000
0000
0000
0000
0001
0000
0010
0001
0000
0000
0000
0000
,
0010
0000
0001
0000
0010
0000
0001
0000
1000
0000
0100
1000
0000
0000
0000
0000
,
0010
0100
0010
0100
0001
1000
0010
0000
,
0100
0010
0100
0010
1000
0001
0200
0000
,
0300
0000
0010
0000
0000
0010
0000
0000
1000
0000
0000
0001
0000
0000
0100
0000
,
0000
0000
0100
0000
0000
0100
0000
0000
0001
0000
0000
1000
0000
0000
0010
0000
,
0000
0000
1000
0000
0000
0100
0000
0000
0010
0000
0000
0001
0000
0000
1000
0000
,
0000
0000
0001
0000
0000
0010
0000
0000
1000
0000
0000
0010
0000
0000
0001
0000
,
0000
0000
1000
0000
0000
1000
0000
0000
0001
0000
0000
0010
0000
0000
0001
0000
,
0000
0000
0001
0000
0000
0001
0000
0000
1000
0000
0000
0100
0000
0000
1000
0000
,
0000
0000
0001
0000
0000
0010
0000
0000
0100
0000
0000
1000
0000
0000
0001
0000
,
0000
0000
1000
0000
0000
0010
0000
0000
0001
0000
0000
0010
0000
0000
1000
0000
,
0001
0000
0001
0000
0100
0010
0000
0000
1000
0000
0010
0100
0000
0100
0001
0000
,
0010
0000
0100
0000
1000
0010
0000
0000
0100
0000
0001
1000
0000
1000
0001
0000
,
0100
0000
0010
0000
0100
0001
0000
0000
1000
0000
0010
0100
0000
0001
1000
0000
,
0000
0000
0010
0000
1000
0010
0000
0000
0100
0000
0001
0100
0000
1000
0100
0000
,
0010
0000
0010
0000
1000
0100
0000
0000
0010
0000
0001
0100
0000
0100
0010
0000
,
1000
0000
0001
0000
0100
0001
0000
0000
1000
0000
0100
0010
0000
0010
0001
0000
,
0100
0000
0010
0000
0001
0010
0000
0000
1000
0000
0001
0100
0000
0010
1000
0000
,
0001
0000
1000
0000
0010
0100
0000
0000
0001
0000
0100
1000
0000
0100
0001
0000
,
2000
3020
0032
0023
,
1030
0000
0100
0000
0010
0001
0000
0000
0100
0000
0010
1000
0000
0001
0100
0000
,
0010
0000
0100
0000
0001
1000
0000
1000
0010
0000
1000
0100
0000
0010
0001
0000
,
0100
0000
0001
1000
0001
1000
0001
0000
0100
0000
0010
1000
0000
0001
0100
0000
,
0010
0000
0010
0000
1000
0001
0000
0000
0100
0000
0000
0100
0000
0010
0100
0000
,
0001
0000
1000
0010
0000
0010
1000
0000
0001
0000
0000
0001
0000
0100
0010
0000
,
1000
0000
0100
0000
0010
0001
0000
0100
0010
0000
0000
0010
0000
1000
0001
0000
,
0100
0000
0010
0001
0000
0010
1000
0000
0100
0000
0010
1000
0000
0010
0001
0000
,
1000
0001
0000
0000
1000
0001
0110
0000
,
0000
0000
0000
0000
0001
1000
0110
0000
,
0000
0100
0100
0010
0100
0100
0100
0000
,
0000
0000
0001
1000
0001
0000
0000
0000
0101
0000
0010
1000
0000
0000
0000
0000
,
1000
1000
0000
0000
0010
0100
0011
0000
,
0000
0000
0000
0100
0100
0010
1100
0000
,
0000
0000
0000
0000
0001
1000
0011
0000
,
0000
0000
1000
0001
1000
0000
0000
0000
1010
0000
0100
0001
0000
0000
0000
0000
,
0100
0000
0010
1000
0000
0000
0000
0000
0100
0000
0010
0001
0000
0000
0000
0000
,
0100
0000
1000
0000
0100
0000
0001
0000
0010
0000
1000
0010
0000
0000
0000
0000
,
0001
0100
0010
0001
0010
1000
1010
0000
,
0000
0000
0001
0000
0000
0100
0000
0000
0010
0000
0000
0100
0010
1000
0001
0000
,
1000
0000
0001
0000
0000
0000
0000
0000
1000
0000
0001
0010
0000
0000
0000
0000
,
1000
0000
0010
0000
0001
0000
0100
0000
0010
0000
0001
0010
0000
0000
0000
0000
,
1000
1000
0100
0100
0010
0010
0011
0000
,
0001
0100
1000
0100
0001
0010
0100
1001
,
0001
0000
1000
0010
0000
0000
0000
0000
0100
0000
0010
0001
0000
0000
0010
0000
,
1000
0000
0001
0100
0010
1000
0000
0000
0100
0000
0010
0001
0000
0000
1000
0000
,
0010
0000
0100
0001
1000
0010
0000
0000
0100
0000
0001
0100
0000
0000
0010
0000
,
1000
0000
0001
0100
0010
1000
0000
0000
0010
0000
1000
0010
0100
0001
1000
0000
,
0010
0000
0100
0000
1000
0100
0000
0001
0010
0000
0100
0001
0000
0100
1000
0000
,
0010
0000
1000
0000
0010
0001
0000
0010
0100
0000
0001
0010
0000
1000
0010
0000
,
0001
0000
0100
0001
1000
0010
0000
0100
1000
0000
0100
0001
0000
0010
0100
0000
,
1000
0000
0001
0010
0000
1000
0010
0000
0001
0000
1000
0100
0001
0100
1000
0000
,
0001
0000
1000
0000
0001
0100
0000
0010
0100
0000
0000
0010
0000
0000
1000
0000
,
0000
0000
0001
0000
1000
0000
0000
0100
0010
0000
0000
0001
0000
0000
1000
0000
,
0000
0000
0010
0000
0100
0001
0000
0000
0010
0000
0000
0100
0000
0000
1000
0000
,
0000
0000
0100
0000
0010
0001
0000
0010
0100
0000
0000
1000
0000
0000
0001
0000
,
0100
0000
0010
0000
1000
0001
0000
0100
0010
0000
0100
0001
0000
0000
0010
0000
,
0000
0000
0001
0000
1000
0000
0000
0100
0010
0000
0100
1000
0000
0000
0010
0000
,
0000
0000
0100
0000
0001
0010
0000
0000
0100
0000
0000
0000
1000
0000
0100
0000
,
0000
0000
0010
0000
0001
1000
0000
0000
0100
0000
1000
0001
0000
0000
0000
0000
,
0020
0000
0030
0000
;

//---------------dance-single - ----------------
#NOTES:
     dance-single:
     :
     Medium:
     10:
     0.343266,0.403422,0.000000,0.039262,0.212017,306.000000,306.000000,0.000000,5.000000,0.000000,0.000000,0.343266,0.403422,0.000000,0.039262,0.212017,306.000000,306.000000,0.000000,5.000000,0.000000,0.000000:
// measure 0
0000
0000
0000
0000
,  // measure 1
0000
0000
0000
0000
,  // measure 2
0000
0000
0000
0000
,  // measure 3
0000
0000
0000
0000
,  // measure 4
1000
0001
0000
0000
0100
0001
1000
0000
,  // measure 5
0010
1000
0010
1000
0001
0100
0001
0000
,  // measure 6
0010
0001
0010
0001
1000
0100
1000
0000
,  // measure 7
0000
0001
1000
0000
0010
0100
0010
0000
,  // measure 8
1000
0100
0000
0000
0010
0001
0010
0000
,  // measure 9
0001
0100
0001
0100
0010
1000
0010
0000
,  // measure 10
1000
0100
1000
0100
0010
0001
0010
0000
,  // measure 11
0001
1000
0010
0100
,  // measure 12
0000
0000
0001
0000
0000
1000
0000
0000
0001
0000
0000
1000
0000
0000
0001
0000
,  // measure 13
0000
0000
1000
0000
0000
0010
0000
0000
1000
0000
0000
0010
0000
0000
1000
0000
,  // measure 14
0000
0000
0001
0000
0000
0100
0000
0000
0001
0000
0000
0100
0000
0000
0001
0000
,  // measure 15
0000
0000
0100
0000
0000
0010
0000
0000
0100
0000
0000
0010
0000
0000
0100
0000
,  // measure 16
0000
0000
0010
0000
0000
1000
0000
0000
0010
0000
0000
1000
0000
0000
0010
0000
,  // measure 17
0000
0000
0100
0000
0000
0001
0000
0000
0100
0000
0000
0001
0000
0000
0100
0000
,  // measure 18
0000
0000
0001
0000
0000
1000
0000
0000
0001
0000
0000
1000
0000
0000
0001
0000
,  // measure 19
0000
0000
0100
0000
0000
0010
0000
0000
0100
0000
0000
0010
0000
0000
0100
0000
,  // measure 20
0001
0000
1000
0000
0000
0000
0000
0000
0010
0000
0000
1000
0000
0000
0001
0000
,  // measure 21
0000
0000
0000
0000
0000
0000
0000
0000
0100
0000
0000
0001
0000
0000
1000
0000
,  // measure 22
0000
0000
0000
0000
0000
0000
0000
0000
0001
0000
0000
0010
0000
0000
0100
0000
,  // measure 23
0000
0000
1000
0000
0000
0010
0000
0000
0100
0000
0000
0001
0000
0000
1000
0000
,  // measure 24
0010
0000
0100
0000
0000
0000
0000
0000
0001
0000
0000
1000
0000
0000
0010
0000
,  // measure 25
0000
0000
0000
0000
0000
0000
0000
0000
1000
0000
0000
0100
0000
0000
0010
0000
,  // measure 26
0000
0000
0000
0000
0000
0000
0000
0000
0100
0000
0000
0001
0000
0000
1000
0000
,  // measure 27
0000
0000
0001
0000
0000
0010
0000
0000
0100
0000
0000
1000
0000
0000
0001
0000
,  // measure 28
2000
3002
2003
3002
,  // measure 29
0003
0000
0100
0000
0000
0010
0000
0000
1000
0000
0000
0010
0000
0000
0100
0000
,  // measure 30
0000
0000
0001
0000
0000
0010
0000
0000
0010
0000
0000
0100
0000
0000
1000
0000
,  // measure 31
0000
0000
0010
0000
0000
1000
0000
0000
0001
0000
0000
0100
0000
0000
0010
0000
,  // measure 32
0100
0000
0001
0000
0000
0000
0000
0000
1000
0000
0000
0010
0000
0000
0100
0000
,  // measure 33
0000
0000
0001
0000
0000
0001
0000
0000
1000
0000
0000
0010
0000
0000
0100
0000
,  // measure 34
0000
0000
0001
0000
0000
0010
0000
0000
0100
0000
0000
0010
0000
0000
0001
0000
,  // measure 35
0000
0000
1000
0000
0000
0001
0000
0000
0010
0000
0000
0001
0000
0000
1000
0000
,  // measure 36
0010
0100
0000
0000
0010
0100
0010
0000
,  // measure 37
0000
0000
0000
0000
1000
0001
1000
0000
,  // measure 38
0000
0001
0001
0000
0001
0010
0001
0000
,  // measure 39
0000
0100
0100
0000
0100
0001
0100
0000
,  // measure 40
0010
1000
0000
0000
0010
1000
0010
0000
,  // measure 41
0000
0000
0000
0000
1000
0100
1000
0000
,  // measure 42
0000
0000
0000
0000
0001
0100
0001
0000
,  // measure 43
0000
1000
1000
0000
1000
0010
0100
0000
,  // measure 44
0001
1000
0000
0000
0010
0100
0001
0000
,  // measure 45
0010
0100
1000
0000
0001
0000
1000
0000
,  // measure 46
0010
0001
0010
0000
1000
0000
0001
0000
,  // measure 47
0000
0100
0100
0000
0001
0000
0001
0000
,  // measure 48
1000
0010
0000
0000
0100
0001
0100
0000
,  // measure 49
0001
0010
1000
0000
0010
0000
0001
0000
,  // measure 50
1000
0100
0001
0000
0100
0000
1000
0000
,  // measure 51
0001
1000
0001
1000
0010
0100
0010
0100
,  // measure 52
0001
0000
0010
0000
0000
0000
0000
0000
0001
0000
0000
1000
0000
0000
0010
0000
,  // measure 53
0000
0000
0100
0000
0000
0001
0000
0000
1000
0000
0000
0010
0000
0000
1000
0000
,  // measure 54
0000
0000
0100
0000
0000
0100
0000
0000
0010
0000
0000
0100
0000
0000
1000
0000
,  // measure 55
0000
0000
0001
0000
0000
0010
0000
0000
1000
0000
0000
0010
0000
0000
0001
0000
,  // measure 56
0000
0000
0100
0000
0000
0001
0000
0000
1000
0000
0000
0010
0000
0000
0100
0000
,  // measure 57
0000
0000
0010
0000
0000
1000
0000
0000
0001
0000
0000
0100
0000
0000
0010
0000
,  // measure 58
0000
0000
1000
0000
0000
0001
0000
0000
1000
0000
0000
0010
0000
0000
0100
0000
,  // measure 59
0000
0000
0001
0000
0000
0100
0000
0000
1000
0000
0000
0100
0000
0000
0001
0000
,  // measure 60
1000
0010
0000
0000
1000
0000
0010
0000
,  // measure 61
0000
0000
0000
0000
0100
0001
0100
0000
,  // measure 62
0000
0000
0000
0000
0001
1000
0001
0000
,  // measure 63
0000
0100
0100
0000
0010
1000
0001
0000
,  // measure 64
0010
0001
0000
0000
1000
0100
1000
0000
,  // measure 65
0000
0000
0000
0000
0010
1000
0010
0000
,  // measure 66
0000
0000
0000
0000
0100
0001
0100
0000
,  // measure 67
0000
0001
1000
0000
0010
0100
0001
0000
,  // measure 68
2000
0000
3000
0000
;

//---------------dance-double - ----------------
#NOTES:
     dance-double:
     :
     Easy:
     6:
     0.244549,0.242053,0.000000,0.078525,0.000000,218.000000,218.000000,0.000000,10.000000,0.000000,0.000000,0.244549,0.242053,0.000000,0.078525,0.000000,218.000000,218.000000,0.000000,10.000000,0.000000,0.000000:
00000000
00000000
00000000
00000000
,
00000000
00000000
00000000
00000000
,
00000000
00000000
00000000
00000000
,
00000000
00000000
00000000
00000000
,
10000000
00000000
00010000
01000000
,
00001000
00001000
00010000
00010000
,
00000010
00001000
00000010
00000100
,
00000000
00000001
00001000
00000000
00000010
00000000
00000010
00000000
,
00001000
00000100
00000000
00000000
00010000
00000000
00010000
00000000
,
00001000
00100000
00001000
01000000
,
00010000
00010000
10000000
10000000
,
00100000
01000000
00010000
10000000
,
00000000
00020000
00000000
00000000
02000000
00000000
03030000
00000000
,
00000000
20000000
00000000
00000000
02000000
00000000
33000000
00000000
,
00000000
00200000
00000000
00000000
02000000
00000000
03300000
00000000
,
00000000
02000000
00000000
00000000
00002000
00000000
03003000
00000000
,
00000000
00010000
00000000
00000000
00000100
00000000
00001000
00000000
,
00000000
00000001
00000000
00000000
00000100
00000000
00000001
00000000
,
00000000
00001000
00000000
00000000
00000010
00000000
00000100
00000000
,
00000000
00000010
00000000
00000000
00010000
00000000
00001000
00000000
,
00010000
00000100
00000000
00000000
00010000
00000000
00001000
00000000
,
00000000
01000000
00000000
00000000
00010000
00000000
10000000
00000000
,
00100000
01000000
00000000
00000000
00010000
00000000
00100000
00000000
,
00001000
00010000
00000000
00000000
00000100
00000000
00000010
00000000
,
00000001
00000001
00000000
00000000
00001000
00000000
00000010
00000000
,
00010000
00001000
00000000
00000000
01000000
00000000
00010000
00000000
,
00100000
01000000
00000000
00000000
10000000
00000000
00010000
00000000
,
00000000
02000000
00000000
00000000
00010000
00000000
03100000
00000000
,
00010000
10000000
01000000
00010000
,
00001000
00010000
00000000
00000000
00000100
00000000
00000100
00000000
,
00000000
00000000
00100000
00100000
,
00000000
00000000
00000100
00000100
,
00010000
00001000
00000000
00000000
01000000
00000000
01000000
00000000
,
00000000
00000000
00000010
00000010
,
00000000
00000000
01000000
01000000
,
00001000
00010000
00000000
00000000
00000100
00000000
00001000
00000000
,
00000001
00001000
00000000
00000000
00000010
00000000
00000010
00000000
,
00000000
00000000
00010000
00010000
,
00000000
00001000
01000000
00000000
00001000
00000000
01000000
00000000
,
00000000
00100000
00100000
10000000
,
00010000
01000000
00000000
00000000
00010000
00000000
00010000
00000000
,
00000000
00000000
10000000
10000000
,
00000000
00000000
00010000
00100000
,
00000000
00001000
00010000
00000000
00000100
00000000
00000010
00000000
,
00000001
00001000
00000000
00000000
00000100
00000000
00000100
00000000
,
00010000
00001000
01000000
01000000
,
00001000
00010000
00000100
00000100
,
00000000
00001000
00000010
00000000
00000100
00000000
00000001
00000000
,
00000010
00000010
00000000
00000000
00000100
00000000
00001000
00000000
,
00000100
00000100
00010000
00001000
,
01000000
01000000
00010000
00100000
,
01000000
10000000
01000000
10000000
,
00000000
00010000
01000000
00000000
00100000
00000000
01000000
00000000
,
00001000
00001000
00010000
00010000
,
00000100
00001000
00000010
00001000
,
00000100
00000100
00000010
00000010
,
00000001
00001000
00000010
00000010
,
00010000
00001000
01000000
01000000
,
00100000
10000000
01000000
01000000
,
00100000
00010000
10000000
10000000
,
00010000
10000000
10000000
00010000
,
00000000
00000000
01000000
00001000
,
00000000
00000000
00010000
00000010
,
00000000
00001000
00000100
00000000
00001000
00000000
00000001
00000000
,
00000100
00000100
00000000
00000000
00000010
00000000
00010000
00000000
,
00000000
00000000
00001000
01000000
,
00000000
00000000
00100000
10000000
,
00000000
00010000
00100000
00001000
,
00020000
00000000
00030000
00000000
;

//---------------dance-single - ----------------
#NOTES:
     dance-single:
     :
     Easy:
     5:
     0.245671,0.322738,0.000000,0.109935,0.000000,219.000000,219.000000,0.000000,14.000000,0.000000,0.000000,0.245671,0.322738,0.000000,0.109935,0.000000,219.000000,219.000000,0.000000,14.000000,0.000000,0.000000:
0000
0000
0000
0000
,
0000
0000
0000
0000
,
0000
0000
0000
0000
,
0000
0000
0000
0000
,
1000
0000
0100
0000
,
0010
0001
1000
0000
,
0001
0100
0010
1000
,
0010
0000
0010
0000
,
1000
0000
0100
0100
,
1000
0010
0100
0001
,
0010
0100
0010
0100
,
1000
0001
1000
0001
,
0000
0200
0000
0000
0002
0000
0303
0000
,
0000
2000
0000
0000
0020
0000
3030
0000
,
0000
0200
0000
0000
0020
0000
0330
0000
,
0000
0020
0000
0000
2000
0000
3030
0000
,
0000
0001
0000
0000
0100
0000
0010
0000
,
0000
1000
0000
0000
0100
0000
0010
0000
,
0000
0001
0000
0000
1000
0000
0010
0000
,
0000
0100
0000
0000
0010
0000
1000
0000
,
0002
0003
0100
0001
,
1000
0000
0010
1000
,
0100
0000
1000
0010
,
0100
0001
0010
0001
,
0100
0000
0010
1000
,
0100
0000
0100
0010
,
0001
0000
0100
1000
,
0100
0001
0010
1000
,
0020
0032
0203
0320
,
1030
0100
0100
1000
,
0001
0010
0010
0001
,
0100
0010
1000
0001
,
0100
0001
0001
0100
,
0010
1000
0100
1000
,
0001
0010
0010
0001
,
1000
0100
0001
0100
,
1000
0001
0000
0000
0100
0000
0010
0000
,
0000
0000
0010
0100
,
0001
0100
0010
1000
,
0001
0001
1000
1000
,
0001
0010
0000
0000
0100
0000
1000
0000
,
0000
0010
0100
0000
,
0000
0000
0100
0010
,
0000
1000
0100
0000
0010
0000
0001
0000
,
0100
0000
0001
1000
,
0010
0010
1000
1000
,
0100
0010
0100
0000
1000
0000
0001
0000
,
0000
0010
0001
0000
0100
0000
0100
0000
,
0010
1000
0000
0000
0001
0000
1000
0000
,
0010
0100
0001
0001
,
0010
0100
1000
1000
,
0010
0100
0010
0100
0010
0100
0010
0000
,
0000
1000
0000
0000
0100
0000
0010
0000
,
0000
0001
0000
0000
1000
0000
0001
0000
,
0000
0100
0000
0000
0010
0000
1000
0000
,
0000
0010
0000
0000
0100
0000
0001
0000
,
1000
0010
0000
0000
0100
0000
0010
0000
,
0000
1000
0000
0000
0001
0000
0010
0000
,
0000
0001
0000
0000
0100
0000
0001
0000
,
1000
0010
0000
0000
0100
0000
0001
0000
,
1000
0010
0010
1000
,
0100
0010
0001
0000
,
0100
0010
1000
0000
,
0001
1000
0010
0100
,
0010
1000
0000
0000
0001
0000
0010
0000
,
0000
0000
0001
0100
,
0000
0000
0010
1000
,
0000
0100
0010
0000
0001
1000
0001
0000
,
0200
0000
0300
0000
;

//---------------dance-single - ----------------
#NOTES:
     dance-single:
     :
     Beginner:
     3:
     0.111057,0.161369,0.007852,0.031410,0.000000,99.000000,98.000000,1.000000,4.000000,0.000000,0.000000,0.111057,0.161369,0.007852,0.031410,0.000000,99.000000,98.000000,1.000000,4.000000,0.000000,0.000000:
0000
0000
0000
0000
,
0000
0000
0000
0000
,
0000
0000
0000
0000
,
0000
0000
0000
0000
,
1000
0000
0001
0000
,
0100
0000
0010
0000
,
0100
0000
0100
0000
,
0010
0000
0010
0000
,
1000
0000
0001
0000
,
1000
0000
1000
0000
,
0001
0000
0001
0000
,
2002
0000
0000
3003
,
0000
0000
0100
0000
,
0000
0000
0010
0000
,
0000
0000
1000
0000
,
0000
0000
0001
0000
,
0000
0000
0010
0000
,
0000
0000
0001
0000
,
0000
0000
1000
0000
,
0000
0000
0100
0000
,
0010
0000
0100
0000
,
0000
0000
1000
0000
,
0000
0000
0001
0000
,
0000
0100
0100
0000
,
0010
0000
1000
0000
,
0000
0000
0010
0000
,
0000
0000
0100
0000
,
0000
0001
0001
0000
,
0020
0000
0000
0030
,
0010
0000
0001
0000
,
0000
1000
1000
0000
,
0000
0010
0000
0000
,
0100
0000
0100
0000
,
0000
0000
0001
0000
,
0000
0000
1000
0000
,
0000
0000
0001
0000
,
0010
0000
0010
0000
,
0000
0000
0100
0000
,
0000
1000
1000
0000
,
0000
0000
0001
0000
,
0100
0000
0001
0000
,
0000
0000
0010
0010
,
0000
0000
0100
0000
,
0000
0000
1000
0000
,
0001
0000
1000
0000
,
0001
0000
1000
0000
,
0010
0000
0010
0000
,
0100
0000
0010
0000
,
1000
0000
0001
0000
,
1000
0000
0001
0000
,
0100
0000
0010
0000
,
0100
0000
0100
0000
,
0001
0000
1000
0000
,
0000
0000
0001
0000
,
0000
0000
0100
0000
,
0000
0010
0000
0000
,
0100
0000
0001
0000
,
0000
0000
1000
0000
,
0000
0000
0001
0000
,
0000
0100
0100
0000
,
0010
0000
1000
0000
,
0000
0000
0001
0000
,
0000
0000
1000
0000
,
0000
0001
0001
0000
,
0100
0000
0001
0000
,
0000
0000
1000
0000
,
0000
0000
0010
0000
,
0000
0100
0000
0010
,
0020
0000
0030
0000
;

//---------------dance-double - ----------------
#NOTES:
     dance-double:
     :
     Hard:
     13:
     0.509291,0.591686,0.054967,0.047115,0.502560,454.000000,447.000000,7.000000,6.000000,0.000000,0.000000,0.509291,0.591686,0.054967,0.047115,0.502560,454.000000,447.000000,7.000000,6.000000,0.000000,0.000000:
00000000
00000000
00000000
00000000
,
00000000
00000000
00000000
00000000
,
00000000
00000000
00000000
00000000
,
00000000
00000000
00000000
00000000
,
10000000
00000000
00010000
00100000
00000000
00000000
00000000
00000000
00010000
00000000
01000000
00100000
00000000
00000000
00000000
00000000
,
00010000
00000000
00001000
00000000
00000100
00000000
00000001
00000000
00001000
00000000
00000010
00000100
00000000
00000000
00000000
00000000
,
00000001
00001000
00000001
00001000
00000110
00001000
00000001
00000000
,
00000000
00000000
00000100
00000000
00001000
00000000
00000000
00000000
00010000
00000000
00100000
10000000
00000000
00000000
00000000
00000000
,
00010000
10000000
00000000
00000000
00100000
01000000
00010000
00000000
,
10000000
00000000
01000000
00000000
00100000
00000000
00010000
00000000
01000000
00000000
00100000
00010000
00000000
00000000
00000000
00000000
,
00001000
00000010
00000001
00000100
00000010
00001000
00010010
00000000
,
00000010
00000100
00000001
00001000
00000101
00000010
00001000
00000100
,
00010000
00000000
00000010
00000000
00000000
00010000
00000000
00000000
00000100
00000000
00000000
00010000
00000000
00000000
00001000
00000000
,
00010000
00000000
00001000
00000000
00000000
01000000
00000000
00000000
00010000
00000000
00000000
01000000
00000000
00000000
00100000
00000000
,
10000000
00000000
00010000
00000000
00000000
00100000
00000000
00000000
00010000
00000000
00000000
01000000
00000000
00000000
00010000
00000000
,
00000000
00000000
01000000
00000000
00000000
00100000
00000000
00000000
00010000
00000000
00000000
00001000
00000000
00000000
00000100
00000000
,
00000001
00000000
00001000
00000000
00000010
00001000
00000000
00000000
00000001
00000000
00000000
00000100
00000000
00000000
00000010
00000000
,
00000000
00000000
00001000
00000000
00000000
00000100
00000000
00000000
00000010
00000000
00000000
00000001
00000000
00000000
00001000
00000000
,
00000000
00000000
00000010
00000000
00000000
00000100
00000000
00000000
00000010
00000000
00000000
00001000
00000000
00000000
00000010
00000000
,
00000000
00000000
00000100
00000000
00000000
00001000
00000000
00000000
00010000
00000000
00000000
00100000
00000000
00000000
10000000
00000000
,
00020000
00000000
01030000
00000000
00100000
10000000
00000000
00000000
00010000
00000000
00000000
01000000
00000000
00000000
00100000
00000000
,
00010000
00000000
00001000
00000000
00000000
00000100
00000000
00000000
00000001
00000000
00000000
00001000
00000000
00000000
00000010
00000000
,
00000100
00000000
00001000
00000000
00000000
00010000
00000000
00000000
00100000
00000000
00000000
10000000
00000000
00000000
00010000
00000000
,
01000000
00000000
00001000
00000000
00010000
00000100
00000000
00000000
00001000
00000000
00000000
00000010
00000000
00000000
00000100
00000000
,
00000001
00000000
00001000
00000000
00000010
00000100
00000000
00000000
00000010
00000000
00000000
00000100
00000000
00000000
00001000
00000000
,
00010000
00000000
00100000
00000000
10000000
00010000
00000000
00000000
10000000
00000000
00000000
00010000
00000000
00000000
01000000
00000000
,
00100000
00000000
00010000
00000000
00001000
00000010
00000000
00000000
00001000
00000000
00000000
00000010
00000000
00000000
00000001
00000000
,
00001000
00000000
00000010
00000000
00000000
00000100
00000000
00000000
00001000
00000000
00000000
00010000
00000000
00010000
00100000
00000000
,
20000000
32000000
03020000
00032000
,
00003010
00000000
00000001
00000000
00001000
00000010
00000000
00000000
00000100
00000000
00000001
00000100
00000000
00000000
00000010
00000000
,
00010000
00000000
00001000
00000000
00010000
00001000
00000000
00001000
00100000
00000000
00010000
01000000
00000000
00000000
00100000
00000000
,
10000000
00000000
00010000
10000000
00010000
10000000
00010000
00000000
01000000
00000000
00100000
01000000
00100000
01000000
00100000
00000000
,
10000000
00000000
01000000
00000000
10000000
00100000
00000000
00000000
01000000
00000000
00001000
00010000
00000000
00001000
00010000
00000000
,
00000100
00000000
00001000
00000010
00000000
00000100
00000000
00000001
00001000
00000000
00000010
00000100
00000000
00000001
00000010
00000000
,
00000001
00000000
00000100
00000000
00000010
00010000
00000010
00000000
00010000
00000000
00001000
00100000
00000000
00000000
00010000
00000000
,
10000000
00000000
00010000
10000000
00010000
10000000
00010000
00000000
10000000
00000000
00100000
01000000
00000000
00100000
01000000
00000000
,
00010000
00000000
10000000
00000000
00000000
00000000
00000000
00000000
00100000
00000000
00010000
00001000
00000000
00000000
00000000
00000000
,
00000000
00000000
00000000
00000000
00000000
00000000
00000000
00000000
00000010
00000000
00001000
00010000
00000000
00000000
00000000
00000000
,
00000000
00100000
00100000
10000000
00100000
10000000
01010000
00000000
,
00000000
00000000
00100000
00001000
00100000
00000000
00000000
00000000
00001000
00000000
00000010
00000001
00000000
00000000
00000000
00000000
,
00000010
00000100
00000000
00000000
00010000
00001000
00000010
00000000
,
00000000
00000000
00000000
00000000
00000000
00000000
00001000
00000000
00001000
00000000
00010000
00100000
00000000
00000000
00000000
00000000
,
00000000
00000000
00000000
00000000
00000000
00000000
00000000
00000000
10000000
00000000
00010000
01000000
00000000
00000000
00000000
00000000
,
00000000
00000000
00010000
10000000
00010000
00000000
00000000
00000000
10000000
00000000
01000000
00010000
00000000
00000000
00000000
00000000
,
00001000
00000000
00000010
00000001
00000000
00000000
00000000
00000000
00001000
00000000
00000010
00000100
00000000
00000000
00000000
00000000
,
00001000
00000000
00010000
00000000
00001000
00000000
00010000
00000000
00100000
00000000
10000000
00100000
00000000
00000000
00000000
00000000
,
01000000
00001000
01000000
00001000
00010000
00000010
00001100
00000000
,
00010000
00000000
00001000
00000000
00000000
00100000
00000000
00000000
00001000
00000000
00000000
00010000
00000100
00001000
00000010
00000000
,
00000100
00000000
00000001
00000000
00000000
00000000
00000000
00000000
00001000
00000000
00000010
00010000
00000000
00000000
00000000
00000000
,
00001000
00000000
00100000
00000000
00001000
00000000
00100000
00000000
00010000
00000000
01000000
00001000
00000000
00000000
00000000
00000000
,
00010000
00100000
10000000
00100000
00010000
00001000
00000101
00000000
,
00000010
00001000
00010000
00100000
10000000
01000000
00100000
01010000
,
00100000
00000000
10000000
00010000
10000000
00000000
00000000
00000000
00010000
00000000
01000000
00100000
00000000
10000000
00100000
00000000
,
01000000
00000000
00100000
00010000
00000000
00001000
00000000
00000010
00000001
00000000
00001000
00000010
00000000
00000100
00000001
00000000
,
00000010
00000000
00001000
00000000
00010000
00001000
00000000
00000010
00000001
00000000
00000100
00000010
00000000
00000001
00000010
00000000
,
00001000
00000000
00010000
00000000
00100000
10000000
00000000
00000000
00100000
00000000
10000000
00100000
00000000
01000000
00010000
00000000
,
00100000
00000000
01000000
00000000
10000000
00100000
00000000
01000000
00010000
00000000
10000000
00100000
00000000
00010000
00100000
00000000
,
10000000
00000000
01000000
00010000
00000000
00001000
00000000
00000010
00000001
00000000
00001000
00000010
00000000
00000100
00000001
00000000
,
00001000
00000000
00000010
00000100
00000010
00001000
00000000
00000001
00001000
00000000
00000010
00000100
00000000
00001000
00010000
00000000
,
00100000
00000000
10000000
00000000
00010000
01000000
00000000
00100000
10000000
00000000
00100000
00010000
00000000
00001000
00000010
00000000
,
00000001
00000000
00001000
00000000
00000001
00000010
00000000
00000010
00000001
00000000
00000000
00001000
00000000
00000000
00000100
00000000
,
00000000
00000000
00010000
00000000
00001000
00000000
00000000
00001000
01000000
00000000
00000000
01000000
00000000
00000000
00010000
00000000
,
00000000
00000000
00100000
00000000
00010000
10000000
00000000
00000000
10000000
00000000
00000000
00100000
00000000
00000000
01000000
00000000
,
00000000
00000000
00010000
00000000
10000000
00100000
00000000
10000000
00100000
00000000
00000000
01000000
00000000
00000000
00001000
00000000
,
00010000
00000000
00010000
00000000
00000010
00001000
00000000
00001000
00000010
00000000
00000000
00000100
00000000
00000000
00000001
00000000
,
00000000
00000000
00001000
00000000
00000010
00000000
00000000
00000100
00000010
00000000
00000000
00010000
00000000
00000000
00001000
00000000
,
00000000
00000000
01000000
00000000
00000000
00010000
00000000
00000000
10000000
00000000
00000000
00000000
00100000
00000000
10000000
00000000
,
00000000
00000000
00010000
00000000
00100000
00010000
00000000
00000000
01000000
00000000
00000000
00100000
00000000
00000000
00000000
00000000
,
20000000
00000000
30000000
00000000
;

//---------------dance-double - ----------------
#NOTES:
     dance-double:
     :
     Medium:
     7:
     0.296151,0.400477,0.015705,0.094230,0.000000,264.000000,262.000000,2.000000,12.000000,0.000000,0.000000,0.296151,0.400477,0.015705,0.094230,0.000000,264.000000,262.000000,2.000000,12.000000,0.000000,0.000000:
00000000
00000000
00000000
00000000
,
00000000
00000000
00000000
00000000
,
00000000
00000000
00000000
00000000
,
00000000
00000000
00000000
00000000
,
10000000
00100000
00000000
00000000
10000000
00100000
00000000
00000000
,
01000000
00001000
00010000
00000000
00010000
00000000
00000000
00000000
,
00000100
00010000
00001000
00000000
00001000
00000000
00010000
00000000
,
00000000
00000100
00001000
00000000
00000010
00000100
00000001
00000000
,
00000010
00000100
00000000
00000000
00001000
00000000
00001000
00000000
,
00000010
00000100
00000001
00000000
00001000
00000100
00010000
00000000
,
00001000
01000000
00100000
00000000
10000000
00010000
00100000
00000000
,
00010000
10000000
00010000
10010000
,
00000000
02000000
00000000
00000000
00020000
00000000
03030000
00000000
,
00000000
00200000
00000000
00000000
00002000
00000000
00303000
00000000
,
00000000
00020000
00000000
00000000
00000200
00000000
00030300
00000000
,
00000000
00002000
00000000
00000000
00000002
00000000
00003003
00000000
,
00000000
00000100
00000000
00000000
00010000
00000000
00000000
00000010
,
00000000
00000100
00000000
00000000
00000001
00000000
00000000
00001000
,
00000000
00000100
00000000
00000000
00010000
00000000
00000000
00001000
,
00000000
00100000
00000000
00000000
00010000
00000000
00000000
00000000
,
01000000
00000000
01000000
00000000
01000000
00000000
00000000
00100000
,
00000000
00000000
10000000
00000000
00000000
01000000
00000000
00100000
,
00000000
01000000
00000000
00000000
10000000
00000000
00010000
00000000
,
00000000
00100000
00000000
00000000
00001000
00000000
00001000
00000000
,
00010000
00000100
00010000
00000000
00000000
00000010
00000000
00000100
,
00000000
00000001
00000000
00000000
00001000
00000000
00000000
00000010
,
00000000
00010000
00000000
00000000
00001000
00000000
00000000
00100000
,
00000000
00010000
00000000
00000000
01000000
00000000
00100000
00000000
,
20000000
32000000
03020000
00032000
,
00003010
00000001
00000000
00000000
00001000
00000000
00000001
00000000
,
00000100
00000010
00000000
00010000
00000000
00010000
00000000
00000100
,
00000000
00001000
00000100
00000000
00010000
00000000
00001000
00000000
,
01000000
00010000
00000000
00000000
10000000
00000000
01000000
00000000
,
10000000
00100000
00100000
00000000
01000000
00000000
00010000
00000000
,
00000000
00100000
00000000
00001000
00000000
00010000
00000000
00001000
,
00000000
01000000
00100000
00000000
00100000
00000000
00100000
00000000
,
10000000
00010000
00000000
00000000
01000000
00100000
01000000
00000000
,
00000000
00000000
00000000
00000000
00001000
00010000
00001000
00000000
,
00000000
00010000
00010000
00000000
00001000
00000000
00010000
00000000
,
00000000
00000100
00000100
00000000
00000010
00000001
00000010
00000000
,
00000001
00001000
00000000
00000000
00000100
00010000
00000100
00000000
,
00000000
00000000
00000000
00010000
00010000
00001000
00010000
00000000
,
00000000
00000000
00000000
00000000
00001000
01000000
00001000
00000000
,
00000000
01000000
01000000
00000000
00100000
00000000
10000000
00000000
,
00100000
01000000
00000000
00000000
00010000
10000000
00010000
00000000
,
01000000
00010000
01000000
00010000
01000000
00100000
01000000
00000000
,
00001000
00010000
00001000
00010000
00001000
00100000
00001000
00000000
,
00000000
00010000
00010000
00000000
00000100
00000000
00000010
00000000
,
00000001
00001000
00000000
00000000
00000010
00000100
00000010
00000000
,
00001000
00000100
00001000
00000100
00001000
00000010
00001000
00000000
,
00000001
00000100
00000001
00000100
00000001
00000010
00000001
00000000
,
00000100
00000000
00001000
00000000
00010000
00000000
00100000
10000000
,
00000000
00000000
10000000
00000000
00010000
01000000
00010000
00000000
,
00000000
01000000
00000000
00100000
10000000
00010000
10000000
00000000
,
00000000
00010000
00000000
00100000
00000000
00000000
00001000
00000000
,
00000000
00010000
00000010
00000000
00000100
00000001
00000100
00000000
,
00000001
00001000
00000000
00000000
00000010
00000100
00000010
00000000
,
00000000
00001000
00000000
00000100
00010000
00001000
00010000
00000100
,
00000000
00010000
00000000
00001000
00000000
01000000
00010000
00100000
,
00000000
01000000
10000000
00000000
00010000
00000000
10000000
00000000
,
00100000
01000000
00000000
00000000
00010000
00000000
00000000
10000000
,
00000000
00100000
00000000
00000000
01000000
00000000
00010000
00000000
,
00000000
00100000
00000000
00000000
00001000
00000000
00010000
00000000
,
00000000
00000100
00000000
00000100
00000000
00000000
00001000
00000000
,
00000010
00000100
00000000
00000000
00000001
00000000
00000000
00001000
,
00000000
00000100
00000000
00000000
00010000
00000000
00000000
00001000
,
00000000
01000000
00000000
00000000
00100000
00000000
00000000
10000000
,
00000000
01000000
00000000
00000000
00100000
00000000
00010000
00000000
,
00110000
00000000
00000000
00000000
;
