#VERSION:0.83;
#TITLE:恋のメロディー;
#SUBTITLE:;
#ARTIST:SARAH;
#TITLETRANSLIT:Koi no melody;
#SUBTITLETRANSLIT:;
#ARTISTTRANSLIT:;
#GENRE:Rock;
#ORIGIN:;
#CREDIT:;
#BANNER:koinomelody-bn.png;
#BACKGROUND:koinomelody-bg.png;
#PREVIEWVID:;
#JACKET:;
#CDIMAGE:;
#DISCIMAGE:;
#LYRICSPATH:;
#CDTITLE:;
#MUSIC:恋のメロディー.ogg;
#OFFSET:-0.850000;
#SAMPLESTART:53.610008;
#SAMPLELENGTH:12.000000;
#SELECTABLE:YES;
#BPMS:0.000=200.000;
#STOPS:327.667=0.300;
#DELAYS:;
#WARPS:;
#TIMESIGNATURES:0.000=4=4;
#TICKCOUNTS:0.000=4;
#COMBOS:0.000=1;
#SPEEDS:0.000=1.000=0.000=0;
#SCROLLS:0.000=1.000;
#FAKES:;
#LABELS:0.000=Song Start;
#BGCHANGES:;
#KEYSOUNDS:;
#ATTACKS:
;

//---------------dance-single - ----------------
#NOTEDATA:;
#CHARTNAME:;
#STEPSTYPE:dance-single;
#DESCRIPTION:;
#CHARTSTYLE:;
#DIFFICULTY:Challenge;
#METER:15;
#RADARVALUES:0.765221,0.989135,0.700537,0.196492,0.999547,627.000000,545.000000,82.000000,23.000000,0.000000,0.000000,0.000000,0.000000,0.000000,0.765221,0.989135,0.700537,0.196492,0.999547,627.000000,545.000000,82.000000,23.000000,0.000000,0.000000,0.000000,0.000000,0.000000;
#CREDIT:;
#NOTES:
0000
0000
0000
0000
,
0000
0000
0000
0000
,
0000
0000
0000
0000
,
1000
0000
1000
0100
0000
0100
1000
0000
0000
0101
0000
0000
,
0010
1000
0010
1000
0000
0000
0010
0000
0000
0100
0000
0000
,
0001
0000
0001
0010
0000
0010
0001
0000
0000
1100
0000
0000
,
1000
0000
1000
0100
0000
0100
0001
0000
0001
0100
0000
0100
,
1000
0000
0000
0010
0000
0100
0001
0000
0000
0101
0000
0001
,
1000
0000
0000
0010
0000
0100
0001
0000
0000
1000
0000
0000
,
0010
1000
0010
1000
0000
0000
1000
0001
1000
0001
0000
0000
,
0100
0010
0100
0010
0000
0000
1000
0001
1000
0001
0100
0001
,
0100
0000
0000
0010
0000
0100
0000
0000
0100
0010
0000
0000
,
0010
0000
0100
0000
0000
0100
0010
0000
0000
1001
0000
0000
,
1000
0000
0100
0010
0000
0100
0000
0000
1000
0100
0000
0020
,
0000
0032
1000
1003
,
0001
0000
0100
0010
0000
0100
0000
0000
0010
0000
0000
1000
,
0010
0000
0100
0001
0000
1001
0000
0000
0010
1000
0000
0000
,
0001
0000
0010
0000
0000
0100
0000
0000
0010
0001
0000
0200
,
0000
0320
1000
1030
,
1000
0000
0100
0010
0000
0001
0100
0000
0010
1000
0010
0100
,
0001
0000
0000
0220
0000
0000
0330
0000
0000
0010
0000
1001
,
0000
0000
0001
0100
0000
0000
1010
0000
0000
1100
0000
0000
,
0011
0000
0000
0001
0000
0100
0000
0000
0010
1000
0000
0001
,
0100
0000
0001
0010
0000
0000
1001
0000
0000
1100
0000
0000
,
0110
0000
0000
0010
0000
0001
0000
0000
1000
0010
0000
0000
,
0110
0000
0010
1000
0000
0000
0110
0000
0100
0001
0100
0001
,
1000
0000
1000
0001
0000
0000
1000
0010
1000
0010
0000
0000
,
1001
0000
0010
0100
0000
0000
0001
0000
1000
0000
0000
0010
,
0100
0000
0000
0100
0000
0000
0100
0010
1000
0001
0100
0010
,
1000
0000
0000
0000
0000
0100
0000
0000
0000
0010
0000
0000
,
0001
0100
1000
0100
,
0001
0000
0000
0000
0000
0000
0000
0000
0000
0010
0000
0000
0000
0000
0000
0000
0000
0000
0100
0000
0000
0000
1000
0000
,
0000
0010
0000
0100
0000
0001
0000
1000
0000
0020
0000
0000
,
0130
0000
0000
0101
0000
0000
0001
0000
,
1001
0000
0000
0010
0000
1000
0001
0010
0100
1000
0100
0010
,
0001
0000
0000
0101
0000
0000
0010
0000
1000
0000
0000
2200
,
0000
0000
0000
3300
0000
0000
0110
0000
0000
0000
0100
0000
0010
0000
0001
0000
0010
0000
0001
0000
1000
0000
0001
0000
,
1000
1100
0001
0101
,
0001
0000
1000
0000
0000
1100
0000
0000
1000
0001
0000
0000
,
1000
1010
0001
0011
,
1000
0000
0000
1001
0000
0010
0100
0000
0001
1000
0000
0000
,
0110
0000
1000
0001
0000
0000
0110
0000
0001
1000
0000
0000
,
0010
0000
0100
0000
0001
0000
0010
0000
0100
0000
1000
0000
,
1010
0000
0110
0000
0101
0000
0011
0000
0110
0000
1100
0000
,
1001
0000
0000
0000
,
0110
0000
0010
1000
0000
0000
0100
0000
0010
0001
0000
0100
,
0001
0000
0000
0101
0000
0001
1000
0000
0100
1000
0000
0000
,
1100
0000
1000
0100
0000
0100
0010
0000
0010
0001
0000
0001
,
0100
0000
0010
1000
0000
1000
0001
0000
0000
0101
0000
0000
,
1010
0000
1000
0010
0000
0000
1000
0000
0001
1000
0000
0001
,
0010
0000
0100
1000
0000
0010
0100
0000
0001
1000
0000
0000
,
0110
0000
0000
1000
0000
0000
0001
0000
0010
0000
0000
1200
,
0000
0010
0301
1001
,
0110
0000
0000
0010
0100
0010
0100
0000
0001
1000
0000
0000
,
1001
0000
0000
0100
0010
0100
0010
0000
1000
0001
0000
0000
,
0110
0000
0000
1000
0000
0100
0010
0000
0001
1000
0000
0000
,
0101
0000
0000
1100
0000
0000
0010
0000
0010
0100
0000
0000
,
1002
0100
0010
1003
,
2001
0010
0100
3001
,
0101
1001
1010
0220
,
0000
0000
0000
0330
0000
0001
0010
0000
0100
1000
0000
0000
,
1010
1100
1010
1100
,
1000
0100
0010
0001
0000
1000
0000
0000
0000
0001
0000
0100
,
0001
0011
0101
0022
,
0033
0000
0000
0001
0010
0100
1000
0000
0000
1001
0000
0000
,
1000
0000
0010
0100
0000
0100
0001
0000
0001
1000
0000
1000
,
0001
0101
1000
1100
,
1001
0000
0001
0010
0100
0010
0001
0000
1000
0010
0100
0010
,
1000
0000
0010
1000
0001
1000
0010
0100
0001
1000
0100
0010
,
0001
0101
1000
1100
,
0001
0000
0000
0101
0000
0000
1000
0000
0010
0100
0000
0001
,
0000
0000
0010
0100
0000
0000
1000
0000
0000
0110
0000
0000
,
0001
0100
0001
1000
0001
0010
0100
1000
0100
0010
0100
1000
,
0020
0130
0001
1000
,
2020
3030
2020
3030
,
0001
0000
0000
0010
0000
0100
0000
0000
1000
0001
0100
0010
,
1000
0000
0100
1000
0000
0001
0100
0000
0001
0010
0000
0100
,
1000
0000
0000
0010
0000
0000
0100
0000
0000
1001
0000
1000
,
0001
0010
0001
0010
0000
0000
0100
0000
0000
1100
0000
0000
,
0010
0000
0100
0010
0000
1000
0000
0000
0000
0100
0010
0001
,
1000
1010
0001
0011
,
1001
0000
0000
0100
0010
1000
0010
1000
0001
1000
0010
0100
,
0110
0000
0000
1000
0000
0000
0100
0000
1000
0001
0000
0100
,
0001
0000
0010
0001
0000
0100
0001
0000
0000
1001
0000
0000
,
0010
1000
0001
0100
,
1000
0000
0100
0000
0000
0001
0010
0000
0100
1000
0010
1000
,
0010
0100
0010
0100
0001
0100
0001
0010
0001
0010
0100
0010
,
0100
1000
0100
1000
0010
1000
0010
0100
0010
0100
0001
0010
,
1000
0010
0001
0100
1000
0100
0001
0010
0100
1000
0010
0001
,
0010
1000
0100
0001
0100
1000
0010
0100
0001
1000
0000
0000
,
0101
0000
0000
1010
0000
1000
0001
0000
0001
1000
0100
0010
,
0001
0010
0100
1000
0001
1000
0001
0000
2002
0000
0000
0000
,
0000
0000
0000
0000
0000
3003
0000
0000
;

//---------------dance-single - ----------------
#NOTEDATA:;
#CHARTNAME:;
#STEPSTYPE:dance-single;
#DESCRIPTION:;
#CHARTSTYLE:;
#DIFFICULTY:Hard;
#METER:13;
#RADARVALUES:0.594358,0.990470,0.222122,0.375898,0.674908,487.000000,461.000000,26.000000,44.000000,0.000000,0.000000,0.000000,0.000000,0.000000,0.594358,0.990470,0.222122,0.375898,0.674908,487.000000,461.000000,26.000000,44.000000,0.000000,0.000000,0.000000,0.000000,0.000000;
#CREDIT:;
#NOTES:
0000
0000
0000
0000
,
0000
0000
0000
0000
,
0000
0000
0000
0000
,
0010
1000
0001
0200
,
0310
0100
0001
2000
,
3001
0010
0100
0020
,
0031
0100
1000
0100
,
0101
0010
1000
1100
,
0011
0100
0010
1000
,
0001
0000
0001
0100
0000
0000
0010
0000
0010
1000
0000
0000
,
0100
0000
0100
0010
0000
0000
0001
1000
0001
0100
0010
0100
,
0010
0000
0000
0000
0000
0100
0000
0000
0000
0001
0000
0000
,
0000
0000
0010
0000
0000
0000
0100
0000
0000
1000
0000
0000
,
0010
0000
0100
0000
0000
0001
0000
0000
0001
1000
0000
0100
,
0000
0010
0000
0010
,
0100
0000
1000
0000
0000
0001
0000
0000
0001
0100
0000
0010
,
1000
0000
1000
0001
0000
0001
0100
0000
0100
0010
0000
0000
,
1000
0000
0010
0000
0000
0100
0000
0000
0100
0001
0000
1000
,
0000
0010
0000
0100
,
0010
0000
1000
0000
0000
0001
0100
0010
1000
0100
0010
0001
,
0100
0000
0000
2002
0000
0000
3003
0000
0000
0010
0000
0100
,
0000
0000
0001
1000
0000
0000
0010
0000
0000
0010
0000
0000
,
0100
0000
0000
0100
0000
0001
1000
0000
1000
0001
0000
0000
,
1000
1000
0010
0010
,
0100
0000
0000
0100
0000
0001
0010
0000
0010
0001
0000
0000
,
0200
0310
2000
3001
,
0200
0310
2000
3001
,
1001
0000
0000
0100
0000
0000
0010
0000
1000
0000
0000
1000
,
0001
1000
0001
1000
,
0020
0000
0030
0000
,
0100
0001
1000
0010
,
0200
0000
0000
0000
0000
0000
0300
0000
0000
0002
0000
2000
,
0000
0000
3003
0100
,
0010
0000
0000
1000
0000
0000
0010
0000
,
0100
0001
1000
0001
,
0100
0000
0000
0010
0000
0000
0100
0000
0010
0000
0000
0220
,
0000
0000
0330
1000
0000
0000
1000
0000
0000
0001
0000
0000
,
0001
0100
1000
0100
,
0001
0000
1000
0000
0000
1001
0000
0000
0000
0000
0000
0000
,
1000
0100
0001
0100
,
1000
0101
0001
1100
,
0010
0000
0100
1000
0000
0000
0010
0000
0100
0001
0000
0000
,
0010
0000
0100
0000
1000
0000
0010
0000
0100
0000
0001
0000
,
1000
0000
0001
0000
1000
0000
0001
0000
1000
0000
0001
0000
,
2000
3020
0230
0302
,
0013
0000
0000
0100
0000
0000
1000
0000
0010
0100
0000
0001
,
0100
0000
0000
0001
0000
0000
0010
0000
0100
1000
0000
0100
,
0010
0100
1100
0010
,
0100
0000
0001
1000
0000
0000
0010
0000
1000
0010
0000
0100
,
0001
0000
0000
0100
0000
0000
0010
0000
0100
0001
0000
0010
,
0100
1000
0110
0001
,
0100
0000
0000
0010
0000
0000
1000
0000
0010
0000
0000
2020
,
0000
3030
0100
0000
0001
0000
1000
0000
,
0001
0000
0001
0100
0000
0100
0010
0000
0010
1000
0000
0000
,
1000
0000
1000
0100
0000
0100
0010
0000
0010
0001
0000
0000
,
0100
0000
0100
1000
0000
1000
0100
0000
0100
0001
0000
0000
,
1000
0000
1000
0010
0000
0010
0001
0000
0001
0010
0000
0000
,
2000
0100
0001
3100
,
2000
0010
0001
3010
,
0101
0010
1100
0010
,
0100
0010
0100
0001
,
0010
0010
0010
0010
,
0010
0000
0100
0000
0000
1100
0000
0000
0000
1000
0000
0010
,
0100
0100
0100
0200
,
0000
0001
1000
0301
,
0010
0200
1000
0310
,
0002
0103
0002
0103
,
0010
0000
0000
1000
0010
1000
0010
0000
0000
0100
0001
0100
,
0001
0000
0000
0100
0010
0100
0010
1000
0010
1000
0010
1000
,
0010
1010
1100
1010
,
0100
0000
0000
0101
0000
0000
0010
0000
0001
0000
0000
0101
,
0000
0000
0100
0010
0000
0000
1010
0000
0000
0101
0000
0000
,
0001
1000
0001
0100
0010
0100
0001
1000
0001
0100
0010
0100
,
0001
0001
0010
0100
,
1200
0000
0320
0000
,
0130
0000
0000
1000
0000
0001
0000
0000
0000
0100
0010
0100
,
0010
0000
0010
1000
0000
1000
0100
0000
0100
0020
0000
0002
,
0000
0000
0000
0000
0000
0000
0033
0000
0000
0001
1000
0001
,
2000
3001
2000
3100
,
0010
0000
0010
0001
0000
1000
0000
0000
0000
0010
0000
0100
,
0002
1003
0002
0013
,
0200
1300
0020
0031
,
2002
0000
0000
3003
0000
0000
0100
0000
0100
0010
0000
0010
,
1000
0000
1000
0001
0000
0001
0200
0000
0000
0310
0000
0000
,
1000
0100
0001
0100
,
2000
0000
0000
0000
0002
0000
0000
0000
0000
3003
0000
0000
0100
0000
0000
0000
0010
0000
0100
0000
0010
0000
0100
0000
,
0001
0100
0001
0010
0001
0010
0100
1000
0100
1000
0010
1000
,
0010
0100
0010
0100
0001
0100
0001
1000
0001
1000
0100
0010
,
0001
0010
0100
1000
0001
0010
0100
1000
0100
0010
0001
0010
,
0001
0100
0001
0100
0010
0100
0010
0100
0010
1000
0000
0000
,
1100
0000
0000
0100
0000
1000
0010
0000
0100
0001
0000
0010
,
0100
1000
0010
0100
0001
0010
0100
0000
2002
0000
0000
0000
,
0000
0000
0000
3003
;

//---------------dance-single - ----------------
#NOTEDATA:;
#CHARTNAME:;
#STEPSTYPE:dance-single;
#DESCRIPTION:;
#CHARTSTYLE:;
#DIFFICULTY:Medium;
#METER:10;
#RADARVALUES:0.443023,0.713138,0.170863,0.384441,0.290467,363.000000,343.000000,20.000000,45.000000,0.000000,0.000000,0.000000,0.000000,0.000000,0.443023,0.713138,0.170863,0.384441,0.290467,363.000000,343.000000,20.000000,45.000000,0.000000,0.000000,0.000000,0.000000,0.000000;
#CREDIT:;
#NOTES:
0000
0000
0000
0000
,
0000
0000
0000
0000
,
0000
0000
0000
0000
,
0020
0000
0000
1030
,
0001
0100
0010
0200
,
0000
0000
0000
0301
,
1000
0100
0010
0001
,
2000
0000
0000
3001
,
0200
0000
0000
0300
,
2020
3030
2200
3300
,
0022
0033
0202
0303
,
0100
0000
0000
0000
0000
0010
0000
0000
0000
1000
0000
0000
,
0000
0000
0001
0000
0000
0000
0100
0000
0000
0100
0000
0000
,
0010
0000
1000
0000
0000
0001
0000
0000
1000
0010
0000
0000
,
0000
0000
0000
0000
,
0100
0000
0001
0000
0000
1000
0000
0000
0001
0100
0000
0000
,
0010
1000
0010
0100
,
0001
0000
0010
0000
0000
0100
0000
0000
0010
0001
0000
0000
,
0000
0000
0000
0000
,
1000
0000
0010
0000
0000
0100
0000
0000
0010
1000
0000
0000
,
0001
2000
3000
0010
,
0100
0000
0100
0001
0000
0000
0010
0000
0000
0010
0000
0000
,
0100
0100
1000
1000
,
0010
0000
0010
0100
0000
0000
0001
0000
0000
0001
0000
0000
,
1000
1000
0010
0010
,
0200
0310
2000
3001
,
0200
0310
2000
3001
,
1001
0000
0001
1000
0000
0000
0010
0000
0100
0000
0000
0100
,
0010
1000
0010
1000
,
0002
0000
0003
0000
,
0010
0100
1000
0001
,
2000
0000
0000
0000
0000
0000
3000
0000
0000
0010
0000
0200
,
0000
0300
0000
0001
,
0020
0000
0000
0000
0000
0032
0000
0000
0000
1003
0000
0000
,
0010
0100
0010
1000
,
0001
0000
0000
0100
0000
0000
0010
0000
1000
0000
0000
2000
,
0000
0001
0001
3001
,
1000
1100
0001
0101
,
1000
0000
0100
0000
0000
1100
0000
0000
0000
0000
0000
0000
,
0001
0011
1000
1010
,
0001
0011
0100
1000
,
0020
0100
0230
0010
,
0320
1000
2030
3001
,
2002
0000
0000
3003
,
0010
0100
0001
1000
,
1100
0000
0010
0001
,
0101
0000
0010
1000
,
0001
0100
0010
0100
,
0110
0000
1000
0010
,
0101
0000
0001
0010
,
1100
1000
0001
0100
,
0010
0000
0000
0100
0000
0000
0001
0000
1000
0000
0000
2000
,
0000
3010
0100
0001
,
0000
0001
0010
1100
,
0000
0001
0100
1010
,
0000
0001
0010
0100
,
1000
0000
1000
0010
0000
0000
0100
0000
0100
0001
0000
0000
,
0200
0001
1000
0301
,
0020
1000
0001
1030
,
0001
0100
0010
1000
,
0010
0000
0010
0100
0000
0100
0001
0000
0001
1000
0000
0000
,
1000
0100
1000
0100
,
1000
0000
0100
0000
0000
0100
0000
0000
0000
0010
0000
0010
,
0001
0100
0001
0200
,
0000
0310
1000
0001
,
0000
2000
0000
3001
,
0100
1000
0100
0001
,
2000
0000
3020
0000
,
0230
0000
0302
0000
,
0013
0010
0100
0100
,
1000
0000
0000
1000
0000
0000
0010
0000
0010
0100
0000
0100
,
0001
0000
0001
1000
0000
0000
0010
0000
0000
1000
0000
0000
,
0010
0100
0001
1000
,
0120
1030
0001
0001
,
0200
0300
0200
0300
,
0010
0000
0000
1000
0000
0001
0000
0000
0100
0010
0000
0010
,
1000
0000
1000
0001
0000
0001
0100
0000
0100
0010
0000
0010
,
1000
0100
0001
0100
,
2000
3010
0002
0103
,
1000
0000
1000
0010
0000
0100
0000
0000
0000
0001
0000
1000
,
0001
0010
0001
0010
,
0100
1000
0100
2000
,
3001
0000
0000
0000
0000
0000
0000
0000
1000
0001
0000
0001
,
1000
0000
1000
0001
0000
0001
1000
0000
0000
0001
0000
0000
,
0001
0100
0010
1000
,
0010
0000
1000
0000
0000
0000
1000
0000
1000
0100
0000
0000
,
0010
0001
0100
0010
,
1000
0000
0000
0100
0000
0000
0010
0000
0000
0001
0000
0001
,
1000
0000
0000
1000
0000
1000
0001
0000
0000
0001
0000
0001
,
1000
0000
0000
0010
0100
0010
0100
0001
0100
0001
0000
0000
,
0001
0000
0001
0100
0000
0100
0010
0000
0010
1000
0000
1000
,
0001
0000
0001
1000
0000
1000
0000
0000
0200
0000
0000
0000
,
0000
0000
0000
0300
;

//---------------dance-single - ----------------
#NOTEDATA:;
#CHARTNAME:;
#STEPSTYPE:dance-single;
#DESCRIPTION:;
#CHARTSTYLE:;
#DIFFICULTY:Beginner;
#METER:4;
#RADARVALUES:0.137911,0.274342,0.017086,0.051259,0.000000,113.000000,111.000000,2.000000,6.000000,0.000000,0.000000,0.000000,0.000000,0.000000,0.137911,0.274342,0.017086,0.051259,0.000000,113.000000,111.000000,2.000000,6.000000,0.000000,0.000000,0.000000,0.000000,0.000000;
#CREDIT:;
#NOTES:
0000
0000
0000
0000
,
0000
0000
0000
0000
,
0000
0000
0010
0010
,
0010
0000
0000
0000
,
1000
0000
0001
0000
,
1000
0000
0000
0000
,
0001
0000
1000
0000
,
0001
0000
0000
0000
,
0100
0000
0000
0000
,
0010
0000
0010
0000
,
0010
0000
0010
0000
,
0000
0000
0000
0000
,
0000
0000
0000
0000
,
2000
0000
3000
0000
,
0000
0000
0000
0000
,
0002
0000
0003
0000
,
0000
0000
0100
0000
,
0020
0000
0030
0000
,
0000
0000
0000
0000
,
1000
0000
0001
0000
,
0100
0000
0000
0000
,
0010
0000
0010
0000
,
0010
0000
0000
0000
,
0010
0000
0010
0000
,
0010
0000
0000
0000
,
1000
0000
0001
0000
,
1000
0000
0001
0000
,
1000
0000
0000
0000
,
0100
0000
0100
0000
,
0100
0000
0000
0000
,
1000
0000
1000
0000
,
1000
0000
0000
0000
,
0001
0000
0000
0000
,
0010
0000
0000
0000
,
0010
0000
0000
0000
,
0100
0000
0100
0000
,
1000
0000
0000
0000
,
1000
0000
1000
0000
,
1000
0000
1000
0000
,
0001
0000
0001
0000
,
0001
0000
0001
0000
,
0100
0000
0100
0000
,
0100
0000
0100
0000
,
0000
0000
0000
0000
,
0110
0000
0000
0000
,
1000
0000
0000
0000
,
0001
0000
0000
0000
,
1000
0000
0001
0000
,
1000
0000
0000
0000
,
0010
0000
0000
0000
,
0100
0000
0000
0000
,
0010
0000
0100
0000
,
0010
0000
0000
0000
,
0000
0000
1000
0000
,
0000
0000
0001
0000
,
0000
0000
1000
0000
,
0000
0000
0010
0000
,
0000
0100
0000
0000
,
0100
0000
0000
0000
,
0010
0000
0000
0000
,
0000
0000
0000
0000
,
0100
0100
0100
0100
,
0100
0100
0000
0000
,
1000
1000
1000
2000
,
0000
3000
0000
0000
,
0000
0001
0000
0000
,
1000
0000
0000
0000
,
1000
0000
0001
0000
,
1000
0000
0001
0000
,
1000
0000
0000
0000
,
0000
0000
0010
0000
,
0000
0000
0000
0000
,
0000
0000
0000
0000
,
0100
0100
0000
0000
,
0010
0000
0010
0000
,
0010
0000
0000
0000
,
1000
0000
0000
0000
,
0000
0000
0000
0000
,
0001
0000
0000
0000
,
0000
0000
0000
0000
,
0100
0000
0100
0000
,
0010
0000
0010
0000
,
0000
0000
0000
1000
,
0000
0000
0000
0001
,
0000
0000
0000
0100
,
0000
0000
0000
0020
,
0000
0000
0000
0000
,
0000
0030
0000
2000
,
0000
0000
0000
0000
,
0000
3000
0000
1000
,
0000
0000
0000
0000
,
0000
0001
0000
1001
;

//---------------dance-single - ----------------
#NOTEDATA:;
#CHARTNAME:;
#STEPSTYPE:dance-single;
#DESCRIPTION:;
#CHARTSTYLE:;
#DIFFICULTY:Easy;
#METER:7;
#RADARVALUES:0.336844,0.395476,0.017086,0.384441,0.081160,276.000000,274.000000,2.000000,45.000000,0.000000,0.000000,0.000000,0.000000,0.000000,0.336844,0.395476,0.017086,0.384441,0.081160,276.000000,274.000000,2.000000,45.000000,0.000000,0.000000,0.000000,0.000000,0.000000;
#CREDIT:;
#NOTES:
0000
0000
0000
0000
,
0000
0000
0000
0000
,
0000
0000
0000
0000
,
2000
0000
0000
3100
,
0010
0001
0100
0020
,
0000
0000
0030
1000
,
0001
1000
0010
0100
,
0210
0000
0000
0310
,
1000
0000
0000
0000
,
1000
0100
0001
0100
,
1000
0001
0100
0100
,
0020
0000
0030
0020
0000
0030
0020
0000
,
0030
0020
0000
0030
0010
0000
1000
0000
,
0001
0000
1000
0000
0000
0001
0000
0000
0000
0100
0000
0000
,
0000
0000
0000
0000
,
0010
0000
0100
0000
0000
0010
0000
0000
0000
0100
0000
0000
,
0000
0000
0001
1000
,
0010
0000
1000
0000
0000
0010
0000
0000
0000
0000
0000
0000
,
0000
0000
0000
0000
,
1000
0000
0100
0000
0000
1000
0000
0000
0000
0010
0000
0000
,
0100
0002
0000
1003
,
0001
0001
0100
0100
,
0010
0010
1000
1000
,
0100
0100
0010
0010
,
0001
0001
1000
1000
,
0010
2000
3001
0002
,
1003
2000
3010
0002
,
0103
0000
0000
0010
0000
0000
0100
0000
0001
0000
0000
1000
,
0000
0010
0010
0010
,
0020
0000
0030
2000
0000
3000
0002
0000
,
0103
0010
0100
0010
,
0200
0000
0300
0002
,
0000
0000
0003
1000
,
0010
0000
0000
0100
0000
0000
0010
0000
,
1000
0001
1000
0001
,
0100
0000
0000
0100
0000
0000
0010
0000
0100
0000
0000
0100
,
0000
2002
0000
3003
,
1000
0100
1000
0100
,
1000
0000
0100
0000
0000
1000
0000
0000
0000
0000
0000
0000
,
0001
0010
0001
0010
,
0001
0010
0001
0010
,
0200
0000
2300
0000
,
3020
0000
0230
0000
,
0302
0000
0000
0003
,
1000
0100
1000
0010
,
1000
0000
0001
0100
,
0001
0000
1000
0100
,
1000
0010
1000
0001
,
1000
0000
0001
0010
,
0001
0000
1000
0100
,
1000
0000
0001
0100
,
0001
0000
0000
0010
0000
0000
0001
0000
1000
0000
0000
0001
,
0000
0100
0100
0100
,
0000
0010
1000
0002
,
0003
0100
0001
2000
,
3000
0010
1000
0100
,
1000
0010
0100
0001
,
0000
0020
0000
0130
,
1000
0100
1000
0100
,
0010
0010
0001
0002
,
0000
0000
0003
0000
,
0100
0100
0100
0100
,
0100
0000
0010
0000
0000
0010
0000
0000
0000
0000
0000
0000
,
1000
1000
1000
2000
,
0000
3001
0001
0001
,
0000
0200
0000
0310
,
0100
0010
0100
0010
,
2000
0000
3200
0000
,
0320
0000
0032
0000
,
0103
0100
0010
0010
,
1000
1000
0001
0001
,
0100
0100
0010
0010
,
1000
1000
0001
0001
,
2000
3002
0003
0000
,
0020
0030
0020
0030
,
0020
0030
0000
0100
,
1000
0001
0100
0020
,
0000
0000
0030
0000
,
1000
0001
0100
0001
,
1000
0010
0100
0000
,
0001
0001
0010
0010
,
0100
0100
1000
1000
,
0000
0000
1000
0001
,
1000
0001
1000
0010
,
0010
0010
0010
0100
,
0010
0000
0000
2000
,
0000
3002
0000
0203
,
0000
0320
0000
1030
,
0100
0010
0001
0100
,
0010
1000
0001
0100
,
0100
0010
0010
1000
,
1000
0000
0000
0001
0000
0000
0001
0000
0200
0000
0000
0000
,
0000
0000
0000
0000
0000
0000
0000
0300
0000
0000
0000
0000
;

//---------------dance-double - ----------------
#NOTEDATA:;
#CHARTNAME:;
#STEPSTYPE:dance-double;
#DESCRIPTION:;
#CHARTSTYLE:;
#DIFFICULTY:Easy;
#METER:5;
#RADARVALUES:0.240428,0.356569,0.008543,0.358812,0.000000,197.000000,196.000000,1.000000,42.000000,0.000000,0.000000,0.000000,0.000000,0.000000,0.240428,0.356569,0.008543,0.358812,0.000000,197.000000,196.000000,1.000000,42.000000,0.000000,0.000000,0.000000,0.000000,0.000000;
#CREDIT:;
#NOTES:
00000000
00000000
00000000
00000000
,
00000000
00000000
00000000
00000000
,
00000000
00000000
00000000
00000000
,
00020000
00000000
00000000
00031000
,
00100000
00010000
01000000
00200000
,
00000000
00000000
00300000
01000000
,
00001000
00010000
00000100
00000010
,
00000002
00000000
00000000
00001003
,
00000200
00000000
00000000
00000300
,
00020000
00000000
00032000
00000000
,
00023000
00000000
00032000
00000000
,
00103000
00000000
00000000
00000000
,
00000000
00000000
00000000
00000000
,
01000000
00000000
01000000
00000000
,
00000000
00000000
00000000
00000000
,
10000000
00000000
10000000
00000000
,
00010000
01000000
00001000
00000000
,
00010000
00000000
00010000
00000000
,
00000000
00000000
00000000
00000000
,
00000200
00000000
00000320
00000000
,
00000032
00000000
00000003
00000000
,
00001000
00000100
00000010
00000001
,
00001000
00000000
00000000
00000000
,
00000001
00000010
00000100
00001000
,
00000001
00000000
00000000
00000000
,
00001000
00000200
00000000
00020300
,
00000000
00032000
00000000
00203000
,
00000000
01300000
10000000
00000000
,
00100000
00100000
01000000
01000000
,
00100000
00000000
00000000
00000000
,
01000000
01000000
00001000
00001000
,
01000000
00000000
00000000
00000000
,
00001000
00000000
00000000
00000000
,
00010000
00000000
00000000
00000000
,
00000100
00000000
00000000
00000000
,
00000010
00000100
00000010
00000100
,
00000010
00000000
00000000
00000000
,
00000001
00000001
00001000
00001000
,
00000001
00000000
00000000
00000000
,
00001000
00000100
00001000
00000100
,
00001000
00000100
00000010
00000010
,
00000002
00000003
00000200
00000300
,
00000020
00000030
00002000
00003000
,
00000200
00000000
00000000
00000000
,
00010300
00000000
00000000
00000000
,
00010000
00000000
00001000
00000000
,
00001000
00000000
00010000
00000000
,
00010000
00000000
00001000
00000000
,
01000000
00000000
00100000
00000000
,
10000000
00000000
00100000
00000000
,
10000000
00000000
01000000
00000000
,
10000000
00000000
00100000
00000000
,
00100000
00000000
01000000
00000000
,
00000000
00010000
01000000
01000000
,
00000000
01000000
00001000
00001000
,
00000000
00010000
00000100
00000100
,
00000010
00000001
00000010
00000001
,
00000000
00000200
00000000
00000310
,
00001000
00000100
00001000
00000100
,
00000010
00000001
00000010
00000002
,
00000000
00000000
00000000
00000003
,
00000100
00000100
00000010
00000010
,
00000100
00000100
00000000
00000000
,
00000010
00010000
00000010
00020000
,
00000000
00032000
00000000
00003000
,
00000000
02000000
00000000
03100000
,
10000000
01000000
10000000
01000000
,
00200000
00000000
00320000
00000000
,
02030000
00000000
03200000
00000000
,
20300000
00000000
30000000
00000000
,
00000000
00000000
00010000
00200000
,
00000000
00300000
00000000
00000000
,
00000000
00000000
00000000
00000000
,
00001000
00001000
00010000
00010000
,
00000200
00000300
00000200
00000300
,
00000020
00000000
00000030
00000100
,
00001000
00000001
00001000
00000001
,
00001000
00000000
00000000
00000000
,
00000010
00000000
00000100
00000000
,
00000100
00000000
00000000
00000000
,
00000001
00000000
00001000
00000000
,
00000010
00000000
00010000
00000000
,
00000000
00000000
00000000
00001000
,
00001000
00001000
00000000
00100000
,
01000000
00100000
01000000
20000000
,
00000000
30000000
00000000
00020000
,
00000000
02030000
00000000
03200000
,
00000000
20300000
00000000
31000000
,
00100000
01000000
00100000
00001000
,
00010000
00001000
00010000
00000010
,
00000010
00000100
00000100
00000001
,
00001000
00000020
00000030
00000220
,
00000000
00000000
00000000
00000330
;

//---------------dance-double - ----------------
#NOTEDATA:;
#CHARTNAME:;
#STEPSTYPE:dance-double;
#DESCRIPTION:;
#CHARTSTYLE:;
#DIFFICULTY:Challenge;
#METER:15;
#RADARVALUES:0.765221,0.989135,0.734710,0.187949,0.982461,627.000000,541.000000,86.000000,22.000000,0.000000,0.000000,0.000000,0.000000,0.000000,0.765221,0.989135,0.734710,0.187949,0.982461,627.000000,541.000000,86.000000,22.000000,0.000000,0.000000,0.000000,0.000000,0.000000;
#CREDIT:;
#NOTES:
00000000
00000000
00000000
00000000
,
00000000
00000000
00000000
00000000
,
00000000
00000000
00000000
00000000
,
10000000
00000000
01000000
00100000
00000000
01000000
10000000
00000000
01000000
00100000
00000000
00000000
,
00010000
00000000
01000000
00100000
00000000
01000000
10000000
00000000
01000000
00100000
00000000
00000000
,
00010000
00001000
00000100
00000101
,
00000001
00000100
00000001
00000100
00000000
00000000
00001100
00000000
00000000
00000101
00000000
00000000
,
00000010
00000000
00001000
00000100
00000000
00000000
00001000
00000000
00000010
00000100
00000000
00000000
,
00000101
00000010
00010000
00001000
,
01000000
00010000
10000000
00100000
00000000
00000000
00100000
10000000
00010000
01000000
00000000
00000000
,
01000000
00001000
00010000
00000100
00000000
00000000
00000100
00010000
00001000
01000000
00000000
00000000
,
01001000
00000000
00000000
00001000
00000000
00010000
00000000
00000000
00010000
00001000
00000000
00000000
,
00001000
00000000
00010000
00000000
00000000
00010000
00001000
00000000
00000000
00011000
00000000
00000000
,
00000010
00000000
00001000
00000001
00000000
00000010
00000000
00000000
00000001
00000100
00000000
00001010
,
00000000
00000000
00000010
00000200
00000000
00000000
00000001
00000000
00000000
00000310
00000000
00000000
,
00011000
00000000
01000000
00100000
00000000
01000000
00000000
00000000
00100000
00000000
00000000
10000000
,
00100000
00000000
01000000
00010000
00000000
10010000
00000000
00000000
00100000
10000000
00000000
00000000
,
00010000
00000000
00100000
00000000
00000000
01000000
00000000
00000000
00100000
00010000
00000000
02000000
,
00000000
03200000
10000000
10300000
,
10000000
00000000
01000000
00100000
00000000
00010000
01000000
00000000
00100000
10000000
00100000
01000000
,
00010000
00000000
00000000
02200000
00000000
00000000
03300000
00000000
00000000
00100000
00000000
10010000
,
00000000
00000000
00010000
01000000
00000000
00000000
10100000
00000000
00000000
11000000
00000000
00000000
,
00110000
00000000
00000000
00010000
00000000
01000000
00000000
00000000
00100000
10000000
00000000
00010000
,
01000000
00000000
00010000
00100000
00000000
00000000
10010000
00000000
00000000
11000000
00000000
00000000
,
01100000
00000000
00000000
00100000
00000000
00010000
00000000
00000000
10000000
00100000
00000000
00000000
,
01100000
00000000
00100000
10000000
00000000
00000000
01100000
00000000
01000000
00010000
01000000
00010000
,
10000000
00000000
10000000
00010000
00000000
00000000
10000000
00100000
10000000
00100000
00000000
00000000
,
10010000
00000000
00100000
01000000
00000000
00000000
00010000
00000000
10000000
00000000
00000000
00100000
,
01000000
00000000
00000000
01000000
00000000
00000000
01000000
00100000
10000000
00010000
01000000
00100000
,
10000000
00000000
00000000
00000000
00000000
01000000
00000000
00000000
00000000
00100000
00000000
00000000
,
00010000
01000000
10000000
01000000
,
00010000
00000000
00000000
00000000
00000000
00000000
00000000
00000000
00000000
00100000
00000000
00000000
00000000
00000000
00000000
00000000
00000000
00000000
01000000
00000000
00000000
00000000
10000000
00000000
,
00000000
00100000
00000000
01000000
00000000
00010000
00000000
10000000
00000000
00200000
00000000
00000000
,
01300000
00000000
00000000
01010000
00000000
00000000
00010000
00000000
,
10010000
00000000
00000000
00100000
00000000
10000000
00010000
00100000
01000000
10000000
01000000
00100000
,
00010000
00000000
00000000
01010000
00000000
00000000
00100000
00000000
10000000
00000000
00000000
22000000
,
00000000
00000000
00000000
33000000
00000000
00000000
01100000
00000000
00000000
00000000
01000000
00000000
00100000
00000000
00010000
00000000
00100000
00000000
00010000
00000000
10000000
00000000
00010000
00000000
,
10000000
11000000
00010000
01010000
,
00010000
00000000
10000000
00000000
00000000
11000000
00000000
00000000
10000000
00010000
00000000
00000000
,
10000000
10100000
00010000
00110000
,
10000000
00000000
00000000
10010000
00000000
00100000
01000000
00000000
00010000
10000000
00000000
00000000
,
01100000
00000000
10000000
00010000
00000000
00000000
01100000
00000000
00010000
10000000
00000000
00000000
,
00100000
00000000
01000000
00000000
00010000
00000000
00100000
00000000
01000000
00000000
10000000
00000000
,
10100000
00000000
01100000
00000000
01010000
00000000
00110000
00000000
01100000
00000000
11000000
00000000
,
10010000
00000000
00000000
00000000
,
01100000
00000000
00100000
10000000
00000000
00000000
01000000
00000000
00100000
00010000
00000000
01000000
,
00010000
00000000
00000000
01010000
00000000
00010000
10000000
00000000
01000000
10000000
00000000
00000000
,
11000000
00000000
10000000
01000000
00000000
01000000
00100000
00000000
00100000
00010000
00000000
00010000
,
01000000
00000000
00100000
10000000
00000000
10000000
00010000
00000000
00000000
01010000
00000000
00000000
,
10100000
00000000
10000000
00100000
00000000
00000000
10000000
00000000
00010000
10000000
00000000
00010000
,
00100000
00000000
01000000
10000000
00000000
00100000
01000000
00000000
00010000
10000000
00000000
00000000
,
01100000
00000000
00000000
10000000
00000000
00000000
00010000
00000000
00100000
00000000
00000000
12000000
,
00000000
00100000
03010000
10010000
,
01100000
00000000
00000000
00100000
01000000
00100000
01000000
00000000
00010000
10000000
00000000
00000000
,
10010000
00000000
00000000
01000000
00100000
01000000
00100000
00000000
10000000
00010000
00000000
00000000
,
01100000
00000000
00000000
10000000
00000000
01000000
00100000
00000000
00010000
10000000
00000000
00000000
,
01010000
00000000
00000000
11000000
00000000
00000000
00100000
00000000
00100000
01000000
00000000
00000000
,
10020000
01000000
00100000
10030000
,
20010000
00100000
01000000
30010000
,
01010000
10010000
10100000
02200000
,
00000000
00000000
00000000
03300000
00000000
00010000
00100000
00000000
01000000
10000000
00000000
00000000
,
10100000
11000000
10100000
11000000
,
10000000
01000000
00100000
00010000
00000000
10000000
00000000
00000000
00000000
00010000
00000000
01000000
,
00010000
00110000
01010000
00220000
,
00330000
00000000
00000000
00010000
00100000
01000000
10000000
00000000
00000000
10010000
00000000
00000000
,
10000000
00000000
00100000
01000000
00000000
01000000
00010000
00000000
00010000
10000000
00000000
10000000
,
00010000
01010000
10000000
11000000
,
10010000
00000000
00010000
00100000
01000000
00100000
00010000
00000000
10000000
00100000
01000000
00100000
,
10000000
00000000
00100000
10000000
00010000
10000000
00100000
01000000
00010000
10000000
01000000
00100000
,
00010000
01010000
10000000
11000000
,
00010000
00000000
00000000
01010000
00000000
00000000
10000000
00000000
00100000
01000000
00000000
00010000
,
00000000
00000000
00100000
01000000
00000000
00000000
10000000
00000000
00000000
01100000
00000000
00000000
,
00010000
01000000
00010000
10000000
00010000
00100000
01000000
10000000
01000000
00100000
01000000
10000000
,
00200000
01300000
00010000
10000000
,
20200000
30300000
20200000
30300000
,
00010000
00000000
00000000
00100000
00000000
01000000
00000000
00000000
10000000
00010000
01000000
00100000
,
10000000
00000000
01000000
10000000
00000000
00010000
01000000
00000000
00010000
00100000
00000000
01000000
,
10000000
00000000
00000000
00100000
00000000
00000000
01000000
00000000
00000000
10010000
00000000
10000000
,
00010000
00100000
00010000
00100000
00000000
00000000
01000000
00000000
00000000
11000000
00000000
00000000
,
00100000
00000000
01000000
00100000
00000000
10000000
00000000
00000000
00000000
01000000
00100000
00010000
,
10000000
10100000
00010000
00110000
,
10010000
00000000
00000000
01000000
00100000
10000000
00100000
10000000
00010000
10000000
00100000
01000000
,
01100000
00000000
00000000
10000000
00000000
00000000
01000000
00000000
10000000
00010000
00000000
01000000
,
00010000
00000000
00100000
00010000
00000000
01000000
00010000
00000000
00000000
10010000
00000000
00000000
,
00100000
10000000
00010000
01000000
,
10000000
00000000
01000000
00000000
00000000
00010000
00100000
00000000
01000000
10000000
00100000
10000000
,
00100000
01000000
00100000
01000000
00010000
01000000
00010000
00100000
00010000
00100000
01000000
00100000
,
01000000
10000000
01000000
10000000
00100000
10000000
00100000
01000000
00100000
01000000
00010000
00100000
,
10000000
00100000
00010000
01000000
10000000
01000000
00010000
00100000
01000000
10000000
00100000
00010000
,
00100000
10000000
01000000
00010000
01000000
10000000
00100000
01000000
00010000
10000000
00000000
00000000
,
01010000
00000000
00000000
10100000
00000000
10000000
00010000
00000000
00010000
10000000
01000000
00100000
,
00010000
00100000
01000000
10000000
00010000
10000000
00010000
00000000
20020000
00000000
00000000
00000000
,
00000000
00000000
00000000
00000000
00000000
30030000
00000000
00000000
;

//---------------dance-double - ----------------
#NOTEDATA:;
#CHARTNAME:;
#STEPSTYPE:dance-double;
#DESCRIPTION:;
#CHARTSTYLE:;
#DIFFICULTY:Medium;
#METER:7;
#RADARVALUES:0.331962,0.435220,0.059802,0.504045,0.051259,272.000000,265.000000,7.000000,59.000000,0.000000,0.000000,0.000000,0.000000,0.000000,0.331962,0.435220,0.059802,0.504045,0.051259,272.000000,265.000000,7.000000,59.000000,0.000000,0.000000,0.000000,0.000000,0.000000;
#CREDIT:;
#NOTES:
00000000
00000000
00000000
00000000
,
00000000
00000000
00000000
00000000
,
00000000
00000000
00000000
00000000
,
00000000
00000000
00000000
00100000
,
10000000
00010000
10000000
00020000
,
00000000
00000000
00000000
01030000
,
00001000
00010000
00001000
00010000
,
00000200
00000000
00000000
00000310
,
00000200
00000000
00000000
00000300
,
00002000
00000000
00003020
00000000
,
00000230
00000000
00000302
00000000
,
00000023
00000000
00000000
00000000
,
00000000
00000030
00000000
00000000
,
00000100
00010000
00000000
00010000
,
00000000
00001000
00000000
00001000
,
01000000
00100000
00000000
00100000
,
10000000
00010000
01000000
00100000
,
01000000
00010000
00000000
00010000
,
00000000
01000000
01000000
00100000
,
20000000
00000000
32000000
00000000
,
03200000
00010000
00000000
00310000
,
00010000
01000000
00001000
00001000
,
00010000
00010000
00000100
00000110
,
00000001
00000001
00000100
00000100
,
00000010
00000010
00010010
00010000
,
00002000
00103000
00020000
00030010
,
00002000
00103000
00020000
00030010
,
00000100
00000000
00000000
00000001
00000000
00000000
00000100
00000000
00000010
00000000
00000000
00000100
,
00000000
00000001
00000001
00000001
,
00002000
00000000
00000000
00000100
00000000
00000000
00003100
00000000
,
00000100
00010000
00001000
01000000
,
00200000
00000000
00000000
10300000
,
00000000
00000000
00000000
01000000
,
00100000
00000000
00000000
00010000
00000000
00000000
10000000
00000000
,
00100000
01000000
00100000
01000000
,
00001000
00000000
00000000
00001000
00000000
00000000
00010000
00000000
00001000
00000000
00000000
00001000
,
00000000
00000000
00000000
00000000
,
00010000
00000100
00010000
00000100
,
00000010
00000000
00000001
00000000
00000000
00001000
00000000
00000000
00000000
00000000
00000000
00000000
,
00000010
00010000
00000010
00010000
,
00000010
00010000
00001000
00001000
,
02000000
00000000
03200000
00000000
,
20300000
00000000
00020000
30030000
,
02002000
00000000
00000000
03003000
,
00011000
00000000
00000000
00000000
,
00001010
00000000
00000010
00000100
,
00000002
00000003
00000100
00000010
,
00010000
00010000
00001000
00001000
,
02000000
03000000
00100000
10000000
,
00020000
00030000
01000000
00010000
,
00100000
00001000
00001000
00010000
,
00000100
00000000
00000000
00000010
00000000
00000000
00000100
00000000
00000010
00000000
00000000
00000010
,
00000000
00000001
00000001
00000001
,
00000000
00000100
00001000
00020000
,
00030000
00001000
00010000
02000000
,
03000000
00010000
01000000
10000000
,
00100000
00100000
01000000
01000000
,
00000000
20020000
30030000
01000000
,
00001000
00010000
00000100
00000010
,
00000001
00000001
00001000
00002000
,
00000000
00000000
00000000
00003000
,
00000100
00010000
00000100
00010000
,
00000100
00000000
00010000
00000000
00000000
00010000
00000000
00000000
00000000
00001000
00000000
00000000
,
00100000
00010000
01000000
00200000
,
00000000
10300000
00010000
10000000
,
00000000
00020000
00000000
01030000
,
00001000
00001000
00010000
00010000
,
00000200
00000000
00002300
00000000
,
00003020
00000000
00000230
00000000
,
00000301
00000100
00000001
00000100
,
00000010
00010000
00000010
00010000
,
00001000
00010000
00001000
00010000
,
00001000
01000000
00001000
01000000
,
00100000
10010000
00000000
00000000
,
20000000
30000000
20000000
30000000
,
10000000
00010000
00000000
00100000
,
00001000
00001000
00010000
00020000
,
00000000
00030000
00000000
00000000
,
00000010
00000100
00000010
00000100
,
00000001
00001000
00000000
00000010
,
00010000
00001000
00010000
00001000
,
00100000
00001000
00100000
00001000
,
00000000
00000000
00100000
00100000
,
00100000
00100000
00100000
01000000
,
10000000
01000000
10000000
00020000
,
00030000
00010000
00000000
20000000
,
30200000
00320000
00032000
00003020
,
00000032
00000203
00002300
00023000
,
02030000
23000000
30200000
00320000
,
00032000
00003020
00000032
00002000
,
00000000
00000000
00000000
00003003
,
00000000
00000000
00000000
00000010
00000000
00000100
00000000
00000000
00000020
00000000
00000000
00000000
,
00000000
00000000
00000000
00000000
00000000
00000030
00000000
00000000
;

//---------------dance-double - ----------------
#NOTEDATA:;
#CHARTNAME:;
#STEPSTYPE:dance-double;
#DESCRIPTION:;
#CHARTSTYLE:;
#DIFFICULTY:Hard;
#METER:12;
#RADARVALUES:0.505266,0.869264,0.307553,0.247751,0.448515,414.000000,378.000000,36.000000,29.000000,0.000000,0.000000,0.000000,0.000000,0.000000,0.505266,0.869264,0.307553,0.247751,0.448515,414.000000,378.000000,36.000000,29.000000,0.000000,0.000000,0.000000,0.000000,0.000000;
#CREDIT:;
#NOTES:
// measure 0
00000000
00000000
00000000
00000000
,  // measure 1
00000000
00000000
00000000
00000000
,  // measure 2
00000000
00000000
00000000
00000000
,  // measure 3
00020000
00000000
00000000
00031000
,  // measure 4
01000000
00010000
00100000
00200000
,  // measure 5
00000000
00000000
00000000
01300000
,  // measure 6
10000000
00100000
00010000
00010000
,  // measure 7
00002000
00000000
00000000
00003100
,  // measure 8
00000002
00000000
00000003
00000000
,  // measure 9
00000201
00000310
00010200
00000310
,  // measure 10
00000201
00000310
00010200
00000310
,  // measure 11
00000100
00000000
00000000
00010000
00000000
00001000
00000000
00000000
00001000
01000000
00000000
00000000
,  // measure 12
01000000
00000000
00100000
00000000
00000000
00100000
10000000
00000000
00000000
00010000
00000000
00000000
,  // measure 13
10000000
00000000
01000000
00000000
00000000
00100000
00000000
00000000
01000000
10000000
00000000
10000000
,  // measure 14
00000000
00000000
00000000
00000000
,  // measure 15
00010000
00000000
01000000
00000000
00000000
00100000
00000000
00000000
01000000
00010000
00000000
00010000
,  // measure 16
00000000
00000000
00000000
00000000
,  // measure 17
00100000
00000000
00001000
00000000
00000000
00010000
00000000
00000000
00001000
00100000
00000000
00100000
,  // measure 18
00000000
00000000
00000000
00000000
,  // measure 19
00002000
00000000
00023000
00000000
,  // measure 20
00030100
00000000
00000000
00000110
00000000
00000000
00000000
00000000
00000000
00000010
00000000
00000001
,  // measure 21
00000000
00000000
00000001
00001000
00000000
00000000
00000100
00000000
00000000
00000001
00000000
00000000
,  // measure 22
00000100
00001000
00010010
00000100
,  // measure 23
00010000
01000000
10000000
01000000
,  // measure 24
00010000
00100000
00100000
01000000
,  // measure 25
11000000
00000000
00100000
00010000
00000000
00000000
01010000
00000000
00100000
10000000
00000000
00000000
,  // measure 26
11000000
00000000
00100000
00010000
00000000
00000000
01010000
00000000
00100000
10000000
00000000
00000000
,  // measure 27
01000000
00000000
00000000
00010000
00000000
00000000
00001000
00000000
00000100
00000000
00000000
00000001
,  // measure 28
00000000
00000100
00000100
00001000
,  // measure 29
00011000
00000000
00000000
01000000
00000000
00000000
00011000
00000000
,  // measure 30
00000000
00000000
00000000
00000000
,  // measure 31
00000020
00000000
00000000
00000000
00000000
00000000
00000100
00000130
,  // measure 32
00000000
00000000
00000000
00000100
,  // measure 33
00001001
00000000
00000000
00000010
00000000
00000000
00011000
00000000
,  // measure 34
00100000
01000000
10000000
00010000
,  // measure 35
11000000
00000000
00000000
00010000
00000000
00000000
11000000
00000000
00100000
00000000
00000000
01010000
,  // measure 36
00000000
00100000
00100000
00100000
,  // measure 37
11000000
00010000
00011000
00001000
,  // measure 38
00000100
00000000
00000001
00000000
00000000
00000001
00000000
00000000
00000000
00000000
00000000
00000000
,  // measure 39
00000101
00000010
00000101
00000010
,  // measure 40
00000100
00001000
00010000
01000000
,  // measure 41
10000000
00000000
10000000
00010000
00000000
00000000
00010000
00000000
00010000
10000000
00000000
00000000
,  // measure 42
00100000
00000000
01000000
00000000
00010000
00000000
10000000
00000000
00100000
00000000
01000000
00000000
,  // measure 43
00010000
00000000
00010000
00000000
00010000
00000000
00010000
00000000
00010000
00000000
00010000
00000000
,  // measure 44
00010000
00000000
00000000
00000000
,  // measure 45
00101000
00000000
00010000
00000100
,  // measure 46
00010010
00000000
00000100
00000001
,  // measure 47
00001000
00001000
00000010
00000010
,  // measure 48
00010000
00000000
00001000
00010000
,  // measure 49
00101000
00000000
00010000
00000010
,  // measure 50
00010100
00001000
00100000
01000000
,  // measure 51
10000000
00000000
00000000
00100000
00000000
00000000
01000000
00000000
00010000
00000000
00000000
00010000
,  // measure 52
00000000
00100000
01000000
00020000
,  // measure 53
00030000
00001000
00000100
00000002
,  // measure 54
00000003
00000010
00000100
00002000
,  // measure 55
00003000
00000010
00000100
00001000
,  // measure 56
00010000
00100000
10000000
20020000
,  // measure 57
30030000
02000000
03000000
00100000
,  // measure 58
00011000
00100000
00011000
00000100
,  // measure 59
00010010
00000000
00000000
00001000
00000000
00000000
00000100
00000000
00000000
00000010
00000000
00000001
,  // measure 60
00000100
00000000
00000001
00001000
00000000
00000001
00000100
00000000
00000001
00001000
00000000
00000000
,  // measure 61
00000010
00000100
00000010
00000100
,  // measure 62
00001000
00000000
00010000
00000000
00000000
01000000
00000000
00000000
00000000
10000000
00000000
00010000
,  // measure 63
10000000
00100000
10010000
00200000
,  // measure 64
00000000
00001000
00001000
00301000
,  // measure 65
00010000
00002000
00000000
00003100
,  // measure 66
00000001
00000110
00000001
00000110
,  // measure 67
00001000
00000000
00000010
00000100
00000001
00001000
00000010
00000000
00000010
00010000
00001000
00010000
,  // measure 68
00000100
00000000
00000100
00010000
00001000
00100000
01000000
10000000
00010000
10000000
01000000
10000000
,  // measure 69
00010000
00010000
01000000
01000000
,  // measure 70
00100000
00000000
00000000
00100000
00000000
00000000
00010000
00000000
00001000
00000000
00000000
00000010
,  // measure 71
00000000
00000000
00000010
00000001
00000000
00000000
00000100
00000000
00000000
00000100
00000000
00000000
,  // measure 72
00000010
00000100
00000010
00000100
00000010
00000100
00000001
00001000
00000010
00000100
00000001
00001000
,  // measure 73
00000100
00010010
00000100
00000100
,  // measure 74
00020000
00030000
00020000
00030000
,  // measure 75
00001000
00000000
00000000
00100000
00000000
01000000
00000000
00000000
00000000
01000000
00000000
01000000
,  // measure 76
10000000
00000000
10000000
00100000
00000000
00100000
01000000
00000000
01000000
00010000
00000000
00010000
,  // measure 77
10000000
00000000
00000000
01000000
00000000
00000000
00011000
00000000
00000000
00001000
00000000
00001000
,  // measure 78
00010000
00000100
00000010
00000001
,  // measure 79
00000100
00000000
00000010
00000100
00000000
00000010
00000000
00000000
00000000
00001000
00000000
00001000
,  // measure 80
00000002
00000103
00002000
00013000
,  // measure 81
02000000
13000000
00200000
00310000
,  // measure 82
00022000
00000000
00000000
00033000
00000000
00000000
00000010
00000000
00000100
00000010
00000000
00001000
,  // measure 83
00000010
00000000
00000100
00000010
00000000
00001000
00000010
00000000
00000000
00000100
00000000
00000000
,  // measure 84
00001000
00010000
01000000
10000000
,  // measure 85
00010000
00000000
10000000
00000000
00000000
00000000
00100000
00000000
00100000
01000000
00000000
01000000
,  // measure 86
00100000
00000000
00100000
00010000
00000000
00010000
00001000
00000000
00001000
00000010
00000000
00000010
,  // measure 87
00000001
00000000
00000001
00000100
00000000
00000100
00000010
00000000
00000010
00000100
00000000
00000100
,  // measure 88
00001000
00000000
00001000
00010000
00000000
00010000
01000000
00000000
01000000
10000000
00000000
10000000
,  // measure 89
00010000
00000000
00010000
10000000
00000000
10000000
00100000
00000000
00100000
01000000
00000000
00000000
,  // measure 90
01000000
00100000
00100000
00010000
,  // measure 91
00001000
00000000
00000000
00000010
00000000
00000001
00000000
00000000
00000022
00000000
00000000
00000000
,  // measure 92
00000000
00000000
00000033
00000000
;
