#TITLE:Kiwi;
#SUBTITLE:;
#ARTIST:BEMANI Sound Team "肥塚良彦";
#TITLETRANSLIT:;
#SUBTITLETRANSLIT:;
#ARTISTTRANSLIT:BEMANI Sound Team "Yoshihiko Koezuka";
#GENRE:Jazz;
#CREDIT:;
#BANNER:;
#BACKGROUND:;
#LYRICSPATH:;
#CDTITLE:;
#MUSIC:Kiwi.ogg;
#OFFSET:0.010000;
#SAMPLESTART:7.910000;
#SAMPLELENGTH:12.000000;
#SELECTABLE:YES;
#BPMS:0.000000=136.000000
;
#STOPS:
;
#BGCHANGES:;
#KEYSOUNDS:;
#ATTACKS:;

//---------------dance-single - ----------------
#NOTES:
     dance-single:
     :
     Challenge:
     16:
     0.807459,0.834335,0.392628,0.359909,1.006110,691.000000,643.000000,48.000000,44.000000,0.000000,0.000000,0.807459,0.834335,0.392628,0.359909,1.006110,691.000000,643.000000,48.000000,44.000000,0.000000,0.000000:
0000
0000
0000
0000
,
0000
0000
0000
0000
,
0011
0000
0010
0001
0000
0000
1010
0000
0010
1000
0000
0000
0220
0000
0000
0000
,
0000
0300
2000
3030
,
1001
0000
2002
0000
0000
0000
3003
0000
1100
0000
1000
0100
1000
0000
1000
0010
,
1000
0000
1000
0001
0010
0000
0010
0100
0010
0000
0010
0001
0100
0000
0100
0010
,
0100
0000
0100
1000
0100
0001
0100
0010
1000
0000
1000
0001
0100
0000
0100
0010
,
1000
0000
1000
0000
0010
0100
0010
0100
0001
0010
0100
1000
0001
0010
0100
1000
,
0010
0100
0001
1000
0010
0100
0001
1000
0001
0000
0001
0010
0001
0000
0001
0100
,
0001
0000
0001
1000
0010
0000
0010
0100
0010
0000
0010
1000
0100
0000
0100
0010
,
0100
0000
0100
1000
0001
0000
1000
0000
0001
0000
0010
0100
1000
0000
0000
0000
,
0010
0000
0100
0001
1000
0000
0010
0000
0100
0001
1000
0010
0100
0001
1000
0010
,
0100
0000
1001
0000
0000
0000
0000
0000
0011
0000
1001
0000
0010
1000
0000
1001
,
0000
0000
0000
0000
0001
0100
0010
1000
0001
0000
0010
0000
0001
1000
0000
1001
,
0000
0000
0000
0000
0100
0001
0100
0001
2000
0000
3000
0000
0022
0000
0033
0000
,
0002
0000
0003
0000
2020
0000
3030
0000
0220
0000
0000
0000
0330
0000
1000
0001
,
0200
0000
0000
0000
0000
0000
0300
0000
1010
0000
1001
0000
0010
0001
0000
1001
,
0000
0000
0000
0000
1000
0100
0010
0001
1000
0000
0010
0000
1000
0001
0000
1001
,
0000
0000
0000
0000
0010
1000
0010
1000
0001
0000
0000
0011
0000
0000
0100
0000
,
1000
0000
0000
1010
0000
0000
0100
0000
0001
0000
0000
0011
0000
0000
0100
0000
,
1000
0100
0010
0001
0010
0100
1000
0000
0010
1000
0001
0010
0001
1000
0010
1000
,
0001
0010
0001
1000
0010
0000
0100
0000
0220
0000
0000
0000
0000
0000
0330
0000
,
0202
0000
0000
0000
0000
0000
0303
0000
0100
0001
1000
0100
1000
0001
0100
0001
,
1000
0100
1000
0001
0010
0100
1000
0100
0010
0000
0000
0001
0000
0000
0022
0000
,
0000
0000
0000
0000
0033
0000
0000
0000
0001
0100
0010
1000
0001
0100
0010
1000
,
0100
0000
0010
0000
0011
0000
1000
0000
0010
0000
1000
0010
0000
0001
0020
0000
,
0000
0000
1030
0100
0010
0001
0100
0010
1000
0100
1000
0100
0001
0100
0001
0100
,
1000
0010
1000
0010
0001
0010
0001
0010
2000
0000
0001
0000
3001
0000
0100
0010
,
0100
0010
1000
0100
0020
0000
0031
0000
0100
0000
0100
0001
0100
0000
0100
1000
,
0100
0000
0100
0010
1000
0000
1000
0001
1000
0000
1000
0010
0100
0000
0100
1000
,
0100
0000
0100
0001
0010
0100
1000
0100
0010
0000
0010
1000
0010
0000
0010
0001
,
0100
0000
0100
0000
0010
0001
0010
1000
0001
0010
0100
1000
0001
0010
0100
1000
,
0010
0100
0001
1000
0010
0100
0001
1000
0010
0000
0010
1000
0010
0000
0010
0001
,
0010
0000
0010
0100
0001
0000
0001
1000
0001
0000
0001
0010
0100
0000
0100
0001
,
0100
0000
0100
1000
0010
0000
0010
0000
0100
0000
0001
1000
0010
0000
0000
0000
,
1000
0000
0100
0010
0001
0000
1000
0000
0001
0000
0100
0010
1000
0001
0100
0010
,
1000
0000
2002
0000
0000
0000
3003
0000
0000
0100
0001
0000
0010
0100
0000
1000
,
0000
0010
0100
0001
1000
0100
0010
0001
0100
0000
0000
0010
0000
1000
0002
0000
,
0000
0000
0003
0000
0001
0010
0001
0010
0001
0100
0010
0100
0001
0010
0100
0010
,
0001
0000
1000
0000
1001
0000
0000
0010
0000
0000
1100
0000
0010
0000
0002
0000
,
0000
0000
0000
0000
2000
0000
3003
0000
0000
0000
1000
0100
1000
0100
1000
0100
,
0010
0001
0000
0011
0000
0100
0010
0000
2000
0000
0000
0000
3000
0000
0002
0000
,
0000
0000
0003
0000
0200
0000
0000
0000
0310
0000
0000
0110
0000
0000
0000
0000
,
1000
0000
0000
1001
0000
0000
0000
0000
0001
0000
0000
0011
0000
0000
0000
0000
,
1000
0000
0000
1010
0000
0100
0001
0000
0010
0100
1000
0010
0100
0001
0010
0001
,
0100
0010
1000
0100
0010
0000
0001
0000
2000
0000
0000
0000
0000
0000
0000
0000
,
0200
0000
0000
0000
0000
0000
3300
0000
0100
1000
0100
1000
0001
0010
0001
0100
,
0010
1000
0100
0010
0100
1000
0001
0010
0001
0000
0000
0101
0000
0000
2020
0000
,
0000
0000
0000
0000
0000
0000
3030
0000
0011
0000
0010
0001
1000
0000
1000
0010
,
0100
0000
0000
0000
0202
0000
0303
0000
1010
0000
0010
1000
0001
0000
0001
0010
,
0100
0000
0000
0000
2200
0000
3300
0000
1000
0100
0010
0001
0100
0010
1000
0100
,
0010
0001
0100
0010
0100
0001
0010
0100
2000
0000
0000
0000
3000
0000
0010
1000
,
0010
0000
0100
0001
0100
0000
0001
0010
0001
0000
1010
0000
0001
1000
0000
1010
,
0000
0000
0100
0000
0001
1000
0000
0000
1000
0000
0011
0000
1000
0001
0000
0011
,
0000
0000
0100
0000
0001
1000
0000
0000
0010
0100
0001
0100
0010
1000
0010
0000
,
1000
0100
0010
0100
1000
0001
0010
0100
0020
0000
0000
0000
0031
1000
0000
0000
,
0010
0100
0000
0010
0100
0001
1000
0000
0001
0000
0001
0100
1000
0000
1000
0100
,
0001
0000
0001
0010
1000
0000
1000
0010
0001
0000
0001
0100
0010
0000
0010
0100
,
0001
0000
0100
0010
1000
0001
1000
0010
0100
0000
0001
0010
1000
0000
1000
0010
,
0100
0000
0001
0000
0100
0010
0100
0010
0100
0001
1000
0010
0100
0001
1000
0010
,
1000
0100
0010
0001
1000
0100
0010
0001
1000
0000
1000
0100
0001
0000
0001
0100
,
1000
0000
1000
0010
0001
0000
0001
0010
1000
0000
1000
0001
0100
0000
0100
0001
,
1000
0000
1000
0010
0100
0000
0001
0000
0011
0000
0100
1000
0001
0000
0000
0000
,
1100
0000
0010
0100
0001
0000
0100
0010
1000
0100
0001
0100
0010
0100
1000
0100
,
0010
0000
0011
0000
0000
0000
0001
1000
0010
0000
0100
0001
1000
0000
0000
0000
,
1010
0000
0100
0001
1000
0000
0001
0100
0010
0100
1000
0100
0010
0100
0001
0010
,
0100
0000
2200
0000
0000
0000
3300
0000
1000
0100
0001
0100
0020
0000
0000
0000
,
0000
0000
0000
0000
,
0030
0000
0000
0000
;

//---------------dance-single - ----------------
#NOTES:
     dance-single:
     :
     Hard:
     12:
     0.503639,0.556224,0.229033,0.310831,0.343550,431.000000,403.000000,28.000000,38.000000,0.000000,0.000000,0.503639,0.556224,0.229033,0.310831,0.343550,431.000000,403.000000,28.000000,38.000000,0.000000,0.000000:
0000
0000
0000
0000
,
0000
0000
0000
0000
,
2000
0000
0000
0200
3000
0000
0020
0300
0000
0002
0030
0003
2002
0000
0000
0000
,
0000
0003
0020
3030
,
0110
0000
0110
0000
0000
0000
0000
0000
0001
0000
0000
0001
0010
0000
0000
0010
,
0001
0000
0000
0001
1000
0000
0000
1000
0001
0000
0000
0001
0100
0000
0000
0100
,
0001
0000
0000
0001
1000
0000
0000
1000
0100
0000
0010
0000
0001
0000
1000
0000
,
0001
0100
0010
1000
2020
0000
3030
0000
,
0202
0000
0000
0000
0303
0000
0000
0000
1000
0000
0000
1000
0010
0000
0000
0010
,
1000
0000
0000
1000
0001
0000
0000
0001
1000
0000
0000
1000
0100
0000
0000
0100
,
1000
0000
0000
1000
0010
0000
0100
0000
0001
0000
0010
0000
0001
0000
0000
0000
,
1000
0010
1000
0000
0001
0100
0010
1000
,
1001
0000
2002
0000
0000
0000
3003
0000
0010
0000
1000
0000
0001
0010
0000
0001
,
0000
0000
0000
0000
0000
0000
0100
0000
0100
0000
0001
0000
1000
0100
0000
1000
,
0000
0000
0010
0100
0002
0000
0023
0000
,
0230
0000
2300
0000
3002
0000
0000
1000
,
2000
0000
0000
0000
3003
0000
0000
0000
1000
0000
0100
0000
0010
0100
0000
1000
,
0000
0000
0000
0000
0000
0000
0001
0000
0001
0000
0010
0000
0100
0010
0000
0001
,
0000
0000
0000
0000
1000
0000
0100
0000
0010
0000
0000
1000
0000
0000
0010
0000
,
0001
0000
0000
0100
0000
0000
0010
0000
0001
0000
0000
0010
0000
0000
1000
0000
,
0001
0010
0100
1000
0010
0100
0010
0001
,
0010
1000
0010
0010
2000
0000
0000
0000
,
0200
0000
3300
0000
0100
0010
0100
0001
,
0100
0000
1000
0000
0100
0000
0010
0000
0001
0000
0000
0010
0000
0000
0022
0000
,
0000
0000
0033
0000
0001
0100
0010
1000
,
0001
0000
0001
0000
1000
0000
1000
0000
0010
0000
0100
0010
0000
0100
0020
0000
,
0000
0130
0001
1000
0010
0100
0010
1000
,
0001
0100
0001
0010
1100
0000
0000
0000
,
0000
0000
0000
0000
0000
0000
0000
0000
0010
0000
0000
0010
0100
0000
0000
0100
,
0010
0000
0000
0010
1000
0000
0000
1000
0010
0000
0000
0010
0100
0000
0000
0100
,
0010
0000
0000
0010
1000
0000
0000
0100
0010
0000
0001
0000
1000
0000
0000
0000
,
0010
0010
1000
0001
0100
0010
1000
0001
,
0100
0000
0001
0000
1000
0000
0010
0000
0100
0000
0000
0100
0001
0000
0000
0001
,
0100
0000
0000
0100
0010
0000
0000
0010
0100
0000
0000
0100
0001
0000
0000
0001
,
0100
0000
0000
0010
1000
0000
0100
0000
0010
0000
0100
0000
1100
0000
0000
0000
,
0010
0100
0101
0000
0001
0010
0001
1000
,
1100
0000
2200
0000
0000
0000
3300
0000
0000
0010
0001
0000
0100
0001
0000
1000
,
0000
0010
1000
0000
0001
0000
0100
0000
0010
0000
0000
0010
0000
0000
0010
0000
,
0000
0000
0100
0001
0010
0001
0010
0001
,
0010
0000
0100
0000
0100
0000
0000
1000
0000
0000
0100
0000
0010
0000
0002
0000
,
0000
0000
0003
0000
0000
0100
0001
0100
,
0001
0010
0000
0010
0000
0100
0000
0000
2000
0000
0000
0000
3000
0000
0002
0000
,
0000
0000
0003
0000
0020
0000
0000
0000
0130
0000
0000
1100
0000
0000
0000
0000
,
0010
0000
0000
0011
0000
0000
0000
0000
0001
0000
0000
1001
0000
0000
0000
0000
,
1000
0000
0000
0010
0000
0100
0001
0000
1000
0000
0100
0000
0010
0000
0100
0000
,
0001
0100
0010
0010
0200
0000
0000
0000
,
0020
0000
0330
0000
0001
0100
0010
0100
,
1000
0000
0100
0000
0001
0000
0100
0000
0010
0000
0000
1000
0000
0000
2020
0000
,
0000
3030
0000
0000
1000
0100
0001
0100
,
2000
0000
3001
0000
0001
0100
1000
0100
,
0002
0000
1003
0000
0010
1000
0010
0100
,
0001
0010
0001
0100
0020
0000
0030
0100
,
1000
0000
0100
0000
0001
0000
0010
0000
0100
0000
0100
0000
1000
0001
0000
1000
,
0000
0000
0010
0000
0100
0001
0000
0000
0010
0000
0010
0000
0001
1000
0000
0001
,
0000
0000
0100
0000
0010
1000
0000
0000
0100
0000
0001
0000
0100
0000
1000
0000
,
0010
0001
0010
1000
1001
0000
0000
0000
,
0000
0000
0000
0000
0000
0000
0000
0000
1000
0000
0000
1000
0100
0000
0000
0100
,
1000
0000
0000
1000
0010
0000
0000
0010
1000
0000
0000
1000
0100
0000
0000
0100
,
0010
0000
0000
0010
0001
0000
0000
0000
0100
0000
0010
0000
1000
0000
0001
0000
,
0010
0010
0001
0100
0110
0000
0010
0000
,
1001
0000
0000
0000
0100
0000
0000
0000
0001
0000
0000
0001
0010
0000
0000
0010
,
0001
0000
0000
0001
0100
0000
0000
0100
0001
0000
0000
0001
0010
0000
0000
0010
,
0100
0000
0000
0100
1000
0000
0000
0000
0010
0000
0100
0000
0101
0000
0000
0000
,
0100
0010
1010
0000
1000
0100
0010
0001
,
0101
0000
0101
0000
0000
0000
0001
1000
0001
0000
0010
0000
0011
0000
0000
0000
,
1000
0100
1100
0000
0010
0100
0001
1000
,
1010
0000
1010
0000
0000
0000
0000
0000
0001
0100
0010
1000
0002
0000
0000
0000
,
0000
0000
0000
0000
,
0003
0000
0000
0000
;

//---------------dance-single - ----------------
#NOTES:
     dance-single:
     :
     Medium:
     8:
     0.364584,0.417168,0.261752,0.384449,0.008180,312.000000,280.000000,32.000000,47.000000,0.000000,0.000000,0.364584,0.417168,0.261752,0.384449,0.008180,312.000000,280.000000,32.000000,47.000000,0.000000,0.000000:
0000
0000
0000
0000
,
0000
0000
0000
0000
,
0020
0000
0000
0230
0000
0000
0302
0000
,
0000
0000
2000
3003
,
0000
0000
0002
0010
,
0100
0010
1000
0010
,
0100
0000
0013
0000
0001
0100
0010
1000
,
0100
0000
0010
0010
0100
1000
0100
0000
,
1000
0010
1000
0000
2000
0000
0100
0000
,
0010
0100
0001
0100
,
0010
0000
3100
0000
1000
0001
0010
0000
,
0001
0100
0010
0000
0100
0001
0010
0001
,
1000
1000
0000
0000
0010
0010
0100
0001
,
0000
0000
0000
0000
0100
0100
0010
1000
,
0000
0000
1000
0001
0200
0000
0302
0000
,
2003
0000
3020
0000
0230
0000
0300
0200
,
0020
0000
0330
0000
1000
1000
0100
0000
,
0000
0000
0000
0000
0001
0001
0100
0000
,
0000
0000
0010
1000
2020
0000
3030
0000
,
0202
0303
2002
3003
,
0010
0100
0010
0100
0001
0010
0001
1000
,
0001
0100
0220
0330
,
0202
0000
0303
0000
1000
0010
1000
0100
,
1000
0100
0020
0000
,
0030
0000
0022
0033
,
0100
0001
1000
0010
2020
0000
0000
3030
,
0000
0010
0100
0001
1000
0000
0100
0000
,
0001
0100
1000
0000
,
0000
0000
0001
0101
,
0001
1001
0001
0101
,
0001
1001
1000
0010
,
1000
0100
0010
0001
0200
0000
0000
0000
,
0320
0000
1030
1010
,
1000
1001
1000
1010
,
1000
0000
1001
0000
0100
0001
1000
0000
,
0010
1000
0100
0010
0001
0100
0001
1000
,
0010
0010
0000
0000
0000
0100
0001
0000
,
1000
0010
0100
0001
0200
0000
0000
0310
,
0000
0010
1000
0100
,
0010
0001
0001
0000
1000
0100
0100
0200
,
0000
0000
0300
0000
0000
1000
0010
0100
,
0002
0000
0000
0003
0022
0000
0033
2002
,
0000
3003
1010
0000
0110
0000
0000
0000
,
1001
0000
0110
0000
,
1001
0000
0000
0000
0001
0010
0100
1000
,
0010
0100
0001
0000
2000
0000
0000
0000
,
0020
0000
3030
0000
0010
0100
0001
1000
,
0001
0100
0010
1000
0020
0000
0000
0000
,
0030
0000
0100
0001
,
0100
0001
1000
0010
,
1000
0000
0010
0000
0100
0001
0100
0000
,
0001
0010
0001
0000
2000
0000
0000
0000
,
3100
0000
0010
0000
0100
0000
1000
0000
0100
0000
0100
0000
0000
0000
0000
0011
,
0000
0000
0000
0000
0000
0000
0000
0000
0001
0000
0001
0000
0000
0000
0000
1010
,
0000
0000
0000
0000
1000
0001
1000
0001
,
0100
0010
0100
0010
0200
0000
0300
0000
,
0000
0000
0002
0013
,
0011
1001
2000
3010
,
1010
1001
1000
0010
,
0100
0001
1000
0000
0010
1000
0100
0010
,
0001
0100
0010
1000
0002
0000
0103
0000
,
0101
1001
2000
3100
,
1100
0000
1001
0000
0010
0100
0001
0000
,
0010
0100
1000
0000
0001
1000
0010
0100
,
0001
0001
0000
0000
0100
0010
1000
0000
,
0010
0100
0001
0000
0100
0010
1000
0001
,
1000
1000
0000
0000
0010
0100
0002
0000
,
0000
0000
0000
0000
,
0003
0000
0000
0000
;

//---------------dance-single - ----------------
#NOTES:
     dance-single:
     :
     Easy:
     6:
     0.268763,0.333734,0.106337,0.368089,0.008180,230.000000,217.000000,13.000000,45.000000,0.000000,0.000000,0.268763,0.333734,0.106337,0.368089,0.008180,230.000000,217.000000,13.000000,45.000000,0.000000,0.000000:
0000
0000
0000
0000
,
0000
0000
0000
0000
,
0010
0000
0000
0100
0000
0000
2002
0000
,
0000
0003
0020
3030
,
0000
0000
0100
0001
,
0100
0010
0100
1000
,
0100
0001
1000
0010
,
0100
0001
0202
0303
,
2002
3003
0010
1000
,
0010
0100
0010
0001
,
0010
1000
0020
0130
,
0200
0301
1000
0001
,
0100
0100
0000
0000
0001
0000
0001
0000
,
1000
0000
1000
1000
,
0010
0000
0200
0302
,
2003
3020
0230
0000
,
0020
0330
1000
1000
,
0001
0000
0001
0001
,
0100
0000
0020
0030
,
2000
3000
0002
0003
,
2002
3003
0100
0100
,
0001
1000
0020
0030
,
0200
0300
0010
1000
,
0001
0100
0002
0000
,
0003
0000
0010
0100
,
1000
0001
1000
0000
0020
0000
0000
0030
,
0000
0000
0100
0001
,
0100
0010
0110
0000
,
0000
0000
1000
0010
,
1000
0001
1000
0010
,
1000
0100
1000
0001
,
0100
0010
0202
0303
,
2020
3030
0001
0010
,
0001
1000
0001
0100
,
0001
0010
0100
1100
,
1000
1001
0001
0100
,
0010
0010
0000
0000
0000
0000
1000
0000
,
0100
0000
0010
0000
0002
0000
0000
1003
,
0000
0010
0100
0001
,
1000
0010
1000
0001
,
0000
0000
0100
0100
,
0001
0000
0000
0000
0010
0000
0000
0100
,
0000
1000
0002
0003
,
2000
3000
2002
3003
,
0220
0330
0100
0001
,
1000
0010
2000
0000
,
0002
3003
0001
0010
,
0100
0000
1000
0000
0020
0000
0000
0030
,
0000
0000
0100
0001
,
0100
0010
0010
1000
,
0010
0000
0100
0000
0001
1000
0001
0000
,
1000
0001
1000
0000
0002
0000
0003
0000
,
2000
0000
0000
0000
3000
0000
0000
0000
0010
0000
0010
0000
0000
0000
0000
0010
,
0000
0000
0000
0000
0000
0000
0000
0000
0100
0000
0100
0000
0000
0000
0000
0100
,
0000
0000
0000
0000
0001
1000
0001
1000
,
0001
1000
0001
1000
0001
0000
0000
0000
,
0000
0000
1000
1000
,
0001
0001
0100
0100
,
0010
0010
1000
0100
,
0010
0001
0022
0033
,
2200
3300
0001
0001
,
1000
1000
0010
0010
,
0100
0000
0100
0000
0001
0010
0001
0000
,
1000
0100
1000
0000
0010
0000
0010
0000
,
0100
0100
0000
0000
0001
0010
0001
0000
,
1000
0100
1000
0000
0010
0000
0010
0000
,
0100
0100
0000
0000
0001
0010
0200
0000
,
0000
0000
0000
0000
,
0300
0000
0000
0000
;

//---------------dance-single - ----------------
#NOTES:
     dance-single:
     :
     Beginner:
     4:
     0.199820,0.250301,0.188134,0.073618,0.000000,171.000000,148.000000,23.000000,9.000000,0.000000,0.000000,0.199820,0.250301,0.188134,0.073618,0.000000,171.000000,148.000000,23.000000,9.000000,0.000000,0.000000:
0000
0000
0000
0000
,
0000
0000
0000
0000
,
2002
3003
0000
0220
,
0000
0000
0330
0000
,
1001
0000
0000
1000
,
1000
1000
1000
1000
,
1000
0000
0010
0000
,
0100
0000
1001
0000
,
0110
0000
0001
0001
,
0001
0001
0001
0001
,
0001
0000
1001
0000
,
0110
0000
1001
0000
,
1001
0000
0010
0010
,
0010
0000
1000
1000
,
1000
0000
0100
0000
,
0010
0000
0001
0000
,
1000
0000
0001
0001
,
0001
0000
0100
0100
,
0100
0000
0110
0000
,
1001
0000
0110
0000
,
1001
0000
0001
0001
,
0001
0000
0100
0000
,
0010
0000
1000
1000
,
1000
1000
1000
0000
,
0000
0000
0020
0030
,
0010
0000
0200
0300
,
0000
0001
0001
0000
,
1000
0000
1001
0000
,
0000
0000
0010
0010
,
0010
0010
0010
0010
,
0010
0000
0100
0000
,
0001
0000
1001
0000
,
0110
0000
0100
0100
,
0100
0100
0100
0100
,
0100
0000
0001
0000
,
1000
0000
0010
0000
,
0110
0000
1000
0000
,
0000
0000
0100
0000
,
0100
0000
0010
0000
,
0000
0001
0000
1000
,
0000
0010
0000
0000
,
1000
0000
0002
0000
,
0000
0003
0001
0000
,
1000
0000
0001
0000
,
1000
0000
0010
0010
,
0010
0000
0100
0000
,
0100
0000
0001
0001
,
0001
0000
0010
0000
,
0000
0000
0100
0000
,
1000
0000
0100
0000
,
0010
0000
0001
0000
,
0001
0000
2000
3000
,
1000
0000
0110
0000
,
0000
0000
1001
0000
,
0000
0000
0100
0000
,
0001
0000
1000
0000
,
0000
0001
0001
0001
,
0001
0001
0001
0001
,
0001
0001
0001
0000
,
1000
0000
1001
0000
,
0110
0000
1000
1000
,
1000
1000
1000
1000
,
1000
1000
1000
0000
,
0010
0000
0100
0000
,
1001
0000
0001
0000
,
0010
0000
0100
0000
,
1001
0000
0020
0000
,
0000
0000
0000
0000
,
0030
0000
0000
0000
;

//---------------dance-double - ----------------
#NOTES:
     dance-double:
     :
     Challenge:
     16:
     0.794605,0.834335,0.351730,0.237213,0.997931,680.000000,637.000000,43.000000,29.000000,0.000000,0.000000,0.794605,0.834335,0.351730,0.237213,0.997931,680.000000,637.000000,43.000000,29.000000,0.000000,0.000000:
00000000
00000000
00000000
00000000
,
00000000
00000000
00000000
00000000
,
01001000
00000000
00000000
00011000
00000000
00000000
00010100
00000000
00000000
00011000
00000000
00000000
00202000
00000000
00000000
00000000
,
00000000
00303000
00020020
00030030
,
00011000
00000000
00011000
00000000
00000000
00000000
00000000
00000000
01000000
00000000
01000000
00010000
01000000
00000000
01000000
00100000
,
01000000
00000000
01000000
10000000
01000000
00000000
01000000
00100000
01000000
00000000
01000000
00010000
01000000
00000000
01000000
00100000
,
00010000
00000000
00010000
00001000
00000100
00000000
00000100
00000001
00000010
00000000
00000100
00001000
00000001
00000000
00000100
00000010
,
00001000
00000000
00000001
00000000
00001000
00000100
00000010
00000001
00000100
00000010
00001000
00000001
00000100
00000010
00001000
00000001
,
00000010
00000100
00001000
00000001
00000010
00000100
00001000
00000001
00000100
00000000
00000100
00000001
00000100
00000000
00000100
00000010
,
00000100
00000000
00000100
00001000
00000100
00000000
00000100
00000010
00000100
00000000
00000100
00000001
00000010
00000000
00000010
00001000
,
00010000
00000000
00010000
00100000
10000000
00000000
00010000
00000000
01000000
00000000
00100000
10000000
00010000
00000000
00000000
00000000
,
01000000
00000000
00010000
10000000
00100000
00000000
01000000
00010000
10000000
00100000
10000000
00100000
01000000
00010000
01000000
00010000
,
10000000
00000000
10010000
00000000
00000000
00000000
00000000
00000000
10000000
00000000
10000000
00000000
01000000
00010000
00000000
00011000
,
00000000
00000000
00000000
00000000
00001000
00000100
00000001
00000100
00000010
00000000
00000010
00000000
00000100
00000001
00000000
00000101
,
00000000
00000000
00000000
00000000
00000010
00001000
00010000
00001000
00000020
00000000
00000000
00000000
00000230
00000000
00000000
00000000
,
00020300
00000000
00000000
00000000
00002000
00000000
00033000
00000000
00022000
00000000
00000000
00000000
00033000
00000000
00010000
00001000
,
00000020
00000000
00000000
00000000
00000030
00000000
00000000
00000000
00000001
00000000
00000001
00000000
00000100
00001000
00000000
00011000
,
00000000
00000000
00000000
00000000
00010000
01000000
00100000
01000000
10000000
00000000
10000000
00000000
01000000
00100000
00000000
10100000
,
00000000
00000000
00000000
00000000
10000000
01000000
00100000
00010000
01000000
00000000
00000000
01010000
00000000
00000000
00100000
00000000
,
10000000
00000000
00000000
10100000
00000000
00000000
01000000
00000000
00100000
00000000
00000000
00101000
00000000
00000000
00001000
00000000
,
00010000
00100000
00010000
00100000
10000000
00100000
10000000
00000000
01000000
00100000
01000000
00100000
01000000
00010000
01000000
00010000
,
00001000
00010000
00001000
00000010
00000001
00000000
00001000
00000000
00000020
00000000
00000000
00000000
00000030
00000000
00000000
00000000
,
00000200
00000000
00000000
00000000
00000300
00000000
00000000
00000000
00000010
00000100
00000010
00000100
00001000
00000100
00001000
00010000
,
00001000
00010000
01000000
10000000
00100000
01000000
00010000
10000000
00100000
00000000
00000000
01000000
00000000
00000000
20020000
00000000
,
00000000
00000000
00000000
00000000
00000000
00000000
30030000
00000000
10000000
00100000
10000000
00100000
10000000
00100000
10000000
00100000
,
00010000
00000000
00001000
00000000
00000010
00000000
00000001
00000000
00001000
00000000
00000001
00000100
00000000
00000010
00002000
00000000
,
00000000
00000000
00003001
00000100
00000001
00000100
00000001
00000100
00001000
00010000
00100000
00010000
00001000
00000100
00001000
00000000
,
00010000
00100000
00010000
00001000
00000100
00001000
00010000
00100000
10000000
00000000
10000000
00000000
10000000
00000000
00100000
01000000
,
00000000
01000000
00010000
00000000
10000000
00000000
00000000
00000000
00010000
00000000
00010000
01000000
00100000
00000000
00100000
10000000
,
01000000
00000000
01000000
10000000
00100000
00000000
00100000
01000000
00010000
00000000
00010000
00100000
01000000
00000000
01000000
00010000
,
00001000
00000000
00001000
00000100
00000001
00000000
00000001
00001000
00000010
00000000
00000100
00000001
00000100
00000000
00000010
00001000
,
00000010
00000000
00000010
00000000
00000100
00000001
00000100
00000001
00001000
00000010
00000100
00000001
00000010
00000100
00001000
00000010
,
00000100
00000001
00001000
00000010
00000100
00000010
00001000
00000001
00001000
00000000
00001000
00000010
00000100
00000000
00000100
00000001
,
00000010
00000000
00000010
00000001
00000100
00000000
00000100
00000010
00001000
00000000
00001000
00000010
00000100
00000000
00000100
00001000
,
00010000
00000000
00010000
01000000
10000000
00000000
00100000
00000000
01010000
00000000
00100000
10000000
00010000
00000000
00000000
00000000
,
01001000
00000000
00010000
00100000
00001000
00000000
00010000
00000100
00001000
00000000
00000010
00000100
00000001
00001000
00000010
00000100
,
00000001
00000000
00002002
00000000
00000000
00000000
00003003
00000000
00000000
00000010
00001000
00000000
00000010
00000100
00000000
00001001
,
00000000
00000010
00010000
00000010
00010000
00001000
00010000
00001000
01000000
00010000
00000000
00110000
00000000
01000000
10000000
00000000
,
00000000
00000000
00000000
00000000
00100000
01000000
00100000
01000000
00010000
00100000
00010000
00100000
00001000
00010000
00001000
00010000
,
00000010
00000000
00001000
00000000
00001010
00000000
00000000
00000100
00000000
00000000
00000001
00000000
00000010
00000000
00000012
00000000
,
00000000
00000000
00000000
00000000
00001003
00000000
00000000
00000000
00000000
00000000
00000100
00010000
00000100
00010000
00000100
00010000
,
00000010
00010000
00000000
00010010
00000000
00011000
00000000
00000000
02000000
00000000
00000000
00000000
03000000
00000000
00000020
00000000
,
00000000
00000000
00000030
00000000
02000000
00000000
00000000
00000000
03001000
00000000
00000000
00011000
00000000
00000000
00000000
00000000
,
00010000
00000000
00000000
00011000
00000000
00000000
00000000
00000000
00001000
00000000
00000000
00011000
00000000
00000000
00000000
00000000
,
00101000
00000000
00000000
00010000
00000000
10000000
00100000
00000000
01000000
00010000
01000000
00010000
10000000
00100000
10000000
00100000
,
00010000
00001000
00010000
00001000
00000010
00000000
00000001
00000000
00002000
00000000
00000000
00000000
00003000
00000000
00000000
00000000
,
00000002
00000000
00000000
00000000
00000003
00000000
00000000
00000000
00000100
00000001
00000100
00000001
00001000
00000010
00001000
00000010
,
00000100
00000001
00000100
00000001
00000010
00001000
00000010
00001000
00010000
00000000
00000000
00100000
00000000
00000000
20000000
00000000
,
00000000
00000000
31000000
00100000
00010000
00100000
01000000
00000000
10010000
00000000
00010000
00100000
00010000
00000000
00010000
10000000
,
00010000
00000000
00000000
00000000
11000000
00000000
00000000
00000000
10010000
00000000
10000000
00100000
10000000
00000000
10000000
00010000
,
10000000
00000000
00000000
00000000
01010000
00000000
00000000
00000000
10000000
01000000
10000000
01000000
00010000
00001000
00010000
00001000
,
00000100
00000001
00000100
00000001
00001000
00000010
00001000
00000010
00000200
00000000
00000000
00000000
00000300
00000000
00000001
00000010
,
00000001
00000000
00000001
00000100
00000001
00000000
00000001
00001000
00000001
00000000
00000101
00000000
00000010
00001000
00000000
00001100
,
00000000
00000000
00000010
00000000
00010000
00001000
00000000
00000000
00100000
00000000
00110000
00000000
00010000
10000000
00000000
10100000
,
00000000
00000000
01000000
00000000
00010000
10000000
00000000
00000000
00100000
10000000
00100000
01000000
00100000
10000000
00100000
01000000
,
00010000
00100000
00010000
01000000
00010000
00100000
00010000
01000000
00010000
00000000
00000000
00000000
10000000
00100000
00000000
00000000
,
02020000
00000000
00000000
00000000
03030000
00000000
00000000
00000000
10000000
00000000
10000000
00100000
01000000
00000000
01000000
00010000
,
00100000
00000000
00100000
00001000
00010000
00000000
00010000
00000100
00001000
00000000
00001000
00000010
00000100
00000000
00000100
00000001
,
00000010
00000000
00000010
00000100
00001000
00000000
00000001
00001000
00000001
00000000
00001000
00000010
00000100
00000000
00000001
00000010
,
00000100
00000000
00001000
00000000
00000010
00000100
00000010
00000100
00000001
00001000
00000010
00000100
00000001
00001000
00000010
00000100
,
00000001
00000010
00000100
00001000
00000001
00000010
00000100
00001000
00000001
00000000
00000001
00000100
00000010
00000000
00000010
00001000
,
00000100
00000000
00000100
00010000
00001000
00000000
00001000
00100000
00010000
00000000
00010000
01000000
00100000
00000000
00100000
10000000
,
01000000
00000000
01000000
00100000
00010000
00000000
10000000
00000000
10010000
00000000
00100000
01000000
00010000
00000000
00000000
00000000
,
10010000
00000000
01000000
00100000
10000000
00000000
00010000
01000000
00100000
10000000
01000000
00100000
00010000
01000000
00100000
10000000
,
01000000
00000000
00010000
00000000
00000000
00000000
00001000
00000100
00000001
00000000
00001000
00000010
00000100
00000000
00000000
00000000
,
00000110
00000000
00000001
00000100
00000010
00000000
00001000
00000010
00000100
00000001
00000010
00000100
00001000
00000010
00000100
00000001
,
00000010
00000000
00001000
00000000
00000000
00000000
00000000
00000000
00010000
00100000
10000000
00100000
02000000
00000000
00000000
00000000
,
00000000
00000000
00000000
00000000
,
03000000
00000000
00000000
00000000
;

//---------------dance-double - ----------------
#NOTES:
     dance-double:
     :
     Hard:
     12:
     0.522336,0.584035,0.368089,0.294471,0.249483,447.000000,402.000000,45.000000,36.000000,0.000000,0.000000,0.522336,0.584035,0.368089,0.294471,0.249483,447.000000,402.000000,45.000000,36.000000,0.000000,0.000000:
00000000
00000000
00000000
00000000
,
00000000
00000000
00000000
00000000
,
00100000
00000000
00000000
00001000
00000000
00000000
00010000
00000000
00000000
00000010
00000000
00000000
00022000
00000000
00000000
00000000
,
00000000
00000000
00033000
00000000
,
00011000
00011000
00000000
00000000
01000000
00010000
01000000
00100000
,
01000000
00001000
01000000
00100000
01000000
00010000
01000000
00100000
,
01000000
00001000
00010000
00000100
00001000
00000010
00000100
00000010
,
00001000
00000100
00000010
00000100
00002200
00000000
00003300
00000000
,
00002020
00000000
00003030
00000000
00000010
00001000
00000010
00000100
,
00000010
00010000
00000010
00000100
00000010
00001000
00000010
00000100
,
00000010
00010000
00001000
01000000
00010000
00100000
00110000
00000000
,
00100000
00010000
01010000
00000000
01000000
00100000
00010000
00001000
,
00000100
00000000
00000100
00000000
00000000
00000000
00000000
00000000
00000010
00000000
00000010
00000000
00001000
00000010
00000000
00001000
,
00000000
00000000
00000000
00000000
00000010
00001000
00000010
00001000
00000010
00000000
00001000
00000000
00000010
00001000
00000000
00000010
,
00000000
00000000
00001000
00000100
00000020
00000000
00002030
00000000
,
00023000
00000000
00000000
00000000
00230000
00000000
00000000
00000000
02300000
00000000
00000000
00000000
03000000
00000000
00010000
01000000
,
00020000
00000000
00000000
00000000
00030000
00000000
00000000
00000000
00100000
00000000
00100000
00000000
00010000
00100000
00000000
00010000
,
00000000
00000000
00000000
00000000
00100000
00010000
00100000
00010000
00100000
00000000
00010000
00000000
00100000
00010000
00000000
00100000
,
00000000
00000000
00000000
00000000
00010000
00000000
01000000
00000000
00001000
00000000
00000000
00011000
00000000
00000000
00000000
00000000
,
00010000
00000000
00000000
00011000
00000000
00000000
00000000
00000000
00001000
00000000
00000000
00011000
00000000
00000000
00000000
00000000
,
00010000
00000100
00001000
00000100
00010000
00000010
00000100
00000010
,
00010000
00000100
00000010
00000100
00020000
00000000
00000000
00000000
,
00002000
00000000
00033000
00000000
00001000
01000000
00100000
01000000
,
00001000
00000000
00100000
00000000
01000000
00000000
00100000
00000000
00001000
00000000
00000000
00010000
00000000
00000000
00022000
00000000
,
00000000
00000000
00033000
00000000
00100000
00010000
00100000
00010000
,
01000000
00000000
01000000
00000000
00010000
00000000
00010000
00000000
00100000
00000000
00001000
00010000
00000000
00001000
00010000
00000000
,
00000000
00000100
00001000
00000100
00000010
00000010
00000100
00000100
,
00010000
00010000
00001000
00001000
00022000
00000000
00000000
00000000
,
00000000
00000000
00033000
00000000
00001000
00100000
00001000
01000000
,
00001000
00010000
00001000
01000000
00001000
00100000
00001000
00010000
,
00001000
00001000
00010000
00010000
00000010
00000100
00000010
00001000
,
00000100
00000010
00000100
00001000
00002200
00000000
00003300
00000000
,
00020200
00000000
00030300
00000000
00010000
00000100
00010000
00000010
,
00010000
00001000
00010000
00000010
00010000
00000100
00010000
00001000
,
00010000
00010000
00001000
00001000
01000000
00010000
00110000
00000000
,
00100000
00010000
01010000
00000000
01000000
00100000
00010000
00001000
,
00000010
00000000
00000010
00000000
00000000
00000000
00000000
00000000
00000000
00000100
00001000
00000000
00000010
00001000
00000000
00000010
,
00000000
00000100
00000010
00000000
00001000
00000000
00000010
00000000
00000100
00000000
00000000
00001000
00000000
00010000
01000000
00000000
,
00000000
00000000
00100000
01000000
00010000
00100000
00010000
00100000
,
00010000
00000000
01000000
00000000
00100000
00000000
00000000
01000000
00000000
00000000
00010000
00000000
00100000
00000000
02000000
00000000
,
00000000
03000000
00110000
00000000
00000000
01000000
00100000
00010000
,
00001000
00000100
00000000
00000010
00000000
00001000
00000010
00000000
00000200
00000000
00000000
00000000
00000300
00000000
00000020
00000000
,
00000000
00000000
00000030
00000000
00001000
00000000
00000000
00000000
00001010
00000000
00000000
00010010
00000000
00000000
00000000
00000000
,
00011000
00000000
00000000
00011000
00000000
00000000
00000000
00000000
00101000
00000000
00000000
00110000
00000000
00000000
00000000
00000000
,
01010000
00000000
00000000
01000000
00000000
00100000
01000000
00000000
00010000
00000000
00100000
00000000
00010000
00000000
00100000
00000000
,
00010000
00100000
00010000
01000000
02020000
00000000
03030000
00000000
,
02200000
00000000
03300000
00000000
01000000
00010000
01000000
00010000
,
01000000
00000000
00010000
00000000
00100000
00000000
00001000
00000000
00010000
00000000
00000000
00000010
00000000
00000000
00000200
00000000
,
00000000
00000000
00000310
00000000
00001000
00000000
00000000
00000000
00000100
00000000
00000000
00000100
00001000
00000000
00000100
00000000
,
00000010
00000000
00000000
00000000
00000110
00000000
00000000
00000000
00001000
00000000
00000000
00000010
00000100
00000000
00000010
00000000
,
00001000
00000000
00001010
00000000
00000010
00000100
00001000
00010000
,
00100000
00000000
01000000
00000000
00010000
00000000
00001000
00000000
00000020
00000000
00000000
00000000
00000030
00000000
00000100
00000010
,
00000100
00000000
00000010
00000100
00000010
00000000
00001000
00000000
00001010
00000000
00001010
00000000
00000000
00000000
00000000
00010100
,
00000000
00000000
00001000
00000000
01000000
00010000
00000000
00000000
01010000
00000000
01010000
00000000
00000000
00000000
00000000
00101000
,
00000000
00000000
00010000
00000000
00000100
00001000
00000000
00000000
00000010
00000000
00000100
00000000
00000010
00000000
00000100
00000000
,
00000010
00010000
00000010
00010000
00010010
00000000
00000000
00000000
,
00000000
00000000
00000000
00000000
00000000
00000000
00000000
00000000
01000000
00000000
00000000
01000000
00010000
00000000
00000000
00010000
,
00100000
00000000
00000000
00100000
00010000
00000000
00000000
00010000
01000000
00000000
00000000
01000000
00001000
00000000
00000000
00001000
,
00010000
00000000
00000000
00010000
00000100
00000000
00001000
00000000
00000010
00000000
00000100
00000000
00000010
00000000
00001000
00000000
,
00000100
00000010
00000100
00001000
00002200
00000000
00003300
00000000
,
00002020
00000000
00000000
00000000
00003030
00000000
00000000
00000000
00000010
00000000
00000000
00000010
00001000
00000000
00000000
00001000
,
00000100
00000000
00000000
00000100
00001000
00000000
00000000
00001000
00000010
00000000
00000000
00000010
00010000
00000000
00000000
00010000
,
00001000
00000000
00000000
00001000
01000000
00000000
00100000
00000000
01000000
00000000
00001000
00000000
00011000
00000000
00000000
00000000
,
00000100
00010000
00011000
00000000
00100000
00010000
01000000
00010000
,
00110000
00110000
00000000
00000000
00100000
00001000
00011000
00000000
,
00000010
00010000
00011000
00000000
00010000
00000010
00000100
00000010
,
00001010
00000000
00001010
00000000
00000000
00000000
00000000
00000000
00010000
00001000
00010000
00001000
00020000
00000000
00000000
00000000
,
00000000
00000000
00000000
00000000
,
00030000
00000000
00000000
00000000
;

//---------------dance-double - ----------------
#NOTES:
     dance-double:
     :
     Medium:
     7:
     0.338876,0.417168,0.188134,0.261752,0.024539,290.000000,267.000000,23.000000,32.000000,0.000000,0.000000,0.338876,0.417168,0.188134,0.261752,0.024539,290.000000,267.000000,23.000000,32.000000,0.000000,0.000000:
00000000
00000000
00000000
00000000
,
00000000
00000000
00000000
00000000
,
02000000
00000000
00000000
03020000
00000000
00000000
20030000
00000000
,
00000000
00000000
00000000
30000000
10010000
00000000
00000000
00000000
,
00010000
10000000
00000000
00000000
10000000
00000000
10000000
00000000
,
01000000
00010000
00001000
00001000
,
00000100
00000000
00000001
00000000
00001000
00000010
00001000
00000000
,
00000001
00000100
00000001
00000000
00002002
00000000
00003003
00000000
,
00000220
00000330
00000001
00000100
,
00001000
00001000
00010000
01000000
,
10000000
00000000
10000000
00000000
00010000
00100000
00110000
00000000
,
10000000
01000000
11000000
00000000
00100000
00000000
01000000
00000000
,
10010000
10010000
00000000
00000000
10000000
10000000
01000000
10000000
,
00000000
00000000
00000000
00000000
00010000
00010000
01000000
00010000
,
00000000
00000000
01000000
00100000
20000000
00000000
30020000
00000000
,
00230000
00000000
00302000
00000000
00023000
00000000
00030000
00000010
,
00000200
00000000
00000300
00000000
00000001
00000001
00000100
00000001
,
00000000
00000000
00000000
00000000
00001000
00001000
00000100
00001000
,
00000000
00000000
00000000
00000000
00000010
00000000
00000100
00000000
00000001
00000000
00000000
00000001
00000000
00000000
00000000
00000000
,
00001000
00000000
00000000
00001000
00000000
00000000
00000000
00000000
00000010
00000000
00000000
00000010
00000000
00000000
00000000
00000000
,
00000200
00000000
00000000
00000000
00000301
00000010
00000001
00000010
,
00000001
00000100
00000010
00000000
00020000
00000000
00000000
00000000
,
00032000
00000000
00000000
00000000
01003000
00010000
01000000
00010000
,
01000000
00100000
10000000
00010000
20000000
00000000
00000000
00000000
,
30000000
00000000
00000000
00000000
00010000
01000000
00010000
01000000
,
01010000
00000000
00200000
00000000
,
00300000
00010000
10000000
00000000
01000000
00100000
01000000
10000000
,
01000000
00100000
01000000
10000000
01000000
00000000
00000000
00000000
,
00000000
00000000
10000000
10000000
,
00100000
00010000
00001000
00001000
,
00000010
00000000
00000001
00000000
00001000
00000100
00001000
00000000
,
00000001
00000100
00000001
00000000
00000202
00000000
00000303
00000000
,
00002020
00003030
00000001
00000001
,
00000010
00001000
00010000
00010000
,
00100000
00000000
10000000
00000000
00010000
00100000
00110000
00000000
,
10000000
01000000
11000000
00000000
00100000
00000000
01000000
00000000
,
10010000
10010000
00000000
00000000
00000000
10000000
01000000
00000000
,
00010000
00001000
00000020
00000000
,
00000030
00000000
00000001
00001000
00000010
00000100
00000010
00000100
,
00000001
00001000
00001000
00000000
00000010
00000100
00000100
00000002
,
00000000
00000000
00001003
00000000
00000000
00000001
00000100
00000000
,
00001000
00000000
00001000
00000000
00020000
00000000
00000000
00230000
,
00000000
00000000
00000000
00000000
10300000
00000000
00000000
00000000
00010000
00000000
00000000
00010000
00000000
00000000
00000000
00000000
,
10000000
00000000
00000000
10000000
00000000
00000000
00000000
00000000
00100000
00000000
00000000
00100000
00000000
00000000
00000000
00000000
,
02000000
00000000
03010000
10000000
,
00100000
00010000
00002000
00000000
,
00003020
00000000
00000031
00001000
,
00000010
00000100
00002000
00000000
,
00000000
00000000
00013000
01000000
,
10000000
10000000
00100000
01000000
,
00010000
00000000
00010000
00000000
10000000
01000000
10000000
01000000
,
00100000
00010000
00100000
00010000
20000000
00000000
00000000
00000000
,
00010000
00000000
30010000
00000000
01000000
01000000
01010000
00000000
,
00000000
00000000
00000000
00000000
00100000
00100000
00101000
00000000
,
00000000
00000000
00001000
00010000
,
00000100
00000010
00001001
00000000
,
00000000
00000000
00000001
00000100
,
00001000
00001000
00010000
00100000
,
10000000
00000000
10000000
00000000
00010000
01000000
00010000
00000000
,
10000000
00100000
10000000
00000000
00010000
01000000
00010000
01000000
,
00100000
10000000
00100000
00000000
10000000
00000000
10000000
00000000
,
01000000
00010000
00001000
00001000
,
00000010
00000000
00000001
00000000
00001000
00000100
00001100
00000000
,
00000001
00000010
00000011
00000000
00000100
00000000
00000010
00000000
,
00001001
00001001
00000000
00000000
00000010
00000000
00010000
00000000
,
00001000
01000000
00100000
01000000
,
10010000
10010000
00000000
00000000
00100000
00001000
00020000
00000000
,
00000000
00000000
00000000
00000000
,
00030000
00000000
00000000
00000000
;

//---------------dance-double - ----------------
#NOTES:
     dance-double:
     :
     Easy:
     5:
     0.247730,0.278112,0.073618,0.237213,0.000000,212.000000,203.000000,9.000000,29.000000,0.000000,0.000000,0.247730,0.278112,0.073618,0.237213,0.000000,212.000000,203.000000,9.000000,29.000000,0.000000,0.000000:
// measure 0
00000000
00000000
00000000
00000000
,  // measure 1
00000000
00000000
00000000
00000000
,  // measure 2
00001000
00000000
00000000
00010000
00000000
00000000
00022000
00000000
,  // measure 3
00000000
00000000
00033000
00000000
,  // measure 4
01000000
01000000
00000000
00000000
01000000
00000000
00010000
00000000
,  // measure 5
00100000
00010000
01000000
00010000
,  // measure 6
00100000
00010000
01000000
00001000
,  // measure 7
00010000
00000010
00001010
00000000
,  // measure 8
00000101
00000000
00000010
00001000
,  // measure 9
00000100
00001000
00000010
00001000
,  // measure 10
00000100
00001000
00000001
00000001
,  // measure 11
00001000
00001000
00000100
00010000
,  // measure 12
00001000
00000000
01000000
00010000
,  // measure 13
00000000
00000000
00100000
00001000
,  // measure 14
00010000
00000100
00000200
00020300
,  // measure 15
00032000
02003000
03200000
00300000
,  // measure 16
02000000
03000000
00010000
10000000
,  // measure 17
00100000
00000000
01000000
00001000
,  // measure 18
00010000
00000100
00000020
00000030
,  // measure 19
00000200
00000300
00002000
00003000
,  // measure 20
00000002
00000000
00001003
00000010
,  // measure 21
00001000
00000010
00000200
00000300
,  // measure 22
00000020
00000000
00010030
00001000
,  // measure 23
00010000
00010000
00001000
00100000
,  // measure 24
00000000
00000000
01000000
01000000
,  // measure 25
10000000
00000000
00010000
00010000
,  // measure 26
00000000
00200000
00301000
00001000
,  // measure 27
00010000
00010000
00011000
00000000
,  // measure 28
00000000
00000000
00000010
00001000
,  // measure 29
00000001
00000100
00000010
00001000
,  // measure 30
00000001
00000100
00000010
00000010
,  // measure 31
00001000
00001000
00000200
00000300
,  // measure 32
00020000
00032000
01003000
00010000
,  // measure 33
10000000
00100000
01000000
00010000
,  // measure 34
10000000
00100000
10100000
00000000
,  // measure 35
01010000
00000000
00100000
00010000
,  // measure 36
10000000
00000000
00010000
00010000
,  // measure 37
00100000
00010000
02000000
00000000
,  // measure 38
03000000
00001000
00010000
00000100
,  // measure 39
00000010
00000001
00000100
00000001
,  // measure 40
00000000
00001000
00000000
00000010
,  // measure 41
00000010
00000000
00000010
00000000
00020000
00000000
00030000
00002000
,  // measure 42
00000000
00003000
00020000
00000000
00031000
00000000
00000000
00000000
,  // measure 43
00100000
00000000
01000000
00000000
,  // measure 44
10000000
10000000
00010000
01000000
,  // measure 45
00100000
10000000
00020000
00030000
,  // measure 46
20000000
30000000
00100000
01000000
,  // measure 47
00001000
00010000
00000020
00000030
,  // measure 48
00000000
00000000
00001000
00001000
,  // measure 49
00000100
00000000
00000010
00000010
,  // measure 50
00000001
00000000
00001000
00000100
,  // measure 51
00010000
00001000
02000000
00000000
,  // measure 52
00100000
00000000
03100000
00000000
10000000
00010000
00000000
00000000
,  // measure 53
00000000
00000000
00000000
00000000
00100000
00001000
00000000
00000000
,  // measure 54
00000000
00000000
00010000
00000100
,  // measure 55
00000010
00000001
00000011
00000000
,  // measure 56
00000000
00000000
00000100
00000100
,  // measure 57
00001000
00001000
00000010
00000010
,  // measure 58
00010000
00010000
00001000
01000000
,  // measure 59
00001000
00100000
02000000
03000000
,  // measure 60
20000000
30000000
00100000
00100000
,  // measure 61
01000000
01000000
00001000
00001000
,  // measure 62
00010000
00010000
00000010
00000100
,  // measure 63
00000100
00000010
00001000
00000001
,  // measure 64
00001001
00000000
00000100
00001000
,  // measure 65
00001000
00000100
00010000
00001000
,  // measure 66
00011000
00000000
01000000
02000000
,  // measure 67
00000000
00000000
00000000
00000000
,  // measure 68
03000000
00000000
00000000
00000000
;
