#TITLE:It’s You;
#SUBTITLE:;
#ARTIST:Duck Sauce;
#TITLETRANSLIT:;
#SUBTITLETRANSLIT:;
#ARTISTTRANSLIT:;
#GENRE:House;
#CREDIT:;
#BANNER:itsyou-bn.png;
#BACKGROUND:itsyou-bg.png;
#LYRICSPATH:;
#CDTITLE:;
#MUSIC:It's You.ogg;
#OFFSET:-0.508000;
#SAMPLESTART:15.500000;
#SAMPLELENGTH:11.999990;
#SELECTABLE:YES;
#BPMS:0.000000=128.000000
;
#STOPS:30.000000=0.469000,
173.000000=0.469000,
208.833328=0.469000,
211.833328=0.469000
;
#BGCHANGES:;
#KEYSOUNDS:;
#ATTACKS:;

//---------------dance-single - ----------------
#NOTES:
     dance-single:
     :
     Hard:
     14:
     0.584841,0.665256,0.154811,0.258018,0.511735,476.000000,458.000000,18.000000,30.000000,0.000000,0.000000,0.584841,0.665256,0.154811,0.258018,0.511735,476.000000,458.000000,18.000000,30.000000,0.000000,0.000000:
0000
0000
0000
0000
,
0000
0000
0000
0000
,
0000
0000
0000
0000
,
0000
0000
0000
0000
0000
0000
0000
0010
,
0100
0000
0100
0001
0100
0000
0100
0010
,
0100
0000
0100
1000
0100
0000
0100
0010
,
0100
0000
0100
0001
0100
0000
0100
0010
,
0100
0000
0000
0000
0000
0000
1000
0000
0000
0100
0000
0000
0001
0000
0000
0000
0000
0000
1000
0000
0100
1000
0000
0000
,
0010
0000
0000
0100
0000
0000
0001
0000
0000
0000
0000
0101
0000
0000
0000
0000
0000
0000
0001
0000
0000
0010
0000
0000
,
0001
0000
0000
0100
0000
0000
0010
0000
1000
0000
0000
1000
0000
0000
0000
0000
0000
0000
0100
0000
0010
0100
0000
0000
,
0010
0000
0000
0001
0000
0000
1000
0000
0000
0000
0000
1001
0000
0000
0000
0000
0000
0000
0010
0000
0000
0100
0000
0000
,
0001
0000
0000
0010
0000
0000
0100
0000
1000
0000
0000
1100
0000
0000
0000
0000
0000
1000
0010
0000
1000
0010
0000
0000
,
0100
0000
0000
0001
0000
0000
0010
0000
0000
0000
0000
0110
0000
0000
0000
0000
0000
0000
1000
0000
0000
0010
0000
0000
,
0100
0000
0000
0001
0000
0000
0100
0000
0010
0000
0000
0010
0000
0000
0000
0000
0000
0000
1000
0000
0010
0100
0000
0000
,
0001
0000
0000
0010
0000
0000
0100
0000
0000
0000
0000
1100
0000
0000
0000
0000
0000
0000
1000
0000
0000
0010
0000
0000
,
0100
0000
0000
0001
0000
0000
0010
0000
0100
0000
0000
0110
0000
0000
0000
0100
0000
0000
1000
0000
0000
0010
0000
0000
,
1000
0000
0100
0000
1000
0010
1000
0010
1000
0000
0000
1000
0001
0000
0100
0000
,
0001
0000
0010
0000
0001
0100
0001
0100
0001
0000
0000
0001
1000
0000
0010
0000
,
0001
0000
0010
0000
1000
0001
1000
0001
1000
0000
0000
1000
0001
0000
0100
0000
,
1000
0000
0100
0000
0001
1000
0001
1000
0001
0000
0100
0000
1000
0000
0000
0000
,
0001
0010
1000
0000
1000
0100
0001
0000
,
1000
0010
0001
0000
0001
0100
1000
0000
,
0001
0010
1000
0000
0010
0100
0100
0000
,
0001
0000
0000
1000
0000
0000
0210
0000
0000
0000
0000
0000
0310
0000
0000
0000
0000
0010
0100
0000
0010
0100
0000
0000
,
0001
0000
0000
0010
0000
0000
0100
0000
1000
0000
0000
2000
0000
0000
0000
3000
0000
0000
1000
0000
0000
0010
0000
0000
,
0001
0000
0000
0010
0000
0000
1000
0000
0001
0000
0000
0002
0000
0000
0000
0003
0000
0000
0100
0000
0010
1000
0000
0000
,
0100
0000
0000
0010
0000
0000
0001
0000
0000
0000
0000
0002
0000
0000
0000
0003
0000
0000
0010
0000
0000
0010
0000
0000
,
0100
0000
0000
0100
0000
0000
1000
0000
0001
0000
0000
2000
0000
0000
0000
3000
0000
0010
0100
0000
0001
1000
0000
0000
,
0001
0000
0000
0100
0000
0000
0010
0000
1000
0000
0000
2000
0000
0000
0000
3000
0000
0000
0100
0000
0000
0001
0000
0000
,
0100
0000
0000
1000
0000
0000
0001
0000
0010
0000
0000
0020
0000
0000
0000
0030
0000
0000
0100
0000
1000
0001
0000
0000
,
0100
0000
0000
0010
0000
0000
1000
0000
0000
0000
0000
2000
0000
0000
0000
3000
0000
0000
0010
0000
0000
0001
0000
0000
,
0010
0000
0000
0000
0000
0000
1000
0000
0000
0000
0000
0000
0001
0000
0000
0000
0100
0000
0000
0000
0000
0000
0200
0000
0000
0000
0000
0000
0000
0000
0000
0000
0000
0000
0000
0000
0310
0000
0000
0000
0000
0000
1000
0000
0000
0100
0000
0000
,
1000
0000
0010
0000
1000
0100
1000
0100
1000
0000
0000
0001
0100
0000
0001
0010
,
0001
0000
0100
0000
0001
0010
0001
0010
0001
0000
0000
1000
0100
0000
1000
0010
,
1000
0000
0100
0000
1000
0010
1000
0010
1000
0000
0000
0001
0010
0000
0001
0100
,
0001
0000
0010
0000
0001
0100
0001
0100
0001
0000
0010
0000
0001
0100
0001
0100
,
0001
0000
0010
0000
0001
0100
0001
0100
0001
0000
0010
0000
0001
0100
0001
0100
,
0001
0000
0010
0000
0001
0100
0001
0100
0001
0000
0010
0000
0100
0000
1000
0000
,
0010
0100
0001
0010
0100
0000
1000
0010
0100
0001
0010
0000
0010
0000
0100
0000
,
1000
0001
0010
0001
1000
0000
0010
0100
0001
0100
0010
0100
0001
0000
0100
0000
,
0001
1000
0010
1000
0001
0000
0100
0010
1000
0010
0100
0000
0100
0000
0001
0000
,
0010
0001
1000
0001
0010
0000
0100
1000
0010
0100
0001
0010
0100
0000
1000
0000
,
0100
1000
0100
1000
0200
0310
0010
0000
,
0001
0000
0000
0100
0000
0000
1000
0000
0000
0000
0000
0000
0001
0000
0100
0001
0000
0000
1000
0000
0000
0010
0000
0000
,
0002
0000
0000
0000
0000
0023
0000
0000
0000
0030
0000
0000
1000
0000
0000
0100
0000
0000
0010
0000
0000
1000
0000
0000
,
0010
0000
0001
0000
0000
0002
0000
0000
0000
0003
0000
0000
0100
0000
0010
0001
0000
0000
0010
0000
0000
1000
0000
0000
,
2200
0000
0000
3300
0000
0022
0000
0000
0000
0033
0000
0000
0001
0000
0000
0100
0000
0000
1000
0000
0000
0001
0000
0000
,
0010
0000
1000
0000
0000
2000
0000
0000
0000
3000
0000
1000
0100
0000
0010
0001
0000
0000
0100
0000
0000
1000
0000
0000
,
0100
0000
0001
0000
0000
0002
0000
0000
0000
0003
0000
0000
1000
0000
0000
0010
0000
0000
0001
0000
0000
0010
0000
0000
,
1000
0000
0100
0000
0000
0220
0000
0000
0000
0330
0000
0010
0001
0000
1000
0010
0000
0000
0100
0000
0000
1000
0000
0000
,
0100
0000
0001
0000
0000
0002
0000
0000
0000
0003
0000
0000
0010
0000
0000
1000
0000
0000
0001
0000
0000
0100
0000
0000
,
1000
0000
0020
0000
0000
0230
0000
0000
0000
0000
0000
0000
0301
0000
0000
0010
0000
0000
0001
0000
0000
1000
0000
0000
,
0010
0000
0100
0000
0000
0101
0010
0000
0000
0100
0000
0000
1000
0000
0000
0001
0000
0000
0100
0000
0010
0000
0000
1010
,
0200
0010
0310
0000
0002
1000
1003
0000
,
0001
0000
0000
0100
0000
0000
1000
0000
0000
0100
0000
0000
0001
0000
0010
0000
0000
2200
0000
0000
0000
3300
0000
0000
,
0001
0000
0000
1000
0000
0001
0100
0000
0000
0010
0000
0001
0100
0000
0000
0010
0000
0000
1010
0000
0000
1010
0000
0000
,
0100
0010
0001
0010
1000
0100
0010
1000
,
0010
0000
0000
0001
0000
1000
0010
0000
0000
0100
0000
0010
1000
0000
0000
0100
0000
0000
0011
0000
0000
0011
0000
0000
,
0100
0010
0100
0010
0100
0010
0100
0010
,
2002
0000
3003
0000
;

//---------------dance-single - ----------------
#NOTES:
     dance-single:
     :
     Medium:
     9:
     0.378426,0.462497,0.197814,0.146210,0.008601,308.000000,285.000000,23.000000,17.000000,0.000000,0.000000,0.378426,0.462497,0.197814,0.146210,0.008601,308.000000,285.000000,23.000000,17.000000,0.000000,0.000000:
0000
0000
0000
0000
,
0000
0000
0000
0000
,
0000
0000
0000
0000
,
0000
0000
0000
0000
0000
0000
0000
0010
,
1000
0000
0010
0100
0010
0000
0100
0001
,
0100
0000
0010
0100
0010
0000
1000
0010
,
1000
0000
0010
0100
0010
0000
0100
0001
,
0100
0000
0010
0100
0010
0000
1000
0000
,
0100
1100
0010
0001
,
0100
0101
0010
1000
,
1000
0001
0001
0100
,
0010
0010
0100
0001
,
0010
0011
0100
1000
,
0010
0000
1010
0000
0100
0000
0001
1000
,
1000
0000
1000
0001
0001
0000
0100
0001
,
0100
0010
1000
0010
0100
0000
0002
0000
,
0000
0000
0000
0000
0013
0000
0100
1000
0000
0000
0000
0000
2000
0000
0000
0000
,
0000
0000
3010
0100
0001
0000
2000
0000
,
0000
0000
0000
0000
3010
0000
0100
0001
0000
0000
0000
0000
0002
0000
0000
0000
,
0000
0000
0013
0100
1000
0001
2000
0000
,
3000
1000
0002
0000
0003
0001
0020
0000
,
0030
0010
0002
0000
0003
0001
0200
0000
,
0300
0100
0020
0000
0030
0010
1000
0000
,
0001
1000
0001
0000
0200
0000
0310
1000
,
0100
0000
0010
0000
0001
0000
0100
0010
,
1000
0000
0100
0000
0010
0000
0001
0010
,
0100
0000
1000
0000
0001
0000
0010
0100
,
1000
0000
0010
0000
0010
0000
0100
0001
,
1000
1000
0010
0000
0100
0000
0010
1000
,
0001
0000
0100
0000
0010
0000
0100
0001
,
0001
0000
1000
0010
0010
0000
1000
0000
,
0100
0000
0001
0100
1000
0000
0010
0000
,
0010
0001
0011
0000
1100
0000
0001
0000
,
0100
1000
0010
0001
,
0001
0000
1000
1000
1001
0000
0001
0100
,
0101
0000
1000
0010
1010
0000
1000
0010
,
1010
0000
1000
0010
1010
0000
1000
0010
,
1010
0000
1000
0010
1010
0000
0100
0000
,
0001
0100
1000
0010
,
0001
0010
1000
0100
,
0001
0100
1000
0010
,
0001
0000
0010
0000
1000
0000
0001
0100
,
0001
0010
0001
0100
0001
0010
0010
0000
,
0100
1000
0011
0000
1000
0000
0010
0000
,
1010
0100
0001
0010
,
0011
0000
0100
0000
1000
0010
0100
0000
,
0001
0000
1000
0000
0001
0010
0100
0000
,
1000
0000
0001
0000
1000
0010
0100
0001
,
0110
0000
0001
0000
0001
0100
0010
1000
,
0110
0000
1000
0000
0010
1000
0001
0000
,
0100
0000
0011
0000
1000
0010
0001
0000
,
0010
0000
1000
0000
0001
0100
0001
1000
,
2002
0000
0000
0000
0000
3003
0000
0000
0000
0000
0000
0000
0010
0000
0000
0100
0000
0000
0220
0000
0000
0000
0000
0330
,
0000
1000
1000
0000
0000
0001
0001
0000
,
0100
0010
1000
0100
0010
0001
1001
0000
,
0001
0100
0001
0000
1000
0100
1000
1000
,
1000
0001
0100
0010
1000
0001
1000
0000
,
1000
0010
1000
0000
0001
0010
0001
0001
,
0001
1000
0010
0100
0001
1000
0010
0100
,
2002
0000
0000
3003
;

//---------------dance-double - ----------------
#NOTES:
     dance-double:
     :
     Hard:
     14:
     0.581155,0.716430,0.223616,0.438630,0.477333,473.000000,447.000000,26.000000,51.000000,0.000000,0.000000,0.581155,0.716430,0.223616,0.438630,0.477333,473.000000,447.000000,26.000000,51.000000,0.000000,0.000000:
00000000
00000000
00000000
00000000
,
00000000
00000000
00000000
00000000
,
00000000
00000000
00000000
00000000
,
00000000
00000000
00000000
00000000
00000000
00000000
00000000
10000000
,
11000000
00000000
01000000
00010000
00001000
00000000
00010000
00001000
,
00001010
00000000
00000001
00000100
00001000
00000000
00000100
00001000
,
00011000
00000000
00100000
10000000
01000000
00000000
00010000
00001000
,
00001100
00000000
00000000
00000000
00000000
00000000
00001000
00000000
00000000
00010000
00000000
00000000
01010000
00000000
00000000
00000000
00000000
00000000
10000000
00000000
00100000
01000000
00000000
00000000
,
00100000
00000000
00000000
00010000
00000000
00000000
00002000
00000000
00000000
00000000
00003000
00000020
00000000
00000000
00000000
00000030
00000000
00000000
00000100
00000000
00000000
00001000
00000000
00000000
,
00010000
00000000
00000000
00000010
00000000
00000000
00000100
00000000
00000001
00000000
00000000
00002002
00000000
00000000
00003003
00000000
00000000
00000000
00000010
00000000
00001000
00010000
00000000
00000000
,
00100000
00000000
00000000
10000000
00000000
00000000
00010000
00000000
00000000
00000000
00000000
20020000
00000000
00000000
00000000
30030000
00000000
00000000
10000000
00000000
00000000
01000000
00000000
00000000
,
00010000
00000000
00000000
10000000
00000000
00000000
00100000
00000000
00001000
00000000
00000000
00010000
00000000
00000000
00000000
00000000
00000000
00000010
00000100
00000000
00000010
00000100
00000000
00000000
,
00000001
00000000
00000000
00001000
00000000
00000000
00000010
00000000
00000100
00000000
00000000
00000220
00000000
00000000
00000000
00000330
00000000
00000000
00001000
00000000
00000000
00010000
00000000
00000000
,
01000000
00000000
00000000
10000000
00000000
00000000
00100000
00000000
00010000
00000000
00000000
00022000
00000000
00000000
00000000
00033000
00000000
00000000
00001000
00000000
00010000
00001000
00000000
00000000
,
00000100
00000000
00000000
00000001
00000000
00000000
00001000
00000000
00000000
00000000
00000000
00002020
00000000
00000000
00000000
00003030
00000000
00000000
00000001
00000000
00000000
00000100
00000000
00000000
,
00001000
00000000
00000000
00000000
00000000
00000000
00010000
00000000
00000000
00000000
00000000
00000000
00100000
00000000
00000000
00000000
10000000
00000000
00000000
00000000
00000000
00000000
20000000
00000000
00000000
00000000
00000000
00000000
00000000
00000000
30010000
00000000
00000000
00000000
00000000
00000000
10000000
00000000
00000000
01000000
00000000
00000000
00100000
00000000
00000000
01000000
00000000
00000000
,
10000000
01000000
00100000
00000000
00010000
01000000
00100000
01000000
00010000
00000000
00100000
00000000
00001000
00010000
00000100
00010000
,
00001000
00010000
00000100
00000000
00000010
00000001
00000100
00000001
00000010
00000000
00000000
00000100
00001000
00000000
00000001
00000000
,
00000010
00000000
00001000
00000000
00010000
00000000
00100000
10000000
00000000
00000000
00000000
00010000
00100000
00000000
01000000
00000000
,
10000000
00000000
00100000
00000000
00010000
00000000
00001000
00000010
00000001
00000000
00000100
00000000
00001010
00000000
00000000
00000000
,
00001000
00000100
00000011
00000000
00000001
00000100
00010010
00000000
,
00010000
00000010
00000101
00000000
00000010
00001000
00010000
00000000
,
00100000
00010000
00001000
00000000
00010000
01000000
10000000
00000000
,
00100000
00000000
00000000
00100000
00000000
00000000
00100000
00000000
00000000
00000000
00000000
00000000
00000020
00000000
00000000
00000000
00000000
00000000
00100030
00000000
00010000
01000000
00000000
00000000
,
00100000
00000000
00000000
10000000
00000000
00000000
01000000
00000000
00100000
00000000
00000000
00200000
00000000
00000000
00000000
00300000
00000000
00000000
00010000
00000000
00000000
01000000
00000000
00000000
,
00100000
00000000
00000000
00010000
00000000
00000000
00001000
00000000
00000100
00000000
00000000
00000002
00000000
00000000
00000000
00000003
00000000
00000000
00000010
00000000
00000100
00001000
00000000
00000000
,
00000010
00000000
00000000
00000001
00000000
00000000
00000010
00000000
00001000
00000000
00000000
00002000
00000000
00000000
00000000
00003000
00000000
00000000
00000010
00000000
00000000
00000100
00000000
00000000
,
00001000
00000000
00000000
00010000
00000000
00000000
00100000
00000000
10000000
00000000
00000000
20000000
00000000
00000000
00000000
30000000
00000000
00100000
01000000
00000000
00010000
10000000
00000000
00000000
,
01000000
00000000
00000000
00010000
00000000
00000000
00001000
00000000
00000100
00000000
00000000
00000002
00000000
00000000
00000000
00000003
00000000
00000000
00000010
00000000
00000000
00000100
00000000
00000000
,
00001000
00000000
00000000
00000001
00000000
00000000
00000100
00000000
00000010
00000000
00000000
00000020
00000000
00000000
00000000
00000030
00000000
00000000
00000100
00000000
00001000
00010000
00000000
00000000
,
01000000
00000000
00000000
10000000
00000000
00000000
00100000
00000000
01000000
00000000
00000000
02000000
00000000
00000000
00000000
03000000
00000000
00000000
00100000
00000000
00000000
00010000
00000000
00000000
,
00001000
00000000
00000000
00000010
00000000
00000000
00000001
00000000
00001000
00000000
00000000
00002000
00000000
00000000
00000000
00003000
00000000
00000000
00000010
00000000
00000000
00000100
00000000
00000000
,
00000001
00000000
00000010
00000000
00001000
00000000
00010000
00100000
00000000
00000000
00000000
10000000
00100000
00000000
01000000
00000000
,
00010000
00000000
00100000
00000000
01000000
00000000
00010000
00001000
00000000
00000000
00000000
00000100
00000001
00000000
00000010
00000000
,
00000100
00000000
00001000
00000000
00000010
00000000
00000100
00000010
00000000
00000000
00000000
00000100
00001000
00000000
00010000
00000000
,
01000000
01000000
10000000
00100000
00010000
00010000
00001000
00000100
,
00000001
00000001
00000010
00001000
00010000
00010000
00100000
10000000
,
01000000
01000000
00010000
00001000
00000100
00000100
00000001
00001000
,
00000010
00000100
00001000
00010000
01000000
00000000
10000000
00010000
01000000
00100000
00010000
00001000
00000100
00000000
00000001
00000000
,
00000010
00001000
00010000
00100000
10000000
00000000
00010000
01000000
00100000
10000000
01000000
00100000
00010000
00000000
01000000
00100000
,
00010000
00001000
00000100
00000001
00000010
00000000
00000100
00001000
00000010
00000100
00000001
00001000
00000010
00000000
00000100
00000000
,
00001000
00010000
01000000
10000000
00100000
00000000
01000000
00010000
00100000
01000000
10000000
00100000
01000000
00000000
00100000
00000000
,
01000000
00100000
01000000
00100000
00020000
00031000
00000100
00000000
,
00000001
00000000
00000000
00000001
00000000
00000000
00000001
00000000
00000000
00000000
00000000
00000000
01000000
00000000
00010000
00100000
00000000
00000000
01000000
00000000
00000000
10000000
00000000
00000000
,
00100000
00000000
01000000
00000000
00000000
02200000
00000000
00000000
03300000
00000000
00000000
00000000
00100000
00000000
00000000
00010000
00000000
00000000
00001000
00000000
00000000
00000010
00000000
00000000
,
00000001
00000000
00001000
00000000
00000000
00002002
00000000
00000000
00003003
00000000
00000000
00000000
00000010
00000000
00000100
00000001
00000000
00000000
00000010
00000000
00000000
00000100
00000000
00000000
,
00001000
00000000
00000100
00000000
00000000
00002200
00000000
00000000
00003300
00000000
00000000
00000000
00000010
00000000
00000000
00000100
00000000
00000000
00001000
00000000
00000000
00010000
00000000
00000000
,
01000000
00000000
10000000
00000000
00000000
22000000
00000000
00000000
33000000
00000000
00000000
10000000
00010000
00000000
01000000
00100000
00000000
00000000
01000000
00000000
00000000
00010000
00000000
00000000
,
00100000
00000000
01000000
00000000
00000000
02200000
00000000
00000000
03300000
00000000
00000000
00000000
00010000
00000000
00000000
00001000
00000000
00000000
00000010
00000000
00000000
00000001
00000000
00000000
,
00001000
00000000
00000010
00000000
00000000
00002020
00000000
00000000
00003030
00000000
00000000
00000000
00000100
00000000
00001000
00010000
00000000
00000000
00100000
00000000
00000000
10000000
00000000
00000000
,
01000000
00000000
00010000
00000000
00000000
02020000
00000000
00000000
03030000
00000000
00000000
00000000
00001000
00000000
00000000
00000010
00000000
00000000
00000001
00000000
00000000
00000100
00000000
00000000
,
00001000
00000000
00010000
00000000
00000000
00022000
00000000
00000000
00033000
00000000
00000000
00000000
00100000
00000000
00000000
00010000
00000000
00000000
01000000
00000000
00000000
00010000
00000000
00000000
,
00100000
00000000
00010000
00000000
00000000
00110000
00000010
00000000
00000000
00001000
00000000
00000000
00000100
00000000
00000000
00001000
00000000
00000000
00000010
00000000
00001000
00000000
00000000
00001010
,
00200000
00010000
00310000
00000000
00000020
00001000
00001030
00000000
,
00100000
00000000
00000000
00010000
00000000
00000000
01000000
00000000
00000000
00010000
00000000
00000000
00100000
00000000
00010000
00000000
00000000
00220000
00000000
00000000
00000000
00330000
00000000
00000000
,
10000000
00000000
00000000
01000000
00000000
00100000
00010000
00000000
00000000
00100000
00000000
01000000
10000000
00000000
00000000
00100000
00000000
00000000
00010000
00000000
00000000
00001000
00000000
00000000
,
00010000
00020000
00031000
00002000
00013000
00020000
00031000
00001000
,
00010000
00000000
00000000
00000100
00000000
00000010
00000001
00000000
00000000
00000100
00000000
00000010
00001000
00000000
00000000
00000010
00000000
00000000
00000100
00000000
00000000
00001000
00000000
00000000
,
00010000
00020000
00031000
00002000
00013000
00020000
00031000
00001000
,
00022000
00000000
00033000
00000000
;

//---------------dance-double - ----------------
#NOTES:
     dance-double:
     :
     Medium:
     12:
     0.434944,0.434061,0.000000,0.043003,0.120408,354.000000,354.000000,0.000000,5.000000,0.000000,0.000000,0.434944,0.434061,0.000000,0.043003,0.120408,354.000000,354.000000,0.000000,5.000000,0.000000,0.000000:
00000000
00000000
00000000
00000000
,
00000000
00000000
00000000
00000000
,
00000000
00000000
00000000
00000000
,
00000000
00000000
00000000
00000000
00000000
00000000
00000000
00100000
,
10000000
00000000
00010000
01000000
00010000
00000000
00100000
00001000
,
00100000
00000000
00001000
00010000
00001000
00000000
00010000
00000010
,
00010000
00000000
00000010
00000100
00000010
00000000
00000100
00000001
,
00001000
00000000
00000010
00000100
00000100
00000000
00000010
00001000
,
00000100
00000000
00000000
00000100
00000000
00000000
00010000
00000000
00000000
00000000
00000000
00010000
00000000
00000000
00000000
00000000
00000000
00000000
00001000
00000000
00000000
00001000
00000000
00000000
,
00100000
00000000
00000000
01000000
00000000
00000000
10000000
00000000
00000000
00000000
00000000
10000000
00000000
00000000
00000000
00000000
00000000
00000000
00100000
00000000
00000000
01000000
00000000
00000000
,
00010000
00000000
00000000
00100000
00000000
00000000
00010000
00000000
00000000
00000000
00000000
00010000
00000000
00000000
00000000
00000000
00000000
00000000
01000000
00000000
00000000
00001000
00000000
00000000
,
00010000
00000000
00000000
00000100
00000000
00000000
00000010
00000000
00000000
00000000
00000000
00000010
00000000
00000000
00000000
00000000
00000000
00000001
00001000
00000000
00000000
00000010
00000000
00000000
,
00000100
00000000
00000000
00000010
00000000
00000000
00001000
00000000
00000000
00000000
00000000
00001000
00000000
00000000
00000000
00000000
00000000
00000000
00000100
00000000
00000000
00010000
00000000
00000000
,
00001000
00000000
00000000
01000000
00000000
00000000
00100000
00000000
00000000
00000000
00000000
00100000
00000000
00000000
00000000
00000000
00000000
00000000
10000000
00000000
00000000
01000000
00000000
00000000
,
00100000
00000000
00000000
00010000
00000000
00000000
01000000
00000000
00000000
00000000
00000000
01000000
00000000
00000000
00000000
00000000
00000000
00000000
00010000
00000000
00000000
00100000
00000000
00000000
,
00001000
00000000
00000000
00010000
00000000
00000000
00000100
00000000
00000000
00000000
00000000
00000010
00000000
00000000
00000000
00000000
00000000
00000000
00000001
00000000
00000000
00000100
00000000
00000000
,
00001000
00000000
00000100
00000000
00000001
00000000
00001000
00000001
00000000
00000000
00000000
00000000
00000100
00000000
00000100
00000000
,
00001000
00000000
00010000
00000000
01000000
00000000
01000000
00000000
10000000
00000000
00000000
00010000
10000000
00000000
01000000
00000000
,
00010000
00000000
01000000
00000000
10000000
00000000
00100000
01000000
00000000
00000000
00000000
00000000
00100000
00000000
00100000
00000000
,
00010000
00001000
00000010
00000010
00000001
00001000
00000100
00000000
,
00000010
00000001
00000010
00000000
00000001
00000100
00000001
00000000
,
00000100
00001000
00000100
00000000
00001000
00010000
00001000
00000000
,
00010000
01000000
00010000
00000000
01000000
10000000
00010000
00000000
,
00100000
00000000
00000000
00100000
00000000
00000000
00100000
00000000
00000000
00000000
00000000
00000000
00020000
00000000
00000000
00000000
00000000
00000000
01030000
00000000
00100000
01000000
00000000
00000000
,
00100000
10000000
00010000
00000000
00010000
00000000
01000000
01000000
,
00001000
00000000
00000000
00010000
00000000
00000000
00000100
00000000
00000000
00000000
00000000
00000000
00000100
00000000
00000000
00000000
00000000
00000000
00001000
00000000
00000001
00001000
00000000
00000000
,
00000010
00000100
00000001
00000000
00000001
00000000
00001000
00001000
,
00000100
00000000
00000000
00010000
00000000
00000000
00001000
00000000
00000000
00000000
00000000
00000000
00001000
00000000
00000000
00000000
00000000
00000000
00100000
00000000
00010000
00100000
00000000
00000000
,
00010000
01000000
00100000
00000000
10000000
00000000
01000000
00100000
,
01000000
00000000
00000000
10000000
00000000
00000000
00010000
00000000
00000000
00000000
00000000
00000000
00010000
00000000
00000000
00000000
00000000
00000000
01000000
00000000
00010000
01000000
00000000
00000000
,
00001000
00010000
00000010
00000000
00000010
00000000
00000100
00000100
,
00000001
00000001
00001000
00000000
00000010
00000000
00001000
00000100
,
00001000
00000010
00001000
00000100
00001000
00000000
00000010
00000100
,
00001000
00000000
00010000
00000000
00100000
00000000
10000000
01000000
,
10000000
00100000
10000000
01000000
10000000
00000000
00010000
01000000
,
00010000
00100000
00010000
00010000
10000000
00000000
10000000
10000000
,
00010000
00000000
00010000
00010000
10000000
00000000
10000000
10000000
,
00010000
00000000
00010000
00010000
10000000
00000000
10000000
10000000
,
00010000
01000000
00100000
00010000
00001000
00000100
00000001
00000010
,
00001000
00010000
00100000
10000000
01000000
00100000
00010000
01000000
,
00100000
00010000
00001000
00000100
00000001
00000010
00000100
00001000
,
00000010
00000100
00001000
00010000
00100000
10000000
01000000
00100000
,
01000000
00100000
01000000
00100000
00020000
10000000
10030000
00000000
,
01000000
00000000
00000000
00010000
00000000
00000000
00001000
00000000
00000000
00000000
00000000
00000000
00000001
00000000
00001000
00000001
00000000
00000000
00000100
00000000
00000000
00000010
00000000
00000000
,
00000100
00000000
00000000
00000000
00000000
00000100
00000000
00000000
00000000
00000000
00000000
00000000
00000010
00000000
00000000
00010000
00000000
00000000
00001000
00000000
00000000
00100000
00000000
00000000
,
00010000
00000000
00000000
00000000
00000000
00010000
00000000
00000000
00000000
00000000
00000000
00000000
01000000
00000000
00100000
01000000
00000000
00000000
00100000
00000000
00000000
10000000
00000000
00000000
,
01000000
00000000
00000000
00000000
00000000
01000000
00000000
00000000
00000000
00000000
00000000
00000000
00100000
00000000
00000000
00010000
00000000
00000000
01000000
00000000
00000000
00001000
00000000
00000000
,
00010000
00000000
00000000
00000000
00000000
00010000
00000000
00000000
00000000
00000000
00000000
00000000
00001000
00000000
00010000
00001000
00000000
00000000
00010000
00000000
00000000
00000100
00000000
00000000
,
00000010
00000000
00000000
00000000
00000000
00000010
00000000
00000000
00000000
00000000
00000000
00000000
00000001
00000000
00000000
00000100
00000000
00000000
00000010
00000000
00000000
00001000
00000000
00000000
,
00000001
00000000
00000000
00000000
00000000
00000001
00000000
00000000
00000000
00000000
00000000
00000000
00001000
00000000
00000100
00001000
00000000
00000000
00000100
00000000
00000000
00010000
00000000
00000000
,
00001000
00000000
00000000
00000000
00000000
00001000
00000000
00000000
00000000
00000000
00000000
00000000
00100000
00000000
00000000
00010000
00000000
00000000
01000000
00000000
00000000
00100000
00000000
00000000
,
10000000
00000000
00000000
00000000
00000000
00010000
00000000
00000000
00000000
00000000
00000000
00000000
01000000
00000000
00000000
00100000
00000000
00000000
01000000
00000000
00000000
00100000
00000000
00000000
,
01000000
00000000
00000010
00000100
00000010
00000100
00000010
00000000
,
00000000
01000000
01000000
00000000
00000000
00100000
00100000
00000000
,
10000000
00000000
01000000
00000000
00010000
00001000
00000020
00000000
,
00000031
00000100
00000001
00000000
00001000
00000100
00001000
00001000
,
00000010
00010000
00001000
00100000
,
00010000
01000000
00010000
00000000
10000000
01000000
10000000
10000000
,
01000000
00010000
00000000
00001000
00000000
00000100
00000000
00000002
,
00002000
00000000
00000000
00003003
00000000
00000000
00000000
00000000
;

//---------------dance-double - ----------------
#NOTES:
     dance-double:
     :
     Easy:
     9:
     0.369826,0.411109,0.137610,0.129009,0.000000,301.000000,285.000000,16.000000,15.000000,0.000000,0.000000,0.369826,0.411109,0.137610,0.129009,0.000000,301.000000,285.000000,16.000000,15.000000,0.000000,0.000000:
// measure 0
00000000
00000000
00000000
00000000
,  // measure 1
00000000
00000000
00000000
00000000
,  // measure 2
00000000
00000000
00000000
00000000
,  // measure 3
00000000
00000000
00000000
00000000
,  // measure 4
10000000
00000000
00100000
01000000
01000000
00000000
00100000
00000000
,  // measure 5
00010000
00000000
00001000
00000100
00000100
00000000
00001000
00000000
,  // measure 6
00010000
00000000
00000010
00001000
00001000
00000000
00000001
00000000
,  // measure 7
00000100
00000000
00001000
00010000
00010000
00000000
00100000
00000000
,  // measure 8
10000000
00000000
01010000
00000000
00100000
00000000
00010000
00001000
,  // measure 9
00000100
00000001
00001000
00000011
,  // measure 10
00001100
00000000
00000020
00000000
00000030
00000000
00000100
00001000
,  // measure 11
00010000
01000000
10000000
00000000
00010000
00000000
01000000
00000000
,  // measure 12
00100000
00000000
11000000
00000000
00020000
00000000
00130000
00100000
,  // measure 13
00001000
00001000
00020000
00000000
00030000
00000000
00000100
00001000
,  // measure 14
00000010
00000000
00000100
00000001
00001000
00000000
00000010
00000000
,  // measure 15
00000100
00002000
00023000
00130000
,  // measure 16
10000000
00000000
01000000
00100000
00010000
00000000
01000000
00000000
,  // measure 17
00100000
00000000
00010000
00001000
00000010
00000000
00000001
00000000
,  // measure 18
00000001
00000000
00001000
00000000
00001000
00000000
00000001
00000100
,  // measure 19
00000001
00000000
00000100
00000000
00000010
00000100
00001000
00000000
,  // measure 20
00010000
00001000
00010000
00000000
00100000
10000000
00010000
00000000
,  // measure 21
01000000
00100000
01000000
00000000
00100000
00010000
00001000
00000000
,  // measure 22
00000010
00000001
00000010
00000000
00000000
00000001
00001000
00000000
,  // measure 23
00000100
00000000
00000100
00000000
00010010
00000000
00010000
00001000
,  // measure 24
00100000
00000000
22000000
00000000
33000000
00000000
00100000
00001000
,  // measure 25
00010000
00000000
00002200
00000000
00003300
00000000
00000010
00000010
,  // measure 26
00000100
00000001
00000202
00000000
00000303
00000000
00000010
00000000
,  // measure 27
00001000
00000000
00010000
00000000
00100000
00000000
10000000
10000000
,  // measure 28
00010000
00010000
01000000
00000000
10100000
00000000
01000000
00010000
,  // measure 29
00001000
00000000
00022000
00000000
00033000
00000000
00000010
00000100
,  // measure 30
00000100
00000000
00000001
00001000
00001001
00000000
00010010
00000000
,  // measure 31
00001010
00000110
00000101
00000001
,  // measure 32
00000100
00000000
00001000
00010000
00100000
00000000
10000000
00000000
,  // measure 33
01000000
00000000
00010000
00001000
00000010
00000000
00000001
00000000
,  // measure 34
00000001
00001000
00001000
00000100
,  // measure 35
00010000
00000000
00001000
00010000
00001000
00000000
00001000
00010000
,  // measure 36
00001000
00000000
00001000
00010000
00001000
00000000
00001000
00010000
,  // measure 37
00001000
00000000
00001000
00010000
00001000
00000000
00001000
00100000
,  // measure 38
01000000
10000000
00100000
00000000
01000000
00000000
00100000
00000000
,  // measure 39
01000000
00001000
00010000
00000000
00000010
00000100
00000001
00000001
,  // measure 40
00001000
00000100
00000010
00000000
00000100
00010000
00001000
00000000
,  // measure 41
00100000
00010000
10000000
00100000
01000000
00010000
00100000
00000000
,  // measure 42
00100000
00000000
00100000
00000000
00100000
01000000
10000000
00000000
,  // measure 43
00010000
01000000
01010000
00000000
01000000
00000000
00001000
00000000
,  // measure 44
00100000
00001000
00010000
00000000
00000100
00001000
00000010
00000100
,  // measure 45
00000001
00000010
00000100
00000000
00001000
00000000
00000100
00000000
,  // measure 46
00010000
00001000
00100000
00000000
01000000
10000000
00010000
01000000
,  // measure 47
00100000
00010000
00100000
00000000
10000000
00000000
10000000
00000000
,  // measure 48
00010000
00100000
01000000
00000000
00010000
00001000
00000100
00000001
,  // measure 49
00001000
00000010
00000100
00000000
00000001
00001000
00001000
00000000
,  // measure 50
00001000
00000001
00000001
00000000
00000010
00000000
00001000
00000000
,  // measure 51
00010000
00100000
10000000
10000000
,  // measure 52
00010000
01000000
01000000
00100000
,  // measure 53
00000000
10000000
10000000
00000000
00000000
00010000
00010000
00000000
,  // measure 54
00100000
00000000
00001000
00000000
00010000
00000010
00000020
00000000
,  // measure 55
00010030
00000100
00000010
00000000
00000001
00000000
00000100
00000010
,  // measure 56
00000010
00010000
00001000
00000000
00000010
00010000
00001000
00000000
,  // measure 57
00001000
01000000
00100000
00000000
10000000
00000000
00100000
01000000
,  // measure 58
01000000
00001000
00000000
00010000
00000000
00001000
00000000
00010000
,  // measure 59
00002000
00000000
00000000
00003000
;

//---------------dance-single - ----------------
#NOTES:
     dance-single:
     :
     Beginner:
     3:
     0.152353,0.204694,0.068805,0.051604,0.000000,124.000000,116.000000,8.000000,6.000000,0.000000,0.000000,0.152353,0.204694,0.068805,0.051604,0.000000,124.000000,116.000000,8.000000,6.000000,0.000000,0.000000:
0000
0000
0000
0000
,
0000
0000
0000
0000
,
0000
0000
0000
0000
,
0000
0000
0000
0000
,
1000
0000
0010
0000
,
1000
0000
0010
0000
,
1000
0000
0010
0000
,
1000
0000
0010
0000
,
0100
0100
0000
0001
,
0000
1000
1000
1000
,
0000
0010
0000
0100
,
0000
0010
0010
0010
,
0000
1000
0000
0001
,
0001
0001
0000
0100
,
0000
0100
0000
0010
,
0000
0010
0000
2000
,
0000
0000
3000
2000
,
0000
3000
0000
0002
,
0000
0000
0003
0002
,
0000
0003
0000
0100
,
0000
0010
0000
0100
,
0000
0010
0000
0100
,
0000
0010
0000
0100
,
0000
0000
0001
0001
,
0000
1000
0000
0010
,
0010
0000
0100
0100
,
0000
0001
0000
1000
,
1000
1000
0000
0100
,
0000
0010
0000
0100
,
0100
0000
0010
0010
,
0000
0001
0000
0001
,
0000
0100
0000
0010
,
0000
0010
0000
1000
,
0000
1000
0000
0001
,
0000
0001
0000
0100
,
0000
0010
0000
0010
,
0000
0010
0000
0010
,
0000
0010
0000
0010
,
0000
1000
0000
0001
,
0000
0100
0000
0010
,
0000
0001
0000
0010
,
0000
1000
0000
0100
,
0100
0100
0100
0000
,
0000
1001
0000
0000
,
0010
0010
0000
0000
,
1000
1000
0000
0000
,
0100
0100
0000
0000
,
0001
0001
0001
0000
,
0010
0000
0100
0100
,
0100
0000
1000
0000
,
0010
0000
0110
0000
,
1001
0000
0010
0010
,
0010
0000
0010
0010
,
0000
0100
0000
0100
,
0000
0000
1000
1000
,
1000
0000
0000
1001
,
1001
0000
0000
0000
,
0010
0000
0000
0110
,
0110
0000
0000
0000
,
2002
0000
3003
0000
;

//---------------dance-single - ----------------
#NOTES:
     dance-single:
     :
     Easy:
     7:
     0.271533,0.331230,0.094607,0.266618,0.000000,221.000000,210.000000,11.000000,31.000000,0.000000,0.000000,0.271533,0.331230,0.094607,0.266618,0.000000,221.000000,210.000000,11.000000,31.000000,0.000000,0.000000:
0000
0000
0000
0000
,
0000
0000
0000
0000
,
0000
0000
0000
0000
,
0000
0000
0000
0000
,
1000
0100
1000
0000
,
0001
0100
0001
0000
,
1000
0100
1000
0000
,
0001
0100
0001
1000
,
1000
0010
0100
0001
,
0001
1000
0010
0001
,
0010
1000
1000
0001
,
0100
1000
0100
0001
,
0001
0100
0010
1000
,
1000
0001
0010
1000
,
0010
0001
0001
1000
,
0100
0010
0001
0200
,
0000
0000
0310
1000
0000
0000
0200
0000
,
0000
0310
0001
2000
,
0000
0000
3010
0100
0000
0000
0002
0000
,
0000
0013
0100
1000
,
0000
0010
0000
0001
,
0000
0100
0000
1000
,
0010
0001
0100
1000
,
0001
0001
0001
0000
0200
0000
0310
0000
,
1000
2020
3030
0100
,
0001
0202
0303
0001
,
1000
2002
3003
0010
,
0100
0000
0220
0000
0330
0000
1000
1000
,
1000
2200
3300
0010
,
0001
0000
0022
0000
0033
0000
0100
0001
,
0100
0000
0010
0000
1000
0000
0100
0010
,
0100
0010
0001
0200
,
0000
0000
0301
0010
0001
0000
1000
0000
,
0100
0001
0010
2000
,
0000
0000
3001
0010
0000
0000
0100
0000
,
0010
0001
0001
0001
,
0001
0001
0001
0001
,
0001
0001
0001
0001
,
1000
0010
0100
0010
,
1000
0000
0100
0000
0010
0000
0100
1000
,
0100
0000
1000
0010
1000
0000
0010
0100
,
0010
0000
0100
0010
0100
0000
0010
0000
,
0010
0000
0010
0000
0010
1000
0001
0000
,
0000
0000
1000
0100
,
0010
1100
0001
0100
,
0010
0101
1000
0001
,
2002
3003
0010
0100
,
0220
0000
0330
0000
1000
0010
1000
0000
,
0002
0000
1003
0000
0001
0010
0001
0000
,
2000
3001
0200
0310
,
1000
0001
0100
0000
0020
0000
0130
0000
,
0001
1000
0010
0000
1000
0000
1000
0000
,
1000
0000
0001
0001
,
0000
1000
1000
0000
0000
0001
0001
0000
,
0100
0010
1000
0001
,
2000
0000
0100
0000
0010
0000
0001
0001
,
3001
0100
0010
1000
,
0002
0000
0100
0000
0010
0000
1000
1000
,
1003
0000
0000
0000
,
2002
3003
0000
0000
;
