#TITLE:Honolulu Loco Boy;
#SUBTITLE:;
#ARTIST:アグネス キムラ;
#TITLETRANSLIT:;
#SUBTITLETRANSLIT:;
#ARTISTTRANSLIT:Agnes Kimura;
#GENRE:Pop;
#CREDIT:;
#BANNER:honolululocoboy-bn.png;
#BACKGROUND:honolululocboy-bg.png;
#LYRICSPATH:;
#CDTITLE:;
#MUSIC:Honolulu Loco Boy.ogg;
#OFFSET:-0.240000;
#SAMPLESTART:38.110001;
#SAMPLELENGTH:12.000000;
#SELECTABLE:YES;
#BPMS:0.000000=152.000000
;
#STOPS:
;
#BGCHANGES:;
#KEYSOUNDS:;
#ATTACKS:;

//---------------dance-single - ----------------
#NOTES:
     dance-single:
     :
     Hard:
     12:
     0.529609,0.768043,0.258166,0.598945,0.939723,359.000000,334.000000,25.000000,58.000000,0.000000,0.000000,0.529609,0.768043,0.258166,0.598945,0.939723,359.000000,334.000000,25.000000,58.000000,0.000000,0.000000:
0000
0000
0000
0000
,
0000
0000
0000
0000
,
0000
0000
0000
0000
,
0000
0000
0000
0000
,
0100
0000
0001
0100
0000
0010
0100
0000
0100
0010
0000
2020
,
0000
0000
0000
3030
0000
2002
0000
0000
0000
3003
0000
0000
,
1000
0000
0100
0010
0000
0001
0010
0000
0100
0000
0000
2100
,
0000
0000
3001
0000
,
0201
0000
0000
0300
0000
0010
0200
0000
0002
0000
0303
0000
,
1002
0000
0000
0000
0000
0013
0000
0000
0000
0000
0000
0000
,
0100
0000
1000
0100
0000
1000
0100
0000
1000
0000
0000
1200
,
0000
0000
0000
0010
0000
0000
0310
0000
0001
0010
0000
0001
,
2000
0000
0000
3000
0000
0010
0200
0000
0020
0000
0330
0000
,
2010
0000
0000
0000
0000
3001
0000
0000
0000
0000
0000
0000
,
0100
0000
0001
0100
0000
0001
0010
0000
0001
0000
0000
0100
,
0010
0100
0010
1000
0010
1000
0010
0000
1000
0001
0000
1000
,
0001
0000
0001
0100
0000
0001
0100
0000
0100
0010
0000
0200
,
0020
0330
0110
0000
,
1000
0000
0010
1000
0000
0001
0010
0000
0001
0000
0000
1000
,
0200
0000
0000
1300
0000
0010
1000
0000
0100
0010
0001
0010
,
0001
0000
0100
0001
0000
0100
0010
0000
1000
0000
0000
0001
,
0100
0000
0002
0000
0000
1003
0100
0000
2000
0000
0000
3000
,
1001
0000
0000
0110
0000
0000
1001
0000
0000
0020
0000
0200
,
0000
0000
0330
0001
1000
0001
1000
0000
0000
0000
0000
0000
,
0200
0000
0000
0300
0000
1000
0010
0000
0200
0000
0000
0300
,
0002
0000
0000
0003
0000
2000
0000
0000
3000
0000
0000
0000
,
1001
0000
0010
0100
0000
0001
1000
0000
0020
0000
0000
0200
,
0000
0000
0330
0002
0000
0000
0013
0000
0100
1000
0000
0010
,
2000
0000
0000
3000
0000
0010
0100
0000
0002
0000
0000
0000
,
0203
0000
0000
0000
0000
0020
0000
0000
0000
0330
0000
0000
,
0110
0000
1000
0001
0000
0100
0010
0000
2000
0000
0000
3002
,
0000
0000
0000
0103
0010
0100
0010
0000
0000
0000
0000
0000
,
1000
0000
0100
0010
0000
0100
1000
0000
0100
0001
0000
0100
,
0010
0000
0100
0000
0000
1000
0000
0000
1001
0000
0000
0000
,
0001
0000
0100
0010
0000
0100
0000
0000
1000
0100
0000
0100
,
0001
0000
1000
0010
0000
0100
0001
1000
0001
0100
0000
0100
,
0001
0000
0100
0010
0000
0100
1000
0000
0100
0001
0000
0100
,
0000
0000
0010
0000
0000
1010
0000
0000
0101
0000
0000
0001
,
0010
0000
0010
1000
0000
1000
0010
0000
0010
0001
0000
0000
,
0001
0100
0010
1000
0010
0100
0001
0000
0000
1000
0001
1000
,
0001
0100
0001
0010
0100
0010
0001
1000
0001
0010
0100
0010
,
0100
1000
0100
1000
0010
1000
0010
0100
0010
0100
0001
0100
,
0002
0000
0000
0003
0000
0001
2000
0000
0000
3020
0000
0000
,
1030
0000
0100
0000
0010
0000
0100
0000
2000
0000
0000
3000
,
1000
0100
1000
0001
0010
0001
1000
0010
1000
0001
0010
0001
,
0100
0010
0100
0010
1000
0010
1000
0001
1000
0001
0100
0001
,
0100
0000
0100
0000
0100
0000
0001
0000
1000
0000
0010
0000
,
0120
0000
0000
1030
0001
1000
0001
0000
0000
0000
0000
0000
,
2000
0000
0000
3010
0000
0010
1000
0000
0001
0000
0000
0000
,
0202
0303
2020
3030
,
0001
0000
0001
0010
0000
0010
0100
0000
0100
0000
0000
0000
,
2100
0000
0000
3002
0000
0000
0013
0001
0010
0001
0000
0001
,
1000
0000
0000
0010
0000
0100
0010
0000
1000
0000
0000
0000
,
2200
3300
0022
0033
,
0100
0000
0100
0010
0000
0010
2000
0000
0002
0000
3003
2002
,
0000
0000
3003
0010
0100
0010
0100
0010
0100
0010
0100
0010
,
1000
0000
1000
0001
0000
0001
0100
0000
0010
0000
0000
0220
,
0000
0000
0330
0100
0001
0100
0001
0100
0001
0100
0001
0100
,
0001
0000
0001
0100
0000
0100
0010
0000
1000
0000
0000
2020
,
0000
0000
3030
1000
0001
1000
0001
0000
0000
0000
0000
0000
;

//---------------dance-single - ----------------
#NOTES:
     dance-single:
     :
     Beginner:
     2:
     0.128345,0.153609,0.000000,0.010327,0.000000,87.000000,87.000000,0.000000,1.000000,0.000000,0.000000,0.128345,0.153609,0.000000,0.010327,0.000000,87.000000,87.000000,0.000000,1.000000,0.000000,0.000000:
0000
0000
0000
0000
,
0000
0000
0000
0000
,
0000
0000
0000
0000
,
0000
0000
0000
0000
,
0010
0000
0010
0000
,
1000
0000
0010
0000
,
0100
0000
0100
0000
,
0100
0000
0001
0000
,
0001
0000
0000
0000
,
0010
0000
0000
0000
,
0001
0000
0001
0000
,
0010
0000
0000
0000
,
1000
0000
0000
0000
,
0010
0000
0000
0000
,
1000
0000
1000
0000
,
0010
0000
0000
0000
,
0100
0000
0100
0000
,
0100
0000
0010
0000
,
0100
0000
0100
0000
,
0100
0000
0000
0000
,
0001
0000
0001
0000
,
0010
0000
0010
0000
,
0100
0000
0100
0000
,
1000
0000
0000
0000
,
1000
0000
0000
0000
,
0010
0000
0000
0000
,
1000
0000
1000
0000
,
0010
0000
0000
0000
,
0001
0000
0000
0000
,
0010
0000
0000
0000
,
0001
0000
0001
0000
,
0010
0000
0000
0000
,
0100
0000
1000
0000
,
0010
0000
1000
0000
,
0100
0000
0010
0000
,
0001
0000
1000
0000
,
0010
0000
0100
0000
,
0001
0000
0100
0000
,
0010
0000
0010
0000
,
0010
0000
0000
0000
,
0100
0000
0100
0000
,
0001
0000
0010
0000
,
0001
0000
1000
0000
,
0001
0000
0000
0000
,
0100
0000
0100
0000
,
0010
0000
1000
0000
,
0001
0000
0000
0000
,
1000
0000
0000
0000
,
0010
0000
1000
0000
,
0001
0000
0000
0000
,
0010
0000
1000
0000
,
0001
0000
0000
0000
,
0010
0000
0000
0000
,
0001
0000
0000
0000
,
0010
0000
0010
0000
,
0001
0000
0000
0000
,
1000
0000
1000
0000
,
0010
0000
0000
0000
,
0010
0000
0100
0000
,
0020
0000
0030
0000
;

//---------------dance-double - ----------------
#NOTES:
     dance-double:
     :
     Hard:
     12:
     0.494203,0.768043,0.237513,0.547311,0.867437,335.000000,312.000000,23.000000,53.000000,0.000000,0.000000,0.494203,0.768043,0.237513,0.547311,0.867437,335.000000,312.000000,23.000000,53.000000,0.000000,0.000000:
00000000
00000000
00000000
00000000
,
00000000
00000000
00000000
00000000
,
00000000
00000000
00000000
00000000
,
00000000
00000000
00000000
00000000
,
00000100
00000000
00000100
00000001
00000000
00000001
00001000
00000000
00001000
00000000
00000000
00002002
,
00000000
00000000
00000000
00003003
00000000
00000220
00000000
00000000
00000330
00000000
00000000
00000000
,
00000010
00000000
00000010
00010000
00000000
00010000
00001000
00000000
00001000
00000000
00000000
00012000
,
00000000
00000000
00103000
00000000
,
02100000
00000000
00000000
00000000
00000000
13000000
01000000
00000000
00100000
00000000
00000000
00000000
,
21000000
00000000
00000000
00000000
00000000
30010000
00000000
00000000
00000000
00000000
00000000
00000000
,
00010000
00000000
00010000
10000000
00000000
10000000
00100000
00000000
01000000
00000000
00000000
01200000
,
00000000
00000000
00000000
00320000
00000000
00000000
00032000
00000000
00003010
00000001
00000000
00000010
,
00000002
00000000
00000000
00000000
00000000
00001003
00000010
00000000
00002000
00000000
00000000
00003000
,
00002002
00000000
00000000
00003003
00000000
00000220
00000000
00000000
00000000
00000330
00000000
00000000
,
00000010
00000000
00000100
00001000
00000000
00010000
01000000
00000000
10000000
00000000
00000000
21000000
,
00000000
00000000
00000000
00000000
00000000
00000000
30010000
00000000
01000000
00100000
00000000
01000000
,
00100000
00000000
00100000
01000000
00000000
00100000
01000000
00000000
01000000
00100000
00000000
01000000
,
00200000
00300000
02002000
03003000
,
00001000
00000000
00001000
00010000
00000000
00010000
00000100
00000000
00000010
00000000
00000000
00000001
,
00001000
00000000
00000000
00001000
00000000
00000010
00001000
00000000
00000100
00000010
00000001
00000010
,
00000001
00000000
00000001
00000100
00000000
00000100
00000010
00000000
00010000
00000000
00000000
00001000
,
00010000
00000000
00000100
00000000
00000000
00010000
00001000
00000000
00100000
00000000
00000000
00000000
,
01000000
00000000
00000000
10000000
00000000
00000000
00110000
00000000
00000000
00002000
00000000
00003200
,
00000000
00000000
00000000
00000301
00001000
00000001
00001000
00000000
00000000
00000000
00000000
00000000
,
00000020
00000000
00000000
00000030
00000000
00001000
00000001
00000000
00000020
00000000
00000000
00000000
,
00000032
00000000
00000000
00000000
00000000
00000203
00000000
00000000
00000000
00000300
00000000
00000000
,
00000001
00000000
00000100
00001000
00000000
00010000
01000000
00000000
10000000
00000000
00000000
20010000
,
00000000
00000000
00000000
00100000
00000000
00000000
31000000
00000000
10000000
00100000
00000000
01000000
,
00020000
00000000
00000000
00030000
00000000
00100000
02000000
00000000
03200000
00000000
00000000
00000000
,
00320000
00000000
00000000
00000000
00000000
20000000
00000000
00000000
00000000
30030000
00000000
00000000
,
10000000
00000000
01000000
00010000
00000000
00001000
00000100
00000000
00000001
00000000
00000000
00002002
,
00000000
00000000
00003003
00000010
00000100
00000010
00000100
00000000
00000000
00000000
00000000
00000000
,
00000001
00000000
00000010
00000001
00000000
00001000
00000010
00000000
00001000
00000100
00000000
00010000
,
00001000
00000000
00010000
00000000
00000000
00001000
00000000
00000000
00220000
00000000
00000000
00330000
,
01000000
00000000
00100000
00001000
00000000
00010000
00000000
00000000
00001000
00000100
00000000
00001000
,
00010000
00000000
00100000
10000000
00000000
01000000
00100000
00010000
00100000
00010000
00000000
01000000
,
00100000
00000000
00100000
10000000
00000000
10000000
00010000
00000000
00010000
01000000
00000000
01000000
,
00001000
00000000
00010000
00000000
00000000
00001010
00000000
00000000
00000100
00000000
00000000
00000000
,
00000001
00000000
00000001
00000010
00000000
00000010
00001000
00000000
00001000
00000010
00000000
00000000
,
00000022
00000000
00000000
00000033
00000000
00000000
00001001
00000000
00000000
00000010
00000100
00000010
,
00000100
00000001
00001000
00000010
00001000
00000001
00000100
00000010
00001000
00000001
00001000
00000100
,
00000010
00001000
00010000
00001000
00000010
00001000
00010000
00100000
00010000
00001000
01000000
00100000
,
20000000
00000000
00000000
30000000
00000000
00010000
20000000
00000000
00000000
30020000
00000000
00000000
,
10030000
00000000
00010000
00000000
10000000
00000000
00010000
00000000
10000000
00000000
00000000
00000000
,
00100000
01000000
00010000
10000000
00010000
01000000
00100000
10000000
00010000
01000000
00010000
10000000
,
00100000
00010000
00001000
00010000
00100000
00010000
00001000
00000010
00001000
00010000
00000100
00000010
,
00000001
00000000
00000001
00000000
00000001
00000000
00000001
00000000
00000001
00000000
00000001
00000000
,
00000002
00000000
00000013
00000000
,
00002002
00000000
00000000
00003003
00000000
00000010
00001000
00000000
00000100
00000000
00000000
00000000
,
00010200
00000000
00000000
00000300
00000000
00020100
00000000
00000000
00000000
00030000
00000000
00000000
,
00010000
00000000
00010000
00001000
00000000
00001000
00100000
00000000
00100000
00000000
00000000
02100000
,
00000000
00000000
00000000
10000000
00000000
00000000
13000000
00000000
00100000
01000000
00000000
00010000
,
02000000
00000000
00000000
03000000
00000000
00100000
10000000
00000000
01000000
00000000
00000000
00000000
,
00201000
00300000
00102000
00003000
,
00010000
00000000
00001000
00010000
00000000
00001000
00000100
00000000
00001000
00000000
00000000
00020000
,
00000000
00000000
00000000
00031000
00010000
00001000
00010000
00001000
00010000
00001000
00000000
00000000
,
00001000
00000000
00010000
00001000
00000000
00010000
01000000
00000000
00010000
00000000
00002000
00000000
,
00000000
00000000
00000000
00013000
00001000
00010000
00001000
00010000
00001000
00010000
00000000
00000000
,
00000100
00000000
00000100
00010000
00000000
00010000
00001000
00000000
00001000
00000000
00000000
02000000
,
00000000
00000000
00000000
03001000
00010000
00001000
00010000
00000000
00000000
00000000
00000000
00000000
;

//---------------dance-single - ----------------
#NOTES:
     dance-single:
     :
     Easy:
     5:
     0.221285,0.276496,0.113593,0.309799,0.015490,150.000000,139.000000,11.000000,30.000000,0.000000,0.000000,0.221285,0.276496,0.113593,0.309799,0.015490,150.000000,139.000000,11.000000,30.000000,0.000000,0.000000:
0000
0000
0000
0000
,
0000
0000
0000
0000
,
0000
0000
0000
0000
,
0000
0000
0000
0000
,
1000
0000
0000
0000
0000
0000
0100
0000
0000
0000
0000
0010
,
0000
0000
0000
0000
0000
0010
0000
0000
0000
0000
0000
0000
,
0002
0000
0000
0000
0000
0000
2003
0000
0000
0000
0000
3010
,
0000
0000
1010
0000
,
1000
0000
0100
0000
,
2000
0000
3010
0000
,
0100
0000
0001
0001
,
0100
0000
0000
0001
,
0001
0000
0010
0000
,
0002
0000
1003
0000
,
0010
0100
0010
0000
,
2000
0000
3100
0000
,
0010
0010
0001
0001
,
0200
0300
0200
0300
,
0010
0010
1000
1000
,
0002
1003
2000
3001
,
0100
0100
0010
0010
,
2000
3000
0020
0030
,
0200
0300
0002
0003
,
0020
0100
0130
0000
,
2000
0000
3200
0000
,
2300
0000
3020
0000
,
1030
0000
0001
0000
,
0200
0010
0310
0100
,
0002
0000
0023
0000
,
0032
0000
2003
0000
,
3001
0010
0010
0000
,
0100
1000
1100
0000
,
1000
0000
0010
0000
,
1000
0000
1000
0000
,
0001
0100
0001
0000
,
0001
1000
0100
0100
,
0010
0000
0100
0000
,
0010
0000
0010
0000
,
0101
0000
1010
0000
,
0101
0000
1001
0000
,
0020
0000
0230
0000
,
0301
0001
1000
1000
,
0020
0030
0010
1000
,
0001
0000
1000
0000
,
0200
0000
0320
0000
,
0130
1000
0001
0001
,
2000
0000
0000
0000
,
3010
0000
1010
0000
,
1000
0000
0100
0000
,
1000
0000
1100
0000
,
1000
1000
0100
0010
,
0001
0000
0000
0000
,
0001
0000
0010
0000
,
0001
0000
0011
0000
,
1000
0001
1000
0001
,
1001
0000
0000
0000
,
0100
0010
0100
0010
,
0110
0000
0000
0000
,
1000
0100
0010
0001
,
0200
0000
0310
0000
;

//---------------dance-single - ----------------
#NOTES:
     dance-single:
     :
     Medium:
     9:
     0.342254,0.583713,0.134246,0.227186,0.464698,232.000000,219.000000,13.000000,22.000000,0.000000,0.000000,0.342254,0.583713,0.134246,0.227186,0.464698,232.000000,219.000000,13.000000,22.000000,0.000000,0.000000:
0000
0000
0000
0000
,
0000
0000
0000
0000
,
0000
0000
0000
0000
,
0000
0000
0000
0000
,
0100
0000
0010
0100
0000
0000
0010
0000
0100
0010
0000
0200
,
0000
0000
0000
0000
0300
0010
0000
0000
0000
0000
0000
0000
,
1000
0000
0010
1000
0000
0010
1000
0000
0100
0000
0000
0010
,
0000
0000
0011
0000
,
0200
0000
0302
0000
,
0203
0000
0000
0300
0000
0101
0000
0000
0000
0000
0000
0000
,
0010
0000
1000
0001
0000
1000
0010
0000
0100
0000
0000
0020
,
0000
1030
1000
0100
,
2000
0000
3020
0000
,
2030
0000
0000
3000
0000
1010
0000
0000
0000
0000
0000
0000
,
0001
0000
0100
0010
0000
0100
0001
0000
1000
0000
0000
0020
,
0000
0000
0000
0000
0000
0000
0130
0000
0100
0001
0000
0100
,
0001
0000
1000
0001
0000
1000
0001
0000
1000
0000
0000
0000
,
0020
0030
0020
0030
,
0100
0000
0010
0100
0000
0010
0100
0000
0010
0000
0100
0000
,
0010
0010
1000
0001
,
1000
0000
0100
1000
0000
0100
1000
0000
0001
0000
0000
0000
,
0100
0100
0010
0000
,
1000
0100
0010
0001
,
0011
0000
1100
0000
,
0020
0000
1030
0000
,
1010
0000
0000
0000
0000
0101
0000
0000
0000
0000
0000
0000
,
0001
0000
0001
0010
0000
0010
0100
0000
1000
0000
0000
0100
,
0000
0000
0000
2000
0000
0000
3010
0000
0100
0001
0000
0100
,
0002
0000
0013
0000
,
0011
0000
0000
0000
0000
1100
0000
0000
0000
0000
0000
0000
,
0010
0000
0010
0100
0000
0100
0010
0000
0010
0000
0000
0200
,
0000
0000
0310
0000
,
1000
0000
0100
1000
0000
0000
0001
0000
0100
0001
0000
0000
,
1000
0000
0001
0000
0000
1000
0000
0000
0001
0000
0000
0000
,
0010
0000
0000
0000
0000
0100
0000
0000
0000
0000
0000
0000
,
0010
0000
0100
0100
,
1000
0000
0010
0000
,
1000
0000
0000
0000
0000
0001
0000
0000
0001
0000
0000
0000
,
0010
0000
0010
0000
,
0010
0100
1000
0000
,
0010
1000
0010
1000
0000
0000
0001
0100
0001
0100
0000
0000
,
0010
1000
0010
1000
0010
1000
0010
1000
0010
1000
0000
0000
,
0002
0000
2003
0000
,
3001
1000
1000
0001
,
1000
0100
1000
0100
0000
0000
0010
0001
0010
0001
0000
0000
,
1000
0100
1000
0100
1000
0100
1000
0100
1000
0100
0000
0000
,
0020
0000
0000
0000
,
0031
0000
0011
0000
,
0200
0000
0301
0000
,
0010
0000
0000
0000
0000
0011
0000
0000
0000
0000
0000
0000
,
0100
0000
1000
0100
0000
1000
0100
0000
0010
0000
0000
0002
,
0000
1000
1003
0010
,
0200
0000
0000
0300
0000
0010
1000
0000
0010
0000
0000
0000
,
0200
0000
0000
0300
0000
0101
0000
0000
0000
0000
0000
0000
,
0001
0000
0010
0001
0000
0010
0001
0000
1000
0000
0000
0001
,
0000
0000
0000
0000
,
1000
0000
0010
1000
0000
0010
1000
0000
0001
0000
0000
1000
,
0000
0000
0000
0000
,
0010
0000
0100
0010
0000
0100
0010
0000
1000
0000
0000
0001
,
0000
0000
1001
0000
;

//---------------dance-double - ----------------
#NOTES:
     dance-double:
     :
     Medium:
     9:
     0.337828,0.430104,0.154899,0.475025,0.392412,229.000000,214.000000,15.000000,46.000000,0.000000,0.000000,0.337828,0.430104,0.154899,0.475025,0.392412,229.000000,214.000000,15.000000,46.000000,0.000000,0.000000:
00000000
00000000
00000000
00000000
,
00000000
00000000
00000000
00000000
,
00000000
00000000
00000000
00000000
,
00000000
00000000
00000000
00000000
,
10000000
00000000
00010000
10000000
00000000
00000000
00010000
00000000
10000000
00010000
00000000
00200000
,
00000000
00000000
00300000
00000000
00000000
00200000
00000000
00000000
00000000
00300000
00000000
00000000
,
00001000
00000000
00010000
00001000
00000000
00000000
00010000
00000000
00001000
00000000
00000000
00010000
,
00000000
00000000
00010010
00000000
,
00000020
00000000
00000000
00000000
00000000
00001030
00000010
00000000
00001000
00000000
00000000
00000000
,
00000002
00000000
00000000
00000003
00000000
00002000
00000000
00000000
00000000
00003000
00000000
00000000
,
00000010
00000000
00000100
00000010
00000000
00000100
00000010
00000000
00000100
00000000
00000000
00000120
,
00000000
00001000
00001030
00000001
,
00002000
00000000
00000000
00000000
00000000
00003100
00010000
00000000
00000100
00000000
00000000
00000000
,
00020000
00000000
00000000
00000000
00000000
00032000
00000000
00000000
00000000
00003000
00000000
00000000
,
01000000
00000000
00100000
01000000
00000000
00100000
01000000
00000000
00100000
00000000
00000000
02200000
,
00000000
00000000
03300000
00000000
,
10000000
10000000
01000000
01000000
,
00020000
00030000
00002000
00003000
,
00000010
00000010
00000001
00000001
,
00001000
00000100
00000010
00000001
,
00000100
00000100
00001000
00001000
,
00020000
00030000
02000000
03000000
,
10000000
00000000
00000000
00010000
00000000
00000000
10000000
00000000
00000000
00200000
00000000
02000000
,
00000000
00000000
03300000
00000000
,
20000000
00000000
00000000
30000000
00000000
00100000
01000000
00000000
00100000
00000000
00000000
00000000
,
20000000
00000000
00000000
30000000
00000000
00020000
00000000
00000000
00030000
00000000
00000000
00000000
,
01000000
00000000
00001000
01000000
00000000
00001000
01000000
00000000
00001000
00000000
00000000
01002000
,
00000000
00010000
00013000
00000010
,
00000200
00000000
00000000
00000000
00000000
00000301
00000010
00000000
00000001
00000000
00000000
00000000
,
00002000
00000000
00000000
00000000
00000000
00003020
00000000
00000000
00000000
00000030
00000000
00000000
,
00010000
00000000
00000100
00010000
00000000
00000100
00010000
00000000
00000100
00000000
00000000
00020200
,
00000000
00000000
00030300
00000000
,
00010000
00000000
00010000
00001000
00000000
00000000
00001000
00000000
00001000
00100000
00000000
00000000
,
00010000
00000000
01000000
00000000
00000000
00010000
00000000
00000000
00100000
00000000
00000000
00000000
,
00010000
00000000
10000000
00000000
00000000
00100000
00000000
00000000
10000000
00000000
00000000
00000000
,
00010000
00000000
00010000
01000000
00000000
00000000
01000000
00000000
01000000
00010000
00000000
00000000
,
00100000
00000000
00001000
00010000
00000000
00000000
00001000
00000000
00010000
00000010
00000000
00000000
,
00000100
00000000
00000001
00000000
00000000
00000100
00000000
00000000
00000010
00000000
00000000
00000000
,
00020000
00000000
00032000
00000000
,
00013000
00001000
00010000
00001000
00000000
00000000
00011000
00000000
00000000
00000000
00000000
00000000
,
00200000
00310000
02000000
03010000
,
00200000
00001000
00301000
00011000
,
02000000
00000000
00000000
03000000
00000000
00100000
01000000
00000000
00000000
00100000
00000000
00000000
,
02000000
00000000
03001000
00010000
,
00000200
00001300
00000020
00001030
,
00000200
00010000
00010300
00011000
,
00000220
00000000
00000000
00000330
,
00001001
00000000
00010010
00000000
,
00020000
00000000
00000000
00030000
00000000
00001000
00010000
00000000
00001000
00000000
00000000
00000000
,
00020000
00000000
00000000
00000000
00000000
00030100
00000000
00000000
00000000
00000000
00000000
00000000
,
00001000
00000000
00000010
00001000
00000000
00000010
00001000
00000000
00000010
00000000
00000000
00000000
,
00000102
00000000
00000000
00001000
00000000
00000000
00001003
00000000
00000010
00000100
00000000
00000010
,
00000200
00000000
00000000
00000000
00000000
00000000
00000000
00000000
00000000
00000300
00000010
00000000
00010000
00000000
00000000
00000000
00000010
00000000
00000000
00000000
00000000
00000000
00000000
00000000
,
00020000
00000000
00031000
00000000
,
01000000
00000000
00100000
01000000
00000000
00100000
01000000
00000000
00100000
00000000
00000000
20100000
,
00000000
00010000
00010000
30010000
,
01000000
00000000
00001000
01000000
00000000
00001000
01000000
00000000
00001000
00000000
00000000
01002000
,
00000000
00010000
00010000
00013000
,
00000010
00000000
00001000
00000010
00000000
00001000
00000010
00000000
00001000
00000000
00000000
00001020
,
00000000
00000100
00000130
00000000
;

//---------------dance-double - ----------------
#NOTES:
     dance-double:
     :
     Easy:
     6:
     0.258166,0.399383,0.061960,0.392412,0.072286,175.000000,169.000000,6.000000,38.000000,0.000000,0.000000,0.258166,0.399383,0.061960,0.392412,0.072286,175.000000,169.000000,6.000000,38.000000,0.000000,0.000000:
// measure 0
00000000
00000000
00000000
00000000
,  // measure 1
00000000
00000000
00000000
00000000
,  // measure 2
00000000
00000000
00000000
00000000
,  // measure 3
00000000
00000000
00000000
00000000
,  // measure 4
01000000
00000000
00000000
00000000
00000000
00000000
00010000
00000000
00000000
00000000
00000000
00100000
,  // measure 5
00000000
00000000
00000000
00000000
00000000
00100000
00000000
00000000
00000000
00000000
00000000
00000000
,  // measure 6
00010000
00000000
01000000
00000000
,  // measure 7
00000000
00000000
00011000
00000000
,  // measure 8
00020000
00000000
00030020
00000000
,  // measure 9
00020030
00000000
00000000
00000000
00000000
00030020
00000000
00000000
00000000
00000000
00000000
00000000
,  // measure 10
00000130
00000001
00000101
00000000
,  // measure 11
00000010
00002000
00003200
00001300
,  // measure 12
00000020
00000000
00020030
00000000
,  // measure 13
00030010
00000000
00010010
00000000
,  // measure 14
00010000
00010000
00001000
00001000
,  // measure 15
02000000
00000000
03100000
00000000
,  // measure 16
10000000
10000000
00100000
00010000
,  // measure 17
00002000
00000000
00003020
00000000
,  // measure 18
00000031
00000001
00001000
00001000
,  // measure 19
00000010
00000100
00000010
00000010
,  // measure 20
00000100
00000100
00001000
00010000
,  // measure 21
00200000
00000000
20300000
00000000
,  // measure 22
30010000
00010000
10000000
10000000
,  // measure 23
00200000
00000000
01300000
00000000
,  // measure 24
00020000
00000000
00230000
00000000
,  // measure 25
00310000
00000000
00000000
00000000
00000000
01000000
00000000
00000000
00000000
00000000
00000000
00000000
,  // measure 26
00001000
00000000
00010000
00010000
,  // measure 27
00000010
00000100
00000001
00000010
,  // measure 28
00002000
00000000
00023000
00000000
,  // measure 29
00230000
00000000
00000000
00000000
00000000
10300000
00000000
00000000
00000000
00000000
00000000
00000000
,  // measure 30
00010000
00000000
10000000
00000000
,  // measure 31
00100000
01000000
10010000
00000000
,  // measure 32
10000000
10000000
01000000
01000000
,  // measure 33
00010000
00001000
00000010
00000001
,  // measure 34
00001000
00001000
00000100
00000000
,  // measure 35
00000001
00000001
00000100
00001000
,  // measure 36
00010000
00000010
00000100
00000010
,  // measure 37
00001000
00010000
00100000
10000000
,  // measure 38
00020000
00000000
20030000
00000000
,  // measure 39
30100000
00000000
10100000
00000000
,  // measure 40
20000000
00000000
32000000
00000000
,  // measure 41
03010000
00001000
00000100
00000001
,  // measure 42
00002000
00003000
00001000
00001000
,  // measure 43
00000100
00000010
00000001
00000000
,  // measure 44
00000002
00000000
00000203
00000000
,  // measure 45
00001300
00010000
01000000
10000000
,  // measure 46
00200000
00000000
00000000
00000000
,  // measure 47
01300000
00000000
01100000
00000000
,  // measure 48
20000000
00000000
32000000
00000000
,  // measure 49
13000000
00000000
00000000
00000000
00000000
00100000
00000000
00000000
00000000
00000000
00000000
00000000
,  // measure 50
01000000
00010000
00100000
00010000
,  // measure 51
01000000
00002000
00023000
00030010
,  // measure 52
00000200
00000000
00000302
00000000
,  // measure 53
00000013
00000000
00000001
00000000
,  // measure 54
00000010
00000000
00000100
00000010
00000000
00000000
00000100
00000000
00000010
00000100
00000000
00000000
,  // measure 55
00000020
00020030
00032000
00203000
,  // measure 56
00310000
00000000
01000000
00010000
00000000
00000000
01000000
00000000
00010000
01000000
00000000
00000000
,  // measure 57
00100000
10000000
01000000
00010000
,  // measure 58
00001000
00000000
00010000
00001000
00000000
00000000
00010000
00000000
00001000
00010000
00000000
00000000
,  // measure 59
00000020
00000000
00000000
00000130
00000010
00000100
00000010
00000000
00000000
00000000
00000000
00000000
;
