#VERSION:0.83;
#TITLE:Dreamer;
#SUBTITLE:;
#ARTIST:Four Tet;
#TITLETRANSLIT:;
#SUBTITLETRANSLIT:;
#ARTISTTRANSLIT:;
#GENRE:House;
#ORIGIN:;
#CREDIT:;
#BANNER:;
#BACKGROUND:;
#PREVIEWVID:;
#JACKET:;
#CDIMAGE:;
#DISCIMAGE:;
#LYRICSPATH:;
#CDTITLE:;
#MUSIC:Dreamer.ogg;
#OFFSET:-0.030000;
#SAMPLESTART:53.359997;
#SAMPLELENGTH:11.999990;
#SELECTABLE:YES;
#BPMS:0.000=135.000;
#STOPS:;
#DELAYS:;
#WARPS:;
#TIMESIGNATURES:0.000=4=4;
#TICKCOUNTS:0.000=4;
#COMBOS:0.000=1;
#SPEEDS:0.000=1.000=0.000=0;
#SCROLLS:0.000=1.000;
#FAKES:;
#LABELS:0.000=Song Start;
#BGCHANGES:;
#KEYSOUNDS:;
#ATTACKS:
;

//---------------dance-single - ----------------
#NOTEDATA:;
#CHARTNAME:;
#STEPSTYPE:dance-single;
#DESCRIPTION:;
#CHARTSTYLE:;
#DIFFICULTY:Challenge;
#METER:15;
#RADARVALUES:0.640467,0.893965,0.115804,0.074445,0.798220,542.000000,528.000000,14.000000,9.000000,0.000000,0.000000,0.000000,0.000000,0.000000,0.640467,0.893965,0.115804,0.074445,0.798220,542.000000,528.000000,14.000000,9.000000,0.000000,0.000000,0.000000,0.000000,0.000000;
#CREDIT:;
#NOTES:
// measure 0
0000
0000
0000
0000
,  // measure 1
0000
0000
0000
0000
,  // measure 2
0000
0000
0000
0000
,  // measure 3
0000
0000
0000
0000
,  // measure 4
0000
0000
0100
1000
0000
0010
0010
0010
,  // measure 5
0100
0001
0000
0000
0010
0000
0000
0100
0000
0000
0000
1000
0000
0100
1000
0000
,  // measure 6
0010
1000
0000
0000
0100
0000
0000
0010
0000
0000
0001
0000
0100
0000
0001
0000
,  // measure 7
0100
0010
0000
0100
0010
0000
0100
0010
0000
0000
1000
0000
0001
0000
0100
0000
,  // measure 8
0010
1000
0000
0100
0010
0000
0001
1000
0000
0000
0010
0000
0100
0000
0001
0000
,  // measure 9
0100
0010
0000
1000
0001
0000
0100
0010
0000
0000
1000
0000
0010
0100
0000
0000
,  // measure 10
0010
2000
0000
0000
0010
0000
3000
0001
0000
0000
1000
0000
0100
0000
1000
0000
,  // measure 11
0010
0100
0000
0000
0001
0000
0000
1000
0000
0000
0010
0000
1000
0000
0100
0000
,  // measure 12
0010
0100
0000
0000
1000
0010
0100
0000
0000
0000
0100
0000
0001
0000
1000
0000
,  // measure 13
0001
0010
0000
0000
0001
0100
0010
0000
0000
0000
0010
0000
1000
0000
0001
0000
,  // measure 14
1000
0100
0000
0000
0010
0100
1000
0000
0100
0000
1100
0000
1000
0000
0001
0000
,  // measure 15
0010
0001
0000
0000
0100
0001
1000
0000
0100
0000
1100
0000
1000
0000
0001
0000
,  // measure 16
1000
0001
0000
0000
0100
0001
1000
0000
0001
0000
0101
0000
0001
0000
1000
0000
,  // measure 17
0001
0010
0000
0000
0001
0010
0100
0000
0000
0000
1100
0000
0010
0000
0100
0000
,  // measure 18
0001
0000
0000
0001
1000
0000
0100
0000
0000
0000
0010
0000
0010
0000
0010
0000
,  // measure 19
0100
1000
0000
0001
0000
0000
0001
0000
0000
0000
1000
0000
1000
0000
1000
0000
,  // measure 20
0010
0100
0000
0000
0001
0000
0001
0000
0000
0000
0010
0100
0010
0100
0010
0000
,  // measure 21
0100
1000
0000
0000
0001
0100
0001
0000
0000
0000
0100
0000
1000
0000
0100
0000
,  // measure 22
0001
0010
0000
0000
0100
0000
1000
0100
0000
0000
1000
0000
0001
0000
1000
0000
,  // measure 23
0010
0001
0000
0000
0010
0000
0000
1000
0000
0001
0100
0010
1000
0000
0001
0000
,  // measure 24
0110
0000
0000
0010
1000
0000
0000
1000
0100
0000
0000
0100
0001
0000
0000
0001
,  // measure 25
0100
0000
0000
0100
1000
0000
0000
1000
0001
0000
0000
0001
0100
0000
0000
0100
,  // measure 26
1000
0000
0000
1000
0100
0000
0000
0100
0001
0000
0000
0001
1000
0000
0000
1000
,  // measure 27
0010
0000
0000
0010
0100
0000
0010
0000
0000
0000
0010
0100
0001
0000
0100
0000
,  // measure 28
0001
0010
0100
1000
0001
0000
0011
0000
0000
0000
0001
0000
1000
0000
0100
0000
,  // measure 29
0010
0001
1000
0010
0100
0000
1010
0000
0000
0000
0100
0000
0001
0000
1000
0000
,  // measure 30
2002
0000
3003
0000
1000
0000
0100
0010
0000
0000
1000
0000
0100
0000
0001
0000
,  // measure 31
0100
1000
0000
0001
0010
0000
0001
1000
0000
0000
0100
0000
0001
0000
0100
0000
,  // measure 32
1000
0010
0000
0010
0100
0000
1000
0100
0000
0000
0001
0000
1000
0000
0010
0000
,  // measure 33
0100
0001
0000
0001
0000
0000
0010
0000
0000
0000
1000
0000
0010
0000
0001
0000
,  // measure 34
0100
0010
0000
0010
1000
0000
1000
0100
0000
0000
0010
0000
0001
0000
0100
0000
,  // measure 35
0010
0001
0000
0001
0010
0000
0010
1000
0000
0000
1001
0000
0010
0100
0010
0100
,  // measure 36
0001
0010
0001
0100
0001
0010
0100
1000
0001
0000
1000
0000
1000
0000
0001
0000
,  // measure 37
1000
0100
1000
0010
1000
0100
0010
0001
0100
0000
0001
0000
0001
0000
0100
0000
,  // measure 38
0220
0000
0000
0000
,  // measure 39
0000
0000
0000
0000
,  // measure 40
0000
0000
0000
0000
,  // measure 41
0330
0000
0000
0000
0000
0000
0000
0000
0000
0000
0000
0000
0000
1000
0001
1000
,  // measure 42
0001
0100
0000
1000
0100
0000
0001
1000
0000
0000
0010
0000
0100
0000
0011
0000
,  // measure 43
1000
0100
0010
0001
1000
0000
0001
1000
0000
0000
0001
1000
0100
0000
1100
0000
,  // measure 44
0010
1000
0010
0100
0001
0000
1000
0001
0000
0000
0100
0010
1000
0000
1001
0000
,  // measure 45
0100
0001
1000
0001
0010
0000
0100
1000
0000
0000
0010
0100
0001
0000
1001
0000
,  // measure 46
0100
0010
0000
0010
1000
0000
0100
0020
0000
0000
0001
0000
0031
0100
0010
0000
,  // measure 47
0010
0100
0000
0100
0010
0000
1000
0200
0000
0000
0010
0000
0310
0100
1000
0000
,  // measure 48
0010
1000
0000
1000
0001
0100
0010
0100
0001
1000
0010
0100
0010
1000
0001
0000
,  // measure 49
0100
0001
0100
0010
1000
0010
0100
0000
0000
0000
0010
0100
0001
0100
0010
0000
,  // measure 50
0100
0010
0100
0001
0100
0010
0100
0001
0100
0010
0100
0001
0100
0010
0100
0001
,  // measure 51
0010
0100
0010
1000
0010
0100
0010
1000
0010
0100
0010
1000
0010
0100
0010
1000
,  // measure 52
0001
0100
0001
0010
0001
0100
0001
0010
0001
0100
0001
0010
0001
0100
0001
0010
,  // measure 53
1000
0001
1000
0100
1000
0001
1000
0100
1000
0001
1000
0100
1000
0001
1000
0100
,  // measure 54
1000
0010
0000
0100
0001
0000
0010
0100
0000
0100
1000
0000
0010
0100
0010
0100
,  // measure 55
0001
0100
0000
1000
0100
0000
0001
1000
0000
0010
0001
0000
0010
1000
0010
1000
,  // measure 56
0100
0010
0000
1000
0010
0000
0001
0100
0000
0010
0001
0010
1000
0001
0100
0000
,  // measure 57
0010
1000
0000
0010
0001
0000
0010
1000
0000
0100
0000
0010
0001
0000
1000
0000
,  // measure 58
0001
0000
0000
0001
0000
0000
0001
0000
0000
0000
0100
0000
0010
0000
1000
0000
,  // measure 59
1000
0000
0000
1000
0000
0000
1000
0000
0000
0000
0010
0000
0000
0100
0000
0001
,  // measure 60
1000
0000
0010
0100
0000
0100
1000
0100
,  // measure 61
0001
1000
0000
0100
0000
0000
0100
0000
0000
0000
0001
0000
0100
0000
1000
0000
,  // measure 62
0010
0100
0000
1000
0000
0000
1000
0000
0000
0000
0100
0000
0001
0000
1000
0000
,  // measure 63
0100
0010
0000
1000
0000
0000
1000
0000
0000
0000
0010
0000
0001
0100
0020
2000
,  // measure 64
0000
0000
0000
0000
,  // measure 65
0000
0000
3030
0000
;

//---------------dance-single - ----------------
#NOTEDATA:;
#CHARTNAME:;
#STEPSTYPE:dance-single;
#DESCRIPTION:;
#CHARTSTYLE:;
#DIFFICULTY:Hard;
#METER:13;
#RADARVALUES:0.490394,0.516672,0.041359,0.033087,0.343276,415.000000,410.000000,5.000000,4.000000,0.000000,0.000000,0.000000,0.000000,0.000000,0.490394,0.516672,0.041359,0.033087,0.343276,415.000000,410.000000,5.000000,4.000000,0.000000,0.000000,0.000000,0.000000,0.000000;
#CREDIT:;
#NOTES:
0000
0000
0000
0000
,
0000
0000
0000
0000
,
0000
0000
0000
0000
,
0000
0000
0000
0000
,
0000
0000
0010
0100
0000
0001
0010
0001
,
1000
0000
0000
0000
1000
0000
0000
1000
0000
0000
0000
0000
0100
0000
0010
0000
,
0100
0000
0000
0000
0010
0000
0000
0010
0000
0000
0000
0000
0001
0000
1000
0000
,
0001
0000
0000
0100
0000
0000
0010
0000
0000
0000
1000
0000
1000
0000
1000
0000
,
0100
0010
0000
0000
0100
0000
0000
0100
0000
0000
1000
0000
0001
0000
1000
0000
,
0010
0100
0000
0010
0100
0000
0001
1000
0000
0000
0100
0000
0000
0010
0000
0000
,
0000
0001
0000
0000
0100
0000
0000
0010
0000
0000
0100
0000
0100
0000
0100
0000
,
0001
1000
0000
0000
0100
0000
0000
0010
0000
0000
0100
0000
0100
0000
0100
0000
,
1000
0001
0000
0000
0001
0000
1000
0000
0000
0000
0010
0000
0100
0000
0001
0000
,
0010
0100
0000
0000
0100
0000
0010
0000
0000
0000
0001
0000
1000
0000
0010
0000
,
1000
0100
0000
0000
0010
0000
0001
0000
0000
0000
0100
0000
0010
0000
1000
0000
,
0001
0010
0000
0000
0100
0000
1000
0000
0000
0000
0010
0000
0100
0000
0001
0000
,
1000
0001
0000
0000
0100
0000
0010
0000
0000
0000
1000
0000
0001
0000
0100
0000
,
0010
1000
0000
0000
0001
0000
0100
0000
0000
0000
0010
0000
0001
0000
0010
0000
,
1000
0000
0000
1000
0100
0000
0000
0100
1000
0000
0000
1000
0001
0000
0010
0000
,
0001
0000
0000
0001
0100
0000
0000
0100
0001
0000
0000
0001
1000
0000
0010
0000
,
1000
0000
0100
0100
0000
0010
0010
0010
,
0001
0000
0100
0100
0000
0010
0010
0010
,
1000
0010
0000
0000
0100
0000
0000
0010
0000
0000
0100
0000
0001
0000
1000
0000
,
0001
0010
0000
0000
0100
0000
0000
0010
0000
0000
0100
0000
1000
0000
0001
0000
,
0010
0011
1001
1010
,
0100
0000
0010
1000
0001
0000
0101
0000
,
0010
0000
0000
1000
0001
0000
0100
0000
0000
0000
0010
0000
0100
0000
0001
0000
,
0010
0001
0000
0100
0001
0000
1000
0001
0000
0000
0100
0000
0010
0000
1000
0000
,
0100
0010
0000
0100
1000
0000
0100
0010
0000
0000
0001
0000
1000
0000
0100
0000
,
1000
0010
0000
0000
0100
0000
0000
0001
0000
0000
0010
0000
0100
0000
1000
0000
,
0002
0003
0000
0100
0010
0100
0010
0010
,
1000
0001
1000
0000
0000
0000
0010
0000
0100
0000
0010
0000
0100
0000
0100
0000
,
0001
1000
0001
0000
1000
0000
0100
0000
0010
0000
0001
0000
0010
0000
0100
0000
,
1000
0001
0000
1000
0001
0000
1000
0001
0000
0000
0001
0000
0010
0000
0100
0000
,
1000
0010
1000
0000
0001
0000
0100
0000
0010
0000
1000
0000
0010
0000
0100
0000
,
0010
0100
0000
0010
0100
0000
0010
0100
0000
0000
0001
0000
0001
0000
0001
0000
,
1000
0100
0001
0100
0010
0100
1000
0100
,
0010
0001
0010
1000
0010
0001
0010
0100
,
2002
0000
0000
0000
,
0000
0000
0000
0000
,
0000
0000
0000
0000
,
3003
0000
0000
0000
0000
0000
0000
0000
0000
0000
0000
0000
0000
0000
1000
0001
,
1000
0001
0000
0000
0010
0000
0000
0100
0000
0000
0001
0000
0100
0000
1000
0000
,
0010
0000
0000
0000
0100
0000
0000
1000
0000
0000
0100
0000
0001
0000
0010
0000
,
1000
0000
0000
0000
0010
0000
0000
0100
0000
0000
1000
0000
0001
0000
0100
0000
,
0010
0000
0000
0000
0001
0000
0000
0010
0000
0000
1000
0000
0001
0000
0100
0000
,
0010
1000
0000
1000
0100
0000
0010
0001
0000
0000
0100
0000
1000
0000
0100
0000
,
0001
0010
0000
0010
0100
0000
1000
0001
0000
0000
0010
0000
1000
0000
0010
0000
,
0001
0100
0000
0000
0010
0000
1000
0000
0100
0000
0001
0000
0100
0000
1000
0000
,
0001
1000
0010
1000
0100
0001
0100
1000
,
0001
0010
1000
0010
0001
0010
1000
0010
,
0001
0010
1000
0010
0001
0010
1000
0010
,
0001
0100
1000
0100
0001
0100
1000
0100
,
0001
0100
1000
0100
0001
0100
1000
0100
,
0001
1000
0000
0010
0100
0000
0001
1000
0000
0000
0010
0000
0100
0000
0010
0000
,
1000
0001
0000
0100
0010
0000
1000
0001
0000
0000
0100
0000
0010
0000
0100
0000
,
0001
0010
0000
0001
0100
0000
0001
1000
0000
0000
0100
0000
0010
0000
0001
0000
,
1000
0100
0000
1000
0010
0000
1000
0001
0000
0000
0010
0000
0100
0000
1000
0000
,
0001
0000
0000
1000
0000
0000
0010
0000
0000
0000
0100
0000
0100
0000
0001
0000
,
1000
0000
0000
0010
0000
0000
0100
0000
0000
0000
0001
0000
0000
0010
0000
0010
,
0100
0000
0010
0001
0000
1000
1000
0010
,
0100
0001
0000
0100
0000
0000
0010
0000
0000
0000
0100
0000
0100
0000
0001
0000
,
0010
0000
0000
0100
0000
0000
1000
0000
0000
0000
0100
0000
0001
0000
0100
0000
,
1000
0010
0000
0000
0100
0000
0000
0001
0000
0000
0010
0000
0100
1000
0000
0001
,
0200
0000
0000
0000
,
0000
0000
0000
0300
;

//---------------dance-single - ----------------
#NOTEDATA:;
#CHARTNAME:;
#STEPSTYPE:dance-single;
#DESCRIPTION:;
#CHARTSTYLE:;
#DIFFICULTY:Medium;
#METER:10;
#RADARVALUES:0.374590,0.462285,0.016543,0.148891,0.111668,317.000000,315.000000,2.000000,18.000000,0.000000,0.000000,0.000000,0.000000,0.000000,0.374590,0.462285,0.016543,0.148891,0.111668,317.000000,315.000000,2.000000,18.000000,0.000000,0.000000,0.000000,0.000000,0.000000;
#CREDIT:;
#NOTES:
0000
0000
0000
0000
,
0000
0000
0000
0000
,
0000
0000
0000
0000
,
0000
0000
0000
0000
,
0000
0000
0100
0001
0000
0001
1000
0001
,
0010
0000
0100
0000
1000
0010
0100
0001
,
0010
0000
0100
0000
0010
0001
1000
0010
,
0100
0000
0000
0100
0000
0000
0100
0000
0000
0000
0000
0000
0000
0000
0000
0000
,
0010
1000
0000
0000
,
0100
0001
0000
0000
,
0000
1000
0000
0000
0100
0000
0000
0010
0000
0000
0001
0000
0010
0000
0100
0000
,
1000
0000
0101
0000
0010
0100
0001
0010
,
1000
0000
0010
0001
0000
0100
0010
1000
,
0100
0000
0001
0100
0000
1000
0100
0010
,
0002
0000
1000
1000
0000
0100
0103
0000
,
2000
0000
0001
0001
0000
0100
3100
0000
,
0020
0000
1000
1000
0000
0100
0130
0000
,
0200
0000
0001
0001
0000
1000
1300
0000
,
0002
0203
2300
3200
,
0302
0000
1003
0001
0000
0001
0100
0000
,
0020
0000
1030
0100
0000
0100
0010
0000
,
0200
0000
1300
0010
0000
0100
0001
0000
,
2000
0000
3001
0010
0000
0010
0100
0000
,
2000
0000
3010
0001
0000
0010
1000
0000
,
0002
0010
1000
0013
,
2000
0010
0001
3010
,
0110
0000
1000
0100
0000
0010
0001
0100
,
0010
0000
0010
0010
0000
0010
0010
0010
,
1000
0000
0100
0010
0000
0100
1000
0001
,
0100
0000
0010
0100
0000
0001
0010
0100
,
0020
0030
0000
0001
1000
0001
0100
0001
,
1000
0010
0000
1000
0100
1000
0001
1000
,
0010
0100
0001
1000
0010
0100
0001
1000
,
0001
0000
0000
1000
0000
0000
0010
0000
0000
0000
0100
0000
0001
0000
0010
0000
,
0100
0000
0000
0010
0000
0000
0001
0000
0000
0000
0100
0000
0010
0000
1000
0000
,
0001
0000
0000
1000
0000
0000
0100
0000
0000
0000
0010
0000
0001
0000
0100
0000
,
0010
0100
0001
1000
0010
0100
0001
1000
,
0100
1000
0001
0010
0100
1000
0001
0010
,
0200
0000
0000
0000
,
0000
0000
0000
0000
,
0000
0000
0000
0000
,
0300
0000
0000
0000
,
0000
1000
0000
0000
0100
0000
0000
0010
0000
0000
0000
0000
0000
0000
0000
0000
,
0000
0001
0000
0000
0100
0000
0000
0010
0000
0000
0000
0000
0000
0000
0000
0000
,
0000
1000
0000
0000
0001
0000
0000
0100
0000
0000
0000
0000
0000
0000
0000
0000
,
0010
0000
0000
0000
1000
0000
0000
0001
0000
0000
0100
0000
0010
0000
0100
0000
,
0001
0010
0000
0010
0001
0000
0001
0010
0000
0000
0000
0000
0000
0000
0000
0000
,
1000
0010
0000
0010
1000
0000
1000
0010
0000
0000
0000
0000
0100
0000
0001
0000
,
0010
0000
0100
0010
0001
1000
0010
0100
,
0010
1000
0001
0010
0000
0001
0100
0001
,
1000
0100
1000
0100
1000
0100
1000
0100
,
1000
0100
1000
0100
1000
0100
1000
0100
,
0010
0001
0010
0001
0010
0001
0010
0001
,
0010
0001
0010
0001
0010
0001
0010
0001
,
0100
0000
0000
0000
0010
0000
0000
1000
0000
0000
0000
0000
0001
0000
0000
0000
,
0100
0000
0000
0000
1000
0000
0000
0100
0000
0000
0000
0000
0001
0000
0000
0000
,
1000
0000
0000
0000
0010
0000
0000
0001
0000
0000
0000
0000
0010
0000
0000
0000
,
1000
0100
1000
0001
0000
0001
0100
0001
,
1000
0000
0000
1000
0000
0000
1000
0000
0000
0000
0100
0000
0010
0000
0100
0000
,
0010
0000
0000
0010
0000
0000
0010
0000
0000
0000
0001
0000
0000
0000
0001
0000
,
0100
0000
0100
0100
0000
0100
0010
0100
,
0010
0000
0000
0010
0000
0000
0010
0000
0000
0000
1000
0000
0001
0000
1000
0000
,
0001
0000
0000
0001
0000
0000
0001
0000
0000
0000
0001
0000
0010
0000
0100
0000
,
1000
0000
0000
1000
0000
0000
1000
0000
0000
0000
1000
0000
0100
0000
0010
0000
,
0002
0000
0000
0000
,
0000
0000
0000
0003
;

//---------------dance-double - ----------------
#NOTEDATA:;
#CHARTNAME:;
#STEPSTYPE:dance-double;
#DESCRIPTION:;
#CHARTSTYLE:;
#DIFFICULTY:Challenge;
#METER:15;
#RADARVALUES:0.602653,0.846196,0.057902,0.107532,0.698959,510.000000,503.000000,7.000000,13.000000,0.000000,0.000000,0.000000,0.000000,0.000000,0.602653,0.846196,0.057902,0.107532,0.698959,510.000000,503.000000,7.000000,13.000000,0.000000,0.000000,0.000000,0.000000,0.000000;
#CREDIT:;
#NOTES:
00000000
00000000
00000000
00000000
,
00000000
00000000
00000000
00000000
,
00000000
00000000
00000000
00000000
,
00000000
00000000
00000000
00000000
,
00000000
00000000
00001000
00000020
00000000
00000130
00001000
00010000
,
00001000
00000100
00000000
00000000
00000001
00000000
00000000
00001000
00000000
00000010
00000000
00000100
00000000
00000100
00000001
00000000
,
00000100
00000010
00000000
00000000
00000100
00000000
00000000
00001000
00000000
00000000
00010000
00000000
01000000
00000000
10000000
00000000
,
00010000
00100000
00000000
00010000
10000000
00000000
00020000
00000000
00000000
00000000
01030000
00000000
00100000
00000000
00010000
00000000
,
00001000
00000100
00000000
00001000
00010000
00000000
00100000
00010000
00000000
00000000
00001000
00000000
00000010
00000000
00000100
00000000
,
00010000
00001000
00000000
00001000
00010000
00000000
00010000
00001000
00000000
00000000
00100000
00000000
00000000
01000000
00000000
00000000
,
10000000
00010000
00000000
00000000
01000000
00000000
00000000
01000000
00000000
00000000
00100000
00000000
00010000
00000000
00001000
00000000
,
00000010
00000001
00000000
00000000
00000100
00000000
00000000
00000010
00000000
00000000
00002000
00000000
00000001
00000000
00003010
00000000
,
00000001
00000100
00000000
00000000
00000010
00000000
00001000
00000000
00000000
00000000
00000002
00000000
00001000
00000000
00000103
00000000
,
00000010
00000000
00000100
00000000
00001000
00010000
01000000
00000000
00000000
10000000
00010000
00000000
10000000
00000000
01000000
00000000
,
10000000
00100000
00000000
00000000
01000000
00000000
00100000
00000000
00000000
00000000
20000000
00000000
00010000
00000000
31000000
00000000
,
00010000
10000000
00000000
00000000
00100000
00000000
01000000
00000000
00000000
00000000
00020000
00000000
10000000
00000000
00130000
00000000
,
01000000
00010000
00000000
00000000
10000000
00000000
00100000
00000000
00000000
00000000
00010000
00000000
00001000
00000000
01000000
00000000
,
00100000
00000000
00010000
00000000
00001000
00000100
00000001
00000000
00000000
00000000
00001000
00000000
00000001
00000000
00001000
00000000
,
00000001
00000000
00000000
00000001
00000100
00000000
00000000
00000100
00000010
00000000
00000000
00000010
00001000
00000000
00000100
00000000
,
00010000
00000000
00000000
00010000
00001000
00000000
00000000
00001000
01000000
00000000
00000000
01000000
00100000
00000000
10000000
00000000
,
00010000
01000000
00010000
00000000
10000000
00000000
01000000
00000000
00000000
00000000
10000000
00000000
10000000
00000000
10000000
00000000
,
01000000
00100000
01000000
00000000
00100000
00000000
00001000
00000000
00000000
00000000
00010000
00000000
00010000
00000000
00010000
00000000
,
00001000
00000100
00000000
00001000
00000100
00000000
00000001
00001000
00000000
00000000
00000010
00000000
00000010
00000000
00000010
00000000
,
00000100
00001000
00000000
00000100
00001000
00000000
00010000
01000000
00000000
10000000
01000000
00100000
00010000
00000000
01000000
00000000
,
00200000
10000000
00310000
00001010
,
00000200
00001000
00000310
01010000
,
10010000
00000000
10000000
00010000
00000000
01000000
00001000
00000100
,
00000001
00000000
00000000
00001000
00000000
00000000
00000010
00000000
00000000
00000000
00001000
00000000
00100000
00000000
10000000
00000000
,
00010000
01000000
00000000
00010000
01000000
00000000
00010000
01000000
00000000
00000000
00100000
00000000
00100000
00000000
00100000
00000000
,
10000000
01000000
00000000
10000000
01000000
00000000
10000000
01000000
00000000
00000000
00100000
00000000
00100000
00000000
00100000
00000000
,
00022000
00033000
00000000
00010000
00001000
00000100
00000010
00010000
,
00100000
01000000
00000000
10000000
01000000
00010000
00000100
00001000
,
00000001
00000100
00000010
00001000
00000100
00000010
00000100
00010000
00001000
01000000
00100000
01000000
00010000
10000000
00100000
00000000
,
01000000
00010000
00000000
00100000
00010000
00000000
01000000
00010000
00000000
00000000
10000000
00000000
01000000
00000000
00010000
00000000
,
00001000
01000000
00000000
00001000
00010000
00000000
00001000
01000000
00000000
00000000
00010000
00000100
00001000
00000010
00000100
00000001
,
00001000
00000100
00000000
00000010
00000001
00000000
00001000
00000100
00000000
00000000
00001000
00000010
00000100
00000010
00001000
00000000
,
00000100
00010000
00001000
00010000
00000100
00000000
00010000
00001000
00100000
00001000
00010000
00000000
00001000
01000000
00100000
01000000
,
00001000
00000000
01000000
00100000
10000000
00100000
01000000
00000000
00010000
00100000
01000000
00100000
00001000
00000000
00010000
00000000
,
00022000
00000000
00000000
00000000
,
00000000
00000000
00000000
00000000
,
00000000
00000000
00000000
00000000
,
00033000
00000000
00000000
00000000
00000000
00000000
00000000
00000000
00000000
00000000
00000000
00000000
00010000
00000100
00000010
00000001
,
00000100
00000010
00000000
00000000
00001000
00000000
00000000
00000110
00000000
00000000
00000001
00000000
00001000
00000000
00000100
00000000
,
00010000
00001000
00000000
00001000
01000000
00000000
01000000
00100000
00000000
00000000
10000000
00000000
00010000
00000000
01000000
00000000
,
00100000
10000000
00000000
00000000
00010000
00000000
00000000
01100000
00000000
00000000
10000000
00000000
00100000
00000000
00010000
00000000
,
00001000
00010000
00000000
00010000
00000100
00000000
00000100
00000010
00000000
00000000
00000001
00000000
00001000
00000000
00000001
00000000
,
00000100
00000010
00000000
00010000
00001000
00000000
00000100
00000010
00000000
00000000
00000001
00000000
00001000
00000000
00000100
00000000
,
00010000
00001000
00000000
01000000
00100000
00000000
00010000
00001000
00000000
00000000
01000000
00000000
00100000
00000000
10000000
00000000
,
00010000
01000000
00000000
00100000
10000000
00000000
00010000
00000000
01000000
00100000
10000000
00100000
01000000
00010000
00100000
00000000
,
01000000
10000000
00000000
01000000
00100000
00000000
01000000
00010000
00000000
00000000
00001000
00000000
00000100
00000000
00000010
00000000
,
00001000
00000100
00000010
00000100
00001000
00000100
00000010
00000100
00001000
00000100
00000010
00000100
00001000
00000100
00000010
00000000
,
00010000
00001000
00100000
00001000
00010000
00001000
00100000
00001000
00010000
00001000
00100000
00001000
00010000
00001000
00100000
00000000
,
01000000
10000000
00010000
10000000
01000000
10000000
00010000
10000000
01000000
10000000
00010000
10000000
01000000
10000000
00010000
00000000
,
00100000
00001000
01000000
00001000
00100000
00001000
01000000
00001000
00100000
00001000
01000000
00001000
00100000
00001000
01000000
00000000
,
00001000
00010000
00000000
00000100
00001000
00000000
00000010
00000100
00000000
00000000
00000001
00000000
00001000
00000000
00000100
00000000
,
00000010
00000001
00000000
00000100
00000010
00000000
00001000
00000001
00000000
00000000
00000100
00001000
00010000
00000000
00001000
00000000
,
01000000
00100000
00000000
10000000
00100000
00000000
01000000
00010000
00000000
00100000
01000000
10000000
00100000
01000000
00010000
00000000
,
01000000
00010000
00000000
00100000
00010000
00000000
10000000
00100000
00000000
01000000
00010000
10000000
00100000
01000000
00100000
10000000
,
01000000
00000000
00000000
01000000
00000000
00000000
01000000
00000000
00000000
00000000
00010000
00000000
00001000
00000000
00000010
00000000
,
00000001
00001000
00000000
00000100
00000000
00000000
00001000
00000000
00000000
00000000
00000010
00000000
00000000
00000100
00000000
00001000
,
00010000
01000000
00000000
00000000
00010000
00000000
00001000
00000000
00000000
00000000
00100000
00000000
00100000
00000000
00100000
00000000
,
01000000
10000000
00000000
00010000
00000000
00000000
00100000
00000000
00000000
00000000
00001000
00000000
00001000
00000000
00001000
00000000
,
00010000
00000100
00000000
00001000
00000000
00000000
00000010
00000000
00000000
00000000
00000100
00000000
00000010
00000000
00000100
00000000
,
00000001
00001000
00000000
00000100
00000000
00000000
00010000
00000000
00000000
00000000
00001000
00000000
01000000
00100000
00000000
01000000
,
00200000
00000000
00000000
00000000
,
00000000
00000000
00000000
00000000
,
00300000
00000000
00000000
00000000
;

//---------------dance-single - ----------------
#NOTEDATA:;
#CHARTNAME:;
#STEPSTYPE:dance-single;
#DESCRIPTION:;
#CHARTSTYLE:;
#DIFFICULTY:Easy;
#METER:7;
#RADARVALUES:0.256423,0.407899,0.008272,0.239880,0.000000,217.000000,216.000000,1.000000,29.000000,0.000000,0.000000,0.000000,0.000000,0.000000,0.256423,0.407899,0.008272,0.239880,0.000000,217.000000,216.000000,1.000000,29.000000,0.000000,0.000000,0.000000,0.000000,0.000000;
#CREDIT:;
#NOTES:
0000
0000
0000
0000
,
0000
0000
0000
0000
,
0000
0000
0000
0000
,
0000
0000
0000
0000
,
0000
0000
0010
0100
0000
0000
0001
0000
,
0010
0001
0100
0010
,
0010
1000
0100
1000
,
1000
0000
0001
0000
0000
1000
0001
0000
,
0100
0000
0001
0000
0000
0100
0001
0000
,
0010
0000
0100
0000
0000
0010
0000
0100
,
0000
1000
0000
0000
0000
1000
0100
0010
,
0001
0100
0001
0010
,
0001
0000
1000
0001
0000
0000
0001
1000
,
0000
0000
1000
0100
0000
0000
0100
1000
,
0010
0000
0100
0001
0000
0000
0001
1000
,
0000
0000
1000
0001
0000
0000
0001
0100
,
0000
0000
0010
1000
0000
0000
1000
0100
,
0000
0000
0100
1000
0000
0000
1000
0010
,
2000
0100
0100
3100
,
0002
0100
0100
0103
,
2000
0000
0000
0000
0000
0000
3100
1000
,
0002
0000
0000
0000
0000
0000
0103
0001
,
0020
0000
0000
0000
0000
0000
0031
1000
,
0200
0000
0310
0100
,
2000
0001
0100
3001
,
0200
0310
1000
0001
,
0020
0031
0000
0001
,
2000
3010
0000
0100
,
0100
0010
0000
1000
,
0100
0100
0010
0001
,
0200
0300
0000
0000
0020
0000
0100
0000
,
0031
0000
0200
0010
,
1300
0010
0100
0001
,
0010
0010
0010
0000
,
0001
0100
0010
1000
,
0100
0010
0001
0100
,
0010
0100
0001
0100
,
0010
1000
0100
1000
,
2020
0000
0000
0000
,
0000
0000
0000
0000
,
0000
0000
0000
0000
,
3030
0000
0000
0000
,
0000
0200
0000
0300
0000
0000
0010
0000
,
0200
0301
0000
1000
,
0010
0000
0100
0000
0001
1000
0001
0000
,
0100
0000
0010
0000
1000
0001
1000
0000
,
0002
0010
0103
0000
,
2000
0010
3100
0000
,
0001
1000
0100
1000
,
0001
0010
0001
1000
,
0001
1000
0001
1000
0001
1000
0001
0000
,
1000
0001
1000
0001
1000
0001
1000
0000
,
0001
1000
0001
1000
0001
1000
0001
0000
,
1000
0001
1000
0001
1000
0001
1000
0000
,
0020
0100
0130
0000
,
0200
0010
0310
0000
,
1000
0100
0010
0001
,
0001
0100
0010
1000
,
0002
0000
0000
0000
0000
0000
0103
0010
,
0200
0000
0000
0000
0000
0000
0300
0010
,
2000
0000
0000
0000
0000
0000
3010
0100
,
0020
0000
0000
0000
0000
0000
0130
0001
,
0200
0000
0000
0000
0000
0000
0301
0010
,
0002
0000
0000
0000
0000
0000
0203
0020
,
0000
0000
0000
0000
,
0000
0000
0000
0330
;

//---------------dance-single - ----------------
#NOTEDATA:;
#CHARTNAME:;
#STEPSTYPE:dance-single;
#DESCRIPTION:;
#CHARTSTYLE:;
#DIFFICULTY:Beginner;
#METER:4;
#RADARVALUES:0.109896,0.244739,0.008272,0.090989,0.000000,93.000000,92.000000,1.000000,11.000000,0.000000,0.000000,0.000000,0.000000,0.000000,0.109896,0.244739,0.008272,0.090989,0.000000,93.000000,92.000000,1.000000,11.000000,0.000000,0.000000,0.000000,0.000000,0.000000;
#CREDIT:;
#NOTES:
0000
0000
0000
0000
,
0000
0000
0000
0000
,
0000
0000
0000
0000
,
0000
0000
0000
0000
,
0000
0100
0000
0010
,
0010
0000
0000
0000
,
1000
0000
0000
0001
,
0001
0000
0000
0000
,
0010
0000
0000
0100
,
0100
0000
0000
0000
,
2000
3000
0000
0000
,
1000
0000
0000
0100
,
0100
0000
0000
0010
,
0000
0001
0000
0000
,
0100
0000
0000
0010
,
0010
0000
0000
0100
,
0000
0001
0000
0000
,
0010
0010
0000
0000
,
0200
0000
0300
0000
,
2000
0000
3000
0000
,
0002
0000
0003
0000
,
0020
0000
0030
0000
,
0002
0000
0003
0000
,
2000
0000
3000
0000
,
0100
0100
0100
0000
,
1000
0000
0000
0000
,
0010
0000
0000
0000
,
0100
0000
0000
0100
,
0100
0000
0000
0000
,
0001
0000
0000
0000
,
0020
0030
0000
0000
,
0001
0000
0000
1000
,
1000
0000
0000
0100
,
0100
0000
0000
1000
,
1000
0000
0000
0001
,
0001
0000
0000
0000
,
0010
0000
0001
0000
,
0100
0000
0010
0000
,
2002
0000
0000
0000
,
0000
0000
0000
0000
,
0000
0000
0000
0000
,
3003
0000
0000
0000
,
0010
0000
0000
0000
,
0100
0000
0000
0000
,
1000
0000
0000
0000
,
0001
0000
0000
0000
,
0100
0100
0000
0000
,
0010
0010
0000
0000
,
0100
0000
0001
0000
,
0001
0000
0000
0000
,
0010
0010
0010
0010
,
0010
0010
0010
0010
,
0010
0010
0010
0010
,
0010
0010
0010
0010
,
0010
0000
0000
0000
,
0100
0000
0000
0000
,
1000
0000
0000
0001
,
0001
0000
0000
1000
,
1000
0000
0000
0000
,
0100
0000
0000
0000
,
0010
0000
0000
0000
,
0001
0000
0000
0000
,
0100
0000
0000
0000
,
0010
0000
0000
0000
,
2000
0000
0000
0000
,
0000
0000
0000
3000
;

//---------------dance-double - ----------------
#NOTEDATA:;
#CHARTNAME:;
#STEPSTYPE:dance-double;
#DESCRIPTION:;
#CHARTSTYLE:;
#DIFFICULTY:Hard;
#METER:13;
#RADARVALUES:0.482122,0.516672,0.016543,0.057902,0.289510,408.000000,406.000000,2.000000,7.000000,0.000000,0.000000,0.000000,0.000000,0.000000,0.482122,0.516672,0.016543,0.057902,0.289510,408.000000,406.000000,2.000000,7.000000,0.000000,0.000000,0.000000,0.000000,0.000000;
#CREDIT:;
#NOTES:
00000000
00000000
00000000
00000000
,
00000000
00000000
00000000
00000000
,
00000000
00000000
00000000
00000000
,
00000000
00000000
00000000
00000000
,
00000000
00000000
00001000
00000100
00000000
00000010
00000001
00000010
,
00000100
00000000
00000000
00000000
00000100
00000000
00000000
00000100
00000000
00000000
00000000
00001000
00000000
00000010
00001000
00000000
,
00000100
00000000
00000000
00000000
00010000
00000000
00000000
00010000
00000000
00000000
00001000
00000000
00001000
00000000
00001000
00000000
,
01000000
00000000
00000000
00100000
00000000
00000000
10000000
00000000
00000000
00000000
00100000
00000000
01000000
00000000
00010000
00000000
,
00100000
01000000
00000000
10000000
01000000
00000000
00100000
01000000
00000000
00000000
10000000
00000000
00100000
00000000
01000000
00000000
,
00010000
00000000
00000000
10000000
00000000
00000000
00100000
00000000
00000000
00000000
01000000
00000000
00010000
01000000
00000000
00000000
,
00000000
00100000
10000000
00000000
01000000
00000000
00000000
00100000
00000000
00000000
00010000
00000000
01000000
00000000
00100000
00000000
,
00010000
00001000
00000000
00000000
00010000
00000000
00000000
00000010
00000000
00000000
00000100
00000000
00000001
00000000
00000010
00000000
,
00000100
00001000
00000100
00000000
00000010
00000000
00000100
00000000
00000000
00000000
00010000
00000000
00000100
00000000
00000010
00000000
,
00000001
00000100
00000001
00000000
00000010
00000000
00000100
00000000
00000000
00000000
00001000
00000000
00000010
00000000
00001000
00000000
,
00000100
00010000
00000000
00000000
00001000
00000000
00100000
00000000
00000000
00000000
00010000
00000000
01000000
00000000
00010000
00000000
,
00100000
01000000
00000000
00000000
10000000
00000000
01000000
00000000
00000000
00000000
00100000
00000000
00010000
00000000
00100000
00000000
,
01000000
10000000
01000000
00000000
00100000
00000000
00010000
00000000
00000000
00000000
10000000
00000000
01000000
00000000
00010000
00000000
,
00001000
00010000
00000000
00000000
00010000
00001000
01000000
00001000
00000000
00000000
00010000
00000000
00000100
00000000
00001000
00000000
,
00000100
00000000
00000000
00001000
00000100
00000000
00000000
00000010
00000100
00000000
00000000
00001000
00000100
00000000
00000010
00000000
,
00000001
00000000
00000100
00000010
00000000
00000010
00010000
00000010
,
00000100
00000010
00000000
00000000
00010000
00000000
00001000
00000000
00000000
00000000
00001000
00000000
01000000
00000000
00001000
00000000
,
00100000
01000000
00000000
00000000
01000000
00000000
10000000
00000000
00000000
00000000
10000000
00000000
00100000
00000000
10000000
00000000
,
00010000
01000000
00000000
00000000
01000000
00000000
00100000
00000000
00000000
00000000
00100000
00000000
00010000
00000000
00100000
00000000
,
10000000
00010000
00000000
00000000
00010000
00000000
10000000
00000000
00000000
00000000
10000000
00000000
00100000
00000000
00010000
00000000
,
00002000
01000000
00100000
00013000
,
00020000
00001000
00000100
00030010
,
00001000
00000001
00000000
00000000
00000001
00000000
00001000
00000000
00000000
00000000
00001000
00000000
00000010
00000000
00000100
00000000
,
00000001
00000010
00000000
00000001
00000010
00000000
00000001
00000010
00000000
00000000
00000100
00000000
00001000
00000000
00000100
00000000
,
00001000
00000010
00000000
00000000
00000010
00000000
00010000
00000000
00000000
00000000
00001000
00000000
00001000
00000000
00001000
00000000
,
00010000
00000100
00000000
00000000
00000100
00000000
00010000
00000000
00000000
00000000
00001000
00000000
00100000
00000000
01000000
00000000
,
12000000
00000000
03000000
00100000
01000000
01000000
01000000
10000000
,
00100000
01000000
00020000
00000000
00000000
00000000
00130000
00000000
00001000
00000000
00001000
00000000
00001000
00000000
00010000
00000000
,
00000100
00000010
00000001
00000000
00000100
00000000
00001000
00000000
00000100
00000000
00000001
00000000
00000010
00000000
00001000
00000000
,
00000010
00000000
00000000
00000001
00000000
00000000
00000010
00000000
00000000
00000000
00000100
00000000
00001000
00000000
00000100
00000000
,
00000010
00000001
00000000
00000100
00000000
00000000
00000010
00000000
00000000
00000000
00001000
00000000
00000100
00000000
00001000
00000000
,
00000010
00010000
00000000
00001000
00000000
00000000
00000100
00000000
00000000
00000000
00001000
00000000
00010000
00000000
00100000
00000000
,
10000000
01000000
00010000
01000000
10000000
00100000
00010000
00100000
,
10000000
01000000
00100000
01000000
00010000
00001000
00000100
00001000
,
00022000
00000000
00000000
00000000
,
00000000
00000000
00000000
00000000
,
00000000
00000000
00000000
00000000
,
00033000
00000000
00000000
00000000
00000000
00000000
00000000
00000000
00000000
00000000
00000000
00000000
00000000
00100000
00010000
00100000
,
00010000
00000000
00000000
00000000
01000000
00000000
00000000
00100000
00000000
00000000
10000000
00000000
00010000
00000000
10000000
00000000
,
01000000
00000000
00000000
00000000
00010000
00000000
00000000
00001000
00000000
00000000
00000100
00000000
00000001
00000000
00001000
00000000
,
00000010
00001000
00000010
00001000
00000010
00000000
00000100
00000000
00000000
00000000
00000001
00000000
00001000
00000000
00000100
00000000
,
00000010
00000001
00000010
00000001
00000010
00000000
00000100
00000000
00000000
00000000
00001000
00000000
00000010
00000000
00010000
00000000
,
00001000
00010000
00000000
00001000
01000000
00000000
00001000
00010000
00000000
00000000
00000100
00000000
00000010
00000000
00000100
00000000
,
00010000
00000100
00000000
00010000
00001000
00000000
00010000
00000100
00000000
00000000
00010000
00000000
00001000
00000000
00010000
00000000
,
00001000
01000000
00100000
10000000
01000000
00010000
01000000
10000000
,
00010000
01000000
00100000
10000000
00100000
00010000
00100000
10000000
,
01000000
00010000
01000000
00010000
01000000
00010000
01000000
00010000
,
00001000
00010000
00001000
00010000
00001000
00010000
00001000
00010000
,
00001000
00000010
00001000
00000010
00001000
00000010
00001000
00000010
,
00000001
00001000
00000001
00001000
00000001
00001000
00000001
00001000
,
00000010
00000100
00000000
00000100
00000001
00000000
00000001
00000010
00000000
00000000
00000100
00000000
00001000
00000000
00000100
00000000
,
00000010
00000001
00000000
00000001
00001000
00000000
00001000
00000100
00000000
00000000
00010000
00000000
00001000
00000000
00010000
00000000
,
00100000
00000000
10000000
01000000
00000000
00100000
00010000
00100000
,
01000000
10000000
01000000
00100000
00000000
01000000
00010000
00001000
,
00000010
00000000
00000000
00000001
00000000
00000000
00000010
00000000
00000000
00000000
00000001
00000000
00001000
00000000
00000001
00000000
,
00000100
00000000
00000000
00001000
00000000
00000000
00000100
00000000
00000000
00000000
00001000
00000000
00000000
00010000
00000000
00000000
,
01000000
00000000
10000000
00010000
00000000
00010000
00100000
00010000
,
01000000
00000000
00000000
00100000
00000000
00000000
01000000
00000000
00000000
00000000
00010000
00000000
10000000
00000000
00010000
00000000
,
01000000
00000000
00000000
00100000
00000000
00000000
00010000
00000000
00000000
00000000
00001000
00000000
00000010
00000000
00000001
00000000
,
00001000
00000000
00000000
00000100
00000000
00000000
00000010
00000000
00000000
00000000
00001000
00000000
00010000
00100000
00000000
00100000
,
20000000
00000000
00000000
00000000
,
00000000
00000000
00000000
30000000
;

//---------------dance-double - ----------------
#NOTEDATA:;
#CHARTNAME:;
#STEPSTYPE:dance-double;
#DESCRIPTION:;
#CHARTSTYLE:;
#DIFFICULTY:Medium;
#METER:10;
#RADARVALUES:0.347412,0.516672,0.090989,0.198521,0.082717,294.000000,283.000000,11.000000,24.000000,0.000000,0.000000,0.000000,0.000000,0.000000,0.347412,0.516672,0.090989,0.198521,0.082717,294.000000,283.000000,11.000000,24.000000,0.000000,0.000000,0.000000,0.000000,0.000000;
#CREDIT:;
#NOTES:
00000000
00000000
00000000
00000000
,
00000000
00000000
00000000
00000000
,
00000000
00000000
00000000
00000000
,
00000000
00000000
00000000
00000000
,
00000000
00000000
10000000
01000000
00000000
10000000
00100000
10000000
,
00010000
00000000
00000000
00000000
01000000
00000000
00000000
00010000
00000000
00000000
00000000
00000000
00000000
00000000
00000000
00000000
,
00100000
00000000
00000000
00000000
00001000
00000000
00000000
00010000
00000000
00000000
00000000
00000000
00000000
00000000
00000000
00000000
,
00010000
00000000
00000000
00000100
00000000
00000000
00000010
00000000
00000000
00000000
00000001
00000000
00000001
00000000
00000001
00000000
,
00001000
00000000
00000000
00000000
00000100
00000000
00000000
00000010
00000000
00000000
00000100
00000000
00001000
00000000
00000100
00000000
,
00010000
00000000
00000000
00001000
00000000
00000000
00100000
00000000
00000000
00000000
01000000
00000000
00000000
10000000
00000000
00000000
,
00000000
00010000
00000000
00000000
00100000
00000000
00000000
00010000
00000000
00000000
01000000
00000000
00100000
00000000
01000000
00000000
,
00010000
00000000
00000000
00000000
10000000
00000000
00000000
00010000
00000000
00000000
00100000
00000000
01000000
00000000
00100000
00000000
,
00020000
00000000
10030000
01000000
00000000
00100000
00001000
00100000
,
00001000
00000000
00010000
00000100
00000000
00001000
00000010
00001000
,
00000020
00000000
00000130
00000001
00000000
00001000
00000010
00000100
,
00000002
00000000
00000013
00000100
00000000
00010000
00001000
00100000
,
00020000
00000000
01030000
00100000
00000000
10000000
00010000
10000000
,
00020000
00000000
00130000
01000000
00000000
10000000
01000000
10000000
,
01000000
00010000
00001000
00010000
,
02000000
13000000
00100000
00010000
,
00002000
00003000
00000010
00000001
,
00000100
00001000
00000100
00000001
,
00002000
00003000
00000000
00000000
,
00000200
00000300
00000000
00000000
,
00101000
00001000
00100000
01000000
,
20000000
30020000
10030000
01000000
,
00200000
00000000
00001000
00301000
,
00020000
00000000
00000100
00030100
,
00000010
00000000
00000000
00000000
00000001
00001000
00000001
00000000
,
00000010
00000000
00000000
00000000
00001000
00000001
00001000
00000000
,
00002200
00003300
00000000
00000100
00001000
00000100
00000010
00000100
,
00001000
00000000
00000000
00000100
00010000
00000100
00001000
00000100
,
00010000
00001000
00100000
00000000
00010000
00001000
01000000
00000000
,
01000000
00000000
00000000
00010000
00000000
00000000
01000000
00000000
00000000
00000000
00100000
00000000
10000000
00000000
00100000
00000000
,
01000000
00010000
00000000
01000000
00010000
00000000
01000000
00010000
00000000
00000000
10000000
00000000
00010000
00000000
10000000
00000000
,
01000000
10000000
00000000
01000000
10000000
00000000
01000000
10000000
00000000
00000000
00100000
00000000
01000000
00000000
00010000
00000000
,
10000000
01000000
00100000
00010000
01000000
00001000
00010000
00000100
,
00001000
00000100
00000010
00000100
00010000
00001000
00100000
00001000
,
00022000
00000000
00000000
00000000
,
00000000
00000000
00000000
00000000
,
00000000
00000000
00000000
00000000
,
00033000
00000000
00000000
00000000
00000000
00000000
00001000
01000000
,
00001000
00000000
00000000
00000000
00010000
00000000
00000000
00001000
00000000
00000000
00010000
00000000
00000100
00000000
00000000
00000000
,
00001000
00000000
00000000
00000000
00000010
00000000
00000000
00001000
00000000
00000000
00000010
00000000
00000100
00000000
00000000
00000000
,
00000001
00000000
00000010
00000001
00000000
00001000
00000100
00000000
,
00010000
00000000
00001000
00010000
00000000
00001000
01000000
00000000
,
10100000
00000000
01010000
00000000
10100000
00000000
01000000
00010000
,
00110000
00000000
11000000
00000000
00110000
00000000
01000000
00010000
,
00100000
00001000
00010000
00000100
,
00010000
00001000
00010000
00000000
00001000
00010000
00001000
00000000
,
00100000
01000000
00100000
01000000
00100000
01000000
00100000
01000000
,
00100000
01000000
00100000
01000000
00100000
00000000
00011000
00000000
,
00000010
00000100
00000010
00000100
00000010
00000100
00000010
00000100
,
00000010
00000100
00000010
00000100
00000010
00000000
00011000
00000000
,
01000000
00010000
10000000
00000000
00100000
00000000
00000000
00000000
,
00000100
00001000
00000001
00000000
00000010
00000000
00000000
00000000
,
00100000
00010000
10000000
00000000
01000000
00000000
00000000
00000000
,
00000010
00001000
00000001
00000000
00000100
00000000
00000000
00000000
,
00000002
00000000
00000000
00000000
00001003
00000100
00000010
00000001
,
00002000
00000000
00000000
00000000
00003000
00000000
00000000
00000100
,
00020000
00000000
00000000
00000000
00030000
00000000
00010000
00001000
,
00200000
00000000
00000000
00000000
00300000
00000000
01000000
10000000
,
00020000
00000000
00000000
00000000
00030000
00100000
00001000
00010000
,
00000200
00000000
00000000
00000000
00000000
00000000
00000000
00000000
00000000
00000000
00001300
00000000
00000010
00000100
00000000
00000010
,
00000200
00000000
00000000
00000000
,
00000000
00000000
00000000
00000300
;

//---------------dance-double - ----------------
#NOTEDATA:;
#CHARTNAME:;
#STEPSTYPE:dance-double;
#DESCRIPTION:;
#CHARTSTYLE:;
#DIFFICULTY:Easy;
#METER:6;
#RADARVALUES:0.248151,0.380705,0.057902,0.173706,0.000000,210.000000,203.000000,7.000000,21.000000,0.000000,0.000000,0.000000,0.000000,0.000000,0.248151,0.380705,0.057902,0.173706,0.000000,210.000000,203.000000,7.000000,21.000000,0.000000,0.000000,0.000000,0.000000,0.000000;
#CREDIT:;
#NOTES:
00000000
00000000
00000000
00000000
,
00000000
00000000
00000000
00000000
,
00000000
00000000
00000000
00000000
,
00000000
00000000
00000000
00000000
,
00000000
00000000
00000010
00000100
00000000
00000000
00000000
00000000
,
00000010
00000000
00010000
00000000
00000000
00000000
00010000
00001000
,
00010000
00001000
00000000
00001000
,
00100000
00100000
00000000
01000000
,
10000000
10000000
00000000
00000000
,
10000000
00010000
00000000
00000000
,
00000000
00200000
00000000
00300000
00000000
00000000
00000000
00000000
,
00011000
00001000
00010000
00000100
,
00001000
00000000
00000010
00001000
00000000
00001000
00000010
00000000
,
00000100
00000000
00000001
00000010
00000000
00000010
00000001
00000000
,
00002000
00003100
00000000
00000010
,
00000200
00001300
00000000
00000000
,
00000100
00010000
00001000
01000000
,
00100000
00000000
10000000
00010000
10000000
00000000
00100000
00000000
,
01000000
01000000
01000000
00000000
,
00010000
00010000
00010000
00000000
,
00200000
00300000
00000000
00000000
,
00002000
00003000
00000000
00000000
,
00010000
00000100
00010000
00000000
,
00001000
01000000
00001000
00000000
,
00020000
00030020
00000230
00000302
,
00001003
00000010
00000100
00000010
,
00010000
00000000
00001000
00010000
00001000
00000000
00100000
00000000
,
01000000
00000000
10000000
01000000
10000000
00000000
00010000
00000000
,
01000000
00000000
00010000
00000000
00100000
00001000
00100000
00000000
,
00001000
00010000
00010000
00000010
,
00000200
00000300
00000000
00000001
00001000
00000000
00000010
00000000
,
00001000
00000000
00000000
00001000
00000001
00000000
00000010
00000000
,
00000001
00000100
00000010
00010000
,
00010000
00001000
01000000
00100000
,
10000000
00000000
00010000
00000000
00100000
00010000
00100000
00000000
,
00010000
00000000
10000000
00000000
00100000
10000000
00100000
00000000
,
01000000
00010000
00100000
00000000
00010000
10000000
01000000
00000000
,
00100000
00010000
01000000
00000000
00001000
00010000
00001000
00000000
,
00022000
00000000
00000000
00000000
,
00000000
00000000
00000000
00000000
,
00000000
00000000
00000000
00000000
,
00033000
00000000
00000000
00000000
,
00000000
00020000
00000000
00030000
00000000
00000000
00001000
00000000
,
00010000
00000100
00000010
00000100
,
00001000
00000000
00000001
00000100
00000000
00000100
00000001
00000000
,
00001000
00000000
00000010
00010000
00000000
00010000
00000010
00000000
,
00000100
00000010
00000110
00000000
,
00010000
00001000
00011000
00000000
,
00100000
00000000
01000000
00000000
10000000
00010000
10000000
00000000
,
00010000
00000000
01000000
00000000
00100000
10000000
00100000
00000000
,
01000000
01000000
01000000
01000000
,
01000000
01000000
01000000
00011000
,
00000010
00000010
00000010
00000010
,
00000010
00000010
00000010
00011000
,
01000000
00010000
00000000
10000000
00000000
00000000
00000000
00000000
,
00100000
01000000
00000000
00010000
00000000
00000000
00000000
00000000
,
00001000
00010000
00000000
00001000
00000000
00000000
00000000
00000000
,
00010000
00000000
00000100
00000000
00001000
00000010
00000100
00000000
,
00000002
00000000
00000000
00000000
00000000
00000000
00000003
00000010
,
00000200
00000000
00000000
00000000
00000000
00000000
00000300
00010000
,
00002000
00000000
00000000
00000000
00000000
00000000
00013000
00001000
,
00200000
00000000
00000000
00000000
00000000
00000000
01300000
10000000
,
00020000
00000000
00000000
00000000
00000000
00000000
10030000
00010000
,
02000000
00000000
00000000
03100000
,
02200000
00000000
00000000
00000000
,
00000000
00000000
00000000
03300000
;
